<?xml version="1.0" standalone="no"?>
<!DOCTYPE svg PUBLIC "-//W3C//DTD SVG 1.1//EN" "http://www.w3.org/Graphics/SVG/1.1/DTD/svg11.dtd" >
<svg xmlns="http://www.w3.org/2000/svg" xmlns:xlink="http://www.w3.org/1999/xlink" version="1.1">
<metadata>
Created by FontForge 20170910 at Wed Dec 11 00:49:40 2013
 By Jimmy Wärting
Copyright (c) 2012 by Vyacheslav Kirilenko, Gayane Bagdasaryan. All rights reserved.
</metadata>
<defs>
<font id="Geometria-Bold" horiz-adv-x="650" >
  <font-face 
    font-family="Geometria"
    font-weight="700"
    font-stretch="normal"
    units-per-em="1000"
    panose-1="2 11 7 3 2 2 4 2 2 4"
    ascent="777"
    descent="-223"
    x-height="499"
    cap-height="700"
    bbox="-475 -270 1425 942.75"
    underline-thickness="50"
    underline-position="-100"
    unicode-range="U+0020-FB04"
  />
<missing-glyph horiz-adv-x="741" 
d="M583 0h-501v700h501v-700zM191 605v-510h283v510h-283z" />
    <glyph glyph-name="ij" unicode="ij" horiz-adv-x="574" 
d="M317 -206c-49 0 -86 7 -111 22v120c24 -13 49 -19 75 -19c51 0 76 26 76 79v503h141v-517c0 -119 -69 -188 -181 -188zM342 631c0 48 37 85 84 85s85 -37 85 -85c0 -47 -38 -84 -85 -84s-84 37 -84 84zM217 0h-141v499h141v-499zM62 631c0 48 37 85 84 85s84 -37 84 -85
c0 -47 -37 -84 -84 -84s-84 37 -84 84z" />
    <glyph glyph-name="f_f" unicode="ff" horiz-adv-x="785" 
d="M248 381v-381h-141v381h-89v118h89v47c0 99 58 166 169 166c49 0 91 -7 127 -21v-114c-29 11 -57 17 -86 17c-46 0 -69 -22 -69 -67v-28h219v47c0 99 58 166 169 166c49 0 91 -7 127 -21v-114c-29 11 -57 17 -86 17c-46 0 -69 -22 -69 -67v-28h155v-118h-155v-381h-141
v381h-219z" />
    <glyph glyph-name="fi" unicode="fi" horiz-adv-x="684" 
d="M608 0h-141v381h-219v-381h-141v381h-89v118h89v47c0 99 58 166 169 166c49 0 91 -7 127 -21v-114c-29 11 -57 17 -86 17c-46 0 -69 -22 -69 -67v-28h360v-499zM453 631c0 48 37 85 84 85s84 -37 84 -85c0 -47 -37 -84 -84 -84s-84 37 -84 84z" />
    <glyph glyph-name="fl" unicode="fl" horiz-adv-x="716" 
d="M600 -13c-77 0 -133 38 -133 138v256h-219v-381h-141v381h-89v118h89v47c0 99 58 166 169 166c49 0 91 -7 127 -21v-114c-29 11 -57 17 -86 17c-46 0 -69 -22 -69 -67v-28h219v201h141v-538c0 -33 15 -50 45 -50c14 0 26 3 36 9v-116c-24 -12 -54 -18 -89 -18z" />
    <glyph glyph-name="f_f_i" unicode="ffi" horiz-adv-x="1039" 
d="M608 381v-381h-141v381h-219v-381h-141v381h-89v118h89v47c0 99 58 166 169 166c49 0 91 -7 127 -21v-114c-29 11 -57 17 -86 17c-46 0 -69 -22 -69 -67v-28h219v47c0 99 58 166 169 166c49 0 91 -7 127 -21v-114c-29 11 -57 17 -86 17c-46 0 -69 -22 -69 -67v-28h360
v-499h-141v381h-219zM813 631c0 48 37 85 84 85s84 -37 84 -85c0 -47 -37 -84 -84 -84s-84 37 -84 84z" />
    <glyph glyph-name="f_f_l" unicode="ffl" horiz-adv-x="1076" 
d="M608 381v-381h-141v381h-219v-381h-141v381h-89v118h89v47c0 99 58 166 169 166c49 0 91 -7 127 -21v-114c-29 11 -57 17 -86 17c-46 0 -69 -22 -69 -67v-28h219v47c0 99 58 166 169 166c49 0 91 -7 127 -21v-114c-29 11 -57 17 -86 17c-46 0 -69 -22 -69 -67v-28h219
v201h141v-538c0 -33 15 -50 45 -50c14 0 26 3 36 9v-116c-24 -12 -54 -18 -89 -18c-77 0 -133 38 -133 138v256h-219z" />
    <glyph glyph-name=".notdef" horiz-adv-x="741" 
d="M583 0h-501v700h501v-700zM191 605v-510h283v510h-283z" />
    <glyph glyph-name="NULL" horiz-adv-x="0" 
 />
    <glyph glyph-name="CR" horiz-adv-x="333" 
 />
    <glyph glyph-name="space" unicode=" " horiz-adv-x="256" 
 />
    <glyph glyph-name="exclam" unicode="!" horiz-adv-x="333" 
d="M80 76c0 49 39 87 87 87s86 -38 86 -87c0 -48 -38 -87 -86 -87s-87 39 -87 87zM221 233h-109l-31 467h172z" />
    <glyph glyph-name="quotedbl" unicode="&#x22;" horiz-adv-x="391" 
d="M156 403h-121v297h121v-297zM358 403h-122v297h122v-297z" />
    <glyph glyph-name="numbersign" unicode="#" horiz-adv-x="774" 
d="M257 0h-110l26 167h-138l17 109h138l24 148h-138l16 109h139l27 167h110l-27 -167h150l27 167h109l-26 -167h139l-18 -109h-138l-24 -148h139l-17 -109h-139l-27 -167h-109l27 167h-151zM324 424l-24 -148h150l24 148h-150z" />
    <glyph glyph-name="dollar" unicode="$" horiz-adv-x="629" 
d="M376 -109h-130v99c-81 9 -149 33 -203 71v150c29 -25 67 -47 116 -66c49 -18 97 -27 144 -27c76 0 135 28 135 81c0 25 -12 47 -36 58c-13 8 -20 11 -40 18l-24 8l-56 17l-52 17c-10 3 -26 9 -47 17s-36 15 -45 21c-19 13 -53 37 -66 61c-12 24 -24 58 -24 98
c0 107 74 176 198 195v100h130v-99c55 -7 110 -25 165 -54v-140c-71 44 -147 66 -227 66c-79 0 -119 -23 -119 -69c0 -23 14 -37 37 -48c13 -7 38 -16 57 -21s55 -15 76 -22c67 -21 105 -40 152 -73s70 -82 70 -146c0 -113 -86 -191 -211 -211v-101z" />
    <glyph glyph-name="percent" unicode="%" horiz-adv-x="818" 
d="M251 0h-101l418 700h101zM489 287c33 33 76 49 127 49s94 -16 127 -49s50 -73 50 -122s-17 -89 -50 -122s-76 -49 -127 -49s-94 16 -127 49s-50 73 -50 122s17 89 50 122zM558 107c15 -15 35 -23 58 -23s42 8 57 23c31 31 31 85 0 116c-15 15 -34 23 -57 23
s-43 -8 -58 -23c-29 -31 -29 -85 0 -116zM74 657c33 33 76 49 127 49s94 -16 127 -49s50 -73 50 -122s-17 -89 -50 -122s-76 -49 -127 -49s-94 16 -127 49s-50 73 -50 122s17 89 50 122zM143 477c15 -15 35 -23 58 -23s42 8 57 23c31 31 31 85 0 116c-15 15 -34 23 -57 23
s-43 -8 -58 -23c-29 -31 -29 -85 0 -116z" />
    <glyph glyph-name="ampersand" unicode="&#x26;" horiz-adv-x="751" 
d="M513 663v-135c-55 42 -109 63 -164 63c-53 0 -91 -33 -91 -76c0 -12 3 -24 9 -36c12 -23 22 -33 55 -66l175 -174c23 35 36 83 38 143h135c-3 -87 -28 -166 -77 -236l148 -146h-178l-58 55c-62 -46 -132 -69 -210 -69c-75 0 -136 20 -185 59c-49 40 -73 95 -73 166
c0 48 12 90 36 125c25 35 52 60 83 75c-25 33 -37 71 -37 112c0 55 19 100 58 136c39 37 89 55 151 55c69 0 131 -17 185 -51zM304 109c40 0 76 13 108 39l-175 173c-32 -15 -62 -57 -62 -104c0 -68 54 -108 129 -108z" />
    <glyph glyph-name="quotesingle" unicode="'" horiz-adv-x="189" 
d="M156 403h-121v297h121v-297z" />
    <glyph glyph-name="parenleft" unicode="(" horiz-adv-x="388" 
d="M359 -206h-144c-96 121 -144 273 -144 456c0 181 48 333 144 456h144c-106 -136 -159 -288 -159 -456s53 -320 159 -456z" />
    <glyph glyph-name="parenright" unicode=")" horiz-adv-x="388" 
d="M173 -206h-144c106 136 159 288 159 456s-53 320 -159 456h144c96 -123 144 -275 144 -456c0 -183 -48 -335 -144 -456z" />
    <glyph glyph-name="asterisk" unicode="*" horiz-adv-x="421" 
d="M252 329h-85l3 117l-100 -61l-43 74l103 56l-103 56l43 74l100 -62l-3 117h85l-3 -117l99 62l43 -74l-104 -56l104 -56l-43 -74l-99 61z" />
    <glyph glyph-name="plus" unicode="+" horiz-adv-x="641" 
d="M384 77h-128v191h-190v126h190v192h128v-192h191v-126h-191v-191z" />
    <glyph glyph-name="comma" unicode="," horiz-adv-x="280" 
d="M122 -152h-116l86 303h151z" />
    <glyph glyph-name="hyphen" unicode="-" horiz-adv-x="501" 
d="M405 214h-309v127h309v-127z" />
    <glyph glyph-name="period" unicode="." horiz-adv-x="263" 
d="M132 -11c-49 0 -87 39 -87 88c0 48 38 86 87 86c48 0 87 -38 87 -86c0 -49 -39 -88 -87 -88z" />
    <glyph glyph-name="slash" unicode="/" horiz-adv-x="533" 
d="M121 -140h-141l421 932h141z" />
    <glyph glyph-name="zero" unicode="0" horiz-adv-x="705" 
d="M353 -14c-62 0 -116 17 -163 52c-93 69 -139 183 -139 312c0 65 11 124 34 178c47 109 144 186 268 186c92 0 165 -36 219 -107c55 -71 82 -157 82 -257s-27 -186 -82 -257c-54 -71 -127 -107 -219 -107zM238 187c29 -44 67 -66 115 -66s86 22 114 66c29 45 43 99 43 163
s-14 118 -43 162c-28 45 -66 67 -114 67s-86 -22 -115 -67c-29 -44 -43 -98 -43 -162s14 -118 43 -163z" />
    <glyph glyph-name="one" unicode="1" horiz-adv-x="390" 
d="M309 0h-141v546l-148 -75v141l164 88h125v-700z" />
    <glyph glyph-name="two" unicode="2" horiz-adv-x="578" 
d="M533 0h-498v105l206 187c47 43 79 77 97 104c19 27 28 55 28 85c0 60 -48 98 -120 98c-66 0 -129 -27 -189 -80v148c57 45 125 67 204 67c67 0 125 -20 174 -59s74 -91 74 -155c0 -49 -11 -93 -33 -131c-21 -38 -60 -82 -115 -133l-120 -110h292v-126z" />
    <glyph glyph-name="three" unicode="3" horiz-adv-x="577" 
d="M252 -14c-83 0 -154 19 -213 56v137c62 -43 130 -64 205 -64c83 0 146 44 146 117c0 67 -54 114 -139 114c-33 0 -66 -6 -99 -19v95l167 154h-258v124h442v-108l-158 -145c50 -9 94 -32 132 -69s57 -85 57 -146c0 -75 -27 -134 -81 -179s-121 -67 -201 -67z" />
    <glyph glyph-name="four" unicode="4" horiz-adv-x="641" 
d="M514 0h-140v175h-351v104l349 421h142v-409h103v-116h-103v-175zM374 519l-192 -228h192v228z" />
    <glyph glyph-name="five" unicode="5" horiz-adv-x="587" 
d="M246 -14c-74 0 -140 17 -199 50v135c59 -37 123 -56 193 -56c88 0 155 42 155 117c0 69 -60 116 -156 116c-55 0 -111 -10 -168 -30l46 382h374v-124h-268l-15 -119c22 5 44 7 67 7c77 0 140 -21 189 -64c50 -43 75 -99 75 -168c0 -77 -28 -137 -85 -181
c-56 -43 -125 -65 -208 -65z" />
    <glyph glyph-name="six" unicode="6" horiz-adv-x="638" 
d="M334 -14c-176 0 -279 124 -279 328c0 207 104 400 321 400c60 0 113 -15 158 -45v-130c-44 30 -91 45 -142 45c-57 0 -103 -18 -136 -54s-51 -81 -55 -136c37 43 91 65 163 65c64 0 117 -21 160 -62s64 -95 64 -164c0 -73 -24 -132 -73 -178c-48 -46 -108 -69 -181 -69z
M325 110c71 0 120 49 120 120c0 68 -51 117 -120 117c-55 0 -108 -37 -128 -88c4 -95 52 -149 128 -149z" />
    <glyph glyph-name="seven" unicode="7" horiz-adv-x="567" 
d="M233 0h-153l286 571h-331v129h494v-111z" />
    <glyph glyph-name="eight" unicode="8" horiz-adv-x="637" 
d="M468 373c77 -28 130 -94 130 -174c0 -66 -27 -118 -81 -156c-53 -38 -119 -57 -198 -57s-145 19 -199 57s-81 90 -81 156c0 80 53 146 130 174c-61 28 -98 82 -98 147c0 57 23 104 70 140s107 54 178 54s129 -18 176 -54s71 -83 71 -140c0 -65 -37 -119 -98 -147z
M210 506c0 -51 48 -87 109 -87s108 36 108 87c0 52 -47 88 -108 88s-109 -36 -109 -88zM449 208c0 59 -55 102 -130 102s-131 -43 -131 -102c0 -57 56 -101 131 -101s130 44 130 101z" />
    <glyph glyph-name="nine" unicode="9" horiz-adv-x="638" 
d="M304 714c176 0 279 -124 279 -328c0 -207 -104 -400 -321 -400c-60 0 -113 15 -158 45v130c44 -30 91 -45 142 -45c57 0 102 18 135 54s52 81 56 136c-37 -43 -91 -65 -163 -65c-64 0 -117 20 -160 61s-64 96 -64 165c0 73 24 132 72 178c49 46 109 69 182 69zM313 590
c-71 0 -120 -49 -120 -120c0 -68 51 -117 120 -117c55 0 108 37 128 89c-4 95 -52 148 -128 148z" />
    <glyph glyph-name="colon" unicode=":" horiz-adv-x="263" 
d="M132 319c-49 0 -87 39 -87 88c0 48 38 86 87 86c48 0 87 -38 87 -86c0 -49 -39 -88 -87 -88zM132 -11c-49 0 -87 39 -87 88c0 48 38 86 87 86c48 0 87 -38 87 -86c0 -49 -39 -88 -87 -88z" />
    <glyph glyph-name="semicolon" unicode=";" horiz-adv-x="285" 
d="M122 -152h-116l86 303h151zM161 319c-49 0 -87 39 -87 88c0 48 38 86 87 86c48 0 87 -38 87 -86c0 -49 -39 -88 -87 -88z" />
    <glyph glyph-name="less" unicode="&#x3c;" horiz-adv-x="641" 
d="M575 194v-137l-509 206v133l509 207v-137l-363 -136z" />
    <glyph glyph-name="equal" unicode="=" horiz-adv-x="641" 
d="M575 381h-509v127h509v-127zM575 154h-509v128h509v-128z" />
    <glyph glyph-name="greater" unicode="&#x3e;" horiz-adv-x="641" 
d="M575 263l-509 -206v137l363 136l-363 136v137l509 -207v-133z" />
    <glyph glyph-name="question" unicode="?" horiz-adv-x="491" 
d="M283 233h-134v148c44 9 83 24 118 47s52 48 52 77c0 53 -48 80 -115 80c-57 0 -117 -19 -179 -56v126c57 39 124 59 202 59c65 0 121 -18 167 -54c47 -35 70 -84 70 -146c0 -49 -18 -91 -54 -126s-78 -60 -127 -75v-80zM219 -11c-49 0 -87 39 -87 88c0 48 38 86 87 86
c48 0 87 -38 87 -86c0 -49 -39 -88 -87 -88z" />
    <glyph glyph-name="at" unicode="@" horiz-adv-x="940" 
d="M471 -162c-122 0 -225 41 -309 124s-126 187 -126 314c0 123 42 227 127 311c85 85 187 127 308 127c123 0 226 -40 309 -120s125 -177 125 -292c0 -75 -17 -136 -51 -181c-33 -45 -77 -67 -132 -67c-67 0 -114 24 -143 72c-28 -40 -81 -76 -153 -76
c-58 0 -106 21 -144 64c-37 43 -56 97 -56 160s19 116 56 159s85 65 142 65s104 -22 139 -65v53h121v-284c0 -67 23 -100 69 -100c31 0 57 18 80 54s34 85 34 146c0 103 -37 192 -110 266s-168 111 -286 111c-115 0 -210 -39 -285 -118c-75 -78 -112 -173 -112 -285
c0 -113 37 -209 112 -286c75 -78 170 -117 285 -117c73 0 145 20 217 60v-39c-65 -37 -137 -56 -217 -56zM462 159c45 0 78 19 101 56v118c-23 37 -56 56 -101 56c-63 0 -108 -50 -108 -115s45 -115 108 -115z" />
    <glyph glyph-name="A" unicode="A" horiz-adv-x="770" 
d="M167 0h-151l300 704h138l300 -704h-153l-69 162h-296zM384 524l-103 -243h205z" />
    <glyph glyph-name="B" unicode="B" horiz-adv-x="716" 
d="M429 0h-352v700h329c128 0 212 -63 212 -175c0 -71 -40 -119 -88 -139c39 -8 72 -29 100 -62s42 -74 42 -125c0 -59 -22 -107 -66 -144s-103 -55 -177 -55zM221 307v-183h181c71 0 114 32 114 91s-43 92 -114 92h-181zM221 580v-154h162c60 0 96 28 96 76
c0 49 -36 78 -96 78h-162z" />
    <glyph glyph-name="C" unicode="C" horiz-adv-x="677" 
d="M432 -14c-109 0 -199 34 -271 102c-72 69 -108 156 -108 262c0 107 36 194 107 262c72 68 163 102 272 102c69 0 130 -15 185 -44v-145c-54 36 -115 54 -184 54c-67 0 -122 -22 -167 -65c-44 -43 -66 -97 -66 -164s23 -122 68 -165s102 -64 171 -64c76 0 140 20 192 61
v-145c-57 -34 -123 -51 -199 -51z" />
    <glyph glyph-name="D" unicode="D" horiz-adv-x="776" 
d="M339 0h-262v700h262c113 0 206 -33 277 -98s107 -149 107 -252s-36 -188 -107 -253s-164 -97 -277 -97zM221 571v-442h106c156 0 248 82 248 221s-92 221 -248 221h-106z" />
    <glyph glyph-name="E" unicode="E" horiz-adv-x="640" 
d="M602 0h-525v700h514v-129h-370v-135h298v-127h-298v-180h381v-129z" />
    <glyph glyph-name="F" unicode="F" horiz-adv-x="628" 
d="M221 0h-144v700h513v-129h-369v-142h285v-127h-285v-302z" />
    <glyph glyph-name="G" unicode="G" horiz-adv-x="767" 
d="M426 -14c-106 0 -195 34 -266 102c-71 69 -107 156 -107 262c0 107 36 194 107 262s162 102 271 102c81 0 151 -18 210 -53v-142c-65 40 -131 60 -200 60c-71 0 -129 -21 -174 -64c-45 -42 -67 -98 -67 -168c0 -69 22 -125 65 -166s97 -62 161 -62c61 0 108 15 141 46
v241h144v-309c-29 -31 -69 -58 -120 -79s-106 -32 -165 -32z" />
    <glyph glyph-name="H" unicode="H" horiz-adv-x="758" 
d="M221 0h-144v700h144v-262h316v262h143v-700h-143v307h-316v-307z" />
    <glyph glyph-name="I" unicode="I" horiz-adv-x="307" 
d="M225 0h-143v700h143v-700z" />
    <glyph glyph-name="J" unicode="J" horiz-adv-x="510" 
d="M196 -14c-73 0 -129 14 -168 41v142c40 -32 86 -48 138 -48c89 0 133 38 133 133v446h143v-470c0 -185 -114 -244 -246 -244z" />
    <glyph glyph-name="K" unicode="K" horiz-adv-x="706" 
d="M221 0h-144v700h144v-276l258 276h176l-297 -321l348 -379h-184l-301 323v-323z" />
    <glyph glyph-name="L" unicode="L" horiz-adv-x="603" 
d="M576 0h-499v700h144v-571h355v-129z" />
    <glyph glyph-name="M" unicode="M" horiz-adv-x="846" 
d="M221 0h-144v700h143l203 -290l203 290h142v-700h-142v479l-161 -225h-80l-164 225v-479z" />
    <glyph glyph-name="N" unicode="N" horiz-adv-x="771" 
d="M218 0h-141v700h123l353 -448v448h140v-700h-119l-356 450v-450z" />
    <glyph glyph-name="O" unicode="O" horiz-adv-x="832" 
d="M261 186c41 -43 93 -65 155 -65s113 22 154 65s62 98 62 164s-21 121 -62 164s-92 65 -154 65s-114 -22 -155 -65s-61 -98 -61 -164s20 -121 61 -164zM53 350c0 102 34 188 103 258c69 71 156 106 260 106s190 -35 259 -106c69 -70 104 -156 104 -258
c0 -101 -35 -187 -104 -258s-155 -106 -259 -106s-191 35 -260 106s-103 157 -103 258z" />
    <glyph glyph-name="P" unicode="P" horiz-adv-x="659" 
d="M221 0h-144v700h306c75 0 135 -20 178 -59c44 -39 66 -89 66 -152s-22 -114 -66 -153c-43 -39 -103 -59 -178 -59h-162v-277zM221 574v-174h152c69 0 110 31 110 87s-41 87 -110 87h-152z" />
    <glyph glyph-name="Q" unicode="Q" horiz-adv-x="832" 
d="M398 -12c-100 4 -183 41 -248 110s-97 153 -97 252c0 102 34 188 103 258c69 71 156 106 260 106s190 -35 259 -106c69 -70 104 -156 104 -258c0 -75 -20 -143 -60 -204c-39 -60 -92 -104 -159 -131c27 -34 62 -51 107 -51c30 0 58 7 83 21v-121
c-33 -15 -69 -23 -106 -23c-79 0 -161 49 -246 147zM261 186c41 -43 93 -65 155 -65s113 22 154 65s62 98 62 164s-21 121 -62 164s-92 65 -154 65s-114 -22 -155 -65s-61 -98 -61 -164s20 -121 61 -164z" />
    <glyph glyph-name="R" unicode="R" horiz-adv-x="730" 
d="M221 0h-144v700h324c74 0 133 -19 176 -58c43 -38 65 -88 65 -149c0 -93 -54 -166 -145 -194l216 -299h-167l-204 283h-121v-283zM221 574v-170h172c65 0 104 30 104 85c0 53 -39 85 -104 85h-172z" />
    <glyph glyph-name="S" unicode="S" horiz-adv-x="629" 
d="M309 -14c-105 0 -194 25 -266 75v150c29 -25 67 -47 116 -66c49 -18 97 -27 144 -27c76 0 135 28 135 81c0 25 -12 47 -36 58c-13 8 -20 11 -40 18l-24 8l-56 17l-52 17c-10 3 -26 9 -47 17s-36 15 -45 21c-19 13 -53 37 -66 61c-12 24 -24 58 -24 98c0 62 24 111 71 146
c47 36 112 54 193 54s158 -19 229 -58v-140c-71 44 -147 66 -227 66c-79 0 -119 -23 -119 -69c0 -23 14 -37 37 -48c13 -7 38 -16 57 -21s55 -15 76 -22c67 -21 105 -40 152 -73s70 -82 70 -146c0 -67 -26 -120 -79 -159s-119 -58 -199 -58z" />
    <glyph glyph-name="T" unicode="T" horiz-adv-x="647" 
d="M30 571v129h587v-129h-222v-571h-144v571h-221z" />
    <glyph glyph-name="U" unicode="U" horiz-adv-x="735" 
d="M367 -14c-87 0 -159 27 -215 81s-84 130 -84 227v406h143v-411c0 -111 64 -168 156 -168c93 0 157 57 157 168v411h144v-406c0 -97 -28 -173 -85 -227c-56 -54 -128 -81 -216 -81z" />
    <glyph glyph-name="V" unicode="V" horiz-adv-x="760" 
d="M448 -4h-136l-294 704h159l204 -504l205 504h156z" />
    <glyph glyph-name="W" unicode="W" horiz-adv-x="1075" 
d="M383 -4h-127l-235 704h160l144 -472l158 474h112l159 -474l144 472h157l-236 -704h-127l-153 467z" />
    <glyph glyph-name="X" unicode="X" horiz-adv-x="725" 
d="M48 700h168l147 -209l149 209h166l-231 -322l272 -378h-168l-190 261l-189 -261h-166l273 377z" />
    <glyph glyph-name="Y" unicode="Y" horiz-adv-x="696" 
d="M420 0h-143v314l-271 386h170l174 -249l175 249h165l-270 -383v-317z" />
    <glyph glyph-name="Z" unicode="Z" horiz-adv-x="641" 
d="M608 0h-575v102l364 469h-347v129h542v-101l-363 -470h379v-129z" />
    <glyph glyph-name="bracketleft" unicode="[" horiz-adv-x="429" 
d="M393 -206h-314v912h314v-111h-186v-690h186v-111z" />
    <glyph glyph-name="backslash" unicode="\" horiz-adv-x="532" 
d="M553 -140h-141l-421 932h141z" />
    <glyph glyph-name="bracketright" unicode="]" horiz-adv-x="429" 
d="M36 706h314v-912h-314v111h186v690h-186v111z" />
    <glyph glyph-name="asciicircum" unicode="^" horiz-adv-x="550" 
d="M168 339h-134l174 399h134l174 -399h-133l-108 278z" />
    <glyph glyph-name="underscore" unicode="_" horiz-adv-x="645" 
d="M641 -149h-637v95h637v-95z" />
    <glyph glyph-name="grave" unicode="`" horiz-adv-x="521" 
d="M133 722h171l95 -146h-122z" />
    <glyph glyph-name="a" unicode="a" horiz-adv-x="602" 
d="M544 109c12 0 22 2 29 6v-103c-18 -14 -43 -21 -76 -21c-57 0 -94 21 -113 64c-44 -45 -101 -68 -172 -68c-108 0 -184 66 -184 167c0 53 19 94 58 122s85 42 139 42c56 0 104 -10 144 -31v15c0 63 -44 94 -132 94c-53 0 -104 -14 -151 -42v118c51 27 112 40 185 40
c71 0 129 -17 172 -52c44 -35 66 -83 66 -144v-169c0 -25 12 -38 35 -38zM369 147v50c-29 19 -63 29 -104 29c-60 0 -98 -24 -98 -65c0 -44 37 -65 89 -65c49 0 87 17 113 51z" />
    <glyph glyph-name="b" unicode="b" horiz-adv-x="644" 
d="M374 -13c-72 0 -127 25 -164 74v-61h-141v700h141v-262c39 49 93 74 164 74c68 0 124 -25 168 -76c45 -50 67 -112 67 -186c0 -75 -22 -137 -67 -188c-44 -50 -100 -75 -168 -75zM334 110c39 0 72 13 97 40s38 60 38 100c0 39 -13 72 -38 99s-58 40 -97 40
c-55 0 -101 -31 -124 -74v-130c23 -43 69 -75 124 -75z" />
    <glyph glyph-name="c" unicode="c" horiz-adv-x="516" 
d="M307 -13c-74 0 -138 24 -191 72c-53 49 -80 113 -80 192s27 142 80 189c54 48 118 72 193 72c55 0 104 -11 148 -33v-120c-43 20 -86 30 -127 30c-44 0 -81 -13 -111 -39c-29 -25 -44 -59 -44 -100s15 -75 45 -101s67 -39 110 -39c51 0 96 11 135 34v-120
c-47 -25 -99 -37 -158 -37z" />
    <glyph glyph-name="d" unicode="d" horiz-adv-x="645" 
d="M271 -13c-68 0 -124 25 -169 75c-44 51 -66 113 -66 188c0 74 22 136 66 186c45 51 101 76 169 76c71 0 125 -25 164 -74v262h141v-700h-141v61c-37 -49 -92 -74 -164 -74zM311 110c55 0 101 32 124 75v130c-23 43 -69 74 -124 74c-39 0 -72 -13 -97 -40s-38 -60 -38 -99
c0 -40 13 -73 38 -100s58 -40 97 -40z" />
    <glyph glyph-name="e" unicode="e" horiz-adv-x="573" 
d="M313 -13c-78 0 -144 24 -197 72s-80 112 -80 191c0 74 24 136 72 186c48 51 111 76 188 76c73 0 130 -26 173 -77s65 -113 65 -187v-37h-358c15 -68 79 -104 167 -104c56 0 109 15 160 44v-113c-45 -34 -108 -51 -190 -51zM176 301h219c-3 55 -42 100 -105 100
c-64 0 -107 -41 -114 -100z" />
    <glyph glyph-name="f" unicode="f" horiz-adv-x="425" 
d="M248 381v-381h-141v381h-89v118h89v47c0 99 58 166 169 166c49 0 91 -7 127 -21v-114c-29 11 -57 17 -86 17c-46 0 -69 -22 -69 -67v-28h155v-118h-155z" />
    <glyph glyph-name="g" unicode="g" horiz-adv-x="638" 
d="M433 441v58h141v-441c0 -183 -148 -264 -289 -264c-82 0 -147 14 -196 43v127c53 -32 114 -48 181 -48c77 0 163 29 163 135v31c-39 -47 -94 -71 -165 -71c-68 0 -124 24 -167 72s-65 108 -65 179s22 130 65 178s99 72 167 72c71 0 126 -24 165 -71zM309 133
c55 0 101 29 124 68v120c-23 39 -69 68 -124 68c-79 0 -132 -55 -132 -128s55 -128 132 -128z" />
    <glyph glyph-name="h" unicode="h" horiz-adv-x="618" 
d="M210 318v-318h-141v700h141v-262c45 49 101 74 167 74c116 0 182 -78 182 -206v-306h-141v277c0 77 -43 106 -95 106c-44 0 -89 -28 -113 -65z" />
    <glyph glyph-name="i" unicode="i" horiz-adv-x="293" 
d="M217 0h-141v499h141v-499zM62 631c0 48 37 85 84 85s84 -37 84 -85c0 -47 -37 -84 -84 -84s-84 37 -84 84z" />
    <glyph glyph-name="j" unicode="j" horiz-adv-x="293" 
d="M36 -206c-49 0 -86 7 -111 22v120c24 -13 49 -19 75 -19c51 0 76 26 76 79v503h141v-517c0 -119 -69 -188 -181 -188zM61 631c0 48 37 85 84 85s85 -37 85 -85c0 -47 -38 -84 -85 -84s-84 37 -84 84z" />
    <glyph glyph-name="k" unicode="k" horiz-adv-x="599" 
d="M210 0h-141v700h141v-383l172 182h173l-217 -225l251 -274h-182l-197 215v-215z" />
    <glyph glyph-name="l" unicode="l" horiz-adv-x="318" 
d="M202 -13c-77 0 -133 38 -133 138v575h141v-538c0 -33 15 -50 45 -50c14 0 26 3 36 9v-116c-24 -12 -54 -18 -89 -18z" />
    <glyph glyph-name="m" unicode="m" horiz-adv-x="926" 
d="M210 0h-141v499h141v-61c37 49 88 74 152 74c75 0 134 -38 155 -85c33 49 100 85 172 85c107 0 178 -69 178 -200v-312h-141v280c0 69 -28 103 -83 103c-43 0 -85 -29 -104 -68v-315h-141v280c0 69 -28 103 -83 103c-41 0 -85 -29 -105 -66v-317z" />
    <glyph glyph-name="n" unicode="n" horiz-adv-x="618" 
d="M210 318v-318h-141v499h141v-60c45 49 100 73 167 73c116 0 182 -78 182 -206v-306h-141v277c0 77 -43 106 -95 106c-44 0 -89 -28 -113 -65z" />
    <glyph glyph-name="o" unicode="o" horiz-adv-x="625" 
d="M214 150c26 -27 59 -40 99 -40s73 13 99 40s39 60 39 100s-13 73 -39 99c-26 27 -59 40 -99 40s-73 -13 -99 -40c-26 -26 -39 -59 -39 -99s13 -73 39 -100zM36 250c0 74 26 136 78 186c52 51 118 76 199 76s147 -25 199 -76s78 -113 78 -186c0 -75 -26 -137 -78 -188
c-52 -50 -118 -75 -199 -75s-147 25 -199 75c-52 51 -78 113 -78 188z" />
    <glyph glyph-name="p" unicode="p" horiz-adv-x="644" 
d="M374 512c68 0 124 -25 168 -76c45 -50 67 -112 67 -187c0 -74 -22 -136 -67 -187c-44 -50 -100 -75 -168 -75c-71 0 -125 25 -164 74v-261h-141v699h141v-61c37 49 92 74 164 74zM334 389c-55 0 -101 -32 -124 -75v-130c23 -43 69 -74 124 -74c39 0 72 13 97 40
s38 60 38 99c0 40 -13 73 -38 100s-58 40 -97 40z" />
    <glyph glyph-name="q" unicode="q" horiz-adv-x="645" 
d="M271 512c72 0 127 -25 164 -74v61h141v-699h-141v261c-39 -49 -93 -74 -164 -74c-68 0 -124 25 -169 75c-44 51 -66 113 -66 187c0 75 22 137 66 187c45 51 101 76 169 76zM311 389c-39 0 -72 -13 -97 -40s-38 -60 -38 -100c0 -39 13 -72 38 -99s58 -40 97 -40
c55 0 101 31 124 74v130c-23 43 -69 75 -124 75z" />
    <glyph glyph-name="r" unicode="r" horiz-adv-x="423" 
d="M210 0h-141v499h141v-84c15 26 38 49 70 68s67 29 104 29c7 0 12 0 16 -1v-138c-12 3 -27 5 -44 5c-68 0 -126 -42 -146 -87v-291z" />
    <glyph glyph-name="s" unicode="s" horiz-adv-x="512" 
d="M253 -13c-89 0 -159 16 -210 47v125c44 -29 123 -57 204 -57c57 0 86 14 86 42c0 13 -6 23 -25 31c-9 4 -18 7 -26 9l-37 9c-17 5 -31 8 -40 11c-115 31 -162 67 -162 155c0 95 83 153 220 153c75 0 138 -15 187 -46v-120c-60 35 -120 52 -181 52c-53 0 -80 -13 -80 -40
c0 -17 13 -24 28 -33c11 -4 31 -9 43 -13l53 -11c108 -25 163 -71 163 -158c0 -47 -20 -84 -61 -113s-95 -43 -162 -43z" />
    <glyph glyph-name="t" unicode="t" horiz-adv-x="441" 
d="M116 155v226h-98v118h98v137h141v-137h142v-118h-142v-198c0 -49 20 -70 68 -70c25 0 49 6 73 18v-117c-29 -18 -68 -27 -119 -27c-109 0 -163 56 -163 168z" />
    <glyph glyph-name="u" unicode="u" horiz-adv-x="619" 
d="M409 181v318h141v-499h-141v60c-45 -49 -100 -73 -167 -73c-116 0 -182 78 -182 206v306h141v-277c0 -77 43 -106 95 -106c44 0 89 28 113 65z" />
    <glyph glyph-name="v" unicode="v" horiz-adv-x="589" 
d="M358 -4h-128l-217 503h152l132 -324l131 324h147z" />
    <glyph glyph-name="w" unicode="w" horiz-adv-x="827" 
d="M308 -4h-120l-169 503h141l99 -297l98 299h113l101 -299l97 297h140l-171 -503h-122l-104 301z" />
    <glyph glyph-name="x" unicode="x" horiz-adv-x="581" 
d="M34 499h158l100 -140l101 140h156l-175 -238l190 -261h-158l-116 160l-117 -160h-156l191 260z" />
    <glyph glyph-name="y" unicode="y" horiz-adv-x="579" 
d="M134 -206c-41 0 -75 7 -100 20v123c23 -13 49 -20 76 -20c51 0 82 31 111 100l-215 482h152l132 -328l125 328h149l-231 -551c-44 -103 -110 -154 -199 -154z" />
    <glyph glyph-name="z" unicode="z" horiz-adv-x="526" 
d="M493 0h-461v93l252 288h-236v118h429v-96l-253 -285h269v-118z" />
    <glyph glyph-name="braceleft" unicode="{" horiz-adv-x="409" 
d="M373 -206h-80c-103 0 -167 64 -167 167v111c0 77 -14 115 -77 122v112c64 7 77 41 77 117v116c0 103 64 167 167 167h80v-111h-50c-43 0 -69 -28 -69 -71v-142c0 -72 -27 -116 -80 -132c53 -16 80 -60 80 -132v-142c0 -43 26 -71 69 -71h50v-111z" />
    <glyph glyph-name="bar" unicode="|" horiz-adv-x="346" 
d="M236 -111h-126v871h126v-871z" />
    <glyph glyph-name="braceright" unicode="}" horiz-adv-x="409" 
d="M116 -206h-80v111h50c43 0 69 28 69 71v142c0 72 27 116 80 132c-53 16 -80 60 -80 132v142c0 43 -26 71 -69 71h-50v111h80c103 0 167 -64 167 -167v-116c0 -76 13 -110 77 -117v-112c-63 -7 -77 -45 -77 -122v-111c0 -103 -64 -167 -167 -167z" />
    <glyph glyph-name="asciitilde" unicode="~" horiz-adv-x="629" 
d="M444 169c-32 0 -75 9 -130 27s-98 27 -130 27c-49 0 -89 -15 -118 -46v126c19 25 67 43 118 43c33 0 76 -9 130 -27c55 -18 98 -27 130 -27c51 0 90 15 119 46v-127c-20 -25 -68 -42 -119 -42z" />
    <glyph glyph-name="nbspace" unicode="&#xa0;" horiz-adv-x="256" 
 />
    <glyph glyph-name="exclamdown" unicode="&#xa1;" horiz-adv-x="333" 
d="M221 266l32 -466h-172l31 466h109zM80 424c0 48 39 86 87 86s86 -38 86 -86c0 -49 -38 -88 -86 -88s-87 39 -87 88z" />
    <glyph glyph-name="cent" unicode="&#xa2;" horiz-adv-x="516" 
d="M242 504v112h119v-108c33 -4 65 -14 96 -29v-121c-43 20 -86 30 -127 30c-44 0 -81 -13 -111 -38c-29 -25 -44 -59 -44 -100s15 -75 45 -101s67 -39 110 -39c51 0 96 11 135 34v-120c-34 -18 -69 -29 -104 -34v-107h-119v111c-59 13 -109 43 -148 88
c-39 46 -58 102 -58 169s19 122 58 166c39 45 88 74 148 87z" />
    <glyph glyph-name="sterling" unicode="&#xa3;" horiz-adv-x="602" 
d="M557 0h-510v129h14c56 0 67 21 67 82v71h-81v111h81v82c0 149 97 239 253 239c63 0 116 -12 160 -35v-134c-42 23 -88 34 -137 34c-88 0 -132 -41 -132 -124v-62h225v-111h-225v-91c0 -29 -10 -50 -29 -62h314v-129z" />
    <glyph glyph-name="currency" unicode="&#xa4;" horiz-adv-x="575" 
d="M466 232l66 -66l-61 -61l-65 66c-73 -49 -167 -49 -240 0l-65 -66l-61 61l66 66c-48 71 -48 167 0 238l-66 66l61 61l65 -66c73 49 167 49 240 0l65 66l61 -61l-66 -66c48 -71 48 -167 0 -238zM206 270c22 -22 49 -33 80 -33s58 11 79 33c22 23 33 50 33 81
s-11 58 -33 80c-21 23 -48 34 -79 34s-58 -11 -80 -34c-21 -22 -32 -49 -32 -80s11 -58 32 -81z" />
    <glyph glyph-name="yen" unicode="&#xa5;" horiz-adv-x="673" 
d="M69 129v94h196v70h-196v95h156l-215 312h162l166 -250l167 250h157l-215 -312h158v-95h-197v-70h197v-94h-197v-129h-143v129h-196z" />
    <glyph glyph-name="brokenbar" unicode="&#xa6;" horiz-adv-x="346" 
d="M236 -111h-126v353h126v-353zM236 407h-126v353h126v-353z" />
    <glyph glyph-name="section" unicode="&#xa7;" horiz-adv-x="646" 
d="M312 -166c-83 0 -157 18 -223 53v130c76 -39 152 -59 229 -59c69 0 104 18 104 53c0 17 -14 34 -39 43c-13 7 -22 11 -42 16l-26 8l-60 18c-70 21 -124 46 -162 74c-37 29 -56 68 -56 119c0 59 33 103 100 132c-40 31 -60 70 -60 117c0 55 23 98 70 129s109 47 186 47
c81 0 156 -18 223 -53v-131c-77 40 -153 60 -228 60c-70 0 -105 -18 -105 -53c0 -19 15 -32 35 -43c13 -7 41 -15 57 -20c17 -5 56 -15 76 -22c67 -20 108 -37 152 -68c44 -29 66 -72 66 -125c0 -60 -40 -107 -100 -132c40 -30 60 -69 60 -117c0 -55 -24 -98 -71 -129
s-109 -47 -186 -47zM367 195l44 -14c44 10 66 32 66 65c0 24 -14 40 -41 53c-15 8 -20 11 -43 18c-11 4 -19 7 -25 8l-55 18c-40 12 -66 20 -78 25c-45 -11 -67 -34 -67 -67c0 -23 15 -38 41 -52c15 -7 23 -11 43 -18l25 -8l55 -17c5 -1 16 -5 35 -11z" />
    <glyph glyph-name="dieresis" unicode="&#xa8;" horiz-adv-x="521" 
d="M428 590c-28 -28 -76 -28 -105 0c-28 29 -28 77 0 105c29 28 77 28 105 0c29 -28 29 -76 0 -105zM156 569c-40 0 -74 33 -74 74c0 40 34 73 74 73c41 0 74 -32 74 -73s-33 -74 -74 -74z" />
    <glyph glyph-name="copyright" unicode="&#xa9;" horiz-adv-x="830" 
d="M53 350c0 99 35 185 106 256c71 72 156 108 257 108s186 -36 256 -107s105 -157 105 -257c0 -99 -35 -185 -106 -257c-71 -71 -156 -107 -257 -107s-186 36 -256 107s-105 157 -105 257zM440 150c-59 0 -109 19 -149 58s-60 87 -60 142c0 56 20 103 60 141
c40 39 90 58 149 58c38 0 72 -8 101 -23v-85c-32 19 -66 29 -101 29c-68 0 -121 -51 -121 -120c0 -35 12 -63 36 -86s54 -34 89 -34c41 0 76 11 105 33v-85c-31 -19 -68 -28 -109 -28zM414 20c92 0 169 32 232 97s95 143 95 234s-31 169 -94 233s-140 96 -231 96
s-169 -32 -232 -97s-95 -143 -95 -234s31 -168 94 -233c63 -64 140 -96 231 -96z" />
    <glyph glyph-name="ordfeminine" unicode="&#xaa;" horiz-adv-x="443" 
d="M282 432v40c-25 16 -54 24 -86 24c-48 0 -79 -20 -79 -52c0 -36 29 -53 72 -53c39 0 70 14 93 41zM404 398c9 0 16 2 21 5v-71c-13 -9 -30 -13 -52 -13c-43 0 -70 16 -81 49c-34 -35 -78 -53 -131 -53c-80 0 -138 48 -138 124c0 79 66 122 147 122c41 0 79 -9 112 -26v16
c0 51 -34 77 -103 77c-40 0 -78 -11 -113 -32v80c36 21 81 31 136 31c104 0 174 -54 174 -146v-131c0 -21 9 -32 28 -32z" />
    <glyph glyph-name="guillemotleft" unicode="&#xab;" horiz-adv-x="590" 
d="M310 35h-141l-137 179v71l137 179h141l-161 -214zM559 35h-142l-137 179v71l137 179h142l-162 -214z" />
    <glyph glyph-name="logicalnot" unicode="&#xac;" horiz-adv-x="595" 
d="M529 138h-126v160h-337v127h463v-287z" />
    <glyph glyph-name="uni00AD" unicode="&#xad;" horiz-adv-x="501" 
d="M405 214h-309v127h309v-127z" />
    <glyph glyph-name="registered" unicode="&#xae;" horiz-adv-x="830" 
d="M53 350c0 99 35 185 106 256c71 72 156 108 257 108s186 -36 256 -107s105 -157 105 -257c0 -99 -35 -185 -106 -257c-71 -71 -156 -107 -257 -107s-186 36 -256 107s-105 157 -105 257zM347 168h-85v383h179c81 0 133 -47 133 -115c0 -51 -29 -91 -78 -106l118 -162h-95
l-111 152h-61v-152zM347 479v-89h90c34 0 51 14 51 43s-19 46 -51 46h-90zM414 20c92 0 169 32 232 97s95 143 95 234s-31 169 -94 233s-140 96 -231 96s-169 -32 -232 -97s-95 -143 -95 -234s31 -168 94 -233c63 -64 140 -96 231 -96z" />
    <glyph glyph-name="overscore" unicode="&#xaf;" horiz-adv-x="507" 
d="M405 595h-307v95h307v-95z" />
    <glyph glyph-name="degree" unicode="&#xb0;" horiz-adv-x="394" 
d="M121 556c0 -43 33 -78 76 -78s76 35 76 78c0 44 -33 78 -76 78s-76 -34 -76 -78zM357 556c0 -43 -16 -80 -48 -111c-31 -31 -69 -46 -112 -46s-81 15 -113 46c-31 31 -47 68 -47 111s16 80 47 111c32 31 70 47 113 47s81 -16 112 -47c32 -31 48 -68 48 -111z" />
    <glyph glyph-name="plusminus" unicode="&#xb1;" horiz-adv-x="641" 
d="M384 210h-128v163h-190v126h190v167h128v-167h191v-126h-191v-163zM575 19h-509v126h509v-126z" />
    <glyph glyph-name="twosuperior" unicode="&#xb2;" horiz-adv-x="356" 
d="M319 322h-281v69l108 92c48 41 65 66 65 93s-23 43 -56 43c-36 0 -71 -13 -104 -39v95c31 21 68 32 112 32c38 0 71 -11 100 -33c29 -21 44 -50 44 -86c0 -55 -20 -90 -80 -143l-48 -43h140v-80z" />
    <glyph glyph-name="threesuperior" unicode="&#xb3;" horiz-adv-x="328" 
d="M144 315c-47 0 -88 10 -122 30v88c37 -23 75 -34 114 -34c40 0 72 20 72 51c0 29 -24 49 -65 49c-25 0 -45 -4 -61 -11v59l87 73h-136v80h253v-71l-80 -69c51 -11 98 -44 98 -112c0 -40 -16 -72 -47 -97c-31 -24 -68 -36 -113 -36z" />
    <glyph glyph-name="acute" unicode="&#xb4;" horiz-adv-x="458" 
d="M262 570h-122l95 146h170z" />
    <glyph glyph-name="mu" unicode="&#xb5;" horiz-adv-x="628" 
d="M418 181v318h141v-499h-141v60c-45 -49 -100 -73 -167 -73c-16 0 -30 1 -41 4v-191h-141v699h141v-277c0 -77 43 -106 95 -106c44 0 89 28 113 65z" />
    <glyph glyph-name="paragraph" unicode="&#xb6;" horiz-adv-x="572" 
d="M495 0h-144v288h-79c-73 0 -132 19 -175 57c-43 39 -64 88 -64 149s21 111 64 149s101 57 175 57h223v-700z" />
    <glyph glyph-name="middot" unicode="&#xb7;" horiz-adv-x="263" 
d="M132 300c-49 0 -87 39 -87 88c0 48 38 86 87 86c48 0 87 -38 87 -86c0 -49 -39 -88 -87 -88z" />
    <glyph glyph-name="cedilla" unicode="&#xb8;" horiz-adv-x="503" 
d="M271 -145h-163l117 156h113z" />
    <glyph glyph-name="onesuperior" unicode="&#xb9;" horiz-adv-x="252" 
d="M214 322h-96v280l-101 -51v94l105 55h92v-378z" />
    <glyph glyph-name="ordmasculine" unicode="&#xba;" horiz-adv-x="449" 
d="M225 404c60 0 103 46 103 107c0 60 -43 106 -103 106c-61 0 -104 -45 -104 -106s43 -107 104 -107zM19 511c0 55 19 102 58 139c39 38 89 57 148 57s108 -19 147 -57c39 -37 58 -84 58 -139c0 -56 -19 -103 -58 -140s-88 -56 -147 -56s-109 19 -148 56s-58 84 -58 140z
" />
    <glyph glyph-name="guillemotright" unicode="&#xbb;" horiz-adv-x="589" 
d="M172 35h-141l161 215l-161 214h141l137 -179v-71zM420 35h-141l161 215l-161 214h141l137 -179v-71z" />
    <glyph glyph-name="onequarter" unicode="&#xbc;" horiz-adv-x="765" 
d="M207 0h-108l422 700h108zM214 322h-96v280l-101 -51v94l105 55h92v-378zM696 0h-92v90h-190v68l185 220h97v-214h54v-74h-54v-90zM604 272l-93 -108h93v108z" />
    <glyph glyph-name="onehalf" unicode="&#xbd;" horiz-adv-x="806" 
d="M207 0h-108l422 700h108zM214 322h-96v280l-101 -51v94l105 55h92v-378zM769 0h-281v69l108 92c48 41 65 66 65 93s-23 43 -56 43c-36 0 -71 -13 -104 -39v95c31 21 68 32 112 32c38 0 71 -11 100 -33c29 -21 44 -50 44 -86c0 -55 -20 -90 -80 -143l-48 -43h140v-80z" />
    <glyph glyph-name="threequarters" unicode="&#xbe;" horiz-adv-x="808" 
d="M739 0h-92v90h-190v68l185 220h97v-214h54v-74h-54v-90zM647 272l-93 -108h93v108zM144 315c-47 0 -88 10 -122 30v88c37 -23 75 -34 114 -34c40 0 72 20 72 51c0 29 -24 49 -65 49c-25 0 -45 -4 -61 -11v59l87 73h-136v80h253v-71l-80 -69c51 -11 98 -44 98 -112
c0 -40 -16 -72 -47 -97c-31 -24 -68 -36 -113 -36zM251 0h-108l422 700h108z" />
    <glyph glyph-name="questiondown" unicode="&#xbf;" horiz-adv-x="491" 
d="M272 510c49 0 87 -39 87 -88c0 -48 -38 -86 -87 -86c-48 0 -87 38 -87 86c0 49 39 88 87 88zM208 266h134v-141c-44 -9 -83 -24 -118 -47c-35 -22 -52 -47 -52 -76c0 -53 48 -79 115 -79c57 0 117 19 179 56v-126c-57 -39 -124 -59 -202 -59c-65 0 -121 18 -168 55
c-46 36 -69 86 -69 149c0 48 18 88 53 121s78 58 128 74v73z" />
    <glyph glyph-name="Agrave" unicode="&#xc0;" horiz-adv-x="770" 
d="M167 0h-151l300 704h138l300 -704h-153l-69 162h-296zM384 524l-103 -243h205zM185 907h170l95 -146h-122z" />
    <glyph glyph-name="Aacute" unicode="&#xc1;" horiz-adv-x="770" 
d="M167 0h-151l300 704h138l300 -704h-153l-69 162h-296zM384 524l-103 -243h205zM447 761h-122l95 146h170z" />
    <glyph glyph-name="Acircumflex" unicode="&#xc2;" horiz-adv-x="770" 
d="M167 0h-151l300 704h138l300 -704h-153l-69 162h-296zM384 524l-103 -243h205zM319 762h-122l122 145h136l119 -145h-123l-67 77z" />
    <glyph glyph-name="Atilde" unicode="&#xc3;" horiz-adv-x="770" 
d="M167 0h-151l300 704h138l300 -704h-153l-69 162h-296zM384 524l-103 -243h205zM280 765h-77c1 79 47 140 114 140c20 0 44 -7 71 -22s48 -22 61 -22c23 0 37 14 43 41h76c0 -37 -11 -70 -32 -99c-21 -28 -48 -42 -81 -42c-21 0 -45 7 -72 22s-48 23 -61 23
c-23 0 -37 -14 -42 -41z" />
    <glyph glyph-name="Adieresis" unicode="&#xc4;" horiz-adv-x="770" 
d="M167 0h-151l300 704h138l300 -704h-153l-69 162h-296zM384 524l-103 -243h205zM548 781c-28 -28 -76 -28 -105 0c-28 29 -28 77 0 105c29 28 77 28 105 0s28 -76 0 -105zM276 760c-40 0 -74 33 -74 74c0 40 34 73 74 73c41 0 74 -32 74 -73s-33 -74 -74 -74z" />
    <glyph glyph-name="Aring" unicode="&#xc5;" horiz-adv-x="770" 
d="M167 0h-151l300 704h138l300 -704h-153l-69 162h-296zM384 524l-103 -243h205zM459 764c-41 -41 -107 -41 -148 0s-41 107 0 148s107 41 148 0s41 -107 0 -148zM352 805c19 -17 48 -17 65 0c19 19 19 48 0 65c-17 19 -46 19 -65 0c-17 -17 -17 -46 0 -65z" />
    <glyph glyph-name="AE" unicode="&#xc6;" horiz-adv-x="1058" 
d="M646 309v-180h374v-129h-518v162h-250l-90 -162h-158l395 700h610v-129h-363v-135h291v-127h-291zM502 575h-19l-164 -294h183v294z" />
    <glyph glyph-name="Ccedilla" unicode="&#xc7;" horiz-adv-x="677" 
d="M432 -145h-163l101 136c-93 13 -170 52 -229 117c-59 66 -88 147 -88 242c0 107 36 194 107 262c72 68 163 102 272 102c69 0 130 -15 185 -44v-145c-54 36 -115 54 -184 54c-67 0 -122 -22 -167 -65c-44 -43 -66 -97 -66 -164s23 -122 68 -165s102 -64 171 -64
c76 0 140 20 192 61v-145c-41 -24 -88 -40 -141 -47z" />
    <glyph glyph-name="Egrave" unicode="&#xc8;" horiz-adv-x="640" 
d="M602 0h-525v700h514v-129h-370v-135h298v-127h-298v-180h381v-129zM153 907h170l95 -146h-122z" />
    <glyph glyph-name="Eacute" unicode="&#xc9;" horiz-adv-x="640" 
d="M602 0h-525v700h514v-129h-370v-135h298v-127h-298v-180h381v-129zM366 761h-122l95 146h170z" />
    <glyph glyph-name="Ecircumflex" unicode="&#xca;" horiz-adv-x="640" 
d="M602 0h-525v700h514v-129h-370v-135h298v-127h-298v-180h381v-129zM272 762h-122l122 145h136l119 -145h-123l-67 77z" />
    <glyph glyph-name="Edieresis" unicode="&#xcb;" horiz-adv-x="640" 
d="M602 0h-525v700h514v-129h-370v-135h298v-127h-298v-180h381v-129zM502 781c-28 -28 -76 -28 -105 0c-28 29 -28 77 0 105c29 28 77 28 105 0s28 -76 0 -105zM230 760c-40 0 -74 33 -74 74c0 40 34 73 74 73c41 0 74 -32 74 -73s-33 -74 -74 -74z" />
    <glyph glyph-name="Igrave" unicode="&#xcc;" horiz-adv-x="307" 
d="M225 0h-143v700h143v-700zM-48 907h170l95 -146h-122z" />
    <glyph glyph-name="Iacute" unicode="&#xcd;" horiz-adv-x="307" 
d="M225 0h-143v700h143v-700zM215 761h-122l95 146h170z" />
    <glyph glyph-name="Icircumflex" unicode="&#xce;" horiz-adv-x="307" 
d="M87 762h-122l122 145h136l119 -145h-123l-67 77zM225 0h-143v700h143v-700z" />
    <glyph glyph-name="Idieresis" unicode="&#xcf;" horiz-adv-x="307" 
d="M225 0h-143v700h143v-700zM316 781c-28 -28 -76 -28 -105 0c-28 29 -28 77 0 105c29 28 77 28 105 0s28 -76 0 -105zM44 760c-40 0 -74 33 -74 74c0 40 34 73 74 73c41 0 74 -32 74 -73s-33 -74 -74 -74z" />
    <glyph glyph-name="Eth" unicode="&#xd0;" horiz-adv-x="830" 
d="M393 0h-262v306h-96v121h96v273h262c114 0 206 -33 277 -98s107 -149 107 -252s-36 -188 -107 -253s-163 -97 -277 -97zM275 306v-177h106c156 0 248 82 248 221s-92 221 -248 221h-106v-144h138v-121h-138z" />
    <glyph glyph-name="Ntilde" unicode="&#xd1;" horiz-adv-x="771" 
d="M218 0h-141v700h123l353 -448v448h140v-700h-119l-356 450v-450zM280 765h-77c1 79 47 140 114 140c20 0 44 -7 71 -22s48 -22 61 -22c23 0 37 14 43 41h76c0 -37 -11 -70 -32 -99c-21 -28 -48 -42 -81 -42c-21 0 -45 7 -72 22s-48 23 -61 23c-23 0 -37 -14 -42 -41z" />
    <glyph glyph-name="Ograve" unicode="&#xd2;" horiz-adv-x="832" 
d="M261 186c41 -43 93 -65 155 -65s113 22 154 65s62 98 62 164s-21 121 -62 164s-92 65 -154 65s-114 -22 -155 -65s-61 -98 -61 -164s20 -121 61 -164zM53 350c0 102 34 188 103 258c69 71 156 106 260 106s190 -35 259 -106c69 -70 104 -156 104 -258
c0 -101 -35 -187 -104 -258s-155 -106 -259 -106s-191 35 -260 106s-103 157 -103 258zM214 907h170l95 -146h-122z" />
    <glyph glyph-name="Oacute" unicode="&#xd3;" horiz-adv-x="832" 
d="M261 186c41 -43 93 -65 155 -65s113 22 154 65s62 98 62 164s-21 121 -62 164s-92 65 -154 65s-114 -22 -155 -65s-61 -98 -61 -164s20 -121 61 -164zM53 350c0 102 34 188 103 258c69 71 156 106 260 106s190 -35 259 -106c69 -70 104 -156 104 -258
c0 -101 -35 -187 -104 -258s-155 -106 -259 -106s-191 35 -260 106s-103 157 -103 258zM465 761h-122l95 146h170z" />
    <glyph glyph-name="Ocircumflex" unicode="&#xd4;" horiz-adv-x="832" 
d="M261 186c41 -43 93 -65 155 -65s113 22 154 65s62 98 62 164s-21 121 -62 164s-92 65 -154 65s-114 -22 -155 -65s-61 -98 -61 -164s20 -121 61 -164zM53 350c0 102 34 188 103 258c69 71 156 106 260 106s190 -35 259 -106c69 -70 104 -156 104 -258
c0 -101 -35 -187 -104 -258s-155 -106 -259 -106s-191 35 -260 106s-103 157 -103 258zM350 762h-122l122 145h136l119 -145h-123l-67 77z" />
    <glyph glyph-name="Otilde" unicode="&#xd5;" horiz-adv-x="832" 
d="M261 186c41 -43 93 -65 155 -65s113 22 154 65s62 98 62 164s-21 121 -62 164s-92 65 -154 65s-114 -22 -155 -65s-61 -98 -61 -164s20 -121 61 -164zM53 350c0 102 34 188 103 258c69 71 156 106 260 106s190 -35 259 -106c69 -70 104 -156 104 -258
c0 -101 -35 -187 -104 -258s-155 -106 -259 -106s-191 35 -260 106s-103 157 -103 258zM311 765h-77c1 79 47 140 114 140c20 0 44 -7 71 -22s48 -22 61 -22c23 0 37 14 43 41h76c0 -37 -11 -70 -32 -99c-21 -28 -48 -42 -81 -42c-21 0 -45 7 -72 22s-48 23 -61 23
c-23 0 -37 -14 -42 -41z" />
    <glyph glyph-name="Odieresis" unicode="&#xd6;" horiz-adv-x="832" 
d="M261 186c41 -43 93 -65 155 -65s113 22 154 65s62 98 62 164s-21 121 -62 164s-92 65 -154 65s-114 -22 -155 -65s-61 -98 -61 -164s20 -121 61 -164zM53 350c0 102 34 188 103 258c69 71 156 106 260 106s190 -35 259 -106c69 -70 104 -156 104 -258
c0 -101 -35 -187 -104 -258s-155 -106 -259 -106s-191 35 -260 106s-103 157 -103 258zM579 781c-28 -28 -76 -28 -105 0c-28 29 -28 77 0 105c29 28 77 28 105 0s28 -76 0 -105zM307 760c-40 0 -74 33 -74 74c0 40 34 73 74 73c41 0 74 -32 74 -73s-33 -74 -74 -74z" />
    <glyph glyph-name="multiply" unicode="&#xd7;" horiz-adv-x="600" 
d="M301 242l-146 -145l-89 89l146 145l-146 146l89 89l145 -145l146 145l88 -89l-144 -146l144 -145l-88 -89z" />
    <glyph glyph-name="Oslash" unicode="&#xd8;" horiz-adv-x="832" 
d="M416 -14c-74 0 -140 19 -198 56l-34 -42h-112l80 97c-66 69 -99 154 -99 253c0 102 34 188 103 258c69 71 156 106 260 106c71 0 137 -19 197 -56l35 42h114l-81 -98c65 -69 98 -153 98 -252c0 -101 -35 -187 -104 -258s-155 -106 -259 -106zM200 350
c0 -53 14 -101 43 -142l282 342c-33 19 -69 29 -109 29c-62 0 -114 -22 -155 -65s-61 -98 -61 -164zM416 121c62 0 113 22 154 65s62 98 62 164c0 53 -14 99 -43 140l-282 -341c33 -19 70 -28 109 -28z" />
    <glyph glyph-name="Ugrave" unicode="&#xd9;" horiz-adv-x="735" 
d="M367 -14c-87 0 -159 27 -215 81s-84 130 -84 227v406h143v-411c0 -111 64 -168 156 -168c93 0 157 57 157 168v411h144v-406c0 -97 -28 -173 -85 -227c-56 -54 -128 -81 -216 -81zM171 907h170l95 -146h-122z" />
    <glyph glyph-name="Uacute" unicode="&#xda;" horiz-adv-x="735" 
d="M367 -14c-87 0 -159 27 -215 81s-84 130 -84 227v406h143v-411c0 -111 64 -168 156 -168c93 0 157 57 157 168v411h144v-406c0 -97 -28 -173 -85 -227c-56 -54 -128 -81 -216 -81zM423 761h-122l95 146h170z" />
    <glyph glyph-name="Ucircumflex" unicode="&#xdb;" horiz-adv-x="735" 
d="M367 -14c-87 0 -159 27 -215 81s-84 130 -84 227v406h143v-411c0 -111 64 -168 156 -168c93 0 157 57 157 168v411h144v-406c0 -97 -28 -173 -85 -227c-56 -54 -128 -81 -216 -81zM302 762h-122l122 145h136l119 -145h-123l-67 77z" />
    <glyph glyph-name="Udieresis" unicode="&#xdc;" horiz-adv-x="735" 
d="M367 -14c-87 0 -159 27 -215 81s-84 130 -84 227v406h143v-411c0 -111 64 -168 156 -168c93 0 157 57 157 168v411h144v-406c0 -97 -28 -173 -85 -227c-56 -54 -128 -81 -216 -81zM530 781c-28 -28 -76 -28 -105 0c-28 29 -28 77 0 105c29 28 77 28 105 0s28 -76 0 -105z
M258 760c-40 0 -74 33 -74 74c0 40 34 73 74 73c41 0 74 -32 74 -73s-33 -74 -74 -74z" />
    <glyph glyph-name="Yacute" unicode="&#xdd;" horiz-adv-x="696" 
d="M420 0h-143v314l-271 386h170l174 -249l175 249h165l-270 -383v-317zM401 761h-122l95 146h170z" />
    <glyph glyph-name="Thorn" unicode="&#xde;" horiz-adv-x="668" 
d="M77 700h144v-139h171c75 0 135 -20 178 -59c44 -39 66 -89 66 -152s-22 -114 -66 -153c-43 -39 -103 -59 -178 -59h-171v-138h-144v700zM382 435h-161v-174h161c69 0 110 31 110 87s-41 87 -110 87z" />
    <glyph glyph-name="germandbls" unicode="&#xdf;" horiz-adv-x="626" 
d="M374 -9c-40 0 -70 4 -91 12v113c19 -7 40 -11 63 -11c65 0 108 40 108 103c0 71 -53 114 -140 114h-18v102h17c59 0 93 30 93 81s-37 81 -93 81c-61 0 -103 -41 -103 -114v-472h-141v473c0 74 22 132 67 175s104 64 175 64c72 0 128 -18 169 -55c41 -36 61 -81 61 -136
c0 -72 -38 -123 -83 -139c72 -20 133 -88 133 -188c0 -131 -89 -203 -217 -203z" />
    <glyph glyph-name="agrave" unicode="&#xe0;" horiz-adv-x="602" 
d="M544 109c12 0 22 2 29 6v-103c-18 -14 -43 -21 -76 -21c-57 0 -94 21 -113 64c-44 -45 -101 -68 -172 -68c-108 0 -184 66 -184 167c0 53 19 94 58 122s85 42 139 42c56 0 104 -10 144 -31v15c0 63 -44 94 -132 94c-53 0 -104 -14 -151 -42v118c51 27 112 40 185 40
c71 0 129 -17 172 -52c44 -35 66 -83 66 -144v-169c0 -25 12 -38 35 -38zM369 197c-29 19 -63 29 -104 29c-60 0 -98 -24 -98 -65c0 -44 37 -65 89 -65c49 0 87 17 113 51v50zM105 722h171l95 -146h-122z" />
    <glyph glyph-name="aacute" unicode="&#xe1;" horiz-adv-x="602" 
d="M544 109c12 0 22 2 29 6v-103c-18 -14 -43 -21 -76 -21c-57 0 -94 21 -113 64c-44 -45 -101 -68 -172 -68c-108 0 -184 66 -184 167c0 53 19 94 58 122s85 42 139 42c56 0 104 -10 144 -31v15c0 63 -44 94 -132 94c-53 0 -104 -14 -151 -42v118c51 27 112 40 185 40
c71 0 129 -17 172 -52c44 -35 66 -83 66 -144v-169c0 -25 12 -38 35 -38zM369 197c-29 19 -63 29 -104 29c-60 0 -98 -24 -98 -65c0 -44 37 -65 89 -65c49 0 87 17 113 51v50zM315 570h-122l95 146h170z" />
    <glyph glyph-name="acircumflex" unicode="&#xe2;" horiz-adv-x="602" 
d="M544 109c12 0 22 2 29 6v-103c-18 -14 -43 -21 -76 -21c-57 0 -94 21 -113 64c-44 -45 -101 -68 -172 -68c-108 0 -184 66 -184 167c0 53 19 94 58 122s85 42 139 42c56 0 104 -10 144 -31v15c0 63 -44 94 -132 94c-53 0 -104 -14 -151 -42v118c51 27 112 40 185 40
c71 0 129 -17 172 -52c44 -35 66 -83 66 -144v-169c0 -25 12 -38 35 -38zM369 197c-29 19 -63 29 -104 29c-60 0 -98 -24 -98 -65c0 -44 37 -65 89 -65c49 0 87 17 113 51v50zM204 570h-121l122 146h136l119 -146h-124l-66 78z" />
    <glyph glyph-name="atilde" unicode="&#xe3;" horiz-adv-x="602" 
d="M544 109c12 0 22 2 29 6v-103c-18 -14 -43 -21 -76 -21c-57 0 -94 21 -113 64c-44 -45 -101 -68 -172 -68c-108 0 -184 66 -184 167c0 53 19 94 58 122s85 42 139 42c56 0 104 -10 144 -31v15c0 63 -44 94 -132 94c-53 0 -104 -14 -151 -42v118c51 27 112 40 185 40
c71 0 129 -17 172 -52c44 -35 66 -83 66 -144v-169c0 -25 12 -38 35 -38zM369 197c-29 19 -63 29 -104 29c-60 0 -98 -24 -98 -65c0 -44 37 -65 89 -65c49 0 87 17 113 51v50zM176 576h-76c0 39 10 72 31 99s49 41 82 41c20 0 44 -7 71 -22c28 -15 49 -22 62 -22
c23 0 37 14 42 41h77c-1 -37 -12 -70 -33 -99c-21 -28 -47 -42 -80 -42c-21 0 -45 7 -72 22s-48 23 -61 23c-23 0 -37 -14 -43 -41z" />
    <glyph glyph-name="adieresis" unicode="&#xe4;" horiz-adv-x="602" 
d="M544 109c12 0 22 2 29 6v-103c-18 -14 -43 -21 -76 -21c-57 0 -94 21 -113 64c-44 -45 -101 -68 -172 -68c-108 0 -184 66 -184 167c0 53 19 94 58 122s85 42 139 42c56 0 104 -10 144 -31v15c0 63 -44 94 -132 94c-53 0 -104 -14 -151 -42v118c51 27 112 40 185 40
c71 0 129 -17 172 -52c44 -35 66 -83 66 -144v-169c0 -25 12 -38 35 -38zM369 197c-29 19 -63 29 -104 29c-60 0 -98 -24 -98 -65c0 -44 37 -65 89 -65c49 0 87 17 113 51v50zM442 590c-28 -28 -76 -28 -105 0c-28 29 -28 77 0 105c29 28 77 28 105 0c29 -28 29 -76 0 -105z
M170 569c-40 0 -74 33 -74 74c0 40 34 73 74 73c41 0 74 -32 74 -73s-33 -74 -74 -74z" />
    <glyph glyph-name="aring" unicode="&#xe5;" horiz-adv-x="602" 
d="M544 109c12 0 22 2 29 6v-103c-18 -14 -43 -21 -76 -21c-57 0 -94 21 -113 64c-44 -45 -101 -68 -172 -68c-108 0 -184 66 -184 167c0 53 19 94 58 122s85 42 139 42c56 0 104 -10 144 -31v15c0 63 -44 94 -132 94c-53 0 -104 -14 -151 -42v118c51 27 112 40 185 40
c71 0 129 -17 172 -52c44 -35 66 -83 66 -144v-169c0 -25 12 -38 35 -38zM369 197c-29 19 -63 29 -104 29c-60 0 -98 -24 -98 -65c0 -44 37 -65 89 -65c49 0 87 17 113 51v50zM351 576c-41 -41 -107 -41 -148 0s-41 107 0 148s107 41 148 0s41 -107 0 -148zM244 617
c19 -17 48 -17 65 0c19 19 19 48 0 65c-17 19 -46 19 -65 0c-17 -17 -17 -46 0 -65z" />
    <glyph glyph-name="ae" unicode="&#xe6;" horiz-adv-x="903" 
d="M864 248v-37h-358c15 -68 79 -104 167 -104c56 0 109 15 160 44v-113c-45 -34 -108 -51 -190 -51c-92 0 -164 31 -217 93c-41 -49 -118 -93 -210 -93c-112 0 -188 66 -188 167c0 53 19 94 58 122s85 42 139 42c56 0 104 -10 144 -31v15c0 63 -44 94 -132 94
c-53 0 -104 -14 -151 -42v118c51 27 112 40 185 40c77 0 137 -23 180 -68c47 45 105 68 172 68c75 0 133 -25 176 -76s65 -113 65 -188zM256 94c55 0 105 25 126 60c-5 13 -9 28 -12 45c-29 19 -64 29 -105 29c-59 0 -98 -24 -98 -67c0 -44 37 -67 89 -67zM506 301h219
c-3 55 -42 100 -105 100c-64 0 -107 -41 -114 -100z" />
    <glyph glyph-name="ccedilla" unicode="&#xe7;" horiz-adv-x="516" 
d="M36 251c0 79 27 142 80 189c54 48 118 72 193 72c55 0 104 -11 148 -33v-120c-43 20 -86 30 -127 30c-44 0 -81 -13 -111 -39c-29 -25 -44 -59 -44 -100s15 -75 45 -101s67 -39 110 -39c51 0 96 11 135 34v-120c-26 -14 -54 -24 -83 -30l-59 -139h-163l101 136
c-64 9 -118 37 -161 84s-64 105 -64 176z" />
    <glyph glyph-name="egrave" unicode="&#xe8;" horiz-adv-x="573" 
d="M313 -13c-78 0 -144 24 -197 72s-80 112 -80 191c0 74 24 136 72 186c48 51 111 76 188 76c73 0 130 -26 173 -77s65 -113 65 -187v-37h-358c15 -68 79 -104 167 -104c56 0 109 15 160 44v-113c-45 -34 -108 -51 -190 -51zM176 301h219c-3 55 -42 100 -105 100
c-64 0 -107 -41 -114 -100zM126 722h171l95 -146h-122z" />
    <glyph glyph-name="eacute" unicode="&#xe9;" horiz-adv-x="573" 
d="M313 -13c-78 0 -144 24 -197 72s-80 112 -80 191c0 74 24 136 72 186c48 51 111 76 188 76c73 0 130 -26 173 -77s65 -113 65 -187v-37h-358c15 -68 79 -104 167 -104c56 0 109 15 160 44v-113c-45 -34 -108 -51 -190 -51zM176 301h219c-3 55 -42 100 -105 100
c-64 0 -107 -41 -114 -100zM339 570h-122l95 146h170z" />
    <glyph glyph-name="ecircumflex" unicode="&#xea;" horiz-adv-x="573" 
d="M313 -13c-78 0 -144 24 -197 72s-80 112 -80 191c0 74 24 136 72 186c48 51 111 76 188 76c73 0 130 -26 173 -77s65 -113 65 -187v-37h-358c15 -68 79 -104 167 -104c56 0 109 15 160 44v-113c-45 -34 -108 -51 -190 -51zM176 301h219c-3 55 -42 100 -105 100
c-64 0 -107 -41 -114 -100zM220 570h-121l122 146h136l119 -146h-124l-66 78z" />
    <glyph glyph-name="edieresis" unicode="&#xeb;" horiz-adv-x="573" 
d="M313 -13c-78 0 -144 24 -197 72s-80 112 -80 191c0 74 24 136 72 186c48 51 111 76 188 76c73 0 130 -26 173 -77s65 -113 65 -187v-37h-358c15 -68 79 -104 167 -104c56 0 109 15 160 44v-113c-45 -34 -108 -51 -190 -51zM176 301h219c-3 55 -42 100 -105 100
c-64 0 -107 -41 -114 -100zM450 590c-28 -28 -76 -28 -105 0c-28 29 -28 77 0 105c29 28 77 28 105 0c29 -28 29 -76 0 -105zM178 569c-40 0 -74 33 -74 74c0 40 34 73 74 73c41 0 74 -32 74 -73s-33 -74 -74 -74z" />
    <glyph glyph-name="igrave" unicode="&#xec;" horiz-adv-x="267" 
d="M204 0h-141v499h141v-499zM-68 722h171l95 -146h-122z" />
    <glyph glyph-name="iacute" unicode="&#xed;" horiz-adv-x="267" 
d="M204 0h-141v499h141v-499zM192 570h-122l95 146h170z" />
    <glyph glyph-name="icircumflex" unicode="&#xee;" horiz-adv-x="267" 
d="M66 570h-121l122 146h136l119 -146h-124l-66 78zM204 0h-141v499h141v-499z" />
    <glyph glyph-name="idieresis" unicode="&#xef;" horiz-adv-x="266" 
d="M295 590c-28 -28 -76 -28 -105 0c-28 29 -28 77 0 105c29 28 77 28 105 0c29 -28 29 -76 0 -105zM23 569c-40 0 -74 33 -74 74c0 40 34 73 74 73c41 0 74 -32 74 -73s-33 -74 -74 -74zM204 0h-141v499h141v-499z" />
    <glyph glyph-name="eth" unicode="&#xf0;" horiz-adv-x="602" 
d="M301 -13c-77 0 -141 24 -191 71c-49 47 -74 105 -74 173c0 67 21 122 62 164c42 42 96 63 161 63c39 0 70 -6 94 -17l-80 106l-120 -46l-51 69l115 45l-68 85h152l32 -42l99 37l50 -70l-95 -36l81 -111c36 -49 61 -91 76 -124s23 -71 23 -112c0 -71 -25 -132 -76 -181
c-50 -49 -113 -74 -190 -74zM301 358c-72 0 -126 -53 -126 -124s53 -123 126 -123s127 52 127 123s-54 124 -127 124z" />
    <glyph glyph-name="ntilde" unicode="&#xf1;" horiz-adv-x="618" 
d="M208 576h-76c0 39 10 72 31 99s49 41 82 41c20 0 44 -7 71 -22c28 -15 49 -22 62 -22c23 0 37 14 42 41h77c-1 -37 -12 -70 -33 -99c-21 -28 -47 -42 -80 -42c-21 0 -45 7 -72 22s-48 23 -61 23c-23 0 -37 -14 -43 -41zM210 318v-318h-141v499h141v-60
c45 49 100 73 167 73c116 0 182 -78 182 -206v-306h-141v277c0 77 -43 106 -95 106c-44 0 -89 -28 -113 -65z" />
    <glyph glyph-name="ograve" unicode="&#xf2;" horiz-adv-x="625" 
d="M214 150c26 -27 59 -40 99 -40s73 13 99 40s39 60 39 100s-13 73 -39 99c-26 27 -59 40 -99 40s-73 -13 -99 -40c-26 -26 -39 -59 -39 -99s13 -73 39 -100zM36 250c0 74 26 136 78 186c52 51 118 76 199 76s147 -25 199 -76s78 -113 78 -186c0 -75 -26 -137 -78 -188
c-52 -50 -118 -75 -199 -75s-147 25 -199 75c-52 51 -78 113 -78 188zM118 722h171l95 -146h-122z" />
    <glyph glyph-name="oacute" unicode="&#xf3;" horiz-adv-x="625" 
d="M214 150c26 -27 59 -40 99 -40s73 13 99 40s39 60 39 100s-13 73 -39 99c-26 27 -59 40 -99 40s-73 -13 -99 -40c-26 -26 -39 -59 -39 -99s13 -73 39 -100zM36 250c0 74 26 136 78 186c52 51 118 76 199 76s147 -25 199 -76s78 -113 78 -186c0 -75 -26 -137 -78 -188
c-52 -50 -118 -75 -199 -75s-147 25 -199 75c-52 51 -78 113 -78 188zM364 570h-122l95 146h170z" />
    <glyph glyph-name="ocircumflex" unicode="&#xf4;" horiz-adv-x="625" 
d="M214 150c26 -27 59 -40 99 -40s73 13 99 40s39 60 39 100s-13 73 -39 99c-26 27 -59 40 -99 40s-73 -13 -99 -40c-26 -26 -39 -59 -39 -99s13 -73 39 -100zM36 250c0 74 26 136 78 186c52 51 118 76 199 76s147 -25 199 -76s78 -113 78 -186c0 -75 -26 -137 -78 -188
c-52 -50 -118 -75 -199 -75s-147 25 -199 75c-52 51 -78 113 -78 188zM245 570h-121l122 146h136l119 -146h-124l-66 78z" />
    <glyph glyph-name="otilde" unicode="&#xf5;" horiz-adv-x="625" 
d="M214 150c26 -27 59 -40 99 -40s73 13 99 40s39 60 39 100s-13 73 -39 99c-26 27 -59 40 -99 40s-73 -13 -99 -40c-26 -26 -39 -59 -39 -99s13 -73 39 -100zM36 250c0 74 26 136 78 186c52 51 118 76 199 76s147 -25 199 -76s78 -113 78 -186c0 -75 -26 -137 -78 -188
c-52 -50 -118 -75 -199 -75s-147 25 -199 75c-52 51 -78 113 -78 188zM207 576h-76c0 39 10 72 31 99s49 41 82 41c20 0 44 -7 71 -22c28 -15 49 -22 62 -22c23 0 37 14 42 41h77c-1 -37 -12 -70 -33 -99c-21 -28 -47 -42 -80 -42c-21 0 -45 7 -72 22s-48 23 -61 23
c-23 0 -37 -14 -43 -41z" />
    <glyph glyph-name="odieresis" unicode="&#xf6;" horiz-adv-x="625" 
d="M214 150c26 -27 59 -40 99 -40s73 13 99 40s39 60 39 100s-13 73 -39 99c-26 27 -59 40 -99 40s-73 -13 -99 -40c-26 -26 -39 -59 -39 -99s13 -73 39 -100zM36 250c0 74 26 136 78 186c52 51 118 76 199 76s147 -25 199 -76s78 -113 78 -186c0 -75 -26 -137 -78 -188
c-52 -50 -118 -75 -199 -75s-147 25 -199 75c-52 51 -78 113 -78 188zM475 590c-28 -28 -76 -28 -105 0c-28 29 -28 77 0 105c29 28 77 28 105 0c29 -28 29 -76 0 -105zM203 569c-40 0 -74 33 -74 74c0 40 34 73 74 73c41 0 74 -32 74 -73s-33 -74 -74 -74z" />
    <glyph glyph-name="divide" unicode="&#xf7;" horiz-adv-x="632" 
d="M379 494c-33 -33 -90 -33 -125 0c-35 35 -35 92 0 125c35 35 92 35 125 0c35 -33 35 -90 0 -125zM566 268h-500v126h500v-126zM379 42c-33 -33 -90 -33 -125 0c-35 35 -35 91 0 126s92 35 125 0c35 -35 35 -91 0 -126z" />
    <glyph glyph-name="oslash" unicode="&#xf8;" horiz-adv-x="625" 
d="M313 -13c-55 0 -103 12 -146 36l-19 -23h-98l58 68c-48 49 -72 110 -72 182c0 74 26 136 78 186c52 51 118 76 199 76c54 0 102 -12 145 -36l20 23h98l-59 -69c49 -50 73 -110 73 -180c0 -75 -26 -137 -78 -188c-52 -50 -118 -75 -199 -75zM175 250c0 -29 7 -56 22 -79
l176 206c-19 9 -39 13 -60 13c-80 0 -138 -60 -138 -140zM313 110c80 0 138 60 138 140c0 29 -7 55 -22 78l-176 -206c18 -8 38 -12 60 -12z" />
    <glyph glyph-name="ugrave" unicode="&#xf9;" horiz-adv-x="619" 
d="M550 499v-499h-141v60c-45 -49 -100 -73 -167 -73c-116 0 -182 78 -182 206v306h141v-277c0 -77 43 -106 95 -106c44 0 89 28 113 65v318h141zM128 722h171l95 -146h-122z" />
    <glyph glyph-name="uacute" unicode="&#xfa;" horiz-adv-x="619" 
d="M550 499v-499h-141v60c-45 -49 -100 -73 -167 -73c-116 0 -182 78 -182 206v306h141v-277c0 -77 43 -106 95 -106c44 0 89 28 113 65v318h141zM342 570h-122l95 146h170z" />
    <glyph glyph-name="ucircumflex" unicode="&#xfb;" horiz-adv-x="619" 
d="M550 499v-499h-141v60c-45 -49 -100 -73 -167 -73c-116 0 -182 78 -182 206v306h141v-277c0 -77 43 -106 95 -106c44 0 89 28 113 65v318h141zM238 570h-121l122 146h136l119 -146h-124l-66 78z" />
    <glyph glyph-name="udieresis" unicode="&#xfc;" horiz-adv-x="619" 
d="M550 499v-499h-141v60c-45 -49 -100 -73 -167 -73c-116 0 -182 78 -182 206v306h141v-277c0 -77 43 -106 95 -106c44 0 89 28 113 65v318h141zM468 590c-28 -28 -76 -28 -105 0c-28 29 -28 77 0 105c29 28 77 28 105 0c29 -28 29 -76 0 -105zM196 569
c-40 0 -74 33 -74 74c0 40 34 73 74 73c41 0 74 -32 74 -73s-33 -74 -74 -74z" />
    <glyph glyph-name="yacute" unicode="&#xfd;" horiz-adv-x="579" 
d="M134 -206c-41 0 -75 7 -100 20v123c23 -13 49 -20 76 -20c51 0 82 31 111 100l-215 482h152l132 -328l125 328h149l-231 -551c-44 -103 -110 -154 -199 -154zM333 570h-122l95 146h170z" />
    <glyph glyph-name="thorn" unicode="&#xfe;" horiz-adv-x="644" 
d="M374 -13c-72 0 -127 25 -164 74v-261h-141v900h141v-262c39 49 93 74 164 74c68 0 124 -25 168 -76c45 -50 67 -112 67 -186c0 -75 -22 -137 -67 -188c-44 -50 -100 -75 -168 -75zM334 110c39 0 72 13 97 40s38 60 38 100c0 39 -13 72 -38 99s-58 40 -97 40
c-55 0 -101 -31 -124 -74v-130c23 -43 69 -75 124 -75z" />
    <glyph glyph-name="ydieresis" unicode="&#xff;" horiz-adv-x="579" 
d="M134 -206c-41 0 -75 7 -100 20v123c23 -13 49 -20 76 -20c51 0 82 31 111 100l-215 482h152l132 -328l125 328h149l-231 -551c-44 -103 -110 -154 -199 -154zM446 590c-28 -28 -76 -28 -105 0c-28 29 -28 77 0 105c29 28 77 28 105 0c29 -28 29 -76 0 -105zM174 569
c-40 0 -74 33 -74 74c0 40 34 73 74 73c41 0 74 -32 74 -73s-33 -74 -74 -74z" />
    <glyph glyph-name="Amacron" unicode="&#x100;" horiz-adv-x="770" 
d="M167 0h-151l300 704h138l300 -704h-153l-69 162h-296zM384 524l-103 -243h205zM538 785h-306v95h306v-95z" />
    <glyph glyph-name="amacron" unicode="&#x101;" horiz-adv-x="602" 
d="M544 109c12 0 22 2 29 6v-103c-18 -14 -43 -21 -76 -21c-57 0 -94 21 -113 64c-44 -45 -101 -68 -172 -68c-108 0 -184 66 -184 167c0 53 19 94 58 122s85 42 139 42c56 0 104 -10 144 -31v15c0 63 -44 94 -132 94c-53 0 -104 -14 -151 -42v118c51 27 112 40 185 40
c71 0 129 -17 172 -52c44 -35 66 -83 66 -144v-169c0 -25 12 -38 35 -38zM369 197c-29 19 -63 29 -104 29c-60 0 -98 -24 -98 -65c0 -44 37 -65 89 -65c49 0 87 17 113 51v50zM437 595h-307v95h307v-95z" />
    <glyph glyph-name="Abreve" unicode="&#x102;" horiz-adv-x="770" 
d="M167 0h-151l300 704h138l300 -704h-153l-69 162h-296zM384 524l-103 -243h205zM220 909h95c3 -44 30 -73 70 -73s67 29 70 73h95c-1 -50 -18 -90 -50 -119c-31 -29 -70 -44 -115 -44s-84 15 -116 44c-31 29 -48 69 -49 119z" />
    <glyph glyph-name="abreve" unicode="&#x103;" horiz-adv-x="602" 
d="M544 109c12 0 22 2 29 6v-103c-18 -14 -43 -21 -76 -21c-57 0 -94 21 -113 64c-44 -45 -101 -68 -172 -68c-108 0 -184 66 -184 167c0 53 19 94 58 122s85 42 139 42c56 0 104 -10 144 -31v15c0 63 -44 94 -132 94c-53 0 -104 -14 -151 -42v118c51 27 112 40 185 40
c71 0 129 -17 172 -52c44 -35 66 -83 66 -144v-169c0 -25 12 -38 35 -38zM369 197c-29 19 -63 29 -104 29c-60 0 -98 -24 -98 -65c0 -44 37 -65 89 -65c49 0 87 17 113 51v50zM278 561c-92 0 -162 63 -166 162h96c3 -43 30 -73 70 -73s66 30 69 73h95
c-1 -49 -18 -89 -49 -118s-70 -44 -115 -44z" />
    <glyph glyph-name="Aogonek" unicode="&#x104;" horiz-adv-x="770" 
d="M749 -202c-80 0 -128 44 -128 103c0 36 15 69 45 99h-65l-69 162h-296l-69 -162h-151l300 704h138l300 -704c-23 -23 -35 -47 -35 -70c0 -29 21 -47 54 -47c15 0 27 2 36 7v-84c-14 -5 -34 -8 -60 -8zM384 524l-103 -243h205z" />
    <glyph glyph-name="aogonek" unicode="&#x105;" horiz-adv-x="590" 
d="M568 -190c-80 0 -128 44 -128 103c0 28 10 55 29 81c-43 7 -71 27 -85 61c-44 -45 -101 -68 -172 -68c-108 0 -184 66 -184 167c0 53 19 94 58 122s85 42 139 42c56 0 104 -10 144 -31v15c0 63 -44 94 -132 94c-53 0 -104 -14 -151 -42v118c51 27 112 40 185 40
c71 0 129 -17 172 -52c44 -35 66 -83 66 -144v-169c0 -25 12 -38 35 -38c12 0 22 2 29 6v-103c-23 -23 -35 -47 -35 -70c0 -29 21 -47 54 -47c15 0 27 2 36 7v-84c-14 -5 -34 -8 -60 -8zM369 147v50c-29 19 -63 29 -104 29c-60 0 -98 -24 -98 -65c0 -44 37 -65 89 -65
c49 0 87 17 113 51z" />
    <glyph glyph-name="Cacute" unicode="&#x106;" horiz-adv-x="677" 
d="M432 -14c-109 0 -199 34 -271 102c-72 69 -108 156 -108 262c0 107 36 194 107 262c72 68 163 102 272 102c69 0 130 -15 185 -44v-145c-54 36 -115 54 -184 54c-67 0 -122 -22 -167 -65c-44 -43 -66 -97 -66 -164s23 -122 68 -165s102 -64 171 -64c76 0 140 20 192 61
v-145c-57 -34 -123 -51 -199 -51zM439 761h-122l95 146h170z" />
    <glyph glyph-name="cacute" unicode="&#x107;" horiz-adv-x="513" 
d="M307 -13c-74 0 -138 24 -191 72c-53 49 -80 113 -80 192s27 142 80 189c54 48 118 72 193 72c55 0 104 -11 148 -33v-120c-43 20 -86 30 -127 30c-44 0 -81 -13 -111 -39c-29 -25 -44 -59 -44 -100s15 -75 45 -101s67 -39 110 -39c51 0 96 11 135 34v-120
c-47 -25 -99 -37 -158 -37zM313 570h-122l95 146h170z" />
    <glyph glyph-name="Ccircumflex" unicode="&#x108;" horiz-adv-x="677" 
d="M432 -14c-109 0 -199 34 -271 102c-72 69 -108 156 -108 262c0 107 36 194 107 262c72 68 163 102 272 102c69 0 130 -15 185 -44v-145c-54 36 -115 54 -184 54c-67 0 -122 -22 -167 -65c-44 -43 -66 -97 -66 -164s23 -122 68 -165s102 -64 171 -64c76 0 140 20 192 61
v-145c-57 -34 -123 -51 -199 -51zM327 762h-122l122 145h136l119 -145h-123l-67 77z" />
    <glyph glyph-name="ccircumflex" unicode="&#x109;" horiz-adv-x="516" 
d="M307 -13c-74 0 -138 24 -191 72c-53 49 -80 113 -80 192s27 142 80 189c54 48 118 72 193 72c55 0 104 -11 148 -33v-120c-43 20 -86 30 -127 30c-44 0 -81 -13 -111 -39c-29 -25 -44 -59 -44 -100s15 -75 45 -101s67 -39 110 -39c51 0 96 11 135 34v-120
c-47 -25 -99 -37 -158 -37zM211 570h-121l122 146h136l119 -146h-124l-66 78z" />
    <glyph glyph-name="Cdotaccent" unicode="&#x10a;" horiz-adv-x="677" 
d="M432 -14c-109 0 -199 34 -271 102c-72 69 -108 156 -108 262c0 107 36 194 107 262c72 68 163 102 272 102c69 0 130 -15 185 -44v-145c-54 36 -115 54 -184 54c-67 0 -122 -22 -167 -65c-44 -43 -66 -97 -66 -164s23 -122 68 -165s102 -64 171 -64c76 0 140 20 192 61
v-145c-57 -34 -123 -51 -199 -51zM410 760c-40 0 -74 33 -74 74c0 40 34 73 74 73c41 0 74 -33 74 -73c0 -41 -33 -74 -74 -74z" />
    <glyph glyph-name="cdotaccent" unicode="&#x10b;" horiz-adv-x="516" 
d="M307 -13c-74 0 -138 24 -191 72c-53 49 -80 113 -80 192s27 142 80 189c54 48 118 72 193 72c55 0 104 -11 148 -33v-120c-43 20 -86 30 -127 30c-44 0 -81 -13 -111 -39c-29 -25 -44 -59 -44 -100s15 -75 45 -101s67 -39 110 -39c51 0 96 11 135 34v-120
c-47 -25 -99 -37 -158 -37zM297 569c-40 0 -74 33 -74 74c0 40 34 73 74 73c41 0 73 -32 73 -73s-32 -74 -73 -74z" />
    <glyph glyph-name="Ccaron" unicode="&#x10c;" horiz-adv-x="677" 
d="M432 -14c-109 0 -199 34 -271 102c-72 69 -108 156 -108 262c0 107 36 194 107 262c72 68 163 102 272 102c69 0 130 -15 185 -44v-145c-54 36 -115 54 -184 54c-67 0 -122 -22 -167 -65c-44 -43 -66 -97 -66 -164s23 -122 68 -165s102 -64 171 -64c76 0 140 20 192 61
v-145c-57 -34 -123 -51 -199 -51zM467 907h122l-122 -146h-136l-119 146h123l67 -78z" />
    <glyph glyph-name="ccaron" unicode="&#x10d;" horiz-adv-x="516" 
d="M307 -13c-74 0 -138 24 -191 72c-53 49 -80 113 -80 192s27 142 80 189c54 48 118 72 193 72c55 0 104 -11 148 -33v-120c-43 20 -86 30 -127 30c-44 0 -81 -13 -111 -39c-29 -25 -44 -59 -44 -100s15 -75 45 -101s67 -39 110 -39c51 0 96 11 135 34v-120
c-47 -25 -99 -37 -158 -37zM350 716h122l-122 -146h-136l-120 146h124l66 -78z" />
    <glyph glyph-name="Dcaron" unicode="&#x10e;" horiz-adv-x="776" 
d="M339 0h-262v700h262c113 0 206 -33 277 -98s107 -149 107 -252s-36 -188 -107 -253s-164 -97 -277 -97zM221 571v-442h106c156 0 248 82 248 221s-92 221 -248 221h-106zM415 907h122l-122 -146h-136l-119 146h123l67 -78z" />
    <glyph glyph-name="dcaron" unicode="&#x10f;" horiz-adv-x="821" 
d="M271 -13c-68 0 -124 25 -169 75c-44 51 -66 113 -66 188c0 74 22 136 66 186c45 51 101 76 169 76c71 0 125 -25 164 -74v262h141v-700h-141v61c-37 -49 -92 -74 -164 -74zM311 110c55 0 101 32 124 75v130c-23 43 -69 74 -124 74c-39 0 -72 -13 -97 -40s-38 -60 -38 -99
c0 -40 13 -73 38 -100s58 -40 97 -40zM751 496h-105l59 204h130z" />
    <glyph glyph-name="Dcroat" unicode="&#x110;" horiz-adv-x="830" 
d="M393 0h-262v306h-96v121h96v273h262c114 0 206 -33 277 -98s107 -149 107 -252s-36 -188 -107 -253s-163 -97 -277 -97zM275 306v-177h106c156 0 248 82 248 221s-92 221 -248 221h-106v-144h138v-121h-138z" />
    <glyph glyph-name="dslash" unicode="&#x111;" horiz-adv-x="639" 
d="M435 559h-122v73h122v68h141v-68h94v-73h-94v-559h-141v61c-37 -49 -92 -74 -164 -74c-68 0 -124 25 -169 75c-44 51 -66 113 -66 188c0 74 22 136 66 186c45 51 101 76 169 76c71 0 125 -25 164 -74v121zM311 110c55 0 101 32 124 75v130c-23 43 -69 74 -124 74
c-39 0 -72 -13 -97 -40s-38 -60 -38 -99c0 -40 13 -73 38 -100s58 -40 97 -40z" />
    <glyph glyph-name="Emacron" unicode="&#x112;" horiz-adv-x="640" 
d="M602 0h-525v700h514v-129h-370v-135h298v-127h-298v-180h381v-129zM491 785h-306v95h306v-95z" />
    <glyph glyph-name="emacron" unicode="&#x113;" horiz-adv-x="573" 
d="M313 -13c-78 0 -144 24 -197 72s-80 112 -80 191c0 74 24 136 72 186c48 51 111 76 188 76c73 0 130 -26 173 -77s65 -113 65 -187v-37h-358c15 -68 79 -104 167 -104c56 0 109 15 160 44v-113c-45 -34 -108 -51 -190 -51zM176 301h219c-3 55 -42 100 -105 100
c-64 0 -107 -41 -114 -100zM442 595h-307v95h307v-95z" />
    <glyph glyph-name="Ebreve" unicode="&#x114;" horiz-adv-x="640" 
d="M602 0h-525v700h514v-129h-370v-135h298v-127h-298v-180h381v-129zM173 909h95c3 -44 30 -73 70 -73s67 29 70 73h95c-1 -50 -18 -90 -50 -119c-31 -29 -70 -44 -115 -44s-84 15 -116 44c-31 29 -48 69 -49 119z" />
    <glyph glyph-name="ebreve" unicode="&#x115;" horiz-adv-x="573" 
d="M313 -13c-78 0 -144 24 -197 72s-80 112 -80 191c0 74 24 136 72 186c48 51 111 76 188 76c73 0 130 -26 173 -77s65 -113 65 -187v-37h-358c15 -68 79 -104 167 -104c56 0 109 15 160 44v-113c-45 -34 -108 -51 -190 -51zM176 301h219c-3 55 -42 100 -105 100
c-64 0 -107 -41 -114 -100zM288 561c-92 0 -162 63 -166 162h96c3 -43 30 -73 70 -73s66 30 69 73h95c-1 -49 -18 -89 -49 -118s-70 -44 -115 -44z" />
    <glyph glyph-name="Edotaccent" unicode="&#x116;" horiz-adv-x="640" 
d="M602 0h-525v700h514v-129h-370v-135h298v-127h-298v-180h381v-129zM338 760c-40 0 -74 33 -74 74c0 40 34 73 74 73c41 0 74 -33 74 -73c0 -41 -33 -74 -74 -74z" />
    <glyph glyph-name="edotaccent" unicode="&#x117;" horiz-adv-x="573" 
d="M313 -13c-78 0 -144 24 -197 72s-80 112 -80 191c0 74 24 136 72 186c48 51 111 76 188 76c73 0 130 -26 173 -77s65 -113 65 -187v-37h-358c15 -68 79 -104 167 -104c56 0 109 15 160 44v-113c-45 -34 -108 -51 -190 -51zM176 301h219c-3 55 -42 100 -105 100
c-64 0 -107 -41 -114 -100zM288 569c-40 0 -74 33 -74 74c0 40 34 73 74 73c41 0 73 -32 73 -73s-32 -74 -73 -74z" />
    <glyph glyph-name="Eogonek" unicode="&#x118;" horiz-adv-x="640" 
d="M514 0h-437v700h514v-129h-370v-135h298v-127h-298v-180h381v-129c-23 -23 -35 -47 -35 -70c0 -29 21 -47 54 -47c15 0 27 2 36 7v-84c-14 -5 -34 -8 -60 -8c-80 0 -128 44 -128 103c0 36 15 69 45 99z" />
    <glyph glyph-name="eogonek" unicode="&#x119;" horiz-adv-x="573" 
d="M498 -164c-80 0 -128 44 -128 103c0 18 4 36 12 54c-22 -4 -45 -6 -69 -6c-78 0 -144 24 -197 72s-80 112 -80 191c0 74 24 136 72 186c48 51 111 76 188 76c73 0 130 -26 173 -77s65 -113 65 -187v-37h-358c15 -68 79 -104 167 -104c56 0 109 15 160 44v-113
c-23 -23 -35 -47 -35 -70c0 -29 21 -47 54 -47c15 0 27 2 36 7v-84c-14 -5 -34 -8 -60 -8zM176 301h219c-3 55 -42 100 -105 100c-64 0 -107 -41 -114 -100z" />
    <glyph glyph-name="Ecaron" unicode="&#x11a;" horiz-adv-x="640" 
d="M602 0h-525v700h514v-129h-370v-135h298v-127h-298v-180h381v-129zM406 907h122l-122 -146h-136l-119 146h123l67 -78z" />
    <glyph glyph-name="ecaron" unicode="&#x11b;" horiz-adv-x="573" 
d="M313 -13c-78 0 -144 24 -197 72s-80 112 -80 191c0 74 24 136 72 186c48 51 111 76 188 76c73 0 130 -26 173 -77s65 -113 65 -187v-37h-358c15 -68 79 -104 167 -104c56 0 109 15 160 44v-113c-45 -34 -108 -51 -190 -51zM176 301h219c-3 55 -42 100 -105 100
c-64 0 -107 -41 -114 -100zM354 716h122l-122 -146h-136l-120 146h124l66 -78z" />
    <glyph glyph-name="Gcircumflex" unicode="&#x11c;" horiz-adv-x="767" 
d="M426 -14c-106 0 -195 34 -266 102c-71 69 -107 156 -107 262c0 107 36 194 107 262s162 102 271 102c81 0 151 -18 210 -53v-142c-65 40 -131 60 -200 60c-71 0 -129 -21 -174 -64c-45 -42 -67 -98 -67 -168c0 -69 22 -125 65 -166s97 -62 161 -62c61 0 108 15 141 46
v241h144v-309c-29 -31 -69 -58 -120 -79s-106 -32 -165 -32zM334 762h-122l122 145h136l119 -145h-123l-67 77z" />
    <glyph glyph-name="gcircumflex" unicode="&#x11d;" horiz-adv-x="638" 
d="M433 441v58h141v-441c0 -183 -148 -264 -289 -264c-82 0 -147 14 -196 43v127c53 -32 114 -48 181 -48c77 0 163 29 163 135v31c-39 -47 -94 -71 -165 -71c-68 0 -124 24 -167 72s-65 108 -65 179s22 130 65 178s99 72 167 72c71 0 126 -24 165 -71zM309 133
c55 0 101 29 124 68v120c-23 39 -69 68 -124 68c-79 0 -132 -55 -132 -128s55 -128 132 -128zM245 570h-121l122 146h136l119 -146h-124l-66 78z" />
    <glyph glyph-name="Gbreve" unicode="&#x11e;" horiz-adv-x="767" 
d="M426 -14c-106 0 -195 34 -266 102c-71 69 -107 156 -107 262c0 107 36 194 107 262s162 102 271 102c81 0 151 -18 210 -53v-142c-65 40 -131 60 -200 60c-71 0 -129 -21 -174 -64c-45 -42 -67 -98 -67 -168c0 -69 22 -125 65 -166s97 -62 161 -62c61 0 108 15 141 46
v241h144v-309c-29 -31 -69 -58 -120 -79s-106 -32 -165 -32zM247 921h95c3 -44 30 -73 70 -73s67 29 70 73h95c-1 -50 -18 -90 -50 -119c-31 -29 -70 -44 -115 -44s-84 15 -116 44c-31 29 -48 69 -49 119z" />
    <glyph glyph-name="gbreve" unicode="&#x11f;" horiz-adv-x="638" 
d="M433 441v58h141v-441c0 -183 -148 -264 -289 -264c-82 0 -147 14 -196 43v127c53 -32 114 -48 181 -48c77 0 163 29 163 135v31c-39 -47 -94 -71 -165 -71c-68 0 -124 24 -167 72s-65 108 -65 179s22 130 65 178s99 72 167 72c71 0 126 -24 165 -71zM309 133
c55 0 101 29 124 68v120c-23 39 -69 68 -124 68c-79 0 -132 -55 -132 -128s55 -128 132 -128zM307 561c-92 0 -162 63 -166 162h96c3 -43 30 -73 70 -73s66 30 69 73h95c-1 -49 -18 -89 -49 -118s-70 -44 -115 -44z" />
    <glyph glyph-name="Gdotaccent" unicode="&#x120;" horiz-adv-x="767" 
d="M426 -14c-106 0 -195 34 -266 102c-71 69 -107 156 -107 262c0 107 36 194 107 262s162 102 271 102c81 0 151 -18 210 -53v-142c-65 40 -131 60 -200 60c-71 0 -129 -21 -174 -64c-45 -42 -67 -98 -67 -168c0 -69 22 -125 65 -166s97 -62 161 -62c61 0 108 15 141 46
v241h144v-309c-29 -31 -69 -58 -120 -79s-106 -32 -165 -32zM414 760c-40 0 -74 33 -74 74c0 40 34 73 74 73c41 0 74 -33 74 -73c0 -41 -33 -74 -74 -74z" />
    <glyph glyph-name="gdotaccent" unicode="&#x121;" horiz-adv-x="638" 
d="M433 441v58h141v-441c0 -183 -148 -264 -289 -264c-82 0 -147 14 -196 43v127c53 -32 114 -48 181 -48c77 0 163 29 163 135v31c-39 -47 -94 -71 -165 -71c-68 0 -124 24 -167 72s-65 108 -65 179s22 130 65 178s99 72 167 72c71 0 126 -24 165 -71zM309 133
c55 0 101 29 124 68v120c-23 39 -69 68 -124 68c-79 0 -132 -55 -132 -128s55 -128 132 -128zM309 569c-40 0 -74 33 -74 74c0 40 34 73 74 73c41 0 73 -32 73 -73s-32 -74 -73 -74z" />
    <glyph glyph-name="uni0122" unicode="&#x122;" horiz-adv-x="767" 
d="M426 -14c-106 0 -195 34 -266 102c-71 69 -107 156 -107 262c0 107 36 194 107 262s162 102 271 102c81 0 151 -18 210 -53v-142c-65 40 -131 60 -200 60c-71 0 -129 -21 -174 -64c-45 -42 -67 -98 -67 -168c0 -69 22 -125 65 -166s97 -62 161 -62c61 0 108 15 141 46
v241h144v-309c-29 -31 -69 -58 -120 -79s-106 -32 -165 -32zM417 -270h-105l59 204h130z" />
    <glyph glyph-name="uni0123" unicode="&#x123;" horiz-adv-x="638" 
d="M433 441v58h141v-441c0 -183 -148 -264 -289 -264c-82 0 -147 14 -196 43v127c53 -32 114 -48 181 -48c77 0 163 29 163 135v31c-39 -47 -94 -71 -165 -71c-68 0 -124 24 -167 72s-65 108 -65 179s22 130 65 178s99 72 167 72c71 0 126 -24 165 -71zM309 133
c55 0 101 29 124 68v120c-23 39 -69 68 -124 68c-79 0 -132 -55 -132 -128s55 -128 132 -128zM327 778h105l-59 -204h-130z" />
    <glyph glyph-name="Hcircumflex" unicode="&#x124;" horiz-adv-x="758" 
d="M221 0h-144v700h144v-262h316v262h143v-700h-143v307h-316v-307zM312 762h-122l122 145h136l119 -145h-123l-67 77z" />
    <glyph glyph-name="hcircumflex" unicode="&#x125;" horiz-adv-x="610" 
d="M61 0v700h141v-262c45 49 101 74 167 74c116 0 182 -78 182 -206v-306h-141v277c0 77 -43 106 -95 106c-44 0 -89 -28 -113 -65v-318h-141zM67 762h-122l122 145h136l119 -145h-123l-67 77z" />
    <glyph glyph-name="Hbar" unicode="&#x126;" horiz-adv-x="838" 
d="M261 0h-143v518h-72v93h72v89h143v-89h317v89h143v-89h71v-93h-71v-518h-143v307h-317v-307zM261 518v-80h317v80h-317z" />
    <glyph glyph-name="hbar" unicode="&#x127;" horiz-adv-x="665" 
d="M257 247v-247h-141v518h-102v93h102v89h141v-89h160v-93h-160v-151c45 49 101 74 167 74c116 0 182 -78 182 -206v-235h-141v206c0 77 -43 106 -95 106c-44 0 -89 -28 -113 -65z" />
    <glyph glyph-name="Itilde" unicode="&#x128;" horiz-adv-x="307" 
d="M48 765h-77c1 79 47 140 114 140c20 0 44 -7 71 -22s48 -22 61 -22c23 0 37 14 43 41h76c0 -37 -11 -70 -32 -99c-21 -28 -48 -42 -81 -42c-21 0 -45 7 -72 22s-48 23 -61 23c-23 0 -37 -14 -42 -41zM225 0h-143v700h143v-700z" />
    <glyph glyph-name="itilde" unicode="&#x129;" horiz-adv-x="267" 
d="M27 576h-76c0 39 11 72 32 99s48 41 81 41c20 0 44 -7 71 -22c28 -15 49 -22 62 -22c23 0 37 14 42 41h77c-1 -37 -12 -70 -33 -99c-21 -28 -47 -42 -80 -42c-21 0 -45 7 -72 22s-48 23 -61 23c-23 0 -37 -14 -43 -41zM204 0h-141v499h141v-499z" />
    <glyph glyph-name="Imacron" unicode="&#x12a;" horiz-adv-x="307" 
d="M306 785h-306v95h306v-95zM225 0h-143v700h143v-700z" />
    <glyph glyph-name="imacron" unicode="&#x12b;" horiz-adv-x="267" 
d="M204 0h-141v499h141v-499zM287 595h-307v95h307v-95z" />
    <glyph glyph-name="Ibreve" unicode="&#x12c;" horiz-adv-x="307" 
d="M-12 909h95c3 -44 30 -73 70 -73s67 29 70 73h95c-1 -50 -18 -90 -50 -119c-31 -29 -70 -44 -115 -44s-84 15 -116 44c-31 29 -48 69 -49 119zM225 0h-143v700h143v-700z" />
    <glyph glyph-name="ibreve" unicode="&#x12d;" horiz-adv-x="267" 
d="M133 561c-92 0 -162 63 -166 162h96c3 -43 30 -73 70 -73s66 30 69 73h95c-1 -49 -18 -89 -49 -118s-70 -44 -115 -44zM204 0h-141v499h141v-499z" />
    <glyph glyph-name="Iogonek" unicode="&#x12e;" horiz-adv-x="307" 
d="M137 0h-55v700h143v-700c-23 -23 -35 -47 -35 -70c0 -29 21 -47 54 -47c15 0 27 2 36 7v-84c-14 -5 -34 -8 -60 -8c-80 0 -128 44 -128 103c0 36 15 69 45 99z" />
    <glyph glyph-name="iogonek" unicode="&#x12f;" horiz-adv-x="293" 
d="M129 0h-53v499h141v-499c-23 -23 -35 -47 -35 -70c0 -29 21 -47 54 -47c15 0 27 2 36 7v-84c-14 -5 -34 -8 -60 -8c-80 0 -128 44 -128 103c0 36 15 69 45 99zM62 631c0 48 37 85 84 85s84 -37 84 -85c0 -47 -37 -84 -84 -84s-84 37 -84 84z" />
    <glyph glyph-name="Idot" unicode="&#x130;" horiz-adv-x="307" 
d="M154 760c-40 0 -74 33 -74 74c0 40 34 73 74 73c41 0 74 -33 74 -73c0 -41 -33 -74 -74 -74zM225 0h-143v700h143v-700z" />
    <glyph glyph-name="dotlessi" unicode="&#x131;" horiz-adv-x="267" 
d="M204 0h-141v499h141v-499z" />
    <glyph glyph-name="IJ" unicode="&#x132;" horiz-adv-x="634" 
d="M225 270h-143v430h143v-430zM276 -14c-83 0 -148 14 -194 43v143c51 -34 108 -51 171 -51c111 0 165 41 165 141v438h143v-459c0 -90 -26 -155 -79 -195s-121 -60 -206 -60z" />
    <glyph glyph-name="Jcircumflex" unicode="&#x134;" horiz-adv-x="499" 
d="M184 -14c-73 0 -129 14 -168 41v142c40 -32 86 -48 138 -48c89 0 133 38 133 133v446h143v-470c0 -185 -114 -244 -246 -244zM291 762h-122l122 145h136l119 -145h-123l-67 77z" />
    <glyph glyph-name="jcircumflex" unicode="&#x135;" horiz-adv-x="293" 
d="M36 -206c-49 0 -86 7 -111 22v119c24 -13 49 -19 75 -19c51 0 76 26 76 79v504h141v-517c0 -119 -69 -188 -181 -188zM80 576h-121l122 146h136l119 -146h-124l-66 78z" />
    <glyph glyph-name="uni0136" unicode="&#x136;" horiz-adv-x="706" 
d="M221 0h-144v700h144v-276l258 276h176l-297 -321l348 -379h-184l-301 323v-323zM363 -270h-105l59 204h130z" />
    <glyph glyph-name="uni0137" unicode="&#x137;" horiz-adv-x="591" 
d="M202 0h-141v700h141v-383l172 182h173l-217 -225l251 -274h-182l-197 215v-215zM301 -270h-105l59 204h130z" />
    <glyph glyph-name="kgreenlandic" unicode="&#x138;" horiz-adv-x="599" 
d="M210 0h-141v499h141v-182l172 182h173l-217 -225l251 -274h-182l-197 215v-215z" />
    <glyph glyph-name="Lacute" unicode="&#x139;" horiz-adv-x="603" 
d="M576 0h-499v700h144v-571h355v-129zM211 761h-122l95 146h170z" />
    <glyph glyph-name="lacute" unicode="&#x13a;" horiz-adv-x="310" 
d="M193 -13c-77 0 -133 38 -133 138v575h141v-538c0 -33 15 -50 45 -50c14 0 26 3 36 9v-116c-24 -12 -54 -18 -89 -18zM194 761h-122l95 146h170z" />
    <glyph glyph-name="uni013B" unicode="&#x13b;" horiz-adv-x="603" 
d="M576 0h-499v700h144v-571h355v-129zM334 -270h-105l59 204h130z" />
    <glyph glyph-name="lcommaaccent" unicode="&#x13c;" horiz-adv-x="318" 
d="M202 -13c-77 0 -133 38 -133 138v575h141v-538c0 -33 15 -50 45 -50c14 0 26 3 36 9v-116c-24 -12 -54 -18 -89 -18zM186 -270h-105l59 204h130z" />
    <glyph glyph-name="Lcaron" unicode="&#x13d;" horiz-adv-x="611" 
d="M576 0h-499v700h144v-571h355v-129zM487 496h-105l59 204h130z" />
    <glyph glyph-name="lcaron" unicode="&#x13e;" horiz-adv-x="428" 
d="M186 -13c-77 0 -133 38 -133 138v575h141v-538c0 -33 15 -50 45 -50c14 0 26 3 36 9v-116c-24 -12 -54 -18 -89 -18zM358 496h-105l59 204h130z" />
    <glyph glyph-name="Ldot" unicode="&#x13f;" horiz-adv-x="603" 
d="M489 298c-49 0 -87 39 -87 88c0 48 38 86 87 86c48 0 87 -38 87 -86c0 -49 -39 -88 -87 -88zM576 0h-499v700h144v-571h355v-129z" />
    <glyph glyph-name="ldot" unicode="&#x140;" horiz-adv-x="476" 
d="M195 -13c-77 0 -133 38 -133 138v575h141v-538c0 -33 15 -50 45 -50c14 0 26 3 36 9v-116c-24 -12 -54 -18 -89 -18zM351 298c-49 0 -87 39 -87 88c0 48 38 86 87 86c48 0 87 -38 87 -86c0 -49 -39 -88 -87 -88z" />
    <glyph glyph-name="Lslash" unicode="&#x141;" horiz-adv-x="634" 
d="M108 279l-97 -62v124l97 62v297h144v-204l146 95v-124l-146 -95v-243h355v-129h-499v279z" />
    <glyph glyph-name="lslash" unicode="&#x142;" horiz-adv-x="393" 
d="M118 266l-102 -66v124l102 66v310h141v-219l103 67v-124l-103 -67v-195c0 -33 15 -50 45 -50c14 0 26 3 36 9v-116c-24 -12 -54 -18 -89 -18c-77 0 -133 38 -133 138v141z" />
    <glyph glyph-name="Nacute" unicode="&#x143;" horiz-adv-x="771" 
d="M218 0h-141v700h123l353 -448v448h140v-700h-119l-356 450v-450zM439 761h-122l95 146h170z" />
    <glyph glyph-name="nacute" unicode="&#x144;" horiz-adv-x="618" 
d="M210 318v-318h-141v499h141v-60c45 49 100 73 167 73c116 0 182 -78 182 -206v-306h-141v277c0 77 -43 106 -95 106c-44 0 -89 -28 -113 -65zM345 570h-122l95 146h170z" />
    <glyph glyph-name="uni0145" unicode="&#x145;" horiz-adv-x="771" 
d="M218 0h-141v700h123l353 -448v448h140v-700h-119l-356 450v-450zM401 -270h-105l59 204h130z" />
    <glyph glyph-name="uni0146" unicode="&#x146;" horiz-adv-x="618" 
d="M210 318v-318h-141v499h141v-60c45 49 100 73 167 73c116 0 182 -78 182 -206v-306h-141v277c0 77 -43 106 -95 106c-44 0 -89 -28 -113 -65zM304 -270h-105l59 204h130z" />
    <glyph glyph-name="Ncaron" unicode="&#x147;" horiz-adv-x="771" 
d="M218 0h-141v700h123l353 -448v448h140v-700h-119l-356 450v-450zM452 907h122l-122 -146h-136l-119 146h123l67 -78z" />
    <glyph glyph-name="ncaron" unicode="&#x148;" horiz-adv-x="618" 
d="M210 318v-318h-141v499h141v-60c45 49 100 73 167 73c116 0 182 -78 182 -206v-306h-141v277c0 77 -43 106 -95 106c-44 0 -89 -28 -113 -65zM381 716h122l-122 -146h-136l-120 146h124l66 -78z" />
    <glyph glyph-name="napostrophe" unicode="&#x149;" horiz-adv-x="759" 
d="M351 318v-318h-141v499h141v-60c45 49 100 73 167 73c116 0 182 -78 182 -206v-306h-141v277c0 77 -43 106 -95 106c-44 0 -89 -28 -113 -65zM119 496h-105l59 204h130z" />
    <glyph glyph-name="Eng" unicode="&#x14a;" horiz-adv-x="771" 
d="M218 0h-141v700h123l353 -448v448h140v-702c0 -129 -72 -204 -193 -204c-51 0 -91 8 -120 23v125c25 -15 53 -22 84 -22c58 0 87 30 87 90v19l-333 421v-450z" />
    <glyph glyph-name="eng" unicode="&#x14b;" horiz-adv-x="618" 
d="M378 -206c-49 0 -86 7 -111 22v120c24 -13 49 -19 75 -19c51 0 76 26 76 79v281c0 77 -43 106 -95 106c-44 0 -89 -28 -113 -65v-318h-141v499h141v-60c45 49 100 73 167 73c116 0 182 -78 182 -206v-324c0 -119 -69 -188 -181 -188z" />
    <glyph glyph-name="Omacron" unicode="&#x14c;" horiz-adv-x="832" 
d="M261 186c41 -43 93 -65 155 -65s113 22 154 65s62 98 62 164s-21 121 -62 164s-92 65 -154 65s-114 -22 -155 -65s-61 -98 -61 -164s20 -121 61 -164zM53 350c0 102 34 188 103 258c69 71 156 106 260 106s190 -35 259 -106c69 -70 104 -156 104 -258
c0 -101 -35 -187 -104 -258s-155 -106 -259 -106s-191 35 -260 106s-103 157 -103 258zM569 785h-306v95h306v-95z" />
    <glyph glyph-name="omacron" unicode="&#x14d;" horiz-adv-x="625" 
d="M214 150c26 -27 59 -40 99 -40s73 13 99 40s39 60 39 100s-13 73 -39 99c-26 27 -59 40 -99 40s-73 -13 -99 -40c-26 -26 -39 -59 -39 -99s13 -73 39 -100zM36 250c0 74 26 136 78 186c52 51 118 76 199 76s147 -25 199 -76s78 -113 78 -186c0 -75 -26 -137 -78 -188
c-52 -50 -118 -75 -199 -75s-147 25 -199 75c-52 51 -78 113 -78 188zM467 595h-307v95h307v-95z" />
    <glyph glyph-name="Obreve" unicode="&#x14e;" horiz-adv-x="832" 
d="M261 186c41 -43 93 -65 155 -65s113 22 154 65s62 98 62 164s-21 121 -62 164s-92 65 -154 65s-114 -22 -155 -65s-61 -98 -61 -164s20 -121 61 -164zM53 350c0 102 34 188 103 258c69 71 156 106 260 106s190 -35 259 -106c69 -70 104 -156 104 -258
c0 -101 -35 -187 -104 -258s-155 -106 -259 -106s-191 35 -260 106s-103 157 -103 258zM251 921h95c3 -44 30 -73 70 -73s67 29 70 73h95c-1 -50 -18 -90 -50 -119c-31 -29 -70 -44 -115 -44s-84 15 -116 44c-31 29 -48 69 -49 119z" />
    <glyph glyph-name="obreve" unicode="&#x14f;" horiz-adv-x="625" 
d="M214 150c26 -27 59 -40 99 -40s73 13 99 40s39 60 39 100s-13 73 -39 99c-26 27 -59 40 -99 40s-73 -13 -99 -40c-26 -26 -39 -59 -39 -99s13 -73 39 -100zM36 250c0 74 26 136 78 186c52 51 118 76 199 76s147 -25 199 -76s78 -113 78 -186c0 -75 -26 -137 -78 -188
c-52 -50 -118 -75 -199 -75s-147 25 -199 75c-52 51 -78 113 -78 188zM313 568c-92 0 -162 63 -166 162h96c3 -43 30 -73 70 -73s66 30 69 73h95c-1 -49 -18 -89 -49 -118s-70 -44 -115 -44z" />
    <glyph glyph-name="Ohungarumlaut" unicode="&#x150;" horiz-adv-x="832" 
d="M261 186c41 -43 93 -65 155 -65s113 22 154 65s62 98 62 164s-21 121 -62 164s-92 65 -154 65s-114 -22 -155 -65s-61 -98 -61 -164s20 -121 61 -164zM53 350c0 102 34 188 103 258c69 71 156 106 260 106s190 -35 259 -106c69 -70 104 -156 104 -258
c0 -101 -35 -187 -104 -258s-155 -106 -259 -106s-191 35 -260 106s-103 157 -103 258zM600 761h-123l95 146h172zM372 761h-123l95 146h172z" />
    <glyph glyph-name="ohungarumlaut" unicode="&#x151;" horiz-adv-x="625" 
d="M214 150c26 -27 59 -40 99 -40s73 13 99 40s39 60 39 100s-13 73 -39 99c-26 27 -59 40 -99 40s-73 -13 -99 -40c-26 -26 -39 -59 -39 -99s13 -73 39 -100zM36 250c0 74 26 136 78 186c52 51 118 76 199 76s147 -25 199 -76s78 -113 78 -186c0 -75 -26 -137 -78 -188
c-52 -50 -118 -75 -199 -75s-147 25 -199 75c-52 51 -78 113 -78 188zM484 570h-123l95 146h172zM256 570h-123l95 146h172z" />
    <glyph glyph-name="OE" unicode="&#x152;" horiz-adv-x="1079" 
d="M1041 0h-604c-113 0 -206 32 -277 97s-107 150 -107 253s36 187 107 252s164 98 277 98h593v-129h-363v-135h291v-127h-291v-180h374v-129zM449 129h74v442h-74c-157 0 -248 -82 -248 -221s91 -221 248 -221z" />
    <glyph glyph-name="oe" unicode="&#x153;" horiz-adv-x="979" 
d="M940 248v-37h-358c15 -68 79 -104 167 -104c56 0 109 15 160 44v-113c-45 -34 -109 -51 -194 -51c-83 0 -150 27 -201 81c-53 -54 -121 -81 -204 -81c-79 0 -144 25 -196 76s-78 113 -78 187s26 136 78 186c52 51 118 76 199 76s148 -28 201 -84c49 56 111 84 185 84
s133 -26 176 -77s65 -113 65 -187zM214 150c26 -27 59 -40 99 -40s73 13 99 40s39 60 39 100s-13 73 -39 100s-59 40 -99 40s-73 -13 -99 -40s-39 -60 -39 -100s13 -73 39 -100zM582 301h219c-3 55 -42 100 -105 100c-64 0 -107 -41 -114 -100z" />
    <glyph glyph-name="Racute" unicode="&#x154;" horiz-adv-x="730" 
d="M221 0h-144v700h324c74 0 133 -19 176 -58c43 -38 65 -88 65 -149c0 -93 -54 -166 -145 -194l216 -299h-167l-204 283h-121v-283zM221 574v-170h172c65 0 104 30 104 85c0 53 -39 85 -104 85h-172zM352 761h-122l95 146h170z" />
    <glyph glyph-name="racute" unicode="&#x155;" horiz-adv-x="423" 
d="M210 0h-141v499h141v-84c15 26 38 49 70 68s67 29 104 29c7 0 12 0 16 -1v-138c-12 3 -27 5 -44 5c-68 0 -126 -42 -146 -87v-291zM254 570h-122l95 146h170z" />
    <glyph glyph-name="uni0156" unicode="&#x156;" horiz-adv-x="730" 
d="M221 0h-144v700h324c74 0 133 -19 176 -58c43 -38 65 -88 65 -149c0 -93 -54 -166 -145 -194l216 -299h-167l-204 283h-121v-283zM221 574v-170h172c65 0 104 30 104 85c0 53 -39 85 -104 85h-172zM368 -270h-105l59 204h130z" />
    <glyph glyph-name="uni0157" unicode="&#x157;" horiz-adv-x="423" 
d="M210 0h-141v499h141v-84c15 26 38 49 70 68s67 29 104 29c7 0 12 0 16 -1v-138c-12 3 -27 5 -44 5c-68 0 -126 -42 -146 -87v-291zM122 -270h-105l59 204h130z" />
    <glyph glyph-name="Rcaron" unicode="&#x158;" horiz-adv-x="730" 
d="M221 0h-144v700h324c74 0 133 -19 176 -58c43 -38 65 -88 65 -149c0 -93 -54 -166 -145 -194l216 -299h-167l-204 283h-121v-283zM221 574v-170h172c65 0 104 30 104 85c0 53 -39 85 -104 85h-172zM402 907h122l-122 -146h-136l-119 146h123l67 -78z" />
    <glyph glyph-name="rcaron" unicode="&#x159;" horiz-adv-x="415" 
d="M202 0h-141v499h141v-84c15 26 38 49 70 68s67 29 104 29c7 0 12 0 16 -1v-138c-12 3 -27 5 -44 5c-68 0 -126 -42 -146 -87v-291zM285 716h122l-122 -146h-136l-120 146h124l66 -78z" />
    <glyph glyph-name="Sacute" unicode="&#x15a;" horiz-adv-x="627" 
d="M309 -14c-105 0 -194 25 -266 75v150c29 -25 67 -47 116 -66c49 -18 97 -27 144 -27c76 0 135 28 135 81c0 25 -12 47 -36 58c-13 8 -20 11 -40 18l-24 8l-56 17l-52 17c-10 3 -26 9 -47 17s-36 15 -45 21c-19 13 -53 37 -66 61c-12 24 -24 58 -24 98c0 62 24 111 71 146
c47 36 112 54 193 54s158 -19 229 -58v-140c-71 44 -147 66 -227 66c-79 0 -119 -23 -119 -69c0 -23 14 -37 37 -48c13 -7 38 -16 57 -21s55 -15 76 -22c67 -21 105 -40 152 -73s70 -82 70 -146c0 -67 -26 -120 -79 -159s-119 -58 -199 -58zM329 761h-122l95 146h170z" />
    <glyph glyph-name="sacute" unicode="&#x15b;" horiz-adv-x="512" 
d="M253 -13c-89 0 -159 16 -210 47v125c44 -29 123 -57 204 -57c57 0 86 14 86 42c0 13 -6 23 -25 31c-9 4 -18 7 -26 9l-37 9c-17 5 -31 8 -40 11c-115 31 -162 67 -162 155c0 95 83 153 220 153c75 0 138 -15 187 -46v-120c-60 35 -120 52 -181 52c-53 0 -80 -13 -80 -40
c0 -17 13 -24 28 -33c11 -4 31 -9 43 -13l53 -11c108 -25 163 -71 163 -158c0 -47 -20 -84 -61 -113s-95 -43 -162 -43zM280 570h-122l95 146h170z" />
    <glyph glyph-name="Scircumflex" unicode="&#x15c;" horiz-adv-x="627" 
d="M309 -14c-105 0 -194 25 -266 75v150c29 -25 67 -47 116 -66c49 -18 97 -27 144 -27c76 0 135 28 135 81c0 25 -12 47 -36 58c-13 8 -20 11 -40 18l-24 8l-56 17l-52 17c-10 3 -26 9 -47 17s-36 15 -45 21c-19 13 -53 37 -66 61c-12 24 -24 58 -24 98c0 62 24 111 71 146
c47 36 112 54 193 54s158 -19 229 -58v-140c-71 44 -147 66 -227 66c-79 0 -119 -23 -119 -69c0 -23 14 -37 37 -48c13 -7 38 -16 57 -21s55 -15 76 -22c67 -21 105 -40 152 -73s70 -82 70 -146c0 -67 -26 -120 -79 -159s-119 -58 -199 -58zM242 762h-122l122 145h136
l119 -145h-123l-67 77z" />
    <glyph glyph-name="scircumflex" unicode="&#x15d;" horiz-adv-x="512" 
d="M253 -13c-89 0 -159 16 -210 47v125c44 -29 123 -57 204 -57c57 0 86 14 86 42c0 13 -6 23 -25 31c-9 4 -18 7 -26 9l-37 9c-17 5 -31 8 -40 11c-115 31 -162 67 -162 155c0 95 83 153 220 153c75 0 138 -15 187 -46v-120c-60 35 -120 52 -181 52c-53 0 -80 -13 -80 -40
c0 -17 13 -24 28 -33c11 -4 31 -9 43 -13l53 -11c108 -25 163 -71 163 -158c0 -47 -20 -84 -61 -113s-95 -43 -162 -43zM186 570h-121l122 146h136l119 -146h-124l-66 78z" />
    <glyph glyph-name="Scedilla" unicode="&#x15e;" horiz-adv-x="627" 
d="M326 -145h-163l100 133c-88 7 -161 32 -220 73v150c29 -25 67 -47 116 -66c49 -18 97 -27 144 -27c76 0 135 28 135 81c0 25 -12 47 -36 58c-13 8 -20 11 -40 18l-24 8l-56 17l-52 17c-10 3 -26 9 -47 17s-36 15 -45 21c-19 13 -53 37 -66 61c-12 24 -24 58 -24 98
c0 62 24 111 71 146c47 36 112 54 193 54s158 -19 229 -58v-140c-71 44 -147 66 -227 66c-79 0 -119 -23 -119 -69c0 -23 14 -37 37 -48c13 -7 38 -16 57 -21s55 -15 76 -22c67 -21 105 -40 152 -73s70 -82 70 -146c0 -111 -81 -187 -202 -210z" />
    <glyph glyph-name="scedilla" unicode="&#x15f;" horiz-adv-x="512" 
d="M263 -145h-163l100 134c-67 6 -119 21 -157 45v125c44 -29 123 -57 204 -57c57 0 86 14 86 42c0 13 -6 23 -25 31c-9 4 -18 7 -26 9l-37 9c-17 5 -31 8 -40 11c-115 31 -162 67 -162 155c0 95 83 153 220 153c75 0 138 -15 187 -46v-120c-60 35 -120 52 -181 52
c-53 0 -80 -13 -80 -40c0 -17 13 -24 28 -33c11 -4 31 -9 43 -13l53 -11c108 -25 163 -71 163 -158c0 -75 -58 -133 -154 -150z" />
    <glyph glyph-name="Scaron" unicode="&#x160;" horiz-adv-x="627" 
d="M309 -14c-105 0 -194 25 -266 75v150c29 -25 67 -47 116 -66c49 -18 97 -27 144 -27c76 0 135 28 135 81c0 25 -12 47 -36 58c-13 8 -20 11 -40 18l-24 8l-56 17l-52 17c-10 3 -26 9 -47 17s-36 15 -45 21c-19 13 -53 37 -66 61c-12 24 -24 58 -24 98c0 62 24 111 71 146
c47 36 112 54 193 54s158 -19 229 -58v-140c-71 44 -147 66 -227 66c-79 0 -119 -23 -119 -69c0 -23 14 -37 37 -48c13 -7 38 -16 57 -21s55 -15 76 -22c67 -21 105 -40 152 -73s70 -82 70 -146c0 -67 -26 -120 -79 -159s-119 -58 -199 -58zM372 907h122l-122 -146h-136
l-119 146h123l67 -78z" />
    <glyph glyph-name="scaron" unicode="&#x161;" horiz-adv-x="512" 
d="M253 -13c-89 0 -159 16 -210 47v125c44 -29 123 -57 204 -57c57 0 86 14 86 42c0 13 -6 23 -25 31c-9 4 -18 7 -26 9l-37 9c-17 5 -31 8 -40 11c-115 31 -162 67 -162 155c0 95 83 153 220 153c75 0 138 -15 187 -46v-120c-60 35 -120 52 -181 52c-53 0 -80 -13 -80 -40
c0 -17 13 -24 28 -33c11 -4 31 -9 43 -13l53 -11c108 -25 163 -71 163 -158c0 -47 -20 -84 -61 -113s-95 -43 -162 -43zM327 716h122l-122 -146h-136l-120 146h124l66 -78z" />
    <glyph glyph-name="uni0162" unicode="&#x162;" horiz-adv-x="647" 
d="M318 -145h-163l108 145h-12v571h-221v129h587v-129h-222v-571h-15z" />
    <glyph glyph-name="uni0163" unicode="&#x163;" horiz-adv-x="441" 
d="M116 155v226h-98v118h98v137h141v-137h142v-118h-142v-198c0 -49 20 -70 68 -70c25 0 49 6 73 18v-117c-18 -11 -43 -19 -74 -23l-58 -136h-163l106 143c-62 21 -93 73 -93 157z" />
    <glyph glyph-name="Tcaron" unicode="&#x164;" horiz-adv-x="647" 
d="M30 571v129h587v-129h-222v-571h-144v571h-221zM390 907h122l-122 -146h-136l-119 146h123l67 -78z" />
    <glyph glyph-name="tcaron" unicode="&#x165;" horiz-adv-x="620" 
d="M123 381h-98v118h98v137h141v-137h142v-118h-142v-198c0 -49 20 -70 68 -70c25 0 49 6 73 18v-117c-29 -18 -68 -27 -119 -27c-109 0 -163 56 -163 168v226zM550 496h-105l59 204h130z" />
    <glyph glyph-name="Tbar" unicode="&#x166;" horiz-adv-x="647" 
d="M395 0h-144v300h-123v118h123v153h-221v129h587v-129h-222v-153h121v-118h-121v-300z" />
    <glyph glyph-name="tbar" unicode="&#x167;" horiz-adv-x="441" 
d="M116 213h-98v103h98v65h-98v118h98v137h141v-137h142v-118h-142v-65h142v-103h-142v-30c0 -49 20 -70 68 -70c25 0 49 6 73 18v-117c-29 -18 -68 -27 -119 -27c-109 0 -163 56 -163 168v58z" />
    <glyph glyph-name="Utilde" unicode="&#x168;" horiz-adv-x="735" 
d="M263 765h-77c1 79 47 140 114 140c20 0 44 -7 71 -22s48 -22 61 -22c23 0 37 14 43 41h76c0 -37 -11 -70 -32 -99c-21 -28 -48 -42 -81 -42c-21 0 -45 7 -72 22s-48 23 -61 23c-23 0 -37 -14 -42 -41zM367 -14c-87 0 -159 27 -215 81s-84 130 -84 227v406h143v-411
c0 -111 64 -168 156 -168c93 0 157 57 157 168v411h144v-406c0 -97 -28 -173 -85 -227c-56 -54 -128 -81 -216 -81z" />
    <glyph glyph-name="utilde" unicode="&#x169;" horiz-adv-x="619" 
d="M550 499v-499h-141v60c-45 -49 -100 -73 -167 -73c-116 0 -182 78 -182 206v306h141v-277c0 -77 43 -106 95 -106c44 0 89 28 113 65v318h141zM200 576h-76c0 39 10 72 31 99s49 41 82 41c20 0 44 -7 71 -22c28 -15 49 -22 62 -22c23 0 37 14 42 41h77
c-1 -37 -12 -70 -33 -99c-21 -28 -47 -42 -80 -42c-21 0 -45 7 -72 22s-48 23 -61 23c-23 0 -37 -14 -43 -41z" />
    <glyph glyph-name="Umacron" unicode="&#x16a;" horiz-adv-x="735" 
d="M367 -14c-87 0 -159 27 -215 81s-84 130 -84 227v406h143v-411c0 -111 64 -168 156 -168c93 0 157 57 157 168v411h144v-406c0 -97 -28 -173 -85 -227c-56 -54 -128 -81 -216 -81zM521 785h-306v95h306v-95z" />
    <glyph glyph-name="umacron" unicode="&#x16b;" horiz-adv-x="619" 
d="M550 499v-499h-141v60c-45 -49 -100 -73 -167 -73c-116 0 -182 78 -182 206v306h141v-277c0 -77 43 -106 95 -106c44 0 89 28 113 65v318h141zM459 595h-307v95h307v-95z" />
    <glyph glyph-name="Ubreve" unicode="&#x16c;" horiz-adv-x="735" 
d="M367 -14c-87 0 -159 27 -215 81s-84 130 -84 227v406h143v-411c0 -111 64 -168 156 -168c93 0 157 57 157 168v411h144v-406c0 -97 -28 -173 -85 -227c-56 -54 -128 -81 -216 -81zM203 909h95c3 -44 30 -73 70 -73s67 29 70 73h95c-1 -50 -18 -90 -50 -119
c-31 -29 -70 -44 -115 -44s-84 15 -116 44c-31 29 -48 69 -49 119z" />
    <glyph glyph-name="ubreve" unicode="&#x16d;" horiz-adv-x="619" 
d="M550 499v-499h-141v60c-45 -49 -100 -73 -167 -73c-116 0 -182 78 -182 206v306h141v-277c0 -77 43 -106 95 -106c44 0 89 28 113 65v318h141zM306 561c-92 0 -162 63 -166 162h96c3 -43 30 -73 70 -73s66 30 69 73h95c-1 -49 -18 -89 -49 -118s-70 -44 -115 -44z" />
    <glyph glyph-name="Uring" unicode="&#x16e;" horiz-adv-x="735" 
d="M442 764c-41 -41 -107 -41 -148 0s-41 107 0 148s107 41 148 0s41 -107 0 -148zM335 805c19 -17 48 -17 65 0c19 19 19 48 0 65c-17 19 -46 19 -65 0c-17 -17 -17 -46 0 -65zM367 -14c-87 0 -159 27 -215 81s-84 130 -84 227v406h143v-411c0 -111 64 -168 156 -168
c93 0 157 57 157 168v411h144v-406c0 -97 -28 -173 -85 -227c-56 -54 -128 -81 -216 -81z" />
    <glyph glyph-name="uring" unicode="&#x16f;" horiz-adv-x="619" 
d="M550 499v-499h-141v60c-45 -49 -100 -73 -167 -73c-116 0 -182 78 -182 206v306h141v-277c0 -77 43 -106 95 -106c44 0 89 28 113 65v318h141zM380 576c-41 -41 -107 -41 -148 0s-41 107 0 148s107 41 148 0s41 -107 0 -148zM273 617c19 -17 48 -17 65 0
c19 19 19 48 0 65c-17 19 -46 19 -65 0c-17 -17 -17 -46 0 -65z" />
    <glyph glyph-name="Uhungarumlaut" unicode="&#x170;" horiz-adv-x="735" 
d="M367 -14c-87 0 -159 27 -215 81s-84 130 -84 227v406h143v-411c0 -111 64 -168 156 -168c93 0 157 57 157 168v411h144v-406c0 -97 -28 -173 -85 -227c-56 -54 -128 -81 -216 -81zM524 761h-123l95 146h172zM296 761h-123l95 146h172z" />
    <glyph glyph-name="uhungarumlaut" unicode="&#x171;" horiz-adv-x="611" 
d="M550 499v-499h-141v60c-45 -49 -100 -73 -167 -73c-116 0 -182 78 -182 206v306h141v-277c0 -77 43 -106 95 -106c44 0 89 28 113 65v318h141zM472 570h-123l95 146h172zM244 570h-123l95 146h172z" />
    <glyph glyph-name="Uogonek" unicode="&#x172;" horiz-adv-x="735" 
d="M487 -116c13 0 25 2 36 6v-83c-16 -6 -36 -9 -60 -9c-80 0 -128 44 -128 104c0 31 10 59 31 84c-87 1 -159 28 -215 81c-55 54 -83 130 -83 227v406h143v-411c0 -111 64 -168 156 -168c93 0 157 57 157 168v411h144v-406c0 -143 -59 -226 -167 -282
c-45 -23 -68 -51 -68 -82c0 -29 21 -46 54 -46z" />
    <glyph glyph-name="uogonek" unicode="&#x173;" horiz-adv-x="619" 
d="M545 -202c-80 0 -128 44 -128 103c0 36 15 69 45 99h-53v60c-45 -49 -100 -73 -167 -73c-116 0 -182 78 -182 206v306h141v-277c0 -77 43 -106 95 -106c44 0 89 28 113 65v318h141v-499c-23 -23 -35 -47 -35 -70c0 -29 21 -47 54 -47c15 0 27 2 36 7v-84
c-14 -5 -34 -8 -60 -8z" />
    <glyph glyph-name="Wcircumflex" unicode="&#x174;" horiz-adv-x="1075" 
d="M383 -4h-127l-235 704h160l144 -472l158 474h112l159 -474l144 472h157l-236 -704h-127l-153 467zM472 762h-122l122 145h136l119 -145h-123l-67 77z" />
    <glyph glyph-name="wcircumflex" unicode="&#x175;" horiz-adv-x="845" 
d="M308 -4h-120l-169 503h141l99 -297l98 299h113l101 -299l97 297h140l-171 -503h-122l-104 301zM345 570h-121l122 146h136l119 -146h-124l-66 78z" />
    <glyph glyph-name="Ycircumflex" unicode="&#x176;" horiz-adv-x="696" 
d="M420 0h-143v314l-271 386h170l174 -249l175 249h165l-270 -383v-317zM282 762h-122l122 145h136l119 -145h-123l-67 77z" />
    <glyph glyph-name="ycircumflex" unicode="&#x177;" horiz-adv-x="579" 
d="M134 -206c-41 0 -75 7 -100 20v123c23 -13 49 -20 76 -20c51 0 82 31 111 100l-215 482h152l132 -328l125 328h149l-231 -551c-44 -103 -110 -154 -199 -154zM219 570h-121l122 146h136l119 -146h-124l-66 78z" />
    <glyph glyph-name="Ydieresis" unicode="&#x178;" horiz-adv-x="696" 
d="M420 0h-143v314l-271 386h170l174 -249l175 249h165l-270 -383v-317zM511 781c-28 -28 -76 -28 -105 0c-28 29 -28 77 0 105c29 28 77 28 105 0s28 -76 0 -105zM239 760c-40 0 -74 33 -74 74c0 40 34 73 74 73c41 0 74 -32 74 -73s-33 -74 -74 -74z" />
    <glyph glyph-name="Zacute" unicode="&#x179;" horiz-adv-x="641" 
d="M608 0h-575v102l364 469h-347v129h542v-101l-363 -470h379v-129zM354 761h-122l95 146h170z" />
    <glyph glyph-name="zacute" unicode="&#x17a;" horiz-adv-x="526" 
d="M493 0h-461v93l252 288h-236v118h429v-96l-253 -285h269v-118zM285 570h-122l95 146h170z" />
    <glyph glyph-name="Zdotaccent" unicode="&#x17b;" horiz-adv-x="641" 
d="M608 0h-575v102l364 469h-347v129h542v-101l-363 -470h379v-129zM320 760c-40 0 -74 33 -74 74c0 40 34 73 74 73c41 0 74 -33 74 -73c0 -41 -33 -74 -74 -74z" />
    <glyph glyph-name="zdotaccent" unicode="&#x17c;" horiz-adv-x="526" 
d="M493 0h-461v93l252 288h-236v118h429v-96l-253 -285h269v-118zM263 569c-40 0 -74 33 -74 74c0 40 34 73 74 73c41 0 73 -32 73 -73s-32 -74 -73 -74z" />
    <glyph glyph-name="Zcaron" unicode="&#x17d;" horiz-adv-x="641" 
d="M608 0h-575v102l364 469h-347v129h542v-101l-363 -470h379v-129zM387 907h122l-122 -146h-136l-119 146h123l67 -78z" />
    <glyph glyph-name="zcaron" unicode="&#x17e;" horiz-adv-x="526" 
d="M493 0h-461v93l252 288h-236v118h429v-96l-253 -285h269v-118zM329 716h122l-122 -146h-136l-120 146h124l66 -78z" />
    <glyph glyph-name="longs" unicode="&#x17f;" horiz-adv-x="410" 
d="M248 527v-527h-141v381h-89v118h89v47c0 99 58 166 169 166c49 0 91 -7 127 -21v-114c-29 11 -57 17 -86 17c-46 0 -69 -22 -69 -67z" />
    <glyph glyph-name="florin" unicode="&#x192;" horiz-adv-x="504" 
d="M410 712c39 0 72 -6 98 -19v-116c-23 9 -46 13 -68 13c-64 0 -102 -39 -115 -116l-8 -47h133v-118h-152l-49 -308c-19 -121 -93 -207 -225 -207c-39 0 -72 6 -98 19v116c23 -9 46 -13 68 -13c64 0 102 39 115 116l44 277h-104v118h123l13 78c19 121 93 207 225 207z" />
    <glyph glyph-name="uni0218" unicode="&#x218;" horiz-adv-x="627" 
d="M309 -14c-105 0 -194 25 -266 75v150c29 -25 67 -47 116 -66c49 -18 97 -27 144 -27c76 0 135 28 135 81c0 25 -12 47 -36 58c-13 8 -20 11 -40 18l-24 8l-56 17l-52 17c-10 3 -26 9 -47 17s-36 15 -45 21c-19 13 -53 37 -66 61c-12 24 -24 58 -24 98c0 62 24 111 71 146
c47 36 112 54 193 54s158 -19 229 -58v-140c-71 44 -147 66 -227 66c-79 0 -119 -23 -119 -69c0 -23 14 -37 37 -48c13 -7 38 -16 57 -21s55 -15 76 -22c67 -21 105 -40 152 -73s70 -82 70 -146c0 -67 -26 -120 -79 -159s-119 -58 -199 -58zM307 -270h-105l59 204h130z" />
    <glyph glyph-name="uni0219" unicode="&#x219;" horiz-adv-x="512" 
d="M253 -13c-89 0 -159 16 -210 47v125c44 -29 123 -57 204 -57c57 0 86 14 86 42c0 13 -6 23 -25 31c-9 4 -18 7 -26 9l-37 9c-17 5 -31 8 -40 11c-115 31 -162 67 -162 155c0 95 83 153 220 153c75 0 138 -15 187 -46v-120c-60 35 -120 52 -181 52c-53 0 -80 -13 -80 -40
c0 -17 13 -24 28 -33c11 -4 31 -9 43 -13l53 -11c108 -25 163 -71 163 -158c0 -47 -20 -84 -61 -113s-95 -43 -162 -43zM262 -270h-105l59 204h130z" />
    <glyph glyph-name="uni021A" unicode="&#x21a;" horiz-adv-x="647" 
d="M30 571v129h587v-129h-222v-571h-144v571h-221zM305 -270h-105l59 204h130z" />
    <glyph glyph-name="uni021B" unicode="&#x21b;" horiz-adv-x="441" 
d="M116 155v226h-98v118h98v137h141v-137h142v-118h-142v-198c0 -49 20 -70 68 -70c25 0 49 6 73 18v-117c-29 -18 -68 -27 -119 -27c-109 0 -163 56 -163 168zM256 -270h-105l59 204h130z" />
    <glyph glyph-name="circumflex" unicode="&#x2c6;" horiz-adv-x="540" 
d="M204 570h-121l122 146h136l119 -146h-124l-66 78z" />
    <glyph glyph-name="caron" unicode="&#x2c7;" horiz-adv-x="514" 
d="M299 716h122l-122 -146h-136l-120 146h124l66 -78z" />
    <glyph glyph-name="uni02C9" unicode="&#x2c9;" horiz-adv-x="503" 
d="M418 596h-333v94h333v-94z" />
    <glyph glyph-name="breve" unicode="&#x2d8;" horiz-adv-x="480" 
d="M239 561c-92 0 -162 63 -166 162h96c3 -43 30 -73 70 -73s66 30 69 73h95c-1 -49 -18 -89 -49 -118s-70 -44 -115 -44z" />
    <glyph glyph-name="dotaccent" unicode="&#x2d9;" horiz-adv-x="568" 
d="M285 569c-40 0 -74 33 -74 74c0 40 34 73 74 73c41 0 73 -32 73 -73s-32 -74 -73 -74z" />
    <glyph glyph-name="ring" unicode="&#x2da;" horiz-adv-x="555" 
d="M337 576c-41 -41 -107 -41 -148 0s-41 107 0 148s107 41 148 0s41 -107 0 -148zM230 617c19 -17 48 -17 65 0c19 19 19 48 0 65c-17 19 -46 19 -65 0c-17 -17 -17 -46 0 -65z" />
    <glyph glyph-name="ogonek" unicode="&#x2db;" horiz-adv-x="496" 
d="M302 -200c-80 0 -128 44 -128 103c0 36 15 69 45 99h88c-23 -23 -35 -47 -35 -70c0 -29 21 -47 54 -47c15 0 27 2 36 7v-84c-14 -5 -34 -8 -60 -8z" />
    <glyph glyph-name="tilde" unicode="&#x2dc;" horiz-adv-x="509" 
d="M146 576h-76c0 39 10 72 31 99s49 41 82 41c20 0 44 -7 71 -22c28 -15 49 -22 62 -22c23 0 37 14 42 41h77c-1 -37 -12 -70 -33 -99c-21 -28 -47 -42 -80 -42c-21 0 -45 7 -72 22s-48 23 -61 23c-23 0 -37 -14 -43 -41z" />
    <glyph glyph-name="hungarumlaut" unicode="&#x2dd;" horiz-adv-x="625" 
d="M418 570h-123l95 146h172zM190 570h-123l95 146h172z" />
    <glyph glyph-name="acutecomb" unicode="&#x301;" horiz-adv-x="12" 
d="M-237 570h-122l95 146h170z" />
    <glyph glyph-name="uni037E" unicode="&#x37e;" horiz-adv-x="285" 
d="M122 -152h-116l86 303h151zM161 319c-49 0 -87 39 -87 88c0 48 38 86 87 86c48 0 87 -38 87 -86c0 -49 -39 -88 -87 -88z" />
    <glyph glyph-name="uni0394" unicode="&#x394;" horiz-adv-x="770" 
d="M754 0h-738l300 700h138zM384 521l-166 -394h332z" />
    <glyph glyph-name="uni03A9" unicode="&#x3a9;" horiz-adv-x="792" 
d="M721 382c0 -100 -42 -198 -99 -253h98v-129h-266v109c68 49 120 140 120 248c0 64 -16 117 -49 159s-76 63 -129 63s-96 -21 -129 -63s-49 -95 -49 -159c0 -108 52 -199 120 -248v-109h-266v129h98c-57 55 -99 153 -99 253c0 91 30 169 89 234s138 98 236 98
s177 -33 236 -98s89 -143 89 -234z" />
    <glyph glyph-name="uni03BC" unicode="&#x3bc;" horiz-adv-x="628" 
d="M418 181v318h141v-499h-141v60c-45 -49 -100 -73 -167 -73c-16 0 -30 1 -41 4v-191h-141v699h141v-277c0 -77 43 -106 95 -106c44 0 89 28 113 65z" />
    <glyph glyph-name="pi" unicode="&#x3c0;" horiz-adv-x="700" 
d="M561 -11c-81 0 -139 50 -139 154v238h-158v-381h-141v381h-97v118h631v-118h-99v-197c0 -49 13 -69 50 -69c19 0 36 5 49 15v-116c-23 -17 -55 -25 -96 -25z" />
    <glyph glyph-name="uni0401" unicode="&#x401;" horiz-adv-x="640" 
d="M602 0h-525v700h514v-129h-370v-135h298v-127h-298v-180h381v-129zM501 781c-28 -28 -76 -28 -105 0c-28 29 -28 77 0 105c29 28 77 28 105 0s28 -76 0 -105zM229 760c-40 0 -74 33 -74 74c0 40 34 73 74 73c41 0 74 -32 74 -73s-33 -74 -74 -74z" />
    <glyph glyph-name="uni0402" unicode="&#x402;" horiz-adv-x="779" 
d="M516 -8c-35 0 -63 4 -85 11v117c19 -7 41 -11 64 -11c65 0 110 38 110 94c0 59 -51 101 -135 101c-52 0 -99 -10 -140 -29v-275h-143v571h-157v129h522v-129h-222v-161c48 18 101 27 158 27c78 0 141 -21 188 -64s71 -98 71 -166c0 -61 -21 -113 -63 -154
c-41 -41 -97 -61 -168 -61z" />
    <glyph glyph-name="uni0403" unicode="&#x403;" horiz-adv-x="617" 
d="M221 0h-144v700h505v-129h-361v-571zM360 761h-122l95 146h170z" />
    <glyph glyph-name="uni0404" unicode="&#x404;" horiz-adv-x="672" 
d="M434 -14c-106 0 -195 35 -268 106s-109 157 -109 258c0 102 36 188 108 258c72 71 161 106 267 106c67 0 129 -15 185 -45v-141c-55 35 -118 53 -187 53c-51 0 -95 -15 -134 -45c-39 -29 -64 -68 -76 -115h266v-121h-273c10 -53 36 -97 77 -131c41 -33 89 -50 143 -50
c81 0 147 20 197 60v-143c-56 -33 -121 -50 -196 -50z" />
    <glyph glyph-name="uni0405" unicode="&#x405;" horiz-adv-x="629" 
d="M311 -14c-105 0 -194 25 -266 75v150c29 -25 67 -47 116 -66c49 -18 97 -27 144 -27c76 0 135 28 135 81c0 25 -12 47 -36 58c-13 8 -20 11 -40 18l-24 8l-56 17l-52 17c-10 3 -26 9 -47 17s-36 15 -45 21c-19 13 -53 37 -66 61c-12 24 -24 58 -24 98c0 62 24 111 71 146
c47 36 112 54 193 54s158 -19 229 -58v-140c-71 44 -147 66 -227 66c-79 0 -119 -23 -119 -69c0 -23 14 -37 37 -48c13 -7 38 -16 57 -21s55 -15 76 -22c67 -21 105 -40 152 -73s70 -82 70 -146c0 -67 -26 -120 -79 -159s-119 -58 -199 -58z" />
    <glyph glyph-name="uni0406" unicode="&#x406;" horiz-adv-x="307" 
d="M225 0h-143v700h143v-700z" />
    <glyph glyph-name="uni0407" unicode="&#x407;" horiz-adv-x="307" 
d="M225 0h-143v700h143v-700zM316 781c-28 -28 -76 -28 -105 0c-28 29 -28 77 0 105c29 28 77 28 105 0s28 -76 0 -105zM44 760c-40 0 -74 33 -74 74c0 40 34 73 74 73c41 0 74 -32 74 -73s-33 -74 -74 -74z" />
    <glyph glyph-name="uni0408" unicode="&#x408;" horiz-adv-x="510" 
d="M196 -14c-73 0 -129 14 -168 41v142c40 -32 86 -48 138 -48c89 0 133 38 133 133v446h143v-470c0 -185 -114 -244 -246 -244z" />
    <glyph glyph-name="uni0409" unicode="&#x409;" horiz-adv-x="1102" 
d="M506 571h-207l-4 -142c-5 -163 -23 -276 -56 -339c-33 -62 -90 -93 -173 -93c-25 0 -45 3 -59 9v130c14 -5 31 -8 51 -8c38 0 63 26 76 77s21 148 23 290l3 205h489v-231h150c83 0 149 -22 198 -66c49 -43 73 -100 73 -169s-24 -126 -73 -169s-115 -65 -198 -65h-293v571
zM649 349v-224h141c84 0 135 42 135 111c0 71 -51 113 -135 113h-141z" />
    <glyph glyph-name="uni040A" unicode="&#x40a;" horiz-adv-x="1123" 
d="M820 0h-293v325h-306v-325h-144v700h144v-248h306v248h143v-231h150c83 0 149 -22 198 -66c49 -43 73 -100 73 -169s-24 -126 -73 -169s-115 -65 -198 -65zM670 349v-224h141c84 0 135 42 135 111c0 71 -51 113 -135 113h-141z" />
    <glyph glyph-name="uni040B" unicode="&#x40b;" horiz-adv-x="801" 
d="M330 274v-274h-143v571h-157v129h522v-129h-222v-160c48 17 101 26 158 26c164 0 258 -78 258 -229v-208h-143v184c0 87 -45 120 -134 120c-51 0 -98 -10 -139 -30z" />
    <glyph glyph-name="uni040C" unicode="&#x40c;" horiz-adv-x="706" 
d="M221 0h-144v700h144v-276l258 276h176l-297 -321l348 -379h-184l-301 323v-323zM387 761h-122l95 146h170z" />
    <glyph glyph-name="uni040E" unicode="&#x40e;" horiz-adv-x="663" 
d="M177 -14c-49 0 -84 7 -106 20v127c23 -13 50 -19 81 -19c29 0 53 7 70 20s35 39 54 77l-265 489h159l177 -344l155 344h153l-258 -548c-52 -111 -125 -166 -220 -166zM148 909h106c0 -44 29 -73 76 -73s77 29 78 73h106c-1 -105 -78 -171 -183 -171s-182 66 -183 171z
" />
    <glyph glyph-name="uni040F" unicode="&#x40f;" horiz-adv-x="736" 
d="M435 -143h-136v143h-222v700h144v-571h293v571h144v-700h-223v-143z" />
    <glyph glyph-name="uni0410" unicode="&#x410;" horiz-adv-x="770" 
d="M167 0h-151l300 704h138l300 -704h-153l-69 162h-296zM384 524l-103 -243h205z" />
    <glyph glyph-name="uni0411" unicode="&#x411;" horiz-adv-x="687" 
d="M379 0h-302v700h508v-129h-364v-112h158c81 0 146 -21 193 -64c48 -43 72 -98 72 -166s-24 -123 -71 -166c-47 -42 -112 -63 -194 -63zM221 339v-212h147c83 0 131 37 131 105s-48 107 -131 107h-147z" />
    <glyph glyph-name="uni0412" unicode="&#x412;" horiz-adv-x="716" 
d="M429 0h-352v700h329c128 0 212 -63 212 -175c0 -71 -40 -119 -88 -139c39 -8 72 -29 100 -62s42 -74 42 -125c0 -59 -22 -107 -66 -144s-103 -55 -177 -55zM221 307v-183h181c71 0 114 32 114 91s-43 92 -114 92h-181zM221 580v-154h162c60 0 96 28 96 76
c0 49 -36 78 -96 78h-162z" />
    <glyph glyph-name="uni0413" unicode="&#x413;" horiz-adv-x="617" 
d="M221 0h-144v700h505v-129h-361v-571z" />
    <glyph glyph-name="uni0414" unicode="&#x414;" horiz-adv-x="795" 
d="M153 -143h-135v272h69c32 49 55 109 70 180s22 165 22 280v111h492v-571h96v-272h-135v143h-479v-143zM246 129h281v442h-205c0 -179 -15 -317 -76 -442z" />
    <glyph glyph-name="uni0415" unicode="&#x415;" horiz-adv-x="640" 
d="M602 0h-525v700h514v-129h-370v-135h298v-127h-298v-180h381v-129z" />
    <glyph glyph-name="uni0416" unicode="&#x416;" horiz-adv-x="1031" 
d="M193 0h-187l296 363l-266 337h177l230 -295v295h144v-295l231 295h177l-267 -337l297 -363h-188l-250 309v-309h-144v309z" />
    <glyph glyph-name="uni0417" unicode="&#x417;" horiz-adv-x="629" 
d="M288 -14c-102 0 -186 22 -253 65v140c61 -43 154 -71 233 -71c107 0 169 38 169 102c0 56 -56 87 -149 87h-88v121h105c75 0 113 26 113 77c0 47 -50 74 -131 74c-80 0 -155 -17 -224 -52v133c65 35 142 52 231 52c81 0 145 -18 193 -55c49 -37 73 -85 73 -144
c0 -71 -46 -119 -95 -140c68 -25 120 -83 120 -168c0 -63 -27 -115 -80 -158c-53 -42 -126 -63 -217 -63z" />
    <glyph glyph-name="uni0418" unicode="&#x418;" horiz-adv-x="762" 
d="M198 0h-121v700h144v-456l339 456h124v-700h-143v459z" />
    <glyph glyph-name="uni0419" unicode="&#x419;" horiz-adv-x="762" 
d="M198 0h-121v700h144v-456l339 456h124v-700h-143v459zM197 909h106c0 -44 29 -73 76 -73s77 29 78 73h106c-1 -105 -78 -171 -183 -171s-182 66 -183 171z" />
    <glyph glyph-name="uni041A" unicode="&#x41a;" horiz-adv-x="706" 
d="M221 0h-144v700h144v-276l258 276h176l-297 -321l348 -379h-184l-301 323v-323z" />
    <glyph glyph-name="uni041B" unicode="&#x41b;" horiz-adv-x="732" 
d="M7 6v130c14 -5 31 -8 51 -8c38 0 63 26 76 77s21 148 23 290l3 205h494v-700h-143v571h-212l-4 -142c-5 -163 -23 -276 -56 -339c-33 -62 -90 -93 -173 -93c-25 0 -45 3 -59 9z" />
    <glyph glyph-name="uni041C" unicode="&#x41c;" horiz-adv-x="846" 
d="M221 0h-144v700h143l203 -290l203 290h142v-700h-142v479l-161 -225h-80l-164 225v-479z" />
    <glyph glyph-name="uni041D" unicode="&#x41d;" horiz-adv-x="758" 
d="M221 0h-144v700h144v-262h316v262h143v-700h-143v307h-316v-307z" />
    <glyph glyph-name="uni041E" unicode="&#x41e;" horiz-adv-x="832" 
d="M261 186c41 -43 93 -65 155 -65s113 22 154 65s62 98 62 164s-21 121 -62 164s-92 65 -154 65s-114 -22 -155 -65s-61 -98 -61 -164s20 -121 61 -164zM53 350c0 102 34 188 103 258c69 71 156 106 260 106s190 -35 259 -106c69 -70 104 -156 104 -258
c0 -101 -35 -187 -104 -258s-155 -106 -259 -106s-191 35 -260 106s-103 157 -103 258z" />
    <glyph glyph-name="uni041F" unicode="&#x41f;" horiz-adv-x="741" 
d="M221 0h-144v700h586v-700h-143v571h-299v-571z" />
    <glyph glyph-name="uni0420" unicode="&#x420;" horiz-adv-x="659" 
d="M221 0h-144v700h306c75 0 135 -20 178 -59c44 -39 66 -89 66 -152s-22 -114 -66 -153c-43 -39 -103 -59 -178 -59h-162v-277zM221 574v-174h152c69 0 110 31 110 87s-41 87 -110 87h-152z" />
    <glyph glyph-name="uni0421" unicode="&#x421;" horiz-adv-x="677" 
d="M432 -14c-109 0 -199 34 -271 102c-72 69 -108 156 -108 262c0 107 36 194 107 262c72 68 163 102 272 102c69 0 130 -15 185 -44v-145c-54 36 -115 54 -184 54c-67 0 -122 -22 -167 -65c-44 -43 -66 -97 -66 -164s23 -122 68 -165s102 -64 171 -64c76 0 140 20 192 61
v-145c-57 -34 -123 -51 -199 -51z" />
    <glyph glyph-name="uni0422" unicode="&#x422;" horiz-adv-x="647" 
d="M30 571v129h587v-129h-222v-571h-144v571h-221z" />
    <glyph glyph-name="uni0423" unicode="&#x423;" horiz-adv-x="663" 
d="M177 -14c-49 0 -84 7 -106 20v127c23 -13 50 -19 81 -19c29 0 53 7 70 20s35 39 54 77l-265 489h159l177 -344l155 344h153l-258 -548c-52 -111 -125 -166 -220 -166z" />
    <glyph glyph-name="uni0424" unicode="&#x424;" horiz-adv-x="927" 
d="M536 -27h-145v77c-228 8 -338 155 -338 306c0 81 29 152 88 211s142 91 250 95v64h145v-64c108 -4 191 -36 250 -95s88 -130 88 -211c0 -151 -110 -298 -338 -306v-77zM391 180v352c-121 -1 -190 -71 -190 -176c0 -104 69 -173 190 -176zM536 532v-352
c121 3 190 72 190 176c0 105 -69 175 -190 176z" />
    <glyph glyph-name="uni0425" unicode="&#x425;" horiz-adv-x="725" 
d="M48 700h168l147 -209l149 209h166l-231 -322l272 -378h-168l-190 261l-189 -261h-166l273 377z" />
    <glyph glyph-name="uni0426" unicode="&#x426;" horiz-adv-x="783" 
d="M755 -143h-136v143h-542v700h144v-571h293v571h144v-571h97v-272z" />
    <glyph glyph-name="uni0427" unicode="&#x427;" horiz-adv-x="692" 
d="M614 0h-143v273c-50 -17 -103 -25 -158 -25c-165 0 -259 77 -259 228v224h144v-200c0 -87 45 -119 134 -119c52 0 98 10 139 30v289h143v-700z" />
    <glyph glyph-name="uni0428" unicode="&#x428;" horiz-adv-x="1033" 
d="M955 0h-878v700h144v-571h223v571h143v-571h224v571h144v-700z" />
    <glyph glyph-name="uni0429" unicode="&#x429;" horiz-adv-x="1080" 
d="M1052 -143h-136v143h-839v700h144v-571h224v571h143v-571h224v571h143v-571h97v-272z" />
    <glyph glyph-name="uni042A" unicode="&#x42a;" horiz-adv-x="800" 
d="M497 0h-298v571h-179v129h323v-231h154c83 0 149 -22 198 -66c49 -43 73 -100 73 -169s-24 -126 -73 -169s-115 -65 -198 -65zM343 347v-220h146c84 0 134 40 134 109c0 71 -50 111 -134 111h-146z" />
    <glyph glyph-name="uni042B" unicode="&#x42b;" horiz-adv-x="928" 
d="M850 0h-144v700h144v-700zM351 0h-274v700h144v-231h130c83 0 149 -22 198 -66c49 -43 73 -100 73 -169s-24 -126 -73 -169s-115 -65 -198 -65zM221 347v-220h122c84 0 134 40 134 109c0 71 -50 111 -134 111h-122z" />
    <glyph glyph-name="uni042C" unicode="&#x42c;" horiz-adv-x="678" 
d="M375 0h-298v700h144v-231h154c83 0 149 -22 198 -66c49 -43 73 -100 73 -169s-24 -126 -73 -169s-115 -65 -198 -65zM221 347v-220h146c84 0 134 40 134 109c0 71 -50 111 -134 111h-146z" />
    <glyph glyph-name="uni042D" unicode="&#x42d;" horiz-adv-x="672" 
d="M242 -14c-75 0 -140 17 -196 50v143c50 -40 116 -60 197 -60c54 0 102 17 143 50c41 34 67 78 77 131h-273v121h266c-12 47 -37 86 -76 115c-39 30 -83 45 -134 45c-69 0 -132 -18 -187 -53v141c56 30 118 45 185 45c106 0 195 -35 267 -106c72 -70 108 -156 108 -258
c0 -101 -36 -187 -109 -258s-162 -106 -268 -106z" />
    <glyph glyph-name="uni042E" unicode="&#x42e;" horiz-adv-x="1050" 
d="M658 714c97 0 178 -35 242 -106c65 -70 97 -156 97 -258s-32 -188 -97 -259c-64 -70 -145 -105 -242 -105c-87 0 -161 28 -221 84c-59 57 -97 129 -113 217h-101v-287h-146v700h146v-282h102c14 85 52 156 113 212s135 84 220 84zM658 121c57 0 103 21 139 62
c36 42 54 98 54 167s-18 125 -54 166c-36 42 -82 63 -139 63c-56 0 -102 -21 -138 -63c-36 -41 -54 -97 -54 -166s18 -124 54 -166s82 -63 138 -63z" />
    <glyph glyph-name="uni042F" unicode="&#x42f;" horiz-adv-x="733" 
d="M183 0h-166l219 299c-92 28 -146 101 -146 194c0 61 22 111 65 149c43 39 102 58 176 58h324v-700h-144v283h-122zM339 404h172v170h-172c-65 0 -104 -32 -104 -85c0 -55 39 -85 104 -85z" />
    <glyph glyph-name="uni0430" unicode="&#x430;" horiz-adv-x="602" 
d="M544 109c12 0 22 2 29 6v-103c-18 -14 -43 -21 -76 -21c-57 0 -94 21 -113 64c-44 -45 -101 -68 -172 -68c-108 0 -184 66 -184 167c0 53 19 94 58 122s85 42 139 42c56 0 104 -10 144 -31v15c0 63 -44 94 -132 94c-53 0 -104 -14 -151 -42v118c51 27 112 40 185 40
c71 0 129 -17 172 -52c44 -35 66 -83 66 -144v-169c0 -25 12 -38 35 -38zM369 147v50c-29 19 -63 29 -104 29c-60 0 -98 -24 -98 -65c0 -44 37 -65 89 -65c49 0 87 17 113 51z" />
    <glyph glyph-name="uni0431" unicode="&#x431;" horiz-adv-x="609" 
d="M353 467c65 0 118 -20 159 -61s62 -95 62 -162c0 -75 -25 -137 -75 -185c-49 -48 -111 -72 -186 -72c-88 0 -156 29 -203 88s-71 138 -71 237c0 133 35 222 118 283c42 31 91 56 146 74c56 19 127 35 213 49v-131l-53 -9l-52 -9c-11 -2 -26 -5 -47 -10
c-40 -8 -53 -13 -85 -25s-44 -23 -65 -42c-28 -25 -43 -62 -47 -110c45 57 107 85 186 85zM312 106c72 0 123 53 123 128c0 71 -49 116 -118 116c-56 0 -112 -32 -140 -76c1 -108 51 -168 135 -168z" />
    <glyph glyph-name="uni0432" unicode="&#x432;" horiz-adv-x="585" 
d="M363 0h-294v499h282c104 0 160 -55 160 -128c0 -50 -20 -85 -61 -106c63 -22 95 -65 95 -128c0 -84 -66 -137 -182 -137zM208 211v-112h120c49 0 73 19 73 56s-24 56 -73 56h-120zM208 402v-102h98c45 0 67 17 67 51s-22 51 -67 51h-98z" />
    <glyph glyph-name="uni0433" unicode="&#x433;" horiz-adv-x="484" 
d="M210 0h-141v499h396v-118h-255v-381z" />
    <glyph glyph-name="uni0434" unicode="&#x434;" horiz-adv-x="676" 
d="M155 -127h-135v245h64c38 59 58 153 60 284l2 97h420v-381h82v-245h-133v127h-360v-127zM228 118h200v263h-156c0 -104 -15 -192 -44 -263z" />
    <glyph glyph-name="uni0435" unicode="&#x435;" horiz-adv-x="573" 
d="M313 -13c-78 0 -144 24 -197 72s-80 112 -80 191c0 74 24 136 72 186c48 51 111 76 188 76c73 0 130 -26 173 -77s65 -113 65 -187v-37h-358c15 -68 79 -104 167 -104c56 0 109 15 160 44v-113c-45 -34 -108 -51 -190 -51zM176 301h219c-3 55 -42 100 -105 100
c-64 0 -107 -41 -114 -100z" />
    <glyph glyph-name="uni0436" unicode="&#x436;" horiz-adv-x="831" 
d="M180 0h-167l215 266l-193 233h159l152 -188v188h139v-188l151 188h159l-193 -233l216 -266h-168l-165 213v-213h-139v213z" />
    <glyph glyph-name="uni0437" unicode="&#x437;" horiz-adv-x="532" 
d="M244 -13c-79 0 -143 13 -194 38v114c52 -27 110 -40 174 -40c76 0 120 21 120 58c0 33 -29 49 -88 49h-98v102h98c48 0 72 15 72 44c0 32 -34 48 -102 48c-61 0 -115 -11 -162 -34v110c51 24 116 36 193 36c61 0 112 -13 153 -39s62 -59 62 -98c0 -55 -24 -91 -72 -107
c52 -16 92 -56 92 -119c0 -47 -23 -86 -69 -117c-45 -30 -105 -45 -179 -45z" />
    <glyph glyph-name="uni0438" unicode="&#x438;" horiz-adv-x="635" 
d="M201 0h-132v499h139v-294l226 294h132v-499h-139v294z" />
    <glyph glyph-name="uni0439" unicode="&#x439;" horiz-adv-x="635" 
d="M201 0h-132v499h139v-294l226 294h132v-499h-139v294zM317 554c-105 0 -180 66 -181 171h106c0 -44 29 -73 74 -73s73 29 74 73h107c-1 -53 -18 -94 -52 -125s-77 -46 -128 -46z" />
    <glyph glyph-name="uni043A" unicode="&#x43a;" horiz-adv-x="599" 
d="M210 0h-141v499h141v-182l172 182h173l-217 -225l251 -274h-182l-197 215v-215z" />
    <glyph glyph-name="uni043B" unicode="&#x43b;" horiz-adv-x="633" 
d="M423 381h-154l-2 -70c-3 -69 -6 -115 -23 -175c-24 -84 -72 -137 -171 -140c-24 0 -42 3 -53 9v115c8 -3 18 -4 29 -4c33 0 54 19 65 64c12 47 15 89 16 172l3 147h431v-499h-141v381z" />
    <glyph glyph-name="uni043C" unicode="&#x43c;" horiz-adv-x="707" 
d="M202 0h-133v499h139l145 -186l146 186h139v-499h-133v308l-124 -155h-56l-123 155v-308z" />
    <glyph glyph-name="uni043D" unicode="&#x43d;" horiz-adv-x="625" 
d="M210 0h-141v499h141v-185h205v185h141v-499h-141v196h-205v-196z" />
    <glyph glyph-name="uni043E" unicode="&#x43e;" horiz-adv-x="625" 
d="M214 150c26 -27 59 -40 99 -40s73 13 99 40s39 60 39 100s-13 73 -39 99c-26 27 -59 40 -99 40s-73 -13 -99 -40c-26 -26 -39 -59 -39 -99s13 -73 39 -100zM36 250c0 74 26 136 78 186c52 51 118 76 199 76s147 -25 199 -76s78 -113 78 -186c0 -75 -26 -137 -78 -188
c-52 -50 -118 -75 -199 -75s-147 25 -199 75c-52 51 -78 113 -78 188z" />
    <glyph glyph-name="uni043F" unicode="&#x43f;" horiz-adv-x="619" 
d="M210 0h-141v499h481v-499h-141v381h-199v-381z" />
    <glyph glyph-name="uni0440" unicode="&#x440;" horiz-adv-x="644" 
d="M374 512c68 0 124 -25 168 -76c45 -50 67 -112 67 -187c0 -74 -22 -136 -67 -187c-44 -50 -100 -75 -168 -75c-71 0 -125 25 -164 74v-261h-141v699h141v-61c37 49 92 74 164 74zM334 389c-55 0 -101 -32 -124 -75v-130c23 -43 69 -74 124 -74c39 0 72 13 97 40
s38 60 38 99c0 40 -13 73 -38 100s-58 40 -97 40z" />
    <glyph glyph-name="uni0441" unicode="&#x441;" horiz-adv-x="516" 
d="M307 -13c-74 0 -138 24 -191 72c-53 49 -80 113 -80 192s27 142 80 189c54 48 118 72 193 72c55 0 104 -11 148 -33v-120c-43 20 -86 30 -127 30c-44 0 -81 -13 -111 -39c-29 -25 -44 -59 -44 -100s15 -75 45 -101s67 -39 110 -39c51 0 96 11 135 34v-120
c-47 -25 -99 -37 -158 -37z" />
    <glyph glyph-name="uni0442" unicode="&#x442;" horiz-adv-x="484" 
d="M312 0h-141v381h-156v118h455v-118h-158v-381z" />
    <glyph glyph-name="uni0443" unicode="&#x443;" horiz-adv-x="579" 
d="M134 -206c-41 0 -75 7 -100 20v123c23 -13 49 -20 76 -20c51 0 82 31 111 100l-215 482h152l132 -328l125 328h149l-231 -551c-44 -103 -110 -154 -199 -154z" />
    <glyph glyph-name="uni0444" unicode="&#x444;" horiz-adv-x="759" 
d="M311 505v195h139v-195c86 -4 153 -30 201 -77c49 -47 73 -107 73 -178c0 -145 -98 -242 -274 -255v-195h-139v195c-87 3 -154 29 -203 76c-48 48 -72 108 -72 179c0 144 100 242 275 255zM311 108v283c-85 -5 -139 -58 -139 -141s54 -138 139 -142zM450 391v-283
c85 4 139 59 139 142s-54 136 -139 141z" />
    <glyph glyph-name="uni0445" unicode="&#x445;" horiz-adv-x="593" 
d="M34 499h158l100 -140l101 140h156l-175 -238l190 -261h-158l-116 160l-117 -160h-156l191 260z" />
    <glyph glyph-name="uni0446" unicode="&#x446;" horiz-adv-x="662" 
d="M634 -127h-136v127h-429v499h141v-381h201v381h141v-381h82v-245z" />
    <glyph glyph-name="uni0447" unicode="&#x447;" horiz-adv-x="577" 
d="M508 0h-141v164c-32 -11 -68 -17 -109 -17c-142 0 -213 68 -213 204v148h141v-134c0 -72 27 -99 94 -99c35 0 64 6 87 19v214h141v-499z" />
    <glyph glyph-name="uni0448" unicode="&#x448;" horiz-adv-x="860" 
d="M791 0h-722v499h139v-381h152v381h138v-381h155v381h138v-499z" />
    <glyph glyph-name="uni0449" unicode="&#x449;" horiz-adv-x="901" 
d="M873 -127h-127v127h-677v499h139v-381h152v381h138v-381h155v381h138v-381h82v-245z" />
    <glyph glyph-name="uni044A" unicode="&#x44a;" horiz-adv-x="655" 
d="M422 0h-268v381h-140v118h281v-146h120c125 0 206 -69 206 -176c0 -51 -17 -93 -52 -127c-35 -33 -84 -50 -147 -50zM295 248v-139h98c55 0 87 25 87 69s-32 70 -87 70h-98z" />
    <glyph glyph-name="uni044B" unicode="&#x44b;" horiz-adv-x="786" 
d="M717 0h-139v499h139v-499zM319 0h-250v499h141v-146h102c125 0 206 -69 206 -176c0 -51 -17 -93 -52 -127c-35 -33 -84 -50 -147 -50zM210 248v-139h80c55 0 87 25 87 69s-32 70 -87 70h-80z" />
    <glyph glyph-name="uni044C" unicode="&#x44c;" horiz-adv-x="570" 
d="M337 0h-268v499h141v-146h120c125 0 206 -69 206 -176c0 -51 -17 -93 -52 -127c-35 -33 -84 -50 -147 -50zM210 248v-139h98c55 0 87 25 87 69s-32 70 -87 70h-98z" />
    <glyph glyph-name="uni044D" unicode="&#x44d;" horiz-adv-x="511" 
d="M205 -13c-61 0 -113 12 -156 36v115c43 -23 87 -34 134 -34c75 0 137 39 150 98h-184v98h183c-15 59 -73 96 -149 96c-44 0 -85 -10 -124 -29v113c43 21 92 32 146 32c74 0 138 -24 191 -72c53 -47 80 -110 80 -189c0 -80 -27 -144 -80 -192s-117 -72 -191 -72z" />
    <glyph glyph-name="uni044E" unicode="&#x44e;" horiz-adv-x="837" 
d="M543 -13c-67 0 -123 20 -169 59c-45 39 -73 90 -84 151h-80v-197h-141v499h141v-184h83c13 58 41 105 86 142s100 55 164 55c76 0 138 -25 186 -76c49 -50 73 -112 73 -186c0 -75 -24 -137 -73 -188c-48 -50 -110 -75 -186 -75zM543 110c72 0 120 61 120 140
s-48 139 -120 139c-73 0 -122 -60 -122 -139c0 -39 11 -73 33 -100c23 -27 52 -40 89 -40z" />
    <glyph glyph-name="uni044F" unicode="&#x44f;" horiz-adv-x="593" 
d="M183 0h-158l134 190c-66 24 -99 73 -99 147c0 93 65 162 196 162h268v-499h-141v165h-85zM279 267h104v122h-104c-47 0 -75 -22 -75 -61s28 -61 75 -61z" />
    <glyph glyph-name="uni0451" unicode="&#x451;" horiz-adv-x="573" 
d="M313 -13c-78 0 -144 24 -197 72s-80 112 -80 191c0 74 24 136 72 186c48 51 111 76 188 76c73 0 130 -26 173 -77s65 -113 65 -187v-37h-358c15 -68 79 -104 167 -104c56 0 109 15 160 44v-113c-45 -34 -108 -51 -190 -51zM176 301h219c-3 55 -42 100 -105 100
c-64 0 -107 -41 -114 -100zM450 590c-28 -28 -76 -28 -105 0c-28 29 -28 77 0 105c29 28 77 28 105 0c29 -28 29 -76 0 -105zM178 569c-40 0 -74 33 -74 74c0 40 34 73 74 73c41 0 74 -32 74 -73s-33 -74 -74 -74z" />
    <glyph glyph-name="uni0452" unicode="&#x452;" horiz-adv-x="665" 
d="M425 -206c-49 0 -86 7 -111 22v120c24 -13 49 -19 75 -19c51 0 76 26 76 79v210c0 77 -43 106 -95 106c-44 0 -89 -28 -113 -65v-247h-141v518h-102v93h102v89h141v-89h160v-93h-160v-151c45 49 101 74 167 74c116 0 182 -78 182 -206v-253c0 -119 -69 -188 -181 -188z
" />
    <glyph glyph-name="uni0453" unicode="&#x453;" horiz-adv-x="484" 
d="M210 0h-141v499h396v-118h-255v-381zM288 570h-122l95 146h170z" />
    <glyph glyph-name="uni0454" unicode="&#x454;" horiz-adv-x="514" 
d="M311 -13c-74 0 -138 24 -191 72s-80 112 -80 192c0 79 27 142 80 189c53 48 117 72 191 72c54 0 103 -11 146 -32v-113c-39 19 -80 29 -124 29c-76 0 -134 -37 -149 -96h183v-98h-184c13 -59 75 -98 150 -98c47 0 91 11 134 34v-115c-43 -24 -95 -36 -156 -36z" />
    <glyph glyph-name="uni0455" unicode="&#x455;" horiz-adv-x="490" 
d="M246 -13c-89 0 -159 16 -210 47v125c44 -29 123 -57 204 -57c57 0 86 14 86 42c0 13 -6 23 -25 31c-9 4 -18 7 -26 9l-37 9c-17 5 -31 8 -40 11c-115 31 -162 67 -162 155c0 95 83 153 220 153c75 0 138 -15 187 -46v-120c-60 35 -120 52 -181 52c-53 0 -80 -13 -80 -40
c0 -17 13 -24 28 -33c11 -4 31 -9 43 -13l53 -11c108 -25 163 -71 163 -158c0 -47 -20 -84 -61 -113s-95 -43 -162 -43z" />
    <glyph glyph-name="uni0456" unicode="&#x456;" horiz-adv-x="293" 
d="M217 0h-141v499h141v-499zM62 631c0 48 37 85 84 85s84 -37 84 -85c0 -47 -37 -84 -84 -84s-84 37 -84 84z" />
    <glyph glyph-name="uni0457" unicode="&#x457;" horiz-adv-x="266" 
d="M295 590c-28 -28 -76 -28 -105 0c-28 29 -28 77 0 105c29 28 77 28 105 0c29 -28 29 -76 0 -105zM23 569c-40 0 -74 33 -74 74c0 40 34 73 74 73c41 0 74 -32 74 -73s-33 -74 -74 -74zM204 0h-141v499h141v-499z" />
    <glyph glyph-name="uni0458" unicode="&#x458;" horiz-adv-x="293" 
d="M36 -206c-49 0 -86 7 -111 22v120c24 -13 49 -19 75 -19c51 0 76 26 76 79v503h141v-517c0 -119 -69 -188 -181 -188zM61 631c0 48 37 85 84 85s85 -37 85 -85c0 -47 -38 -84 -85 -84s-84 37 -84 84z" />
    <glyph glyph-name="uni0459" unicode="&#x459;" horiz-adv-x="919" 
d="M686 0h-268v381h-149c-4 -103 -9 -172 -16 -209c-21 -107 -72 -165 -153 -174c-9 -1 -18 -2 -27 -2c-24 0 -42 3 -53 9v115c8 -3 18 -4 29 -4c35 0 57 20 68 69c12 49 15 100 15 193l1 121h426v-146h120c125 0 206 -69 206 -176c0 -51 -17 -93 -52 -127
c-35 -33 -84 -50 -147 -50zM559 248v-139h98c55 0 87 25 87 69s-32 70 -87 70h-98z" />
    <glyph glyph-name="uni045A" unicode="&#x45a;" horiz-adv-x="909" 
d="M676 0h-268v213h-198v-213h-141v499h141v-173h198v173h141v-146h120c125 0 206 -69 206 -176c0 -51 -17 -93 -52 -127c-35 -33 -84 -50 -147 -50zM549 248v-139h98c55 0 87 25 87 69s-32 70 -87 70h-98z" />
    <glyph glyph-name="uni045B" unicode="&#x45b;" horiz-adv-x="665" 
d="M257 247v-247h-141v518h-102v93h102v89h141v-89h160v-93h-160v-151c45 49 101 74 167 74c116 0 182 -78 182 -206v-235h-141v206c0 77 -43 106 -95 106c-44 0 -89 -28 -113 -65z" />
    <glyph glyph-name="uni045C" unicode="&#x45c;" horiz-adv-x="599" 
d="M210 0h-141v499h141v-182l172 182h173l-217 -225l251 -274h-182l-197 215v-215zM350 570h-122l95 146h170z" />
    <glyph glyph-name="uni045E" unicode="&#x45e;" horiz-adv-x="579" 
d="M134 -206c-41 0 -75 7 -100 20v123c23 -13 49 -20 76 -20c51 0 82 31 111 100l-215 482h152l132 -328l125 328h149l-231 -551c-44 -103 -110 -154 -199 -154zM285 554c-105 0 -180 66 -181 171h106c0 -44 29 -73 74 -73s73 29 74 73h107c-1 -53 -18 -94 -52 -125
s-77 -46 -128 -46z" />
    <glyph glyph-name="uni045F" unicode="&#x45f;" horiz-adv-x="621" 
d="M379 -127h-137v127h-173v499h141v-381h201v381h141v-499h-173v-127z" />
    <glyph glyph-name="uni0490" unicode="&#x490;" horiz-adv-x="615" 
d="M221 0h-144v700h373v139h130v-268h-359v-571z" />
    <glyph glyph-name="uni0491" unicode="&#x491;" horiz-adv-x="484" 
d="M210 0h-141v499h267v124h129v-242h-255v-381z" />
    <glyph glyph-name="uni1E02" unicode="&#x1e02;" horiz-adv-x="716" 
d="M429 0h-352v700h329c128 0 212 -63 212 -175c0 -71 -40 -119 -88 -139c39 -8 72 -29 100 -62s42 -74 42 -125c0 -59 -22 -107 -66 -144s-103 -55 -177 -55zM221 307v-183h181c71 0 114 32 114 91s-43 92 -114 92h-181zM221 580v-154h162c60 0 96 28 96 76
c0 49 -36 78 -96 78h-162zM335 760c-40 0 -74 33 -74 74c0 40 34 73 74 73c41 0 74 -33 74 -73c0 -41 -33 -74 -74 -74z" />
    <glyph glyph-name="uni1E03" unicode="&#x1e03;" horiz-adv-x="644" 
d="M374 -13c-72 0 -127 25 -164 74v-61h-141v700h141v-262c39 49 93 74 164 74c68 0 124 -25 168 -76c45 -50 67 -112 67 -186c0 -75 -22 -137 -67 -188c-44 -50 -100 -75 -168 -75zM334 110c39 0 72 13 97 40s38 60 38 100c0 39 -13 72 -38 99s-58 40 -97 40
c-55 0 -101 -31 -124 -74v-130c23 -43 69 -75 124 -75zM332 760c-40 0 -74 33 -74 74c0 40 34 73 74 73c41 0 74 -33 74 -73c0 -41 -33 -74 -74 -74z" />
    <glyph glyph-name="uni1E0A" unicode="&#x1e0a;" horiz-adv-x="776" 
d="M339 0h-262v700h262c113 0 206 -33 277 -98s107 -149 107 -252s-36 -188 -107 -253s-164 -97 -277 -97zM221 571v-442h106c156 0 248 82 248 221s-92 221 -248 221h-106zM355 760c-40 0 -74 33 -74 74c0 40 34 73 74 73c41 0 74 -33 74 -73c0 -41 -33 -74 -74 -74z" />
    <glyph glyph-name="uni1E0B" unicode="&#x1e0b;" horiz-adv-x="645" 
d="M271 -13c-68 0 -124 25 -169 75c-44 51 -66 113 -66 188c0 74 22 136 66 186c45 51 101 76 169 76c71 0 125 -25 164 -74v262h141v-700h-141v61c-37 -49 -92 -74 -164 -74zM311 110c55 0 101 32 124 75v130c-23 43 -69 74 -124 74c-39 0 -72 -13 -97 -40s-38 -60 -38 -99
c0 -40 13 -73 38 -100s58 -40 97 -40zM319 760c-40 0 -74 33 -74 74c0 40 34 73 74 73c41 0 74 -33 74 -73c0 -41 -33 -74 -74 -74z" />
    <glyph glyph-name="uni1E1E" unicode="&#x1e1e;" horiz-adv-x="628" 
d="M221 0h-144v700h513v-129h-369v-142h285v-127h-285v-302zM333 760c-40 0 -74 33 -74 74c0 40 34 73 74 73c41 0 74 -33 74 -73c0 -41 -33 -74 -74 -74z" />
    <glyph glyph-name="uni1E1F" unicode="&#x1e1f;" horiz-adv-x="425" 
d="M107 0v381h-89v118h89v47c0 99 58 166 169 166c49 0 91 -7 127 -21v-114c-29 11 -57 17 -86 17c-46 0 -69 -22 -69 -67v-28h155v-118h-155v-381h-141zM256 760c-40 0 -74 33 -74 74c0 40 34 73 74 73c41 0 74 -33 74 -73c0 -41 -33 -74 -74 -74z" />
    <glyph glyph-name="uni1E40" unicode="&#x1e40;" horiz-adv-x="846" 
d="M221 0h-144v700h143l203 -290l203 290h142v-700h-142v479l-161 -225h-80l-164 225v-479zM422 760c-40 0 -74 33 -74 74c0 40 34 73 74 73c41 0 74 -33 74 -73c0 -41 -33 -74 -74 -74z" />
    <glyph glyph-name="uni1E41" unicode="&#x1e41;" horiz-adv-x="926" 
d="M210 0h-141v499h141v-61c37 49 88 74 152 74c75 0 134 -38 155 -85c33 49 100 85 172 85c107 0 178 -69 178 -200v-312h-141v280c0 69 -28 103 -83 103c-43 0 -85 -29 -104 -68v-315h-141v280c0 69 -28 103 -83 103c-41 0 -85 -29 -105 -66v-317zM468 569
c-40 0 -74 33 -74 74c0 40 34 73 74 73c41 0 73 -32 73 -73s-32 -74 -73 -74z" />
    <glyph glyph-name="uni1E56" unicode="&#x1e56;" horiz-adv-x="659" 
d="M221 0h-144v700h306c75 0 135 -20 178 -59c44 -39 66 -89 66 -152s-22 -114 -66 -153c-43 -39 -103 -59 -178 -59h-162v-277zM221 574v-174h152c69 0 110 31 110 87s-41 87 -110 87h-152zM331 760c-40 0 -74 33 -74 74c0 40 34 73 74 73c41 0 74 -33 74 -73
c0 -41 -33 -74 -74 -74z" />
    <glyph glyph-name="uni1E57" unicode="&#x1e57;" horiz-adv-x="644" 
d="M374 512c68 0 124 -25 168 -76c45 -50 67 -112 67 -187c0 -74 -22 -136 -67 -187c-44 -50 -100 -75 -168 -75c-71 0 -125 25 -164 74v-261h-141v699h141v-61c37 49 92 74 164 74zM334 389c-55 0 -101 -32 -124 -75v-130c23 -43 69 -74 124 -74c39 0 72 13 97 40
s38 60 38 99c0 40 -13 73 -38 100s-58 40 -97 40zM335 569c-40 0 -74 33 -74 74c0 40 34 73 74 73c41 0 73 -32 73 -73s-32 -74 -73 -74z" />
    <glyph glyph-name="uni1E60" unicode="&#x1e60;" horiz-adv-x="627" 
d="M309 -14c-105 0 -194 25 -266 75v150c29 -25 67 -47 116 -66c49 -18 97 -27 144 -27c76 0 135 28 135 81c0 25 -12 47 -36 58c-13 8 -20 11 -40 18l-24 8l-56 17l-52 17c-10 3 -26 9 -47 17s-36 15 -45 21c-19 13 -53 37 -66 61c-12 24 -24 58 -24 98c0 62 24 111 71 146
c47 36 112 54 193 54s158 -19 229 -58v-140c-71 44 -147 66 -227 66c-79 0 -119 -23 -119 -69c0 -23 14 -37 37 -48c13 -7 38 -16 57 -21s55 -15 76 -22c67 -21 105 -40 152 -73s70 -82 70 -146c0 -67 -26 -120 -79 -159s-119 -58 -199 -58zM304 760c-40 0 -74 33 -74 74
c0 40 34 73 74 73c41 0 74 -33 74 -73c0 -41 -33 -74 -74 -74z" />
    <glyph glyph-name="uni1E61" unicode="&#x1e61;" horiz-adv-x="512" 
d="M253 -13c-89 0 -159 16 -210 47v125c44 -29 123 -57 204 -57c57 0 86 14 86 42c0 13 -6 23 -25 31c-9 4 -18 7 -26 9l-37 9c-17 5 -31 8 -40 11c-115 31 -162 67 -162 155c0 95 83 153 220 153c75 0 138 -15 187 -46v-120c-60 35 -120 52 -181 52c-53 0 -80 -13 -80 -40
c0 -17 13 -24 28 -33c11 -4 31 -9 43 -13l53 -11c108 -25 163 -71 163 -158c0 -47 -20 -84 -61 -113s-95 -43 -162 -43zM248 569c-40 0 -74 33 -74 74c0 40 34 73 74 73c41 0 73 -32 73 -73s-32 -74 -73 -74z" />
    <glyph glyph-name="uni1E6A" unicode="&#x1e6a;" horiz-adv-x="647" 
d="M30 571v129h587v-129h-222v-571h-144v571h-221zM322 760c-40 0 -74 33 -74 74c0 40 34 73 74 73c41 0 74 -33 74 -73c0 -41 -33 -74 -74 -74z" />
    <glyph glyph-name="uni1E6B" unicode="&#x1e6b;" horiz-adv-x="441" 
d="M116 381h-98v118h98v137h141v-137h142v-118h-142v-198c0 -49 20 -70 68 -70c25 0 49 6 73 18v-117c-29 -18 -68 -27 -119 -27c-109 0 -163 56 -163 168v226zM187 679c-40 0 -74 33 -74 74c0 40 34 73 74 73c41 0 73 -32 73 -73s-32 -74 -73 -74z" />
    <glyph glyph-name="Wgrave" unicode="&#x1e80;" horiz-adv-x="1075" 
d="M383 -4h-127l-235 704h160l144 -472l158 474h112l159 -474l144 472h157l-236 -704h-127l-153 467zM334 907h170l95 -146h-122z" />
    <glyph glyph-name="wgrave" unicode="&#x1e81;" horiz-adv-x="845" 
d="M308 -4h-120l-169 503h141l99 -297l98 299h113l101 -299l97 297h140l-171 -503h-122l-104 301zM210 722h171l95 -146h-122z" />
    <glyph glyph-name="Wacute" unicode="&#x1e82;" horiz-adv-x="1075" 
d="M383 -4h-127l-235 704h160l144 -472l158 474h112l159 -474l144 472h157l-236 -704h-127l-153 467zM603 761h-122l95 146h170z" />
    <glyph glyph-name="wacute" unicode="&#x1e83;" horiz-adv-x="845" 
d="M308 -4h-120l-169 503h141l99 -297l98 299h113l101 -299l97 297h140l-171 -503h-122l-104 301zM480 570h-122l95 146h170z" />
    <glyph glyph-name="Wdieresis" unicode="&#x1e84;" horiz-adv-x="1075" 
d="M383 -4h-127l-235 704h160l144 -472l158 474h112l159 -474l144 472h157l-236 -704h-127l-153 467zM701 781c-28 -28 -76 -28 -105 0c-28 29 -28 77 0 105c29 28 77 28 105 0s28 -76 0 -105zM429 760c-40 0 -74 33 -74 74c0 40 34 73 74 73c41 0 74 -32 74 -73
s-33 -74 -74 -74z" />
    <glyph glyph-name="wdieresis" unicode="&#x1e85;" horiz-adv-x="845" 
d="M308 -4h-120l-169 503h141l99 -297l98 299h113l101 -299l97 297h140l-171 -503h-122l-104 301zM575 590c-28 -28 -76 -28 -105 0c-28 29 -28 77 0 105c29 28 77 28 105 0c29 -28 29 -76 0 -105zM303 569c-40 0 -74 33 -74 74c0 40 34 73 74 73c41 0 74 -32 74 -73
s-33 -74 -74 -74z" />
    <glyph glyph-name="Ygrave" unicode="&#x1ef2;" horiz-adv-x="696" 
d="M420 0h-143v314l-271 386h170l174 -249l175 249h165l-270 -383v-317zM158 907h170l95 -146h-122z" />
    <glyph glyph-name="ygrave" unicode="&#x1ef3;" horiz-adv-x="579" 
d="M134 -206c-41 0 -75 7 -100 20v123c23 -13 49 -20 76 -20c51 0 82 31 111 100l-215 482h152l132 -328l125 328h149l-231 -551c-44 -103 -110 -154 -199 -154zM109 722h171l95 -146h-122z" />
    <glyph glyph-name="endash" unicode="&#x2013;" horiz-adv-x="771" 
d="M675 214h-579v127h579v-127z" />
    <glyph glyph-name="emdash" unicode="&#x2014;" horiz-adv-x="917" 
d="M821 214h-725v127h725v-127z" />
    <glyph glyph-name="uni2015" unicode="&#x2015;" horiz-adv-x="771" 
d="M675 214h-579v127h579v-127z" />
    <glyph glyph-name="quoteleft" unicode="&#x2018;" horiz-adv-x="290" 
d="M146 700h116l-86 -303h-151z" />
    <glyph glyph-name="quoteright" unicode="&#x2019;" horiz-adv-x="290" 
d="M142 397h-116l86 303h151z" />
    <glyph glyph-name="quotesinglbase" unicode="&#x201a;" horiz-adv-x="280" 
d="M122 -152h-116l86 303h151z" />
    <glyph glyph-name="quotedblleft" unicode="&#x201c;" horiz-adv-x="507" 
d="M363 700h116l-86 -303h-151zM146 700h116l-86 -303h-151z" />
    <glyph glyph-name="quotedblright" unicode="&#x201d;" horiz-adv-x="507" 
d="M359 397h-116l86 303h151zM142 397h-116l86 303h151z" />
    <glyph glyph-name="quotedblbase" unicode="&#x201e;" horiz-adv-x="497" 
d="M339 -152h-116l86 303h151zM122 -152h-116l86 303h151z" />
    <glyph glyph-name="dagger" unicode="&#x2020;" horiz-adv-x="500" 
d="M307 0h-114v409h-164v111h164v180h114v-180h164v-111h-164v-409z" />
    <glyph glyph-name="daggerdbl" unicode="&#x2021;" horiz-adv-x="500" 
d="M307 0h-114v174h-164v111h164v124h-164v111h164v180h114v-180h164v-111h-164v-124h164v-111h-164v-174z" />
    <glyph glyph-name="bullet" unicode="&#x2022;" horiz-adv-x="414" 
d="M60 388c0 41 14 75 43 104s63 43 104 43s75 -14 103 -43c29 -29 43 -63 43 -104c0 -40 -14 -74 -43 -103c-28 -29 -62 -43 -103 -43s-75 14 -104 43s-43 63 -43 103z" />
    <glyph glyph-name="ellipsis" unicode="&#x2026;" horiz-adv-x="753" 
d="M132 -11c-49 0 -87 39 -87 88c0 48 38 86 87 86c48 0 87 -38 87 -86c0 -49 -39 -88 -87 -88zM290 77c0 48 39 86 87 86s87 -38 87 -86c0 -49 -39 -88 -87 -88s-87 39 -87 88zM535 77c0 48 39 86 87 86s87 -38 87 -86c0 -49 -39 -88 -87 -88s-87 39 -87 88z" />
    <glyph glyph-name="perthousand" unicode="&#x2030;" horiz-adv-x="1211" 
d="M251 0h-101l418 700h101zM74 657c33 33 76 49 127 49s94 -16 127 -49s50 -73 50 -122s-17 -89 -50 -122s-76 -49 -127 -49s-94 16 -127 49s-50 73 -50 122s17 89 50 122zM143 477c15 -15 35 -23 58 -23s42 8 57 23c31 31 31 85 0 116c-15 15 -34 23 -57 23
s-43 -8 -58 -23c-29 -31 -29 -85 0 -116zM489 287c33 33 76 49 127 49s94 -16 127 -49s50 -73 50 -122s-17 -89 -50 -122s-76 -49 -127 -49s-94 16 -127 49s-50 73 -50 122s17 89 50 122zM558 107c15 -15 35 -23 58 -23s42 8 57 23c31 31 31 85 0 116c-15 15 -34 23 -57 23
s-43 -8 -58 -23c-29 -31 -29 -85 0 -116zM882 286c33 33 76 49 127 49s94 -16 127 -49s50 -73 50 -122s-17 -89 -50 -122s-76 -49 -127 -49s-94 16 -127 49s-50 73 -50 122s17 89 50 122zM951 106c15 -15 35 -23 58 -23s42 8 57 23c31 31 31 85 0 116c-15 15 -34 23 -57 23
s-43 -8 -58 -23c-29 -31 -29 -85 0 -116z" />
    <glyph glyph-name="guilsinglleft" unicode="&#x2039;" horiz-adv-x="341" 
d="M310 35h-141l-137 179v71l137 179h141l-161 -214z" />
    <glyph glyph-name="guilsinglright" unicode="&#x203a;" horiz-adv-x="341" 
d="M172 35h-141l161 215l-161 214h141l137 -179v-71z" />
    <glyph glyph-name="fraction" unicode="&#x2044;" horiz-adv-x="225" 
d="M-44 0h-108l422 700h108z" />
    <glyph glyph-name="zerosuperior" unicode="&#x2070;" horiz-adv-x="379" 
d="M190 315c-53 0 -95 19 -126 58c-30 39 -45 85 -45 138s15 99 45 138c31 39 73 58 126 58s94 -19 124 -58c31 -39 46 -85 46 -138s-15 -99 -46 -138c-30 -39 -71 -58 -124 -58zM190 398c98 -6 98 232 0 226c-100 6 -100 -232 0 -226z" />
    <glyph glyph-name="foursuperior" unicode="&#x2074;" horiz-adv-x="364" 
d="M295 322h-92v90h-190v68l185 220h97v-214h54v-74h-54v-90zM203 594l-93 -108h93v108z" />
    <glyph glyph-name="fivesuperior" unicode="&#x2075;" horiz-adv-x="331" 
d="M137 315c-43 0 -81 9 -112 27v89c33 -21 69 -32 108 -32c41 0 74 17 74 52c0 31 -28 51 -75 51c-31 0 -63 -5 -95 -15l25 213h216v-80h-144l-5 -48c5 1 13 2 26 2c87 0 148 -47 148 -123c0 -43 -16 -77 -48 -101c-32 -23 -71 -35 -118 -35z" />
    <glyph glyph-name="sixsuperior" unicode="&#x2076;" horiz-adv-x="353" 
d="M184 315c-101 0 -158 69 -158 177c0 59 15 110 46 152s77 63 136 63c38 0 68 -8 90 -23v-84c-23 16 -49 24 -79 24c-51 0 -89 -31 -93 -84c19 23 46 34 80 34c72 0 124 -47 124 -124c0 -80 -62 -135 -146 -135zM178 392c35 0 57 25 57 58c0 29 -24 54 -57 54
c-24 0 -49 -15 -60 -38c1 -47 27 -74 60 -74z" />
    <glyph glyph-name="sevensuperior" unicode="&#x2077;" horiz-adv-x="325" 
d="M147 322h-104l151 298h-173v80h282v-75z" />
    <glyph glyph-name="eightsuperior" unicode="&#x2078;" horiz-adv-x="359" 
d="M180 315c-89 0 -159 42 -159 117c0 40 31 78 68 91c-29 13 -50 44 -50 77c0 63 60 107 141 107c80 0 140 -44 140 -107c0 -32 -22 -64 -50 -77c39 -13 68 -50 68 -91c0 -75 -70 -117 -158 -117zM180 392c36 0 62 21 62 48c0 29 -26 49 -62 49c-37 0 -63 -20 -63 -49
c0 -28 26 -48 63 -48zM180 549c29 0 51 17 51 41c0 25 -22 42 -51 42c-31 0 -53 -17 -53 -42c0 -24 22 -41 53 -41z" />
    <glyph glyph-name="ninesuperior" unicode="&#x2079;" horiz-adv-x="353" 
d="M171 707c101 0 159 -69 159 -177c0 -59 -16 -110 -47 -152s-76 -63 -135 -63c-39 0 -69 8 -91 23v84c23 -16 50 -24 79 -24c51 0 89 31 94 84c-21 -23 -48 -34 -81 -34c-71 0 -123 48 -123 124c0 40 14 72 41 97c28 25 63 38 104 38zM178 630c-35 0 -57 -25 -57 -58
c0 -29 23 -54 56 -54c28 0 48 13 60 38c-1 47 -27 74 -59 74z" />
    <glyph glyph-name="zeroinferior" unicode="&#x2080;" horiz-adv-x="379" 
d="M190 -7c-53 0 -95 19 -126 58c-30 39 -45 85 -45 138s15 99 45 138c31 39 73 58 126 58s94 -19 124 -58c31 -39 46 -85 46 -138s-15 -99 -46 -138c-30 -39 -71 -58 -124 -58zM190 76c98 -6 98 232 0 226c-100 6 -100 -232 0 -226z" />
    <glyph glyph-name="oneinferior" unicode="&#x2081;" horiz-adv-x="252" 
d="M214 0h-96v280l-101 -51v94l105 55h92v-378z" />
    <glyph glyph-name="twoinferior" unicode="&#x2082;" horiz-adv-x="356" 
d="M319 0h-281v69l108 92c48 41 65 66 65 93s-23 43 -56 43c-36 0 -71 -13 -104 -39v95c31 21 68 32 112 32c38 0 71 -11 100 -33c29 -21 44 -50 44 -86c0 -55 -20 -90 -80 -143l-48 -43h140v-80z" />
    <glyph glyph-name="threeinferior" unicode="&#x2083;" horiz-adv-x="328" 
d="M144 -7c-47 0 -88 10 -122 30v88c37 -23 75 -34 114 -34c40 0 72 20 72 51c0 29 -24 49 -65 49c-25 0 -45 -4 -61 -11v59l87 73h-136v80h253v-71l-80 -69c51 -11 98 -44 98 -112c0 -40 -16 -72 -47 -97c-31 -24 -68 -36 -113 -36z" />
    <glyph glyph-name="fourinferior" unicode="&#x2084;" horiz-adv-x="364" 
d="M295 0h-92v90h-190v68l185 220h97v-214h54v-74h-54v-90zM203 272l-93 -108h93v108z" />
    <glyph glyph-name="fiveinferior" unicode="&#x2085;" horiz-adv-x="331" 
d="M137 -7c-43 0 -81 9 -112 27v89c33 -21 69 -32 108 -32c41 0 74 17 74 52c0 31 -28 51 -75 51c-31 0 -63 -5 -95 -15l25 213h216v-80h-144l-5 -48c5 1 13 2 26 2c87 0 148 -47 148 -123c0 -43 -16 -77 -48 -101c-32 -23 -71 -35 -118 -35z" />
    <glyph glyph-name="sixinferior" unicode="&#x2086;" horiz-adv-x="353" 
d="M184 -7c-101 0 -158 69 -158 177c0 59 15 110 46 152s77 63 136 63c38 0 68 -8 90 -23v-84c-23 16 -49 24 -79 24c-51 0 -89 -31 -93 -84c19 23 46 34 80 34c72 0 124 -47 124 -124c0 -80 -62 -135 -146 -135zM178 70c35 0 57 25 57 58c0 29 -24 54 -57 54
c-24 0 -49 -15 -60 -38c1 -47 27 -74 60 -74z" />
    <glyph glyph-name="seveninferior" unicode="&#x2087;" horiz-adv-x="325" 
d="M147 0h-104l151 298h-173v80h282v-75z" />
    <glyph glyph-name="eightinferior" unicode="&#x2088;" horiz-adv-x="359" 
d="M180 -7c-89 0 -159 42 -159 117c0 40 31 78 68 91c-29 13 -50 44 -50 77c0 63 60 107 141 107c80 0 140 -44 140 -107c0 -32 -22 -64 -50 -77c39 -13 68 -50 68 -91c0 -75 -70 -117 -158 -117zM180 70c36 0 62 21 62 48c0 29 -26 49 -62 49c-37 0 -63 -20 -63 -49
c0 -28 26 -48 63 -48zM180 227c29 0 51 17 51 41c0 25 -22 42 -51 42c-31 0 -53 -17 -53 -42c0 -24 22 -41 53 -41z" />
    <glyph glyph-name="nineinferior" unicode="&#x2089;" horiz-adv-x="353" 
d="M171 384c101 0 159 -69 159 -177c0 -59 -16 -110 -47 -152s-76 -63 -135 -63c-39 0 -69 8 -91 23v84c23 -16 50 -24 79 -24c51 0 89 31 94 84c-21 -23 -48 -34 -81 -34c-71 0 -123 48 -123 124c0 40 14 72 41 97c28 25 63 38 104 38zM178 307c-35 0 -57 -25 -57 -58
c0 -29 23 -54 56 -54c28 0 48 13 60 38c-1 47 -27 74 -59 74z" />
    <glyph glyph-name="franc" unicode="&#x20a3;" horiz-adv-x="666" 
d="M115 108h-102v103h102v489h513v-131h-369v-140h285v-128h-285v-90h149v-103h-149v-108h-144v108z" />
    <glyph glyph-name="lira" unicode="&#x20a4;" horiz-adv-x="602" 
d="M128 362h-81v79h81v34c0 149 97 239 253 239c63 0 116 -12 160 -35v-134c-42 23 -88 34 -137 34c-88 0 -132 -41 -132 -124v-14h211v-79h-211v-61h211v-79h-211v-31c0 -29 -10 -50 -29 -62h314v-129h-510v129h14c56 0 67 21 67 82v11h-81v79h81v61z" />
    <glyph glyph-name="peseta" unicode="&#x20a7;" horiz-adv-x="740" 
d="M252 0h-144v426h-91v111h91v163h306c129 0 218 -64 239 -163h81v-111h-85c-27 -91 -112 -149 -235 -149h-162v-277zM252 574v-174h152c69 0 110 31 110 87s-41 87 -110 87h-152z" />
    <glyph glyph-name="Euro" unicode="&#x20ac;" horiz-adv-x="661" 
d="M462 479v-86h-215c-1 -15 -2 -27 -2 -36c0 -10 1 -20 2 -31h215v-87h-196c29 -77 99 -121 191 -121c61 0 114 17 158 51v-141c-47 -28 -105 -42 -176 -42c-84 0 -155 23 -212 69c-57 47 -96 108 -115 184h-82v87h69c-1 8 -1 19 -1 33c0 8 1 19 2 34h-70v86h87
c21 71 60 127 117 170s125 65 205 65c61 0 115 -12 161 -37v-136c-45 27 -93 41 -143 41c-89 0 -151 -34 -184 -103h189z" />
    <glyph glyph-name="uni20B4" unicode="&#x20b4;" horiz-adv-x="601" 
d="M556 388h-510v79h291c22 13 33 32 33 55c0 43 -38 65 -114 65c-59 0 -114 -11 -164 -33v129c46 21 107 31 183 31c71 0 130 -15 178 -46c48 -30 72 -73 72 -130c0 -31 -9 -55 -28 -71h59v-79zM323 -14c-72 0 -132 15 -180 45c-47 31 -71 75 -71 134c0 39 15 71 44 96h-70
v79h510v-79h-270c-40 -19 -60 -45 -60 -76c0 -47 41 -70 122 -70c27 0 58 4 92 11c34 8 62 18 84 29v-132c-56 -25 -123 -37 -201 -37z" />
    <glyph glyph-name="uni20B6" unicode="&#x20b6;" horiz-adv-x="720" 
d="M132 277h-110v103h110v320h301c75 0 134 -20 178 -59s66 -89 66 -152s-22 -114 -66 -153s-103 -59 -178 -59h-158v-66h254v-103h-254v-108h-143v108h-110v103h110v66zM275 574v-194h139c73 0 118 36 118 97c0 63 -45 97 -118 97h-139z" />
    <glyph glyph-name="uni20B6" unicode="&#x20cf;" horiz-adv-x="720" 
d="M132 277h-110v103h110v320h301c75 0 134 -20 178 -59s66 -89 66 -152s-22 -114 -66 -153s-103 -59 -178 -59h-158v-66h254v-103h-254v-108h-143v108h-110v103h110v66zM275 574v-194h139c73 0 118 36 118 97c0 63 -45 97 -118 97h-139z" />
    <glyph glyph-name="uni20B6" unicode="&#x20ce;" horiz-adv-x="720" 
d="M132 277h-110v103h110v320h301c75 0 134 -20 178 -59s66 -89 66 -152s-22 -114 -66 -153s-103 -59 -178 -59h-158v-66h254v-103h-254v-108h-143v108h-110v103h110v66zM275 574v-194h139c73 0 118 36 118 97c0 63 -45 97 -118 97h-139z" />
    <glyph glyph-name="uni20B6" unicode="&#x20cd;" horiz-adv-x="720" 
d="M132 277h-110v103h110v320h301c75 0 134 -20 178 -59s66 -89 66 -152s-22 -114 -66 -153s-103 -59 -178 -59h-158v-66h254v-103h-254v-108h-143v108h-110v103h110v66zM275 574v-194h139c73 0 118 36 118 97c0 63 -45 97 -118 97h-139z" />
    <glyph glyph-name="uni20B6" unicode="&#x20cc;" horiz-adv-x="720" 
d="M132 277h-110v103h110v320h301c75 0 134 -20 178 -59s66 -89 66 -152s-22 -114 -66 -153s-103 -59 -178 -59h-158v-66h254v-103h-254v-108h-143v108h-110v103h110v66zM275 574v-194h139c73 0 118 36 118 97c0 63 -45 97 -118 97h-139z" />
    <glyph glyph-name="uni20B6" unicode="&#x20cb;" horiz-adv-x="720" 
d="M132 277h-110v103h110v320h301c75 0 134 -20 178 -59s66 -89 66 -152s-22 -114 -66 -153s-103 -59 -178 -59h-158v-66h254v-103h-254v-108h-143v108h-110v103h110v66zM275 574v-194h139c73 0 118 36 118 97c0 63 -45 97 -118 97h-139z" />
    <glyph glyph-name="uni20B6" unicode="&#x20ca;" horiz-adv-x="720" 
d="M132 277h-110v103h110v320h301c75 0 134 -20 178 -59s66 -89 66 -152s-22 -114 -66 -153s-103 -59 -178 -59h-158v-66h254v-103h-254v-108h-143v108h-110v103h110v66zM275 574v-194h139c73 0 118 36 118 97c0 63 -45 97 -118 97h-139z" />
    <glyph glyph-name="uni20B6" unicode="&#x20c9;" horiz-adv-x="720" 
d="M132 277h-110v103h110v320h301c75 0 134 -20 178 -59s66 -89 66 -152s-22 -114 -66 -153s-103 -59 -178 -59h-158v-66h254v-103h-254v-108h-143v108h-110v103h110v66zM275 574v-194h139c73 0 118 36 118 97c0 63 -45 97 -118 97h-139z" />
    <glyph glyph-name="uni20B6" unicode="&#x20c8;" horiz-adv-x="720" 
d="M132 277h-110v103h110v320h301c75 0 134 -20 178 -59s66 -89 66 -152s-22 -114 -66 -153s-103 -59 -178 -59h-158v-66h254v-103h-254v-108h-143v108h-110v103h110v66zM275 574v-194h139c73 0 118 36 118 97c0 63 -45 97 -118 97h-139z" />
    <glyph glyph-name="uni20B6" unicode="&#x20c7;" horiz-adv-x="720" 
d="M132 277h-110v103h110v320h301c75 0 134 -20 178 -59s66 -89 66 -152s-22 -114 -66 -153s-103 -59 -178 -59h-158v-66h254v-103h-254v-108h-143v108h-110v103h110v66zM275 574v-194h139c73 0 118 36 118 97c0 63 -45 97 -118 97h-139z" />
    <glyph glyph-name="uni20B6" unicode="&#x20c6;" horiz-adv-x="720" 
d="M132 277h-110v103h110v320h301c75 0 134 -20 178 -59s66 -89 66 -152s-22 -114 -66 -153s-103 -59 -178 -59h-158v-66h254v-103h-254v-108h-143v108h-110v103h110v66zM275 574v-194h139c73 0 118 36 118 97c0 63 -45 97 -118 97h-139z" />
    <glyph glyph-name="uni20B6" unicode="&#x20c5;" horiz-adv-x="720" 
d="M132 277h-110v103h110v320h301c75 0 134 -20 178 -59s66 -89 66 -152s-22 -114 -66 -153s-103 -59 -178 -59h-158v-66h254v-103h-254v-108h-143v108h-110v103h110v66zM275 574v-194h139c73 0 118 36 118 97c0 63 -45 97 -118 97h-139z" />
    <glyph glyph-name="uni20B6" unicode="&#x20c4;" horiz-adv-x="720" 
d="M132 277h-110v103h110v320h301c75 0 134 -20 178 -59s66 -89 66 -152s-22 -114 -66 -153s-103 -59 -178 -59h-158v-66h254v-103h-254v-108h-143v108h-110v103h110v66zM275 574v-194h139c73 0 118 36 118 97c0 63 -45 97 -118 97h-139z" />
    <glyph glyph-name="uni20B6" unicode="&#x20c3;" horiz-adv-x="720" 
d="M132 277h-110v103h110v320h301c75 0 134 -20 178 -59s66 -89 66 -152s-22 -114 -66 -153s-103 -59 -178 -59h-158v-66h254v-103h-254v-108h-143v108h-110v103h110v66zM275 574v-194h139c73 0 118 36 118 97c0 63 -45 97 -118 97h-139z" />
    <glyph glyph-name="uni20B6" unicode="&#x20c2;" horiz-adv-x="720" 
d="M132 277h-110v103h110v320h301c75 0 134 -20 178 -59s66 -89 66 -152s-22 -114 -66 -153s-103 -59 -178 -59h-158v-66h254v-103h-254v-108h-143v108h-110v103h110v66zM275 574v-194h139c73 0 118 36 118 97c0 63 -45 97 -118 97h-139z" />
    <glyph glyph-name="uni20B6" unicode="&#x20c1;" horiz-adv-x="720" 
d="M132 277h-110v103h110v320h301c75 0 134 -20 178 -59s66 -89 66 -152s-22 -114 -66 -153s-103 -59 -178 -59h-158v-66h254v-103h-254v-108h-143v108h-110v103h110v66zM275 574v-194h139c73 0 118 36 118 97c0 63 -45 97 -118 97h-139z" />
    <glyph glyph-name="uni20B6" unicode="&#x20c0;" horiz-adv-x="720" 
d="M132 277h-110v103h110v320h301c75 0 134 -20 178 -59s66 -89 66 -152s-22 -114 -66 -153s-103 -59 -178 -59h-158v-66h254v-103h-254v-108h-143v108h-110v103h110v66zM275 574v-194h139c73 0 118 36 118 97c0 63 -45 97 -118 97h-139z" />
    <glyph glyph-name="uni20B6" unicode="&#x20bf;" horiz-adv-x="720" 
d="M132 277h-110v103h110v320h301c75 0 134 -20 178 -59s66 -89 66 -152s-22 -114 -66 -153s-103 -59 -178 -59h-158v-66h254v-103h-254v-108h-143v108h-110v103h110v66zM275 574v-194h139c73 0 118 36 118 97c0 63 -45 97 -118 97h-139z" />
    <glyph glyph-name="uni20B6" unicode="&#x20be;" horiz-adv-x="720" 
d="M132 277h-110v103h110v320h301c75 0 134 -20 178 -59s66 -89 66 -152s-22 -114 -66 -153s-103 -59 -178 -59h-158v-66h254v-103h-254v-108h-143v108h-110v103h110v66zM275 574v-194h139c73 0 118 36 118 97c0 63 -45 97 -118 97h-139z" />
    <glyph glyph-name="uni20B6" unicode="&#x20bd;" horiz-adv-x="720" 
d="M132 277h-110v103h110v320h301c75 0 134 -20 178 -59s66 -89 66 -152s-22 -114 -66 -153s-103 -59 -178 -59h-158v-66h254v-103h-254v-108h-143v108h-110v103h110v66zM275 574v-194h139c73 0 118 36 118 97c0 63 -45 97 -118 97h-139z" />
    <glyph glyph-name="uni20B6" unicode="&#x20bc;" horiz-adv-x="720" 
d="M132 277h-110v103h110v320h301c75 0 134 -20 178 -59s66 -89 66 -152s-22 -114 -66 -153s-103 -59 -178 -59h-158v-66h254v-103h-254v-108h-143v108h-110v103h110v66zM275 574v-194h139c73 0 118 36 118 97c0 63 -45 97 -118 97h-139z" />
    <glyph glyph-name="uni20B6" unicode="&#x20bb;" horiz-adv-x="720" 
d="M132 277h-110v103h110v320h301c75 0 134 -20 178 -59s66 -89 66 -152s-22 -114 -66 -153s-103 -59 -178 -59h-158v-66h254v-103h-254v-108h-143v108h-110v103h110v66zM275 574v-194h139c73 0 118 36 118 97c0 63 -45 97 -118 97h-139z" />
    <glyph glyph-name="uni20B6" unicode="&#x20ba;" horiz-adv-x="720" 
d="M132 277h-110v103h110v320h301c75 0 134 -20 178 -59s66 -89 66 -152s-22 -114 -66 -153s-103 -59 -178 -59h-158v-66h254v-103h-254v-108h-143v108h-110v103h110v66zM275 574v-194h139c73 0 118 36 118 97c0 63 -45 97 -118 97h-139z" />
    <glyph glyph-name="uni20B6" unicode="&#x20b9;" horiz-adv-x="720" 
d="M132 277h-110v103h110v320h301c75 0 134 -20 178 -59s66 -89 66 -152s-22 -114 -66 -153s-103 -59 -178 -59h-158v-66h254v-103h-254v-108h-143v108h-110v103h110v66zM275 574v-194h139c73 0 118 36 118 97c0 63 -45 97 -118 97h-139z" />
    <glyph glyph-name="uni20B6" unicode="&#x20b7;" horiz-adv-x="720" 
d="M132 277h-110v103h110v320h301c75 0 134 -20 178 -59s66 -89 66 -152s-22 -114 -66 -153s-103 -59 -178 -59h-158v-66h254v-103h-254v-108h-143v108h-110v103h110v66zM275 574v-194h139c73 0 118 36 118 97c0 63 -45 97 -118 97h-139z" />
    <glyph glyph-name="uni2113" unicode="&#x2113;" horiz-adv-x="422" 
d="M234 -13c-117 0 -174 68 -174 177v306c0 70 14 128 41 173c28 46 72 69 132 69c92 0 147 -70 147 -166c0 -114 -73 -235 -218 -362v-18c0 -56 31 -84 94 -84c39 0 73 12 101 35v-92c-29 -25 -70 -38 -123 -38zM162 489v-177c35 34 64 72 88 113c25 42 37 81 37 117
c0 47 -17 71 -52 71c-41 0 -72 -39 -73 -124z" />
    <glyph glyph-name="uni2116" unicode="&#x2116;" horiz-adv-x="1153" 
d="M1101 225h-326v86h326v-86zM811 657c33 33 76 49 127 49s94 -16 127 -49s50 -73 50 -122s-17 -89 -50 -122s-76 -49 -127 -49s-94 16 -127 49s-50 73 -50 122s17 89 50 122zM880 477c15 -15 35 -23 58 -23s42 8 57 23c31 31 31 85 0 116c-15 15 -34 23 -57 23
s-43 -8 -58 -23c-29 -31 -29 -85 0 -116zM218 0h-141v700h123l353 -448v448h140v-700h-119l-356 450v-450z" />
    <glyph glyph-name="trademark" unicode="&#x2122;" horiz-adv-x="684" 
d="M405 389h-78v311h73l83 -113l81 113h74v-311h-79v185l-56 -74h-40l-58 75v-186zM191 389h-79v240h-95v71h269v-71h-95v-240z" />
    <glyph glyph-name="Omega" unicode="&#x2126;" horiz-adv-x="792" 
d="M721 382c0 -100 -42 -198 -99 -253h98v-129h-266v109c68 49 120 140 120 248c0 64 -16 117 -49 159s-76 63 -129 63s-96 -21 -129 -63s-49 -95 -49 -159c0 -108 52 -199 120 -248v-109h-266v129h98c-57 55 -99 153 -99 253c0 91 30 169 89 234s138 98 236 98
s177 -33 236 -98s89 -143 89 -234z" />
    <glyph glyph-name="estimated" unicode="&#x212e;" horiz-adv-x="785" 
d="M394 -14c-97 0 -178 32 -243 96s-98 145 -98 243c0 93 31 172 94 239s146 100 247 100c100 0 189 -41 244 -102c56 -60 90 -135 94 -210v-29h-565v-205c60 -65 136 -98 227 -98c123 0 225 64 276 171h38c-23 -58 -62 -107 -117 -146s-120 -59 -197 -59zM167 534v-178h453
v178c-61 65 -136 98 -226 98c-91 0 -167 -33 -227 -98z" />
    <glyph glyph-name="onethird" unicode="&#x2153;" horiz-adv-x="793" 
d="M207 0h-108l422 700h108zM214 322h-96v280l-101 -51v94l105 55h92v-378zM609 -7c-47 0 -88 10 -122 30v88c37 -23 75 -34 114 -34c40 0 72 20 72 51c0 29 -24 49 -65 49c-25 0 -45 -4 -61 -11v59l87 73h-136v80h253v-71l-80 -69c51 -11 98 -44 98 -112
c0 -40 -16 -72 -47 -97c-31 -24 -68 -36 -113 -36z" />
    <glyph glyph-name="twothirds" unicode="&#x2154;" horiz-adv-x="887" 
d="M319 322h-281v69l108 92c48 41 65 66 65 93s-23 43 -56 43c-36 0 -71 -13 -104 -39v95c31 21 68 32 112 32c38 0 71 -11 100 -33c29 -21 44 -50 44 -86c0 -55 -20 -90 -80 -143l-48 -43h140v-80zM703 -7c-47 0 -88 10 -122 30v88c37 -23 75 -34 114 -34c40 0 72 20 72 51
c0 29 -24 49 -65 49c-25 0 -45 -4 -61 -11v59l87 73h-136v80h253v-71l-80 -69c51 -11 98 -44 98 -112c0 -40 -16 -72 -47 -97c-31 -24 -68 -36 -113 -36zM301 0h-108l422 700h108z" />
    <glyph glyph-name="uni2155" unicode="&#x2155;" horiz-adv-x="775" 
d="M207 0h-108l422 700h108zM214 322h-96v280l-101 -51v94l105 55h92v-378zM581 -7c-43 0 -81 9 -112 27v89c33 -21 69 -32 108 -32c41 0 74 17 74 52c0 31 -28 51 -75 51c-31 0 -63 -5 -95 -15l25 213h216v-80h-144l-5 -48c5 1 13 2 26 2c87 0 148 -47 148 -123
c0 -43 -16 -77 -48 -101c-32 -23 -71 -35 -118 -35z" />
    <glyph glyph-name="uni2156" unicode="&#x2156;" horiz-adv-x="869" 
d="M319 322h-281v69l108 92c48 41 65 66 65 93s-23 43 -56 43c-36 0 -71 -13 -104 -39v95c31 21 68 32 112 32c38 0 71 -11 100 -33c29 -21 44 -50 44 -86c0 -55 -20 -90 -80 -143l-48 -43h140v-80zM675 -7c-43 0 -81 9 -112 27v89c33 -21 69 -32 108 -32c41 0 74 17 74 52
c0 31 -28 51 -75 51c-31 0 -63 -5 -95 -15l25 213h216v-80h-144l-5 -48c5 1 13 2 26 2c87 0 148 -47 148 -123c0 -43 -16 -77 -48 -101c-32 -23 -71 -35 -118 -35zM301 0h-108l422 700h108z" />
    <glyph glyph-name="uni2157" unicode="&#x2157;" horiz-adv-x="818" 
d="M251 0h-108l422 700h108zM624 -7c-43 0 -81 9 -112 27v89c33 -21 69 -32 108 -32c41 0 74 17 74 52c0 31 -28 51 -75 51c-31 0 -63 -5 -95 -15l25 213h216v-80h-144l-5 -48c5 1 13 2 26 2c87 0 148 -47 148 -123c0 -43 -16 -77 -48 -101c-32 -23 -71 -35 -118 -35z
M144 315c-47 0 -88 10 -122 30v88c37 -23 75 -34 114 -34c40 0 72 20 72 51c0 29 -24 49 -65 49c-25 0 -45 -4 -61 -11v59l87 73h-136v80h253v-71l-80 -69c51 -11 98 -44 98 -112c0 -40 -16 -72 -47 -97c-31 -24 -68 -36 -113 -36z" />
    <glyph glyph-name="uni2158" unicode="&#x2158;" horiz-adv-x="860" 
d="M295 322h-92v90h-190v68l185 220h97v-214h54v-74h-54v-90zM203 594l-93 -108h93v108zM666 -7c-43 0 -81 9 -112 27v89c33 -21 69 -32 108 -32c41 0 74 17 74 52c0 31 -28 51 -75 51c-31 0 -63 -5 -95 -15l25 213h216v-80h-144l-5 -48c5 1 13 2 26 2
c87 0 148 -47 148 -123c0 -43 -16 -77 -48 -101c-32 -23 -71 -35 -118 -35zM293 0h-108l422 700h108z" />
    <glyph glyph-name="uni2159" unicode="&#x2159;" horiz-adv-x="777" 
d="M207 0h-108l422 700h108zM214 322h-96v280l-101 -51v94l105 55h92v-378zM608 -7c-101 0 -158 69 -158 177c0 59 15 110 46 152s77 63 136 63c38 0 68 -8 90 -23v-84c-23 16 -49 24 -79 24c-51 0 -89 -31 -93 -84c19 23 46 34 80 34c72 0 124 -47 124 -124
c0 -40 -14 -73 -42 -98s-63 -37 -104 -37zM602 70c35 0 57 25 57 58c0 29 -24 54 -57 54c-24 0 -49 -15 -60 -38c1 -47 27 -74 60 -74z" />
    <glyph glyph-name="uni215A" unicode="&#x215a;" horiz-adv-x="820" 
d="M651 -7c-101 0 -158 69 -158 177c0 59 15 110 46 152s77 63 136 63c38 0 68 -8 90 -23v-84c-23 16 -49 24 -79 24c-51 0 -89 -31 -93 -84c19 23 46 34 80 34c72 0 124 -47 124 -124c0 -80 -62 -135 -146 -135zM645 70c35 0 57 25 57 58c0 29 -24 54 -57 54
c-24 0 -49 -15 -60 -38c1 -47 27 -74 60 -74zM137 315c-43 0 -81 9 -112 27v89c33 -21 69 -32 108 -32c41 0 74 17 74 52c0 31 -28 51 -75 51c-31 0 -63 -5 -95 -15l25 213h216v-80h-144l-5 -48c5 1 13 2 26 2c87 0 148 -47 148 -123c0 -43 -16 -77 -48 -101
c-32 -23 -71 -35 -118 -35zM250 0h-108l422 700h108z" />
    <glyph glyph-name="oneeighth" unicode="&#x215b;" horiz-adv-x="800" 
d="M207 0h-108l422 700h108zM214 322h-96v280l-101 -51v94l105 55h92v-378zM621 -7c-89 0 -159 42 -159 117c0 40 31 78 68 91c-29 13 -50 44 -50 77c0 63 60 107 141 107c80 0 140 -44 140 -107c0 -32 -22 -64 -50 -77c39 -13 68 -50 68 -91c0 -75 -70 -117 -158 -117z
M621 70c36 0 62 21 62 48c0 29 -26 49 -62 49c-37 0 -63 -20 -63 -49c0 -28 26 -48 63 -48zM621 227c29 0 51 17 51 41c0 25 -22 42 -51 42c-31 0 -53 -17 -53 -42c0 -24 22 -41 53 -41z" />
    <glyph glyph-name="threeeighths" unicode="&#x215c;" horiz-adv-x="844" 
d="M251 0h-108l422 700h108zM665 -7c-89 0 -159 42 -159 117c0 40 31 78 68 91c-29 13 -50 44 -50 77c0 63 60 107 141 107c80 0 140 -44 140 -107c0 -32 -22 -64 -50 -77c39 -13 68 -50 68 -91c0 -75 -70 -117 -158 -117zM665 70c36 0 62 21 62 48c0 29 -26 49 -62 49
c-37 0 -63 -20 -63 -49c0 -28 26 -48 63 -48zM665 227c29 0 51 17 51 41c0 25 -22 42 -51 42c-31 0 -53 -17 -53 -42c0 -24 22 -41 53 -41zM144 315c-47 0 -88 10 -122 30v88c37 -23 75 -34 114 -34c40 0 72 20 72 51c0 29 -24 49 -65 49c-25 0 -45 -4 -61 -11v59l87 73
h-136v80h253v-71l-80 -69c51 -11 98 -44 98 -112c0 -40 -16 -72 -47 -97c-31 -24 -68 -36 -113 -36z" />
    <glyph glyph-name="fiveeighths" unicode="&#x215d;" horiz-adv-x="843" 
d="M664 -7c-89 0 -159 42 -159 117c0 40 31 78 68 91c-29 13 -50 44 -50 77c0 63 60 107 141 107c80 0 140 -44 140 -107c0 -32 -22 -64 -50 -77c39 -13 68 -50 68 -91c0 -75 -70 -117 -158 -117zM664 70c36 0 62 21 62 48c0 29 -26 49 -62 49c-37 0 -63 -20 -63 -49
c0 -28 26 -48 63 -48zM664 227c29 0 51 17 51 41c0 25 -22 42 -51 42c-31 0 -53 -17 -53 -42c0 -24 22 -41 53 -41zM137 315c-43 0 -81 9 -112 27v89c33 -21 69 -32 108 -32c41 0 74 17 74 52c0 31 -28 51 -75 51c-31 0 -63 -5 -95 -15l25 213h216v-80h-144l-5 -48
c5 1 13 2 26 2c87 0 148 -47 148 -123c0 -43 -16 -77 -48 -101c-32 -23 -71 -35 -118 -35zM250 0h-108l422 700h108z" />
    <glyph glyph-name="seveneighths" unicode="&#x215e;" horiz-adv-x="788" 
d="M195 0h-108l422 700h108zM609 -7c-89 0 -159 42 -159 117c0 40 31 78 68 91c-29 13 -50 44 -50 77c0 63 60 107 141 107c80 0 140 -44 140 -107c0 -32 -22 -64 -50 -77c39 -13 68 -50 68 -91c0 -75 -70 -117 -158 -117zM609 70c36 0 62 21 62 48c0 29 -26 49 -62 49
c-37 0 -63 -20 -63 -49c0 -28 26 -48 63 -48zM609 227c29 0 51 17 51 41c0 25 -22 42 -51 42c-31 0 -53 -17 -53 -42c0 -24 22 -41 53 -41zM147 322h-104l151 298h-173v80h282v-75z" />
    <glyph glyph-name="uni215F" unicode="&#x215f;" horiz-adv-x="455" 
d="M214 322h-96v280l-101 -51v94l105 55h92v-378zM207 0h-108l422 700h108z" />
    <glyph glyph-name="arrowleft" unicode="&#x2190;" horiz-adv-x="706" 
d="M42 267l190 221h139l-146 -166h419v-111h-420l147 -166h-139z" />
    <glyph glyph-name="arrowup" unicode="&#x2191;" horiz-adv-x="567" 
d="M284 602l221 -190v-139l-166 146v-419h-111v420l-166 -147v139z" />
    <glyph glyph-name="arrowright" unicode="&#x2192;" horiz-adv-x="706" 
d="M481 322l-146 166h139l190 -221l-190 -222h-139l147 166h-420v111h419z" />
    <glyph glyph-name="arrowdown" unicode="&#x2193;" horiz-adv-x="567" 
d="M283 -14l-221 190v139l166 -146v419h111v-420l166 147v-139z" />
    <glyph glyph-name="partialdiff" unicode="&#x2202;" horiz-adv-x="616" 
d="M269 -14c-68 0 -124 21 -168 62c-43 41 -65 96 -65 164c0 70 22 129 66 177s100 72 169 72c75 0 131 -27 170 -82c0 60 -16 112 -47 157s-77 68 -136 68c-49 0 -96 -13 -139 -39v104c44 29 96 43 156 43c87 0 157 -32 209 -96c52 -63 78 -148 78 -255
c0 -96 -21 -183 -66 -256c-44 -72 -124 -119 -227 -119zM281 92c83 0 141 64 153 168c-23 59 -76 100 -137 100c-38 0 -71 -13 -98 -39s-41 -60 -41 -102c0 -75 50 -127 123 -127z" />
    <glyph glyph-name="increment" unicode="&#x2206;" horiz-adv-x="770" 
d="M754 0h-738l300 700h138zM384 521l-166 -394h332z" />
    <glyph glyph-name="product" unicode="&#x220f;" horiz-adv-x="775" 
d="M281 -134h-123v724h-121v110h701v-110h-122v-724h-123v724h-212v-724z" />
    <glyph glyph-name="summation" unicode="&#x2211;" horiz-adv-x="622" 
d="M584 0h-541v102l225 248l-218 248v102h527v-129h-325l167 -191v-59l-175 -192h340v-129z" />
    <glyph glyph-name="minus" unicode="&#x2212;" horiz-adv-x="712" 
d="M646 268h-580v126h580v-126z" />
    <glyph glyph-name="uni2215" unicode="&#x2215;" horiz-adv-x="547" 
d="M117 0h-108l422 700h108z" />
    <glyph glyph-name="uni2219" unicode="&#x2219;" horiz-adv-x="248" 
d="M124 178c-49 0 -87 39 -87 88c0 48 38 86 87 86c48 0 87 -38 87 -86c0 -49 -39 -88 -87 -88z" />
    <glyph glyph-name="radical" unicode="&#x221a;" horiz-adv-x="730" 
d="M432 0h-112l-176 388h-138v111h220l150 -339l214 540h126z" />
    <glyph glyph-name="infinity" unicode="&#x221e;" horiz-adv-x="803" 
d="M221 112c-49 0 -92 17 -130 50c-37 34 -56 81 -56 141c0 57 19 103 57 136c39 34 82 51 130 51c70 0 130 -35 180 -105c37 57 101 105 181 105c53 0 97 -18 132 -54s53 -80 53 -133c0 -56 -18 -102 -53 -138c-35 -35 -79 -53 -132 -53c-68 0 -135 39 -182 104
c-51 -69 -111 -104 -180 -104zM233 213c41 0 79 30 114 89c-39 59 -77 88 -115 88c-51 0 -85 -42 -85 -87c0 -47 34 -90 86 -90zM572 213c52 0 84 42 84 90c0 47 -31 86 -86 86c-41 0 -79 -29 -114 -87c33 -59 71 -89 116 -89z" />
    <glyph glyph-name="integral" unicode="&#x222b;" horiz-adv-x="520" 
d="M410 712c39 0 72 -6 98 -19v-116c-23 9 -46 13 -68 13c-64 0 -102 -39 -115 -116l-76 -473c-19 -121 -93 -207 -225 -207c-39 0 -72 6 -98 19v116c23 -9 46 -13 68 -13c64 0 102 39 115 116l76 473c19 121 93 207 225 207z" />
    <glyph glyph-name="approxequal" unicode="&#x2248;" horiz-adv-x="656" 
d="M465 342c-35 0 -81 9 -138 27c-57 19 -103 28 -137 28c-53 0 -94 -16 -124 -47v127c20 25 72 44 124 44c35 0 80 -10 137 -29s103 -28 138 -28c53 0 94 16 125 48v-127c-21 -25 -72 -43 -125 -43zM465 112c-35 0 -81 9 -139 28c-57 19 -103 28 -136 28
c-52 0 -93 -16 -124 -48v127c20 25 72 44 124 44c35 0 80 -10 137 -29s103 -28 138 -28c53 0 94 16 125 48v-127c-21 -25 -72 -43 -125 -43z" />
    <glyph glyph-name="notequal" unicode="&#x2260;" horiz-adv-x="641" 
d="M285 381h-219v127h286l51 98h126l-51 -98h97v-127h-164l-51 -99h215v-128h-282l-55 -106h-126l55 106h-101v128h168z" />
    <glyph glyph-name="lessequal" unicode="&#x2264;" horiz-adv-x="641" 
d="M575 316v-140l-509 186v121l509 186v-140l-359 -106zM574 18h-508v127h508v-127z" />
    <glyph glyph-name="greaterequal" unicode="&#x2265;" horiz-adv-x="641" 
d="M575 483v-121l-509 -186v140l359 107l-359 106v140zM67 145h508v-127h-508v127z" />
    <glyph glyph-name="dotmath" unicode="&#x22c5;" horiz-adv-x="263" 
d="M132 300c-49 0 -87 39 -87 88c0 48 38 86 87 86c48 0 87 -38 87 -86c0 -49 -39 -88 -87 -88z" />
    <glyph glyph-name="lozenge" unicode="&#x25ca;" horiz-adv-x="565" 
d="M343 0h-121l-190 350l190 350h121l191 -350zM159 350l125 -239l124 239l-124 239z" />
    <glyph glyph-name="uniF401" unicode="&#xf401;" horiz-adv-x="12" 
d="M-353 761h-122l95 146h170z" />
    <glyph glyph-name="uniF639" unicode="&#xf639;" 
d="M480 38c-44 -35 -96 -52 -155 -52c-119 0 -209 77 -252 185c-21 55 -32 114 -32 179c0 129 42 243 129 312c44 35 96 52 155 52c119 0 210 -77 253 -186c21 -54 32 -113 32 -178c0 -129 -42 -243 -130 -312zM325 118c45 0 80 22 105 67s37 100 37 165s-12 120 -37 165
s-60 67 -105 67s-79 -22 -104 -67s-37 -100 -37 -165s12 -120 37 -165s59 -67 104 -67z" />
    <glyph glyph-name="uniF63A" unicode="&#xf63a;" 
d="M573 0h-498v105l206 187c47 43 79 77 97 104c19 27 28 55 28 85c0 60 -48 98 -120 98c-66 0 -129 -27 -189 -80v148c57 45 125 67 204 67c67 0 125 -20 174 -59s74 -91 74 -155c0 -49 -11 -93 -33 -131c-21 -38 -60 -82 -115 -133l-120 -110h292v-126z" />
    <glyph glyph-name="uniF63B" unicode="&#xf63b;" 
d="M285 -14c-83 0 -154 19 -213 56v137c62 -43 130 -64 205 -64c83 0 146 44 146 117c0 67 -54 114 -139 114c-33 0 -66 -6 -99 -19v95l167 154h-258v124h442v-108l-158 -145c50 -9 94 -32 132 -69s57 -85 57 -146c0 -75 -27 -134 -81 -179s-121 -67 -201 -67z" />
    <glyph glyph-name="uniF63C" unicode="&#xf63c;" 
d="M514 0h-140v175h-351v104l349 421h142v-409h103v-116h-103v-175zM374 519l-192 -228h192v228z" />
    <glyph glyph-name="uniF63D" unicode="&#xf63d;" 
d="M270 -14c-75 0 -141 17 -199 50v135c59 -37 123 -56 193 -56c88 0 155 42 155 117c0 69 -60 116 -156 116c-55 0 -111 -10 -168 -30l46 382h374v-124h-268l-15 -119c22 5 44 7 67 7c77 0 140 -21 189 -64c50 -43 75 -99 75 -168c0 -77 -28 -137 -85 -181
c-56 -43 -125 -65 -208 -65z" />
    <glyph glyph-name="uniF63E" unicode="&#xf63e;" 
d="M340 -14c-176 0 -279 124 -279 328c0 207 104 400 321 400c60 0 113 -15 158 -45v-130c-44 30 -91 45 -142 45c-57 0 -103 -18 -136 -54s-51 -81 -55 -136c37 43 91 65 163 65c64 0 117 -21 160 -62s64 -95 64 -164c0 -73 -24 -132 -73 -178c-48 -46 -108 -69 -181 -69z
M331 110c71 0 120 49 120 120c0 68 -51 117 -120 117c-55 0 -108 -37 -128 -88c4 -95 52 -149 128 -149z" />
    <glyph glyph-name="uniF63F" unicode="&#xf63f;" 
d="M277 0h-153l286 571h-331v129h494v-111z" />
    <glyph glyph-name="uniF640" unicode="&#xf640;" 
d="M474 373c77 -28 130 -94 130 -174c0 -66 -27 -118 -81 -156c-53 -38 -119 -57 -198 -57s-145 19 -199 57s-81 90 -81 156c0 80 53 146 130 174c-61 28 -98 82 -98 147c0 57 23 104 70 140s107 54 178 54s129 -18 176 -54s71 -83 71 -140c0 -65 -37 -119 -98 -147z
M216 506c0 -51 48 -87 109 -87s108 36 108 87c0 52 -47 88 -108 88s-109 -36 -109 -88zM455 208c0 59 -55 102 -130 102s-131 -43 -131 -102c0 -57 56 -101 131 -101s130 44 130 101z" />
    <glyph glyph-name="uniF641" unicode="&#xf641;" 
d="M310 714c176 0 279 -124 279 -328c0 -207 -104 -400 -321 -400c-60 0 -113 15 -158 45v130c44 -30 91 -45 142 -45c57 0 102 18 135 54s52 81 56 136c-37 -43 -91 -65 -163 -65c-64 0 -117 20 -160 61s-64 96 -64 165c0 73 24 132 72 178c49 46 109 69 182 69zM319 590
c-71 0 -120 -49 -120 -120c0 -68 51 -117 120 -117c55 0 108 37 128 89c-4 95 -52 148 -128 148z" />
    <glyph glyph-name="uniF643" unicode="&#xf643;" 
d="M227 150c26 -27 59 -40 99 -40s73 13 99 40s39 60 39 100s-13 73 -39 99c-26 27 -59 40 -99 40s-73 -13 -99 -40c-26 -26 -39 -59 -39 -99s13 -73 39 -100zM49 250c0 74 26 136 78 186c52 51 118 76 199 76s147 -25 199 -76s78 -113 78 -186c0 -75 -26 -137 -78 -188
c-52 -50 -118 -75 -199 -75s-147 25 -199 75c-52 51 -78 113 -78 188z" />
    <glyph glyph-name="uniF644" unicode="&#xf644;" 
d="M593 0h-486v124h179v221l-148 -75v141l164 88h125v-375h166v-124z" />
    <glyph glyph-name="uniF645" unicode="&#xf645;" 
d="M564 0h-478v106c99 50 169 88 211 113l51 32c21 15 49 44 49 71c0 40 -30 60 -90 60c-64 0 -131 -24 -202 -73v136c65 45 136 67 215 67c65 0 118 -15 159 -46s62 -73 62 -126c0 -77 -51 -139 -153 -186l-65 -30h241v-124z" />
    <glyph glyph-name="uniF646" unicode="&#xf646;" 
d="M284 -206c-83 0 -154 19 -213 56v137c62 -43 130 -64 205 -64c83 0 146 42 146 115c0 67 -54 111 -139 111c-33 0 -66 -6 -99 -19v95l167 150h-258v124h442v-108l-158 -141c50 -9 94 -32 132 -68c38 -35 57 -83 57 -144c0 -74 -27 -133 -81 -177
c-54 -45 -121 -67 -201 -67z" />
    <glyph glyph-name="uniF647" unicode="&#xf647;" 
d="M514 -200h-143v200h-348v105l349 394h142v-382h103v-117h-103v-200zM371 329l-188 -212h188v212z" />
    <glyph glyph-name="uniF648" unicode="&#xf648;" 
d="M284 -206c-75 0 -141 17 -199 50v135c59 -37 123 -56 193 -56c88 0 155 42 155 117c0 69 -59 114 -156 114c-53 0 -109 -10 -168 -31l45 376h374v-124h-269l-13 -113c20 5 42 8 66 8c77 0 141 -21 190 -63c50 -42 75 -98 75 -167c0 -77 -28 -137 -85 -180
c-56 -44 -125 -66 -208 -66z" />
    <glyph glyph-name="uniF649" unicode="&#xf649;" 
d="M340 -14c-176 0 -279 124 -279 328c0 207 104 400 321 400c60 0 113 -15 158 -45v-130c-44 30 -91 45 -142 45c-57 0 -103 -18 -136 -54s-51 -81 -55 -136c37 43 91 65 163 65c64 0 117 -21 160 -62s64 -95 64 -164c0 -73 -24 -132 -73 -178c-48 -46 -108 -69 -181 -69z
M331 110c71 0 120 49 120 120c0 68 -51 117 -120 117c-55 0 -108 -37 -128 -88c4 -95 52 -149 128 -149z" />
    <glyph glyph-name="uniF64A" unicode="&#xf64a;" 
d="M279 -200h-152l284 571h-332v128h494v-111z" />
    <glyph glyph-name="uniF64B" unicode="&#xf64b;" 
d="M474 373c77 -28 130 -94 130 -174c0 -66 -27 -118 -81 -156c-53 -38 -119 -57 -198 -57s-145 19 -199 57s-81 90 -81 156c0 80 53 146 130 174c-61 28 -98 82 -98 147c0 57 23 104 70 140s107 54 178 54s129 -18 176 -54s71 -83 71 -140c0 -65 -37 -119 -98 -147z
M216 506c0 -51 48 -87 109 -87s108 36 108 87c0 52 -47 88 -108 88s-109 -36 -109 -88zM455 208c0 59 -55 102 -130 102s-131 -43 -131 -102c0 -57 56 -101 131 -101s130 44 130 101z" />
    <glyph glyph-name="uniF64C" unicode="&#xf64c;" 
d="M316 512c176 0 279 -124 279 -328c0 -71 -11 -136 -34 -193c-45 -116 -148 -197 -287 -197c-60 0 -113 15 -158 45v130c44 -30 91 -45 142 -45c116 0 184 72 191 180c-37 -43 -91 -65 -163 -65c-64 0 -117 20 -160 61s-64 96 -64 165c0 73 24 132 72 178
c49 46 109 69 182 69zM325 388c-71 0 -120 -49 -120 -120c0 -68 51 -117 120 -117c55 0 108 37 128 89c-4 95 -52 148 -128 148z" />
    <glyph glyph-name="uniF64E" unicode="&#xf64e;" horiz-adv-x="560" 
d="M82 275h-66v61h78c17 55 50 98 98 129s102 47 161 47c55 0 104 -11 148 -33v-111c-41 19 -82 29 -125 29c-65 0 -111 -20 -136 -61h160v-61h-181c-1 -11 -2 -19 -2 -25c0 -7 1 -15 2 -24h181v-61h-161c25 -42 70 -63 137 -63c49 0 94 11 133 34v-111
c-47 -25 -99 -38 -157 -38c-59 0 -112 16 -160 47c-48 32 -81 76 -98 131h-78v61h66c-1 5 -1 14 -1 25c0 5 1 20 1 24z" />
    <glyph glyph-name="uniF653" unicode="&#xf653;" horiz-adv-x="512" 
d="M317 -8v-91h-125v89c-64 7 -114 22 -149 44v125c44 -29 123 -57 204 -57c57 0 86 14 86 42c0 13 -6 23 -25 31c-9 4 -18 7 -26 9l-37 9c-17 5 -31 8 -40 11c-115 31 -162 67 -162 155c0 77 54 130 149 147v92h125v-90c53 -7 97 -21 133 -42v-120c-60 35 -120 52 -181 52
c-53 0 -80 -13 -80 -40c0 -17 13 -24 28 -33c11 -4 31 -9 43 -13l53 -11c108 -25 163 -71 163 -158c0 -77 -60 -134 -159 -151z" />
    <glyph glyph-name="commaaccent" unicode="&#xf6c3;" horiz-adv-x="237" 
d="M137 -270h-105l59 204h130z" />
    <glyph glyph-name="cyrbreve" unicode="&#xf6d4;" horiz-adv-x="479" 
d="M240 554c-105 0 -180 66 -181 171h106c0 -44 29 -73 74 -73c44 0 73 29 74 73h107c-1 -53 -18 -94 -52 -125s-77 -46 -128 -46z" />
    <glyph glyph-name="uniF6DC" unicode="&#xf6dc;" 
d="M581 0h-492v126h181v420l-148 -75v141l164 88h125v-574h170v-126z" />
    <glyph glyph-name="uniF721" unicode="&#xf721;" horiz-adv-x="562" 
d="M449 332h50v-60h-444v60h248c23 8 35 19 35 34c0 25 -30 38 -90 38c-51 0 -101 -9 -150 -27v106c49 20 103 30 164 30c49 0 94 -7 138 -26c44 -17 73 -53 73 -101c0 -23 -8 -41 -24 -54zM110 173h-55v60h444v-60h-241c-25 -7 -38 -20 -38 -38c0 -26 32 -39 97 -39
c52 0 103 9 152 28v-108c-47 -19 -102 -29 -166 -29c-90 0 -219 27 -219 127c0 25 9 45 26 59z" />
    <glyph glyph-name="uniF722" unicode="&#xf722;" horiz-adv-x="613" 
d="M250 0h-137v58h-86v61h86v39h-86v86h86v255h259c125 0 197 -72 197 -171c0 -104 -80 -170 -204 -170h-115v-39h165v-61h-165v-58zM345 395h-95v-151h95c59 0 94 28 94 75c0 48 -35 76 -94 76z" />
    <glyph glyph-name="uniF725" unicode="&#xf725;" horiz-adv-x="570" 
d="M130 197h-73v86h73v44c0 113 83 185 223 185c56 0 103 -9 141 -26v-113c-43 16 -83 24 -121 24c-69 0 -108 -34 -108 -90v-24h187v-86h-187v-30c0 -28 -8 -48 -25 -60h269v-107h-452v107h26c31 0 47 19 47 57v33z" />
    <glyph glyph-name="uniF727" unicode="&#xf727;" horiz-adv-x="600" 
d="M231 204h-146v61h116l-175 234h151l124 -177l125 177h148l-179 -234h120v-61h-147v-45h147v-61h-147v-98h-137v98h-146v61h146v45z" />
    <glyph glyph-name="uniF730" unicode="&#xf730;" horiz-adv-x="625" 
d="M214 150c26 -27 59 -40 99 -40s73 13 99 40s39 60 39 100s-13 73 -39 99c-26 27 -59 40 -99 40s-73 -13 -99 -40c-26 -26 -39 -59 -39 -99s13 -73 39 -100zM36 250c0 74 26 136 78 186c52 51 118 76 199 76s147 -25 199 -76s78 -113 78 -186c0 -75 -26 -137 -78 -188
c-52 -50 -118 -75 -199 -75s-147 25 -199 75c-52 51 -78 113 -78 188z" />
    <glyph glyph-name="uniF731" unicode="&#xf731;" horiz-adv-x="386" 
d="M317 0h-141v345l-148 -75v141l164 88h125v-499z" />
    <glyph glyph-name="uniF732" unicode="&#xf732;" horiz-adv-x="574" 
d="M522 0h-478v106c99 50 169 88 211 113l51 32c21 15 49 44 49 71c0 40 -30 60 -90 60c-64 0 -131 -24 -202 -73v136c65 45 136 67 215 67c65 0 118 -15 159 -46s62 -73 62 -126c0 -77 -51 -139 -153 -186l-65 -30h241v-124z" />
    <glyph glyph-name="uniF733" unicode="&#xf733;" horiz-adv-x="565" 
d="M239 -206c-83 0 -154 19 -213 56v137c62 -43 130 -64 205 -64c83 0 146 42 146 115c0 67 -54 111 -139 111c-33 0 -66 -6 -99 -19v95l167 150h-258v124h442v-108l-158 -141c50 -9 94 -32 132 -68c38 -35 57 -83 57 -144c0 -74 -27 -133 -81 -177
c-54 -45 -121 -67 -201 -67z" />
    <glyph glyph-name="uniF734" unicode="&#xf734;" horiz-adv-x="641" 
d="M514 -200h-143v200h-348v105l349 394h142v-382h103v-117h-103v-200zM371 329l-188 -212h188v212z" />
    <glyph glyph-name="uniF735" unicode="&#xf735;" horiz-adv-x="576" 
d="M238 -206c-75 0 -141 17 -199 50v135c59 -37 123 -56 193 -56c88 0 155 42 155 117c0 69 -59 114 -156 114c-53 0 -109 -10 -168 -31l45 376h374v-124h-269l-13 -113c20 5 42 8 66 8c77 0 141 -21 190 -63c50 -42 75 -98 75 -167c0 -77 -28 -137 -85 -180
c-56 -44 -125 -66 -208 -66z" />
    <glyph glyph-name="uniF736" unicode="&#xf736;" horiz-adv-x="638" 
d="M334 -14c-176 0 -279 124 -279 328c0 207 104 400 321 400c60 0 113 -15 158 -45v-130c-44 30 -91 45 -142 45c-57 0 -103 -18 -136 -54s-51 -81 -55 -136c37 43 91 65 163 65c64 0 117 -21 160 -62s64 -95 64 -164c0 -73 -24 -132 -73 -178c-48 -46 -108 -69 -181 -69z
M325 110c71 0 120 49 120 120c0 68 -51 117 -120 117c-55 0 -108 -37 -128 -88c4 -95 52 -149 128 -149z" />
    <glyph glyph-name="uniF737" unicode="&#xf737;" horiz-adv-x="563" 
d="M234 -200h-152l284 571h-332v128h494v-111z" />
    <glyph glyph-name="uniF738" unicode="&#xf738;" horiz-adv-x="638" 
d="M468 373c77 -28 130 -94 130 -174c0 -66 -27 -118 -81 -156c-53 -38 -119 -57 -198 -57s-145 19 -199 57s-81 90 -81 156c0 80 53 146 130 174c-61 28 -98 82 -98 147c0 57 23 104 70 140s107 54 178 54s129 -18 176 -54s71 -83 71 -140c0 -65 -37 -119 -98 -147z
M210 506c0 -51 48 -87 109 -87s108 36 108 87c0 52 -47 88 -108 88s-109 -36 -109 -88zM449 208c0 59 -55 102 -130 102s-131 -43 -131 -102c0 -57 56 -101 131 -101s130 44 130 101z" />
    <glyph glyph-name="uniF739" unicode="&#xf739;" horiz-adv-x="638" 
d="M309 512c176 0 279 -124 279 -328c0 -71 -11 -136 -34 -193c-45 -116 -148 -197 -287 -197c-61 0 -113 15 -158 45v130c44 -30 91 -45 142 -45c116 0 184 72 191 180c-37 -43 -91 -65 -163 -65c-64 0 -117 20 -160 61s-64 96 -64 165c0 73 24 132 72 178
c49 46 109 69 182 69zM318 388c-71 0 -120 -49 -120 -120c0 -68 51 -117 120 -117c55 0 108 37 128 89c-4 95 -52 148 -128 148z" />
    <glyph glyph-name="adieresis.alt" horiz-adv-x="645" 
d="M271 -13c-68 0 -124 25 -169 75c-44 51 -66 113 -66 188c0 74 22 136 66 186c45 51 101 76 169 76c71 0 125 -25 164 -74v61h141v-499h-141v61c-37 -49 -92 -74 -164 -74zM311 110c55 0 101 32 124 75v130c-23 43 -69 74 -124 74c-39 0 -72 -13 -97 -40s-38 -60 -38 -99
c0 -40 13 -73 38 -100s58 -40 97 -40zM479 590c-28 -28 -76 -28 -105 0c-28 29 -28 77 0 105c29 28 77 28 105 0c29 -28 29 -76 0 -105zM207 569c-40 0 -74 33 -74 74c0 40 34 73 74 73c41 0 74 -32 74 -73s-33 -74 -74 -74z" />
    <glyph glyph-name="cyrbreve.cap" horiz-adv-x="506" 
d="M70 909h106c0 -44 29 -73 76 -73s77 29 78 73h106c-1 -105 -78 -171 -183 -171s-182 66 -183 171z" />
    <glyph glyph-name="idieresis_idieresis" horiz-adv-x="531" 
d="M469 0h-141v499h141v-499zM23 569c-40 0 -74 33 -74 74c0 40 34 73 74 73c41 0 74 -32 74 -73s-33 -74 -74 -74zM204 0h-141v499h141v-499zM560 590c-28 -28 -76 -28 -105 0c-28 29 -28 77 0 105c29 28 77 28 105 0c29 -28 29 -76 0 -105zM317 590
c-28 -28 -76 -28 -105 0c-28 29 -28 77 0 105c29 28 77 28 105 0c29 -28 29 -76 0 -105z" />
    <glyph glyph-name="peseta.mono" 
d="M208 0h-144v426h-91v111h91v163h306c129 0 218 -64 239 -163h81v-111h-85c-27 -91 -112 -149 -235 -149h-162v-277zM208 574v-174h152c69 0 110 31 110 87s-41 87 -110 87h-152z" />
    <glyph glyph-name="lira.mono" 
d="M152 362h-81v79h81v34c0 149 97 239 253 239c63 0 116 -12 160 -35v-134c-42 23 -88 34 -137 34c-88 0 -132 -41 -132 -124v-14h211v-79h-211v-61h211v-79h-211v-31c0 -29 -10 -50 -29 -62h314v-129h-510v129h14c56 0 67 21 67 82v11h-81v79h81v61z" />
    <glyph glyph-name="pesolow" horiz-adv-x="654" 
d="M95 276h-91v86h91v137h268c108 0 178 -56 195 -137h77v-86h-79c-20 -81 -95 -130 -200 -130h-120v-146h-141v276zM334 390h-98v-139h98c55 0 87 26 87 70s-32 69 -87 69z" />
    <glyph glyph-name="franclow" horiz-adv-x="535" 
d="M218 0h-135v58h-68v61h68v380h419v-115h-284v-100h215v-106h-215v-59h114v-61h-114v-58z" />
    <glyph glyph-name="liralow" horiz-adv-x="570" 
d="M130 268h-73v61h73c1 113 84 183 223 183c56 0 103 -9 141 -26v-113c-43 16 -83 24 -121 24c-61 0 -96 -23 -106 -68h185v-61h-187v-45h187v-61h-187c-1 -26 -9 -44 -25 -55h269v-107h-452v107h26c30 0 46 18 47 55h-73v61h73v45z" />
    <glyph glyph-name="uni20B6.mono" 
d="M105 277h-110v103h110v320h301c75 0 134 -20 178 -59s66 -89 66 -152s-22 -114 -66 -153s-103 -59 -178 -59h-158v-66h254v-103h-254v-108h-143v108h-110v103h110v66zM248 574v-194h139c73 0 118 36 118 97c0 63 -45 97 -118 97h-139z" />
    <glyph glyph-name="liralow.mono" 
d="M161 268h-73v61h73c1 113 84 183 223 183c56 0 103 -9 141 -26v-113c-43 16 -83 24 -121 24c-61 0 -96 -23 -106 -68h185v-61h-187v-45h187v-61h-187c-1 -26 -9 -44 -25 -55h269v-107h-452v107h26c30 0 46 18 47 55h-73v61h73v45z" />
    <glyph glyph-name="franclow.mono" 
d="M264 0h-135v58h-68v61h68v380h419v-115h-284v-100h215v-106h-215v-59h114v-61h-114v-58z" />
    <glyph glyph-name="uniF64E.mono" 
d="M125 275h-66v61h78c17 55 50 98 98 129s102 47 161 47c55 0 104 -11 148 -33v-111c-41 19 -82 29 -125 29c-65 0 -111 -20 -136 -61h160v-61h-181c-1 -11 -2 -19 -2 -25c0 -7 1 -15 2 -24h181v-61h-161c25 -42 70 -63 137 -63c49 0 93 11 133 34v-111
c-47 -25 -99 -38 -157 -38c-59 0 -112 16 -160 47c-48 32 -81 76 -98 131h-78v61h66c-1 5 -1 14 -1 25c0 5 1 20 1 24z" />
    <glyph glyph-name="pesolow.mono" 
d="M95 276h-91v86h91v137h268c108 0 178 -56 195 -137h77v-86h-79c-20 -81 -95 -130 -200 -130h-120v-146h-141v276zM334 390h-98v-139h98c55 0 87 26 87 70s-32 69 -87 69z" />
    <glyph glyph-name="uniF722.mono" 
d="M274 0h-137v58h-86v61h86v39h-86v86h86v255h259c125 0 197 -72 197 -171c0 -104 -80 -170 -204 -170h-115v-39h165v-61h-165v-58zM369 395h-95v-151h95c59 0 94 28 94 75c0 48 -35 76 -94 76z" />
    <glyph glyph-name="o_o" horiz-adv-x="1040" 
d="M313 -13c-81 0 -147 25 -199 75c-52 51 -78 113 -78 188c0 74 26 136 78 186c52 51 118 76 199 76c87 0 156 -31 207 -92c51 61 120 92 208 92c81 0 147 -25 199 -76s78 -113 78 -186c0 -75 -26 -137 -78 -188c-52 -50 -118 -75 -199 -75c-89 0 -158 30 -208 91
c-50 -61 -119 -91 -207 -91zM214 150c26 -27 59 -40 99 -40s73 13 99 40s39 60 39 100s-13 73 -39 99c-26 27 -59 40 -99 40s-73 -13 -99 -40c-26 -26 -39 -59 -39 -99s13 -73 39 -100zM629 150c26 -27 59 -40 99 -40s73 13 99 40s39 60 39 100s-13 73 -39 99
c-26 27 -59 40 -99 40s-73 -13 -99 -40c-26 -26 -39 -59 -39 -99s13 -73 39 -100z" />
    <glyph glyph-name="o_c" horiz-adv-x="932" 
d="M723 -13c-79 0 -147 31 -203 92c-55 -61 -124 -92 -207 -92c-81 0 -147 25 -199 75c-52 51 -78 113 -78 188c0 74 26 136 78 186c52 51 118 76 199 76s150 -31 207 -92c56 61 124 92 205 92c55 0 104 -11 148 -33v-120c-43 20 -86 30 -127 30c-44 0 -81 -13 -111 -39
c-29 -25 -44 -59 -44 -100s15 -75 45 -101s67 -39 110 -39c51 0 96 11 135 34v-120c-47 -25 -99 -37 -158 -37zM214 150c26 -27 59 -40 99 -40s73 13 99 40s39 60 39 100s-13 73 -39 99c-26 27 -59 40 -99 40s-73 -13 -99 -40c-26 -26 -39 -59 -39 -99s13 -73 39 -100z" />
    <glyph glyph-name="O_O" horiz-adv-x="1411" 
d="M416 -14c-104 0 -191 35 -260 106s-103 157 -103 258c0 102 34 188 103 258c69 71 156 106 260 106c120 0 224 -53 289 -141c67 88 170 141 290 141c104 0 190 -35 259 -106c69 -70 104 -156 104 -258c0 -101 -35 -187 -104 -258s-155 -106 -259 -106
c-120 0 -223 53 -290 140c-65 -87 -169 -140 -289 -140zM261 186c41 -43 93 -65 155 -65s113 22 154 65s62 98 62 164s-21 121 -62 164s-92 65 -154 65s-114 -22 -155 -65s-61 -98 -61 -164s20 -121 61 -164zM840 186c41 -43 93 -65 155 -65s113 22 154 65s62 98 62 164
s-21 121 -62 164s-92 65 -154 65s-114 -22 -155 -65s-61 -98 -61 -164s20 -121 61 -164z" />
    <glyph glyph-name="O_C" horiz-adv-x="1256" 
d="M1011 -14c-127 0 -237 52 -306 141c-65 -88 -169 -141 -289 -141c-104 0 -191 35 -260 106s-103 157 -103 258c0 102 34 188 103 258c69 71 156 106 260 106c120 0 224 -53 289 -141c69 89 178 141 306 141c69 0 130 -15 185 -44v-145c-54 36 -115 54 -184 54
c-67 0 -122 -22 -167 -65c-44 -43 -66 -97 -66 -164s23 -122 68 -165s102 -64 171 -64c76 0 140 20 192 61v-145c-57 -34 -123 -51 -199 -51zM261 186c41 -43 93 -65 155 -65s113 22 154 65s62 98 62 164s-21 121 -62 164s-92 65 -154 65s-114 -22 -155 -65
s-61 -98 -61 -164s20 -121 61 -164z" />
    <glyph glyph-name="Idieresis_Idieresis" horiz-adv-x="586" 
d="M44 760c-40 0 -74 33 -74 74c0 40 34 73 74 73c41 0 74 -32 74 -73s-33 -74 -74 -74zM225 0h-143v700h143v-700zM504 0h-143v700h143v-700zM595 781c-28 -28 -76 -28 -105 0c-28 29 -28 77 0 105c29 28 77 28 105 0s28 -76 0 -105zM346 781c-28 -28 -76 -28 -105 0
c-28 29 -28 77 0 105c29 28 77 28 105 0s28 -76 0 -105z" />
    <glyph glyph-name="threequarters.mono" horiz-adv-x="852" 
d="M755 0h-92v90h-190v68l185 220h97v-214h54v-74h-54v-90zM663 272l-93 -108h93v108zM160 315c-47 0 -88 10 -122 30v88c37 -23 75 -34 114 -34c40 0 72 20 72 51c0 29 -24 49 -65 49c-25 0 -45 -4 -61 -11v59l87 73h-136v80h253v-71l-80 -69c51 -11 98 -44 98 -112
c0 -40 -16 -72 -47 -97c-31 -24 -68 -36 -113 -36zM266 0h-108l422 700h108z" />
    <glyph glyph-name="franc.mono" 
d="M99 108h-102v103h102v489h513v-131h-369v-140h285v-128h-285v-90h149v-103h-149v-108h-144v108z" />
    <glyph glyph-name="uniF727.mono" 
d="M256 204h-146v61h116l-175 234h151l124 -177l125 177h148l-179 -234h120v-61h-147v-45h147v-61h-147v-98h-137v98h-146v61h146v45z" />
    <glyph glyph-name="circumflex.cap" horiz-adv-x="514" 
d="M187 762h-122l122 145h136l119 -145h-123l-67 77z" />
    <glyph glyph-name="agrave.alt" horiz-adv-x="645" 
d="M271 -13c-68 0 -124 25 -169 75c-44 51 -66 113 -66 188c0 74 22 136 66 186c45 51 101 76 169 76c71 0 125 -25 164 -74v61h141v-499h-141v61c-37 -49 -92 -74 -164 -74zM311 110c55 0 101 32 124 75v130c-23 43 -69 74 -124 74c-39 0 -72 -13 -97 -40s-38 -60 -38 -99
c0 -40 13 -73 38 -100s58 -40 97 -40zM146 722h171l95 -146h-122z" />
    <glyph glyph-name="macron.cap" horiz-adv-x="541" 
d="M419 785h-306v95h306v-95z" />
    <glyph glyph-name="aacute.alt" horiz-adv-x="645" 
d="M271 -13c-68 0 -124 25 -169 75c-44 51 -66 113 -66 188c0 74 22 136 66 186c45 51 101 76 169 76c71 0 125 -25 164 -74v61h141v-499h-141v61c-37 -49 -92 -74 -164 -74zM311 110c55 0 101 32 124 75v130c-23 43 -69 74 -124 74c-39 0 -72 -13 -97 -40s-38 -60 -38 -99
c0 -40 13 -73 38 -100s58 -40 97 -40zM337 570h-122l95 146h170z" />
    <glyph glyph-name="grave.cap" horiz-adv-x="504" 
d="M100 907h170l95 -146h-122z" />
    <glyph glyph-name="uniF653.mono" 
d="M382 -8v-91h-125v89c-64 7 -114 22 -149 44v125c44 -29 123 -57 204 -57c57 0 86 14 86 42c0 13 -6 23 -25 31c-9 4 -18 7 -26 9l-37 9c-17 5 -31 8 -40 11c-115 31 -162 67 -162 155c0 77 54 130 149 147v92h125v-90c53 -7 97 -21 133 -42v-120c-60 35 -120 52 -181 52
c-53 0 -80 -13 -80 -40c0 -17 13 -24 28 -33c11 -4 31 -9 43 -13l53 -11c108 -25 163 -71 163 -158c0 -77 -60 -134 -159 -151z" />
    <glyph glyph-name="onehalf.mono" horiz-adv-x="852" 
d="M239 0h-108l422 700h108zM246 322h-96v280l-101 -51v94l105 55h92v-378zM802 0h-281v69l108 92c48 41 65 66 65 93s-23 43 -56 43c-36 0 -71 -13 -104 -39v95c31 21 68 32 112 32c38 0 71 -11 100 -33c29 -21 44 -50 44 -86c0 -55 -20 -90 -80 -143l-48 -43h140v-80z" />
    <glyph glyph-name="onequarter.mono" horiz-adv-x="852" 
d="M249 0h-108l422 700h108zM256 322h-96v280l-101 -51v94l105 55h92v-378zM738 0h-92v90h-190v68l185 220h97v-214h54v-74h-54v-90zM646 272l-93 -108h93v108z" />
    <glyph glyph-name="oneeighth.mono" horiz-adv-x="890" 
d="M251 0h-108l422 700h108zM258 322h-96v280l-101 -51v94l105 55h92v-378zM665 -7c-89 0 -159 42 -159 117c0 40 31 78 68 91c-29 13 -50 44 -50 77c0 63 60 107 141 107c80 0 140 -44 140 -107c0 -32 -22 -64 -50 -77c39 -13 68 -50 68 -91c0 -75 -70 -117 -158 -117z
M665 70c36 0 62 21 62 48c0 29 -26 49 -62 49c-37 0 -63 -20 -63 -49c0 -28 26 -48 63 -48zM665 227c29 0 51 17 51 41c0 25 -22 42 -51 42c-31 0 -53 -17 -53 -42c0 -24 22 -41 53 -41z" />
    <glyph glyph-name="threeeighths.mono" horiz-adv-x="890" 
d="M271 0h-108l422 700h108zM685 -7c-89 0 -159 42 -159 117c0 40 31 78 68 91c-29 13 -50 44 -50 77c0 63 60 107 141 107c80 0 140 -44 140 -107c0 -32 -22 -64 -50 -77c39 -13 68 -50 68 -91c0 -75 -70 -117 -158 -117zM685 70c36 0 62 21 62 48c0 29 -26 49 -62 49
c-37 0 -63 -20 -63 -49c0 -28 26 -48 63 -48zM685 227c29 0 51 17 51 41c0 25 -22 42 -51 42c-31 0 -53 -17 -53 -42c0 -24 22 -41 53 -41zM164 315c-47 0 -88 10 -122 30v88c37 -23 75 -34 114 -34c40 0 72 20 72 51c0 29 -24 49 -65 49c-25 0 -45 -4 -61 -11v59l87 73
h-136v80h253v-71l-80 -69c51 -11 98 -44 98 -112c0 -40 -16 -72 -47 -97c-31 -24 -68 -36 -113 -36z" />
    <glyph glyph-name="fiveeighths.mono" horiz-adv-x="890" 
d="M685 -7c-89 0 -159 42 -159 117c0 40 31 78 68 91c-29 13 -50 44 -50 77c0 63 60 107 141 107c80 0 140 -44 140 -107c0 -32 -22 -64 -50 -77c39 -13 68 -50 68 -91c0 -75 -70 -117 -158 -117zM685 70c36 0 62 21 62 48c0 29 -26 49 -62 49c-37 0 -63 -20 -63 -49
c0 -28 26 -48 63 -48zM685 227c29 0 51 17 51 41c0 25 -22 42 -51 42c-31 0 -53 -17 -53 -42c0 -24 22 -41 53 -41zM160 315c-43 0 -81 9 -112 27v89c33 -21 69 -32 108 -32c41 0 74 17 74 52c0 31 -28 51 -75 51c-31 0 -63 -5 -95 -15l25 213h216v-80h-144l-5 -48
c5 1 13 2 26 2c87 0 148 -47 148 -123c0 -43 -16 -77 -48 -101c-32 -23 -71 -35 -118 -35zM271 0h-108l422 700h108z" />
    <glyph glyph-name="seveneighths.mono" horiz-adv-x="890" 
d="M250 0h-108l422 700h108zM664 -7c-89 0 -159 42 -159 117c0 40 31 78 68 91c-29 13 -50 44 -50 77c0 63 60 107 141 107c80 0 140 -44 140 -107c0 -32 -22 -64 -50 -77c39 -13 68 -50 68 -91c0 -75 -70 -117 -158 -117zM664 70c36 0 62 21 62 48c0 29 -26 49 -62 49
c-37 0 -63 -20 -63 -49c0 -28 26 -48 63 -48zM664 227c29 0 51 17 51 41c0 25 -22 42 -51 42c-31 0 -53 -17 -53 -42c0 -24 22 -41 53 -41zM202 322h-104l151 298h-173v80h282v-75z" />
    <glyph glyph-name="ring.cap" horiz-adv-x="518" 
d="M325 764c-41 -41 -107 -41 -148 0s-41 107 0 148s107 41 148 0s41 -107 0 -148zM218 805c19 -17 48 -17 65 0c19 19 19 48 0 65c-17 19 -46 19 -65 0c-17 -17 -17 -46 0 -65z" />
    <glyph glyph-name="caron.cap" horiz-adv-x="538" 
d="M336 907h122l-122 -146h-136l-119 146h123l67 -78z" />
    <glyph glyph-name="dotaccent.cap" horiz-adv-x="415" 
d="M201 760c-40 0 -74 33 -74 74c0 40 34 73 74 73c41 0 74 -33 74 -73c0 -41 -33 -74 -74 -74z" />
    <glyph glyph-name="breve.cap" horiz-adv-x="512" 
d="M88 909h95c3 -44 30 -73 70 -73s67 29 70 73h95c-1 -50 -18 -90 -50 -119c-31 -29 -70 -44 -115 -44s-84 15 -116 44c-31 29 -48 69 -49 119z" />
    <glyph glyph-name="hungarumlaut.cap" horiz-adv-x="626" 
d="M421 761h-123l95 146h172zM193 761h-123l95 146h172z" />
    <glyph glyph-name="dollar.mono" 
d="M388 -109h-130v99c-81 9 -149 33 -203 71v150c29 -25 67 -47 116 -66c49 -18 97 -27 144 -27c76 0 135 28 135 81c0 25 -12 47 -36 58c-13 8 -20 11 -40 18l-24 8l-56 17l-52 17c-10 3 -26 9 -47 17s-36 15 -45 21c-19 13 -53 37 -66 61c-12 24 -24 58 -24 98
c0 107 74 176 198 195v100h130v-99c55 -7 110 -25 165 -54v-140c-71 44 -147 66 -227 66c-79 0 -119 -23 -119 -69c0 -23 14 -37 37 -48c13 -7 38 -16 57 -21s55 -15 76 -22c67 -21 105 -40 152 -73s70 -82 70 -146c0 -113 -86 -191 -211 -211v-101z" />
    <glyph glyph-name="yen.mono" 
d="M58 129v94h196v70h-196v95h156l-215 312h162l166 -250l167 250h157l-215 -312h158v-95h-197v-70h197v-94h-197v-129h-143v129h-196z" />
    <glyph glyph-name="sterling.mono" 
d="M581 0h-510v129h14c56 0 67 21 67 82v71h-81v111h81v82c0 149 97 239 253 239c63 0 116 -12 160 -35v-134c-42 23 -88 34 -137 34c-88 0 -132 -41 -132 -124v-62h225v-111h-225v-91c0 -29 -10 -50 -29 -62h314v-129z" />
    <glyph glyph-name="onethird.mono" horiz-adv-x="852" 
d="M239 0h-108l422 700h108zM246 322h-96v280l-101 -51v94l105 55h92v-378zM641 -7c-47 0 -88 10 -122 30v88c37 -23 75 -34 114 -34c40 0 72 20 72 51c0 29 -24 49 -65 49c-25 0 -45 -4 -61 -11v59l87 73h-136v80h253v-71l-80 -69c51 -11 98 -44 98 -112
c0 -40 -16 -72 -47 -97c-31 -24 -68 -36 -113 -36z" />
    <glyph glyph-name="twothirds.mono" horiz-adv-x="852" 
d="M313 322h-281v69l108 92c48 41 65 66 65 93s-23 43 -56 43c-36 0 -71 -13 -104 -39v95c31 21 68 32 112 32c38 0 71 -11 100 -33c29 -21 44 -50 44 -86c0 -55 -20 -90 -80 -143l-48 -43h140v-80zM660 -7c-47 0 -88 10 -122 30v88c37 -23 75 -34 114 -34c40 0 72 20 72 51
c0 29 -24 49 -65 49c-25 0 -45 -4 -61 -11v59l87 73h-136v80h253v-71l-80 -69c51 -11 98 -44 98 -112c0 -40 -16 -72 -47 -97c-31 -24 -68 -36 -113 -36zM277 0h-108l422 700h108z" />
    <glyph glyph-name="Euro.mono" 
d="M462 479v-86h-215c-1 -15 -2 -27 -2 -36c0 -10 1 -20 2 -31h215v-87h-196c29 -77 99 -121 191 -121c61 0 114 17 158 51v-141c-47 -28 -105 -42 -176 -42c-84 0 -155 23 -212 69c-57 47 -96 108 -115 184h-82v87h69c-1 8 -1 19 -1 33c0 8 1 19 2 34h-70v86h87
c21 71 60 127 117 170s125 65 205 65c61 0 115 -12 161 -37v-136c-45 27 -93 41 -143 41c-89 0 -151 -34 -184 -103h189z" />
    <glyph glyph-name="tilde.cap" horiz-adv-x="509" 
d="M159 765h-77c1 79 47 140 114 140c20 0 44 -7 71 -22s48 -22 61 -22c23 0 37 14 43 41h76c0 -37 -11 -70 -32 -99c-21 -28 -48 -42 -81 -42c-21 0 -45 7 -72 22s-48 23 -61 23c-23 0 -37 -14 -42 -41z" />
    <glyph glyph-name="uniF725.mono" 
d="M161 197h-73v86h73v44c0 113 83 185 223 185c56 0 103 -9 141 -26v-113c-43 16 -83 24 -121 24c-69 0 -108 -34 -108 -90v-24h187v-86h-187v-30c0 -28 -8 -48 -25 -60h269v-107h-452v107h26c31 0 47 19 47 57v33z" />
    <glyph glyph-name="acute.cap" horiz-adv-x="449" 
d="M224 761h-122l95 146h170z" />
    <glyph glyph-name="acircumflex.alt" horiz-adv-x="645" 
d="M271 -13c-68 0 -124 25 -169 75c-44 51 -66 113 -66 188c0 74 22 136 66 186c45 51 101 76 169 76c71 0 125 -25 164 -74v61h141v-499h-141v61c-37 -49 -92 -74 -164 -74zM311 110c55 0 101 32 124 75v130c-23 43 -69 74 -124 74c-39 0 -72 -13 -97 -40s-38 -60 -38 -99
c0 -40 13 -73 38 -100s58 -40 97 -40zM242 570h-121l122 146h136l119 -146h-124l-66 78z" />
    <glyph glyph-name="dieresis.cap" horiz-adv-x="497" 
d="M417 781c-28 -28 -76 -28 -105 0c-28 29 -28 77 0 105c29 28 77 28 105 0s28 -76 0 -105zM145 760c-40 0 -74 33 -74 74c0 40 34 73 74 73c41 0 74 -32 74 -73s-33 -74 -74 -74z" />
    <glyph glyph-name="uniF721.mono" 
d="M479 332h50v-60h-444v60h248c23 8 35 19 35 34c0 25 -30 38 -90 38c-51 0 -101 -9 -150 -27v106c49 20 103 30 164 30c49 0 94 -7 138 -26c44 -17 73 -53 73 -101c0 -23 -8 -41 -24 -54zM140 173h-55v60h444v-60h-241c-25 -7 -38 -20 -38 -38c0 -26 32 -39 97 -39
c52 0 103 9 152 28v-108c-47 -19 -102 -29 -166 -29c-90 0 -219 27 -219 127c0 25 9 45 26 59z" />
    <glyph glyph-name="uni20B4.mono" 
d="M577 388h-510v79h291c22 13 33 32 33 55c0 43 -38 65 -114 65c-59 0 -114 -11 -164 -33v129c46 21 107 31 183 31c71 0 130 -15 178 -46c48 -30 72 -73 72 -130c0 -31 -9 -55 -28 -71h59v-79zM344 -14c-72 0 -132 15 -180 45c-47 31 -71 75 -71 134c0 39 15 71 44 96h-70
v79h510v-79h-270c-40 -19 -60 -45 -60 -76c0 -47 41 -70 122 -70c27 0 58 4 92 11c34 8 62 18 84 29v-132c-56 -25 -123 -37 -201 -37z" />
    <glyph glyph-name="atilde.alt" horiz-adv-x="645" 
d="M271 -13c-68 0 -124 25 -169 75c-44 51 -66 113 -66 188c0 74 22 136 66 186c45 51 101 76 169 76c71 0 125 -25 164 -74v61h141v-499h-141v61c-37 -49 -92 -74 -164 -74zM311 110c55 0 101 32 124 75v130c-23 43 -69 74 -124 74c-39 0 -72 -13 -97 -40s-38 -60 -38 -99
c0 -40 13 -73 38 -100s58 -40 97 -40zM215 576h-76c0 39 10 72 31 99s49 41 82 41c20 0 44 -7 71 -22c28 -15 49 -22 62 -22c23 0 37 14 42 41h77c-1 -37 -12 -70 -33 -99c-21 -28 -47 -42 -80 -42c-21 0 -45 7 -72 22s-48 23 -61 23c-23 0 -37 -14 -43 -41z" />
    <glyph glyph-name="aring.alt" horiz-adv-x="645" 
d="M271 -13c-68 0 -124 25 -169 75c-44 51 -66 113 -66 188c0 74 22 136 66 186c45 51 101 76 169 76c71 0 125 -25 164 -74v61h141v-499h-141v61c-37 -49 -92 -74 -164 -74zM311 110c55 0 101 32 124 75v130c-23 43 -69 74 -124 74c-39 0 -72 -13 -97 -40s-38 -60 -38 -99
c0 -40 13 -73 38 -100s58 -40 97 -40zM384 576c-41 -41 -107 -41 -148 0s-41 107 0 148s107 41 148 0s41 -107 0 -148zM277 617c19 -17 48 -17 65 0c19 19 19 48 0 65c-17 19 -46 19 -65 0c-17 -17 -17 -46 0 -65z" />
    <glyph glyph-name="uni2155.mono" horiz-adv-x="852" 
d="M249 0h-108l422 700h108zM256 322h-96v280l-101 -51v94l105 55h92v-378zM623 -7c-43 0 -81 9 -112 27v89c33 -21 69 -32 108 -32c41 0 74 17 74 52c0 31 -28 51 -75 51c-31 0 -63 -5 -95 -15l25 213h216v-80h-144l-5 -48c5 1 13 2 26 2c87 0 148 -47 148 -123
c0 -43 -16 -77 -48 -101c-32 -23 -71 -35 -118 -35z" />
    <glyph glyph-name="uni2156.mono" horiz-adv-x="852" 
d="M323 322h-281v69l108 92c48 41 65 66 65 93s-23 43 -56 43c-36 0 -71 -13 -104 -39v95c31 21 68 32 112 32c38 0 71 -11 100 -33c29 -21 44 -50 44 -86c0 -55 -20 -90 -80 -143l-48 -43h140v-80zM641 -7c-43 0 -81 9 -112 27v89c33 -21 69 -32 108 -32c41 0 74 17 74 52
c0 31 -28 51 -75 51c-31 0 -63 -5 -95 -15l25 213h216v-80h-144l-5 -48c5 1 13 2 26 2c87 0 148 -47 148 -123c0 -43 -16 -77 -48 -101c-32 -23 -71 -35 -118 -35zM286 0h-108l422 700h108z" />
    <glyph glyph-name="uni2157.mono" horiz-adv-x="852" 
d="M270 0h-108l422 700h108zM643 -7c-43 0 -81 9 -112 27v89c33 -21 69 -32 108 -32c41 0 74 17 74 52c0 31 -28 51 -75 51c-31 0 -63 -5 -95 -15l25 213h216v-80h-144l-5 -48c5 1 13 2 26 2c87 0 148 -47 148 -123c0 -43 -16 -77 -48 -101c-32 -23 -71 -35 -118 -35z
M163 315c-47 0 -88 10 -122 30v88c37 -23 75 -34 114 -34c40 0 72 20 72 51c0 29 -24 49 -65 49c-25 0 -45 -4 -61 -11v59l87 73h-136v80h253v-71l-80 -69c51 -11 98 -44 98 -112c0 -40 -16 -72 -47 -97c-31 -24 -68 -36 -113 -36z" />
    <glyph glyph-name="uni2158.mono" horiz-adv-x="852" 
d="M316 322h-92v90h-190v68l185 220h97v-214h54v-74h-54v-90zM224 594l-93 -108h93v108zM650 -7c-43 0 -81 9 -112 27v89c33 -21 69 -32 108 -32c41 0 74 17 74 52c0 31 -28 51 -75 51c-31 0 -63 -5 -95 -15l25 213h216v-80h-144l-5 -48c5 1 13 2 26 2
c87 0 148 -47 148 -123c0 -43 -16 -77 -48 -101c-32 -23 -71 -35 -118 -35zM295 0h-108l422 700h108z" />
    <glyph glyph-name="uni2159.mono" horiz-adv-x="852" 
d="M649 -7c-101 0 -158 69 -158 177c0 59 15 110 46 152s77 63 136 63c38 0 68 -8 90 -23v-84c-23 16 -49 24 -79 24c-51 0 -89 -31 -93 -84c19 23 46 34 80 34c72 0 124 -47 124 -124c0 -80 -62 -135 -146 -135zM643 70c35 0 57 25 57 58c0 29 -24 54 -57 54
c-24 0 -49 -15 -60 -38c1 -47 27 -74 60 -74zM255 322h-96v280l-101 -51v94l105 55h92v-378zM249 0h-108l422 700h108z" />
    <glyph glyph-name="uni215A.mono" horiz-adv-x="852" 
d="M265 0h-108l422 700h108zM666 -7c-101 0 -158 69 -158 177c0 59 15 110 46 152s77 63 136 63c38 0 68 -8 90 -23v-84c-23 16 -49 24 -79 24c-51 0 -89 -31 -93 -84c19 23 46 34 80 34c72 0 124 -47 124 -124c0 -40 -14 -73 -42 -98s-63 -37 -104 -37zM660 70
c35 0 57 25 57 58c0 29 -24 54 -57 54c-24 0 -49 -15 -60 -38c1 -47 27 -74 60 -74zM152 315c-43 0 -81 9 -112 27v89c33 -21 69 -32 108 -32c41 0 74 17 74 52c0 31 -28 51 -75 51c-31 0 -63 -5 -95 -15l25 213h216v-80h-144l-5 -48c5 1 13 2 26 2c87 0 148 -47 148 -123
c0 -43 -16 -77 -48 -101c-32 -23 -71 -35 -118 -35z" />
    <glyph glyph-name="Q.alt02" horiz-adv-x="840" 
d="M246 -168v124c30 19 62 32 96 37c-85 17 -155 58 -209 124c-53 67 -80 144 -80 233c0 102 34 188 103 258c69 71 156 106 260 106s190 -35 259 -106c69 -70 104 -156 104 -258c0 -93 -30 -173 -89 -242c-59 -68 -134 -108 -225 -119c27 -5 67 -18 122 -39
c72 -27 125 -40 159 -40c22 0 41 5 56 14v-119c-15 -7 -37 -11 -64 -11c-42 0 -102 15 -180 45c-72 28 -127 42 -164 42c-60 0 -109 -16 -148 -49zM261 186c41 -43 93 -65 155 -65s113 22 154 65s62 98 62 164s-21 121 -62 164s-92 65 -154 65s-114 -22 -155 -65
s-61 -98 -61 -164s20 -121 61 -164z" />
    <glyph glyph-name="amacron.alt" horiz-adv-x="645" 
d="M271 -13c-68 0 -124 25 -169 75c-44 51 -66 113 -66 188c0 74 22 136 66 186c45 51 101 76 169 76c71 0 125 -25 164 -74v61h141v-499h-141v61c-37 -49 -92 -74 -164 -74zM311 110c55 0 101 32 124 75v130c-23 43 -69 74 -124 74c-39 0 -72 -13 -97 -40s-38 -60 -38 -99
c0 -40 13 -73 38 -100s58 -40 97 -40zM472 595h-307v95h307v-95z" />
    <glyph glyph-name="Q.alt01" horiz-adv-x="846" 
d="M416 -14c-104 0 -191 35 -260 106s-103 157 -103 258c0 102 34 188 103 258c69 71 156 106 260 106s190 -35 259 -106c69 -70 104 -156 104 -258c0 -86 -25 -162 -76 -227l98 -123h-154l-34 42c-58 -37 -124 -56 -197 -56zM416 121c42 0 79 10 111 30l-151 190h154
l78 -99c16 34 24 70 24 108c0 66 -21 121 -62 164s-92 65 -154 65s-114 -22 -155 -65s-61 -98 -61 -164s20 -121 61 -164s93 -65 155 -65z" />
    <glyph glyph-name="aogonek.alt" horiz-adv-x="645" 
d="M571 -202c-80 0 -128 44 -128 103c0 36 15 69 45 99h-53v61c-37 -49 -92 -74 -164 -74c-68 0 -124 25 -169 75c-44 51 -66 113 -66 188c0 74 22 136 66 186c45 51 101 76 169 76c71 0 125 -25 164 -74v61h141v-499c-23 -23 -35 -47 -35 -70c0 -29 21 -47 54 -47
c15 0 27 2 36 7v-84c-14 -5 -34 -8 -60 -8zM311 110c55 0 101 32 124 75v130c-23 43 -69 74 -124 74c-39 0 -72 -13 -97 -40s-38 -60 -38 -99c0 -40 13 -73 38 -100s58 -40 97 -40z" />
    <glyph glyph-name="abreve.alt" horiz-adv-x="645" 
d="M271 -13c-68 0 -124 25 -169 75c-44 51 -66 113 -66 188c0 74 22 136 66 186c45 51 101 76 169 76c71 0 125 -25 164 -74v61h141v-499h-141v61c-37 -49 -92 -74 -164 -74zM311 110c55 0 101 32 124 75v130c-23 43 -69 74 -124 74c-39 0 -72 -13 -97 -40s-38 -60 -38 -99
c0 -40 13 -73 38 -100s58 -40 97 -40zM314 561c-92 0 -162 63 -166 162h96c3 -43 30 -73 70 -73s66 30 69 73h95c-1 -49 -18 -89 -49 -118s-70 -44 -115 -44z" />
    <glyph glyph-name="gcommaaccent.alt" horiz-adv-x="592" 
d="M424 461l139 51v-112l-75 -30c9 -21 14 -43 14 -66c0 -41 -11 -79 -34 -113c46 -43 69 -96 69 -161c0 -67 -25 -123 -75 -168s-114 -68 -191 -68c-73 0 -136 22 -188 66c-51 44 -77 105 -77 182h143c0 -80 50 -126 122 -126s124 50 124 114c0 34 -12 62 -37 83
c-27 -11 -56 -17 -88 -17c-69 0 -125 20 -168 60s-65 89 -65 148s22 108 65 148s99 60 168 60c60 0 111 -17 154 -51zM371 304c0 55 -42 96 -101 96s-102 -41 -102 -96c0 -56 43 -96 102 -96s101 40 101 96zM279 778h105l-59 -204h-130z" />
    <glyph glyph-name="f_f_t" horiz-adv-x="1152" 
d="M248 381v-381h-141v381h-89v118h89v47c0 99 58 166 169 166c49 0 91 -7 127 -21v-114c-29 11 -57 17 -86 17c-46 0 -69 -22 -69 -67v-28h219v47c0 99 58 166 169 166c49 0 91 -7 127 -21v-114c-29 11 -57 17 -86 17c-46 0 -69 -22 -69 -67v-28h219v137h141v-137h142v-118
h-142v-198c0 -49 20 -70 68 -70c25 0 49 6 73 18v-117c-29 -18 -68 -27 -119 -27c-109 0 -163 56 -163 168v226h-219v-381h-141v381h-219z" />
    <glyph glyph-name="t.alt" horiz-adv-x="385" 
d="M60 155v481h141v-137h142v-118h-142v-198c0 -49 20 -70 68 -70c25 0 49 6 73 18v-117c-29 -18 -68 -27 -119 -27c-109 0 -163 56 -163 168z" />
    <glyph glyph-name="f.alt01" horiz-adv-x="387" 
d="M210 381v-381h-141v546c0 99 58 166 169 166c49 0 91 -7 127 -21v-114c-29 11 -57 17 -86 17c-46 0 -69 -22 -69 -67v-28h155v-118h-155z" />
    <glyph glyph-name="f_j" horiz-adv-x="684" 
d="M427 -206c-49 0 -86 7 -111 22v120c24 -13 49 -19 75 -19c51 0 76 26 76 79v385h-219v-381h-141v381h-89v118h89v47c0 99 58 166 169 166c49 0 91 -7 127 -21v-114c-29 11 -57 17 -86 17c-46 0 -69 -22 -69 -67v-28h360v-517c0 -119 -69 -188 -181 -188zM452 631
c0 48 37 85 84 85s85 -37 85 -85c0 -47 -38 -84 -85 -84s-84 37 -84 84z" />
    <glyph glyph-name="T_h" horiz-adv-x="1121" 
d="M713 318v-318h-141v571h-177v-571h-144v571h-221v129h683v-262c45 49 101 74 167 74c116 0 182 -78 182 -206v-306h-141v277c0 77 -43 106 -95 106c-44 0 -89 -28 -113 -65z" />
    <glyph glyph-name="uni043F_uni0438" horiz-adv-x="975" 
d="M210 0h-141v499h479v-294l226 294h132v-499h-139v291l-226 -291h-132v381h-199v-381z" />
    <glyph glyph-name="uni041F_uni0418" horiz-adv-x="1206" 
d="M221 0h-144v700h586v-457l340 457h125v-700h-144v460l-343 -460h-121v573h-299v-573z" />
    <glyph glyph-name="uni041D_uni0418" horiz-adv-x="1223" 
d="M221 0h-144v700h144v-263h316v263h143v-457l340 457h125v-700h-144v460l-343 -460h-121v308h-316v-308z" />
    <glyph glyph-name="uni043D_uni0438" horiz-adv-x="981" 
d="M210 0h-141v499h141v-185h205v185h139v-294l226 294h132v-499h-139v291l-226 -291h-132v197h-205v-197z" />
    <glyph glyph-name="uni0418_uni041D" horiz-adv-x="1223" 
d="M198 0h-121v700h144v-457l339 457h124v-263h317v263h144v-700h-144v308h-317v-308h-143v460z" />
    <glyph glyph-name="uni0438_uni043D" horiz-adv-x="981" 
d="M201 0h-132v499h139v-294l226 294h132v-185h205v185h141v-499h-141v197h-205v-197h-139v294z" />
    <glyph glyph-name="f_t" horiz-adv-x="791" 
d="M466 155v226h-218v-381h-141v381h-89v118h89v47c0 99 58 166 169 166c49 0 91 -7 127 -21v-114c-29 11 -57 17 -86 17c-46 0 -69 -22 -69 -67v-28h218v137h141v-137h142v-118h-142v-198c0 -49 20 -70 68 -70c25 0 49 6 73 18v-117c-29 -18 -68 -27 -119 -27
c-109 0 -163 56 -163 168z" />
    <glyph glyph-name="uni0438_uni0439" horiz-adv-x="992" 
d="M201 0h-132v499h139v-294l226 294h132v-294l226 294h131v-499h-138v294l-229 -294h-129v294zM494 725h105c1 -44 30 -73 74 -73c45 0 74 29 75 73h107c-1 -53 -18 -94 -52 -125s-77 -46 -129 -46c-104 0 -179 66 -180 171z" />
    <glyph glyph-name="gdotaccent.alt" horiz-adv-x="592" 
d="M424 461l139 51v-112l-75 -30c9 -21 14 -43 14 -66c0 -41 -11 -79 -34 -113c46 -43 69 -96 69 -161c0 -67 -25 -123 -75 -168s-114 -68 -191 -68c-73 0 -136 22 -188 66c-51 44 -77 105 -77 182h143c0 -80 50 -126 122 -126s124 50 124 114c0 34 -12 62 -37 83
c-27 -11 -56 -17 -88 -17c-69 0 -125 20 -168 60s-65 89 -65 148s22 108 65 148s99 60 168 60c60 0 111 -17 154 -51zM371 304c0 55 -42 96 -101 96s-102 -41 -102 -96c0 -56 43 -96 102 -96s101 40 101 96zM271 569c-40 0 -74 33 -74 74c0 40 34 73 74 73
c41 0 73 -32 73 -73s-32 -74 -73 -74z" />
    <glyph glyph-name="H_B" horiz-adv-x="1176" 
d="M221 0h-144v700h144v-262h316v262h329c128 0 212 -63 212 -175c0 -71 -40 -119 -88 -139c39 -8 72 -29 100 -62s42 -74 42 -125c0 -59 -22 -107 -66 -144s-103 -55 -177 -55h-352v307h-316v-307zM681 307v-183h181c71 0 114 32 114 91s-43 92 -114 92h-181zM681 580v-154
h162c60 0 96 28 96 76c0 49 -36 78 -96 78h-162z" />
    <glyph glyph-name="H_D" horiz-adv-x="1236" 
d="M799 0h-262v307h-316v-307h-144v700h144v-262h316v262h262c113 0 206 -33 277 -98s107 -149 107 -252s-36 -188 -107 -253s-164 -97 -277 -97zM681 571v-442h106c156 0 248 82 248 221s-92 221 -248 221h-106z" />
    <glyph glyph-name="H_E" horiz-adv-x="1100" 
d="M221 0h-144v700h144v-262h316v262h514v-129h-370v-135h298v-127h-298v-180h381v-129h-525v307h-316v-307z" />
    <glyph glyph-name="H_F" horiz-adv-x="1088" 
d="M221 0h-144v700h144v-262h316v262h513v-129h-369v-142h285v-127h-285v-302h-144v307h-316v-307z" />
    <glyph glyph-name="H_K" horiz-adv-x="1166" 
d="M681 0h-144v307h-316v-307h-144v700h144v-262h316v262h144v-276l258 276h176l-297 -321l348 -379h-184l-301 323v-323z" />
    <glyph glyph-name="H_M" horiz-adv-x="1306" 
d="M221 0h-144v700h144v-262h316v262h143l203 -290l203 290h142v-700h-142v479l-161 -225h-80l-164 225v-479h-144v307h-316v-307z" />
    <glyph glyph-name="H_N" horiz-adv-x="1233" 
d="M221 0h-144v700h144v-262h316v262h125l353 -448v448h140v-700h-119l-356 450v-450h-143v307h-316v-307z" />
    <glyph glyph-name="H_U" horiz-adv-x="1204" 
d="M221 0h-144v700h144v-262h316v262h143v-411c0 -111 64 -168 156 -168c93 0 157 57 157 168v411h144v-406c0 -97 -28 -173 -85 -227c-56 -54 -128 -81 -216 -81c-87 0 -159 27 -215 81s-84 130 -84 227v13h-316v-307z" />
    <glyph glyph-name="H_P" horiz-adv-x="1119" 
d="M221 0h-144v700h144v-262h316v262h306c75 0 135 -20 178 -59c44 -39 66 -89 66 -152s-22 -114 -66 -153c-43 -39 -103 -59 -178 -59h-162v-277h-144v307h-316v-307zM681 574v-174h152c69 0 110 31 110 87s-41 87 -110 87h-152z" />
    <glyph glyph-name="H_R" horiz-adv-x="1190" 
d="M681 0h-144v307h-316v-307h-144v700h144v-262h316v262h324c74 0 133 -19 176 -58c43 -38 65 -88 65 -149c0 -93 -54 -166 -145 -194l216 -299h-167l-204 283h-121v-283zM681 574v-170h172c65 0 104 30 104 85c0 53 -39 85 -104 85h-172z" />
    </font>
</defs>
</svg>
