<?xml version="1.0" standalone="no"?>
<!DOCTYPE svg PUBLIC "-//W3C//DTD SVG 1.1//EN" "http://www.w3.org/Graphics/SVG/1.1/DTD/svg11.dtd" >
<svg xmlns="http://www.w3.org/2000/svg" xmlns:xlink="http://www.w3.org/1999/xlink" version="1.1">
<metadata>
Created by FontForge 20170910 at Wed Dec 11 00:49:44 2013
 By Jimmy Wärting
Copyright (c) 2012 by Vyacheslav Kirilenko, Gayane Bagdasaryan. All rights reserved.
</metadata>
<defs>
<font id="Geometria-BoldItalic" horiz-adv-x="650" >
  <font-face 
    font-family="Geometria"
    font-weight="700"
    font-style="italic"
    font-stretch="normal"
    units-per-em="1000"
    panose-1="2 11 7 3 2 2 4 9 2 4"
    ascent="777"
    descent="-223"
    x-height="499"
    cap-height="700"
    bbox="-346 -270 1479 942.75"
    underline-thickness="50"
    underline-position="-100"
    slope="-9"
    unicode-range="U+0020-FB04"
  />
<missing-glyph horiz-adv-x="651" 
d="M572 0h-501l111 700h501zM276 605l-81 -510h283l81 510h-283z" />
    <glyph glyph-name="ij" unicode="ij" horiz-adv-x="567" 
d="M355 35l73 464h141l-82 -522c-20 -121 -97 -183 -210 -183c-47 0 -83 7 -107 22l19 120c21 -13 45 -19 71 -19c60 0 80 29 95 118zM434 631c0 48 37 85 84 85s85 -37 85 -85c0 -47 -38 -84 -85 -84s-84 37 -84 84zM295 499l-78 -499h-141l78 499h141zM160 631
c0 48 37 85 84 85s85 -37 85 -85c0 -47 -38 -84 -85 -84s-84 37 -84 84z" />
    <glyph glyph-name="f_f" unicode="ff" horiz-adv-x="793" 
d="M670 381l-61 -381h-141l61 381h-220l-61 -381h-141l61 381h-89l19 118h89l5 37c16 109 84 176 197 176c47 0 88 -7 123 -22l-18 -114c-29 12 -57 18 -82 18c-55 0 -76 -28 -85 -95h221l5 37c16 109 84 176 197 176c47 0 88 -7 123 -22l-18 -114c-29 12 -57 18 -82 18
c-55 0 -76 -28 -85 -95h155l-19 -118h-154z" />
    <glyph glyph-name="fi" unicode="fi" horiz-adv-x="686" 
d="M468 0l60 381h-219l-61 -381h-141l61 381h-89l19 118h89l5 37c16 109 84 176 197 176c47 0 88 -7 123 -22l-18 -114c-29 12 -57 18 -82 18c-55 0 -76 -28 -85 -95h360l-78 -499h-141zM552 631c0 48 37 85 84 85s85 -37 85 -85c0 -47 -38 -84 -85 -84s-84 37 -84 84z" />
    <glyph glyph-name="fl" unicode="fl" horiz-adv-x="717" 
d="M578 700h141l-83 -523c-3 -13 -4 -24 -4 -33c0 -21 12 -32 37 -32c14 0 26 3 37 8l-17 -116c-22 -11 -51 -17 -86 -17c-73 0 -117 38 -117 113c0 11 2 31 6 60l35 221h-218l-61 -381h-141l61 381h-89l19 118h89l5 37c16 109 84 176 197 176c47 0 88 -7 123 -22l-18 -114
c-29 12 -57 18 -82 18c-55 0 -76 -28 -85 -95h219z" />
    <glyph glyph-name="f_f_i" unicode="ffi" horiz-adv-x="1039" 
d="M829 0l59 381h-218l-61 -381h-141l61 381h-220l-61 -381h-141l61 381h-89l19 118h89l5 37c16 109 84 176 197 176c47 0 88 -7 123 -22l-18 -114c-29 12 -57 18 -82 18c-55 0 -76 -28 -85 -95h221l5 37c16 109 84 176 197 176c47 0 88 -7 123 -22l-18 -114
c-29 12 -57 18 -82 18c-55 0 -76 -28 -85 -95h360l-78 -499h-141zM913 631c0 48 37 85 84 85s85 -37 85 -85c0 -47 -38 -84 -85 -84s-84 37 -84 84z" />
    <glyph glyph-name="f_f_l" unicode="ffl" horiz-adv-x="1078" 
d="M670 381l-61 -381h-141l61 381h-220l-61 -381h-141l61 381h-89l19 118h89l5 37c16 109 84 176 197 176c47 0 88 -7 123 -22l-18 -114c-29 12 -57 18 -82 18c-55 0 -76 -28 -85 -95h221l5 37c16 109 84 176 197 176c47 0 88 -7 123 -22l-18 -114c-29 12 -57 18 -82 18
c-55 0 -76 -28 -85 -95h219l32 201h141l-83 -523c-3 -21 -4 -32 -4 -33c0 -21 12 -32 37 -32c14 0 26 3 37 8l-17 -116c-22 -11 -51 -17 -86 -17c-73 0 -117 38 -117 113c0 11 2 31 6 60l35 221h-218z" />
    <glyph glyph-name=".notdef" horiz-adv-x="651" 
d="M572 0h-501l111 700h501zM276 605l-81 -510h283l81 510h-283z" />
    <glyph glyph-name="NULL" horiz-adv-x="0" 
 />
    <glyph glyph-name="CR" horiz-adv-x="333" 
 />
    <glyph glyph-name="space" unicode=" " horiz-adv-x="256" 
 />
    <glyph glyph-name="exclam" unicode="!" horiz-adv-x="334" 
d="M92 76c0 49 39 88 87 88s87 -39 87 -88c0 -48 -39 -87 -87 -87s-87 39 -87 87zM139 233l42 467h192l-105 -467h-129z" />
    <glyph glyph-name="quotedbl" unicode="&#x22;" horiz-adv-x="391" 
d="M220 403h-122l47 297h121zM421 403h-122l47 297h122z" />
    <glyph glyph-name="numbersign" unicode="#" horiz-adv-x="750" 
d="M295 0h-110l26 167h-138l17 109h138l24 148h-138l16 109h139l27 167h110l-27 -167h150l27 167h109l-26 -167h139l-18 -109h-138l-24 -148h139l-17 -109h-139l-27 -167h-109l27 167h-151zM362 424l-24 -148h150l24 148h-150z" />
    <glyph glyph-name="dollar" unicode="$" horiz-adv-x="629" 
d="M642 656l-23 -140c-27 19 -62 34 -104 47c-41 13 -82 19 -123 19c-77 0 -126 -26 -126 -74c0 -19 10 -32 34 -44l34 -14l47 -14l50 -15c57 -19 95 -36 134 -67c39 -29 60 -73 60 -128c0 -67 -24 -121 -72 -163s-108 -67 -181 -74l-15 -98h-130l15 101
c-81 11 -144 34 -189 69l23 147c25 -25 61 -47 108 -64s95 -26 144 -26c23 0 44 2 64 6c40 9 83 38 83 83c0 23 -13 41 -34 52c-13 8 -19 12 -38 17l-22 8c-11 4 -40 12 -52 16c-35 11 -62 20 -81 28s-40 19 -63 34c-47 29 -67 71 -67 130c0 65 22 116 66 153
c45 37 102 59 172 66l16 98h130l-16 -102c61 -9 113 -26 156 -51z" />
    <glyph glyph-name="percent" unicode="%" horiz-adv-x="818" 
d="M253 0h-106l529 700h105zM280 706c50 0 91 -15 123 -46s48 -70 48 -117c0 -49 -17 -91 -52 -126s-78 -53 -129 -53c-50 0 -91 15 -123 46s-48 70 -48 117c0 49 17 91 52 126s78 53 129 53zM270 454c44 0 82 41 82 90c0 43 -31 72 -72 72c-45 0 -83 -41 -83 -90
c0 -43 32 -72 73 -72zM658 336c50 0 91 -15 123 -46s48 -70 48 -117c0 -49 -17 -91 -52 -126s-78 -53 -129 -53c-50 0 -91 15 -123 46s-48 70 -48 117c0 49 17 91 52 126s78 53 129 53zM648 84c44 0 82 41 82 90c0 43 -31 72 -72 72c-45 0 -83 -41 -83 -90
c0 -43 32 -72 73 -72z" />
    <glyph glyph-name="ampersand" unicode="&#x26;" horiz-adv-x="733" 
d="M596 382h135c-19 -97 -57 -181 -116 -251l107 -131h-165l-37 45c-61 -39 -125 -59 -194 -59c-77 0 -139 20 -187 61c-47 41 -71 97 -71 168c0 51 15 95 45 134c31 39 66 66 105 81c-14 27 -21 58 -21 93c0 57 20 103 61 138s94 53 158 53c36 0 72 -6 108 -19
c37 -13 66 -29 87 -48l-19 -125c-49 46 -105 69 -167 69c-59 0 -89 -30 -89 -75c0 -28 18 -64 55 -109l144 -177c29 45 50 95 61 152zM442 140l-156 192c-44 -16 -80 -58 -80 -113c-5 -101 136 -144 236 -79z" />
    <glyph glyph-name="quotesingle" unicode="'" horiz-adv-x="189" 
d="M220 403h-122l47 297h121z" />
    <glyph glyph-name="parenleft" unicode="(" horiz-adv-x="359" 
d="M296 706h145c-136 -151 -212 -340 -212 -537c0 -137 37 -262 112 -375h-145c-65 98 -97 221 -97 370c0 213 66 394 197 542z" />
    <glyph glyph-name="parenright" unicode=")" horiz-adv-x="358" 
d="M143 -206h-145c136 151 212 340 212 537c0 137 -37 262 -112 375h145c65 -98 97 -221 97 -370c0 -213 -66 -394 -197 -542z" />
    <glyph glyph-name="asterisk" unicode="*" horiz-adv-x="421" 
d="M304 329h-86l22 117l-109 -61l-32 74l115 58l-96 55l54 73l90 -63l15 118h86l-22 -117l110 62l31 -74l-115 -58l96 -56l-54 -72l-89 62z" />
    <glyph glyph-name="plus" unicode="+" horiz-adv-x="609" 
d="M380 77h-128l30 191h-190l20 126h190l31 192h128l-31 -192h191l-20 -126h-191z" />
    <glyph glyph-name="comma" unicode="," horiz-adv-x="300" 
d="M106 -152h-115l134 303h154z" />
    <glyph glyph-name="hyphen" unicode="-" horiz-adv-x="494" 
d="M434 214h-309l21 127h309z" />
    <glyph glyph-name="period" unicode="." horiz-adv-x="263" 
d="M145 -11c-49 0 -87 39 -87 88c0 48 38 87 87 87c47 0 86 -39 86 -87c0 -49 -39 -88 -86 -88z" />
    <glyph glyph-name="slash" unicode="/" horiz-adv-x="533" 
d="M100 -140h-144l568 932h145z" />
    <glyph glyph-name="zero" unicode="0" horiz-adv-x="704" 
d="M437 714c85 0 151 -29 200 -87c49 -57 73 -133 73 -227c0 -97 -31 -198 -86 -279c-55 -80 -145 -135 -248 -135c-85 0 -151 29 -200 86c-49 58 -73 134 -73 228c0 97 31 199 86 279s145 135 248 135zM382 121c38 0 71 15 100 45c59 60 84 148 84 231c0 51 -11 94 -34 129
c-22 35 -56 53 -101 53c-38 0 -72 -15 -101 -45c-57 -60 -83 -148 -83 -231c0 -51 11 -95 33 -130c23 -35 57 -52 102 -52z" />
    <glyph glyph-name="one" unicode="1" horiz-adv-x="400" 
d="M314 0h-141l87 546l-160 -75l22 141l178 88h125z" />
    <glyph glyph-name="two" unicode="2" horiz-adv-x="578" 
d="M117 505l24 149c57 40 123 60 200 60c66 0 121 -19 166 -58s67 -90 67 -154c0 -96 -56 -172 -180 -271l-132 -105h294l-19 -126h-499l17 105l228 186c53 43 91 78 113 105s33 55 33 84c0 63 -45 99 -116 99c-67 0 -133 -25 -196 -74z" />
    <glyph glyph-name="three" unicode="3" horiz-adv-x="577" 
d="M613 700l-18 -108l-188 -155c42 -9 79 -29 112 -62s49 -76 49 -130c0 -78 -28 -141 -84 -188s-127 -71 -213 -71c-93 0 -169 21 -228 64l21 135c62 -47 130 -70 203 -70c43 0 80 11 111 33c32 22 48 53 48 94c0 63 -52 104 -136 104c-31 0 -60 -5 -88 -16l14 92l193 154
h-264l20 124h448z" />
    <glyph glyph-name="four" unicode="4" horiz-adv-x="641" 
d="M513 0h-140l28 175h-350l15 104l416 421h142l-65 -409h103l-18 -116h-103zM455 519l-228 -228h192z" />
    <glyph glyph-name="five" unicode="5" horiz-adv-x="587" 
d="M338 464c73 0 131 -21 175 -63c45 -42 67 -94 67 -155c0 -81 -30 -145 -89 -191s-133 -69 -223 -69c-89 0 -160 19 -213 56l20 136c59 -42 123 -63 192 -63c45 0 84 10 117 30c34 21 51 52 51 95c0 63 -54 108 -153 108c-48 0 -101 -8 -158 -24l100 376h379l-18 -124
h-271l-32 -117c18 3 37 5 56 5z" />
    <glyph glyph-name="six" unicode="6" horiz-adv-x="638" 
d="M422 459c61 -1 110 -21 147 -60s56 -87 56 -146c0 -77 -26 -140 -77 -191s-116 -76 -197 -76c-80 0 -142 26 -187 77s-67 117 -67 198c0 119 36 230 96 314c61 85 158 139 269 139c72 0 129 -17 172 -52l-20 -129c-41 34 -91 51 -150 51c-53 0 -98 -18 -137 -55
c-38 -36 -61 -81 -69 -135c39 43 94 65 164 65zM483 240c0 61 -42 107 -109 107c-53 0 -108 -36 -136 -88c-1 -7 -2 -13 -2 -19c0 -76 49 -130 122 -130s125 54 125 130z" />
    <glyph glyph-name="seven" unicode="7" horiz-adv-x="567" 
d="M228 0h-154l377 571h-330l20 129h494l-18 -111z" />
    <glyph glyph-name="eight" unicode="8" horiz-adv-x="653" 
d="M531 361c65 -27 108 -86 108 -157c0 -67 -27 -120 -81 -159s-119 -59 -195 -59c-142 0 -287 63 -287 207c0 88 61 163 158 191c-51 25 -80 74 -80 131c0 61 24 109 73 145s109 54 178 54c41 0 79 -6 115 -19c73 -25 132 -87 132 -168c0 -76 -48 -138 -121 -166zM491 212
c0 56 -51 98 -130 98c-75 0 -134 -41 -134 -105c0 -59 58 -98 130 -98s134 40 134 105zM398 416c59 0 112 34 112 90c0 51 -48 85 -108 85c-57 0 -110 -35 -110 -91c0 -49 49 -84 106 -84z" />
    <glyph glyph-name="nine" unicode="9" horiz-adv-x="638" 
d="M313 241c-61 1 -110 20 -147 59s-56 88 -56 147c0 77 25 140 76 191s117 76 198 76c80 0 142 -26 187 -77s67 -117 67 -198c0 -119 -36 -230 -97 -315c-60 -84 -157 -138 -268 -138c-72 0 -129 17 -172 52l20 129c41 -34 91 -51 150 -51c53 0 98 18 136 54
c39 37 62 82 70 136c-39 -43 -94 -65 -164 -65zM252 460c0 -61 42 -107 109 -107c53 0 108 36 136 88c1 7 2 13 2 19c0 76 -49 130 -122 130s-125 -54 -125 -130z" />
    <glyph glyph-name="colon" unicode=":" horiz-adv-x="263" 
d="M197 319c-49 0 -87 39 -87 88c0 48 38 87 87 87c47 0 86 -39 86 -87c0 -49 -39 -88 -86 -88zM145 -11c-49 0 -87 39 -87 88c0 48 38 87 87 87c47 0 86 -39 86 -87c0 -49 -39 -88 -86 -88z" />
    <glyph glyph-name="semicolon" unicode=";" horiz-adv-x="297" 
d="M106 -152h-115l134 303h154zM231 319c-49 0 -87 39 -87 88c0 48 38 87 87 87c47 0 86 -39 86 -87c0 -49 -39 -88 -86 -88z" />
    <glyph glyph-name="less" unicode="&#x3c;" horiz-adv-x="609" 
d="M588 190l-21 -133l-475 206l21 133l541 207l-23 -141l-386 -136z" />
    <glyph glyph-name="equal" unicode="=" horiz-adv-x="609" 
d="M619 381h-509l21 127h509zM583 154h-509l21 128h509z" />
    <glyph glyph-name="greater" unicode="&#x3e;" horiz-adv-x="609" 
d="M600 263l-542 -206l23 141l386 136l-343 137l21 132l476 -207z" />
    <glyph glyph-name="question" unicode="?" horiz-adv-x="492" 
d="M109 535l19 128c59 34 125 51 197 51c62 0 115 -17 158 -50s65 -78 65 -135c0 -56 -20 -102 -61 -138s-92 -62 -155 -78l-13 -80h-134l24 149c67 12 192 52 192 131c0 47 -44 72 -116 72c-52 0 -111 -17 -176 -50zM143 77c0 48 38 87 86 87s87 -39 87 -87
c0 -49 -39 -88 -87 -88s-86 39 -86 88z" />
    <glyph glyph-name="at" unicode="@" horiz-adv-x="939" 
d="M542 714c117 0 214 -37 290 -111c77 -73 115 -164 115 -272c0 -75 -20 -140 -61 -195c-40 -55 -93 -82 -159 -82c-64 0 -105 24 -124 71c-45 -50 -98 -75 -159 -75c-55 0 -100 19 -133 57s-49 85 -49 142c0 66 20 124 61 174s95 75 164 75c63 0 114 -31 139 -64l8 52h121
l-44 -284c0 -1 -3 -24 -3 -32c0 -44 23 -68 58 -68c39 0 72 23 100 68c29 46 43 99 43 160c0 97 -33 180 -100 247c-67 68 -156 102 -268 102c-226 6 -435 -200 -430 -437c0 -107 34 -195 102 -264c68 -70 156 -105 265 -105c75 0 149 19 220 58l-6 -42
c-64 -34 -136 -51 -215 -51c-116 0 -212 38 -289 114c-77 75 -115 172 -115 289c0 83 20 161 60 233c41 72 97 130 169 174c73 44 153 66 240 66zM591 214l19 119c-17 32 -54 57 -98 57c-68 0 -120 -56 -120 -128c0 -61 43 -103 102 -103c40 0 72 18 97 55z" />
    <glyph glyph-name="A" unicode="A" horiz-adv-x="770" 
d="M754 0h-150l-42 162h-299l-92 -162h-155l411 704h138zM531 281l-62 243l-139 -243h201z" />
    <glyph glyph-name="B" unicode="B" horiz-adv-x="716" 
d="M591 384c67 -15 119 -74 119 -159c0 -69 -25 -123 -76 -164c-50 -41 -114 -61 -191 -61h-366l110 700h314c117 0 195 -59 195 -156c0 -71 -38 -131 -105 -160zM241 124h194c68 0 120 38 120 103c0 49 -37 80 -97 80h-188zM289 426h163c57 0 102 31 102 87
c0 41 -30 67 -82 67h-159z" />
    <glyph glyph-name="C" unicode="C" horiz-adv-x="677" 
d="M252 326c0 -60 20 -109 59 -148c39 -38 92 -57 157 -57c76 0 142 20 198 59l-22 -146c-60 -32 -123 -48 -189 -48c-105 0 -189 31 -254 93c-64 62 -96 141 -96 238c0 115 37 210 112 285s171 112 289 112c81 0 151 -16 212 -48l-24 -138c-55 34 -118 51 -189 51
c-75 0 -136 -24 -183 -71s-70 -107 -70 -182z" />
    <glyph glyph-name="D" unicode="D" horiz-adv-x="779" 
d="M188 700h237c107 0 192 -30 257 -91c65 -60 97 -138 97 -235c0 -107 -38 -197 -115 -268s-175 -106 -294 -106h-293zM241 129h143c78 0 139 23 182 69c43 47 65 107 65 181c0 54 -18 99 -55 136s-85 56 -145 56h-119z" />
    <glyph glyph-name="E" unicode="E" horiz-adv-x="649" 
d="M602 0h-525l111 700h514l-20 -129h-370l-22 -135h298l-20 -127h-298l-29 -180h381z" />
    <glyph glyph-name="F" unicode="F" horiz-adv-x="628" 
d="M221 0h-144l111 700h513l-20 -129h-369l-23 -142h285l-20 -127h-285z" />
    <glyph glyph-name="G" unicode="G" horiz-adv-x="766" 
d="M588 158l41 248h144l-52 -319c-73 -67 -166 -101 -278 -101c-99 0 -181 31 -244 93s-94 142 -94 240c0 114 37 208 112 283s171 112 289 112c86 0 159 -18 220 -54l-24 -137c-54 37 -120 56 -197 56c-75 0 -136 -24 -183 -71s-70 -108 -70 -184c0 -62 19 -112 57 -149
c39 -37 88 -56 148 -56c51 0 95 13 131 39z" />
    <glyph glyph-name="H" unicode="H" horiz-adv-x="758" 
d="M221 0h-144l111 700h144l-42 -262h316l42 262h143l-111 -700h-143l49 307h-316z" />
    <glyph glyph-name="I" unicode="I" horiz-adv-x="307" 
d="M225 0h-143l111 700h143z" />
    <glyph glyph-name="J" unicode="J" horiz-adv-x="510" 
d="M409 700h143l-76 -478c-25 -157 -116 -236 -271 -236c-64 0 -136 17 -173 46l23 143c31 -32 87 -54 138 -54c84 0 130 38 146 142z" />
    <glyph glyph-name="K" unicode="K" horiz-adv-x="702" 
d="M221 0h-144l110 700h144l-44 -277l296 277h180l-348 -333l291 -367h-172l-262 324z" />
    <glyph glyph-name="L" unicode="L" horiz-adv-x="603" 
d="M576 0h-499l111 700h144l-91 -571h355z" />
    <glyph glyph-name="M" unicode="M" horiz-adv-x="845" 
d="M878 700l-110 -700h-142l76 482l-196 -228h-80l-130 228l-75 -482h-144l110 700h138l158 -293l248 293h147z" />
    <glyph glyph-name="N" unicode="N" horiz-adv-x="770" 
d="M693 0h-118l-284 464l-73 -464h-141l110 700h122l281 -462l73 462h140z" />
    <glyph glyph-name="O" unicode="O" horiz-adv-x="832" 
d="M487 714c105 0 188 -31 251 -94s94 -144 94 -244c0 -109 -37 -201 -111 -277c-73 -75 -164 -113 -273 -113c-103 0 -186 31 -249 94s-94 145 -94 244c0 109 37 202 110 277s164 113 272 113zM453 121c67 0 122 24 165 73c44 49 66 109 66 182c0 58 -18 106 -55 145
s-85 58 -146 58c-66 0 -121 -24 -165 -73s-66 -109 -66 -182c0 -58 18 -106 55 -145s85 -58 146 -58z" />
    <glyph glyph-name="P" unicode="P" horiz-adv-x="659" 
d="M188 700h294c139 0 223 -75 223 -186c0 -69 -25 -126 -76 -171c-50 -44 -114 -66 -192 -66h-172l-44 -277h-144zM284 400h157c64 0 118 34 118 98c0 48 -33 76 -93 76h-154z" />
    <glyph glyph-name="Q" unicode="Q" horiz-adv-x="832" 
d="M487 714c105 0 188 -31 251 -94s94 -144 94 -244c0 -86 -24 -163 -73 -231c-49 -67 -112 -114 -190 -140c25 -27 60 -41 104 -41c30 0 59 7 86 21l-19 -126c-31 -12 -63 -18 -96 -18c-77 0 -159 49 -246 148c-89 11 -161 46 -214 107s-79 137 -79 228
c0 109 37 202 110 277s164 113 272 113zM453 121c67 0 122 24 165 73c44 49 66 109 66 182c0 58 -18 106 -55 145s-85 58 -146 58c-66 0 -121 -24 -165 -73s-66 -109 -66 -182c0 -58 18 -106 55 -145s85 -58 146 -58z" />
    <glyph glyph-name="R" unicode="R" horiz-adv-x="730" 
d="M548 299l174 -299h-162l-165 283h-129l-45 -283h-144l111 700h306c69 0 123 -18 162 -53s59 -80 59 -135c0 -100 -64 -178 -167 -213zM285 404h172c64 0 112 34 112 93c0 48 -35 77 -94 77h-163z" />
    <glyph glyph-name="S" unicode="S" horiz-adv-x="629" 
d="M642 656l-23 -140c-27 19 -62 34 -104 47c-41 13 -82 19 -123 19c-77 0 -126 -26 -126 -74c0 -19 10 -32 34 -44l34 -14l47 -14l50 -15c57 -19 95 -36 134 -67c39 -29 60 -73 60 -128c0 -74 -29 -133 -87 -176s-129 -64 -213 -64c-104 0 -211 28 -272 75l23 147
c25 -25 61 -47 108 -64s95 -26 144 -26c23 0 44 2 64 6c40 9 83 38 83 83c0 23 -13 41 -34 52c-13 8 -19 12 -38 17l-22 8c-11 4 -40 12 -52 16c-35 11 -62 20 -81 28s-40 19 -63 34c-47 29 -67 71 -67 130c0 72 27 127 81 165c55 38 123 57 205 57c91 0 182 -25 238 -58z
" />
    <glyph glyph-name="T" unicode="T" horiz-adv-x="647" 
d="M121 571l20 129h587l-20 -129h-222l-91 -571h-144l91 571h-221z" />
    <glyph glyph-name="U" unicode="U" horiz-adv-x="739" 
d="M570 285l66 415h145l-67 -423c-15 -93 -52 -165 -113 -216c-61 -50 -133 -75 -216 -75c-77 0 -143 23 -196 68s-80 108 -80 189c0 23 2 48 7 76l60 381h145l-63 -390c-3 -19 -5 -36 -5 -52c0 -87 54 -137 145 -137s155 53 172 164z" />
    <glyph glyph-name="V" unicode="V" horiz-adv-x="760" 
d="M407 196l284 504h161l-405 -704h-136l-183 704h155z" />
    <glyph glyph-name="W" unicode="W" horiz-adv-x="1075" 
d="M357 227l234 475h112l83 -475l219 473h160l-347 -704h-127l-80 467l-229 -467h-127l-124 704h156z" />
    <glyph glyph-name="X" unicode="X" horiz-adv-x="725" 
d="M557 0l-148 262l-230 -262h-173l332 377l-180 323h162l115 -207l182 207h171l-282 -322l213 -378h-162z" />
    <glyph glyph-name="Y" unicode="Y" horiz-adv-x="705" 
d="M420 443l221 257h163l-330 -383l-50 -317h-143l49 314l-210 386h161z" />
    <glyph glyph-name="Z" unicode="Z" horiz-adv-x="641" 
d="M608 0h-574l16 102l434 469h-346l20 129h541l-16 -101l-434 -470h379z" />
    <glyph glyph-name="bracketleft" unicode="[" horiz-adv-x="429" 
d="M360 -206h-314l144 912h314l-17 -111h-186l-110 -690h186z" />
    <glyph glyph-name="backslash" unicode="\" horiz-adv-x="532" 
d="M252 792l273 -932h-131l-273 932h131z" />
    <glyph glyph-name="bracketright" unicode="]" horiz-adv-x="429" 
d="M147 706h314l-144 -912h-313l16 111h186l110 690h-186z" />
    <glyph glyph-name="asciicircum" unicode="^" horiz-adv-x="550" 
d="M222 339h-134l237 399h133l111 -399h-133l-63 278z" />
    <glyph glyph-name="underscore" unicode="_" horiz-adv-x="645" 
d="M617 -149h-636l15 94h636z" />
    <glyph glyph-name="grave" unicode="`" horiz-adv-x="521" 
d="M243 716h170l83 -146h-122z" />
    <glyph glyph-name="a" unicode="a" horiz-adv-x="602" 
d="M569 106c8 0 16 2 25 5l-16 -102c-19 -12 -44 -18 -74 -18c-61 0 -97 21 -108 62c-45 -44 -101 -66 -166 -66c-109 0 -179 64 -179 155c0 55 20 98 60 129c41 31 90 47 147 47c59 0 112 -13 159 -38c3 19 4 31 4 36c0 54 -42 81 -127 81c-52 0 -102 -11 -150 -34l18 117
c49 21 108 32 175 32c65 0 118 -14 161 -43s64 -73 64 -134c0 -15 -2 -35 -7 -60l-16 -97c-3 -20 -5 -33 -5 -39c0 -22 12 -33 35 -33zM394 145l10 52c-29 20 -66 30 -110 30c-60 0 -103 -25 -103 -73c0 -40 35 -60 88 -60c45 0 91 22 115 51z" />
    <glyph glyph-name="b" unicode="b" horiz-adv-x="648" 
d="M220 66l-10 -66h-141l111 700h141l-42 -259c45 47 100 71 166 71c63 0 113 -22 151 -67s57 -100 57 -166c0 -77 -24 -145 -73 -204c-48 -59 -112 -88 -191 -88c-77 0 -140 38 -169 79zM389 389c-51 0 -101 -30 -129 -73l-21 -133c20 -39 71 -73 126 -73
c40 0 74 15 102 44c28 30 42 67 42 111c0 75 -49 124 -120 124z" />
    <glyph glyph-name="c" unicode="c" horiz-adv-x="514" 
d="M533 472l-19 -118c-43 23 -87 35 -132 35c-49 0 -89 -14 -121 -43c-32 -28 -48 -64 -48 -108c0 -41 15 -73 46 -95s67 -33 110 -33c41 0 82 9 121 28l-19 -123c-41 -19 -87 -28 -136 -28c-75 0 -138 22 -188 67c-49 45 -74 104 -74 177c0 80 29 147 86 200
c57 54 128 81 212 81c61 0 115 -13 162 -40z" />
    <glyph glyph-name="d" unicode="d" horiz-adv-x="647" 
d="M506 433l42 267h141l-111 -700h-141l10 58c-45 -47 -100 -71 -166 -71c-63 0 -113 22 -151 67s-57 100 -57 166c0 77 24 145 72 204c49 59 113 88 192 88c77 0 140 -38 169 -79zM337 110c51 0 101 30 129 73l21 133c-20 39 -71 73 -126 73c-40 0 -74 -15 -102 -45
c-28 -29 -42 -66 -42 -110c0 -75 49 -124 120 -124z" />
    <glyph glyph-name="e" unicode="e" horiz-adv-x="570" 
d="M366 107c55 0 108 14 159 41l-17 -116c-43 -30 -102 -45 -177 -45s-136 22 -185 66s-73 102 -73 174c0 80 26 147 79 202s120 83 200 83c69 0 123 -20 164 -61s62 -92 62 -153c0 -27 -3 -56 -9 -87h-360c4 -68 69 -104 157 -104zM219 301h223v7c0 55 -35 93 -96 93
s-112 -37 -127 -100z" />
    <glyph glyph-name="f" unicode="f" horiz-adv-x="432" 
d="M309 381l-61 -381h-141l61 381h-89l19 118h89l5 37c16 109 84 176 197 176c47 0 88 -7 123 -22l-18 -114c-29 12 -57 18 -82 18c-55 0 -76 -28 -85 -95h155l-19 -118h-154z" />
    <glyph glyph-name="g" unicode="g" horiz-adv-x="640" 
d="M440 46l5 35c-44 -47 -99 -70 -164 -70c-63 0 -114 21 -152 64c-37 43 -56 97 -56 160c0 74 24 139 71 194c48 55 112 83 191 83s135 -34 166 -74l10 61h141l-72 -458c-13 -85 -50 -147 -111 -187s-132 -60 -215 -60c-82 0 -146 14 -192 43l20 127
c49 -32 107 -48 174 -48c29 0 55 3 78 10c48 12 97 53 106 120zM338 132c50 0 92 23 126 68l19 124c-20 36 -68 65 -124 65c-41 0 -75 -13 -102 -40s-40 -61 -40 -102c0 -69 49 -115 121 -115z" />
    <glyph glyph-name="h" unicode="h" horiz-adv-x="615" 
d="M602 274l-43 -274h-141l40 250c3 25 5 41 5 50c0 53 -35 83 -83 83c-47 0 -93 -28 -118 -67l-52 -316h-141l111 700h141l-42 -259c45 47 100 71 167 71c101 0 163 -66 163 -166c0 -19 -2 -43 -7 -72z" />
    <glyph glyph-name="i" unicode="i" horiz-adv-x="293" 
d="M295 499l-78 -499h-141l78 499h141zM160 631c0 48 37 85 84 85s85 -37 85 -85c0 -47 -38 -84 -85 -84s-84 37 -84 84z" />
    <glyph glyph-name="j" unicode="j" horiz-adv-x="293" 
d="M81 35l73 464h141l-82 -522c-20 -121 -97 -183 -210 -183c-47 0 -83 7 -107 22l19 120c21 -13 45 -19 71 -19c60 0 80 29 95 118zM160 631c0 48 37 85 84 85s85 -37 85 -85c0 -47 -38 -84 -85 -84s-84 37 -84 84z" />
    <glyph glyph-name="k" unicode="k" horiz-adv-x="596" 
d="M210 0h-141l110 700h142l-61 -378l198 177h179l-256 -234l211 -265h-164l-183 223z" />
    <glyph glyph-name="l" unicode="l" horiz-adv-x="310" 
d="M171 700h141l-83 -523c-3 -21 -4 -32 -4 -33c0 -21 12 -32 37 -32c14 0 26 3 37 8l-17 -116c-22 -11 -51 -17 -86 -17c-73 0 -117 38 -117 113c0 11 2 31 6 60z" />
    <glyph glyph-name="m" unicode="m" horiz-adv-x="927" 
d="M210 0h-141l79 499h141l-10 -61c41 49 95 74 164 74c73 0 126 -38 141 -85c51 57 111 85 181 85c92 0 156 -55 156 -155c0 -7 -2 -28 -7 -64l-46 -293h-141l43 273c2 13 3 24 3 35c0 56 -34 75 -74 75c-43 0 -88 -29 -109 -66l-51 -317h-141l43 270c3 16 4 29 4 38
c0 55 -34 75 -73 75c-41 0 -88 -29 -112 -66z" />
    <glyph glyph-name="n" unicode="n" horiz-adv-x="615" 
d="M602 274l-43 -274h-141l40 250c3 25 5 41 5 50c0 53 -35 83 -83 83c-47 0 -93 -28 -118 -67l-52 -316h-141l78 499h141l-9 -58c45 47 100 71 167 71c101 0 163 -66 163 -166c0 -19 -2 -43 -7 -72z" />
    <glyph glyph-name="o" unicode="o" horiz-adv-x="608" 
d="M351 512c77 0 139 -24 188 -71s74 -106 74 -179c0 -75 -27 -139 -80 -194c-53 -54 -119 -81 -199 -81c-76 0 -139 23 -188 70s-73 108 -73 181c0 74 26 138 79 192c53 55 120 82 199 82zM334 110c40 0 74 15 102 45c29 30 43 67 43 111c0 75 -54 123 -127 123
c-40 0 -74 -15 -102 -44s-42 -66 -42 -110c0 -76 53 -125 126 -125z" />
    <glyph glyph-name="p" unicode="p" horiz-adv-x="647" 
d="M219 66l-42 -266h-141l111 699h141l-10 -58c45 47 100 71 166 71c63 0 113 -22 151 -67s57 -100 57 -166c0 -77 -24 -145 -73 -204c-48 -59 -112 -88 -191 -88c-77 0 -140 38 -169 79zM388 389c-51 0 -101 -30 -129 -73l-21 -133c20 -39 71 -73 126 -73
c40 0 74 15 102 44c28 30 42 67 42 111c0 75 -49 124 -120 124z" />
    <glyph glyph-name="q" unicode="q" horiz-adv-x="648" 
d="M506 433l10 66h141l-111 -699h-141l42 258c-45 -47 -100 -71 -166 -71c-63 0 -113 22 -151 67s-57 100 -57 166c0 77 24 145 72 204c49 59 113 88 192 88c77 0 140 -38 169 -79zM337 110c51 0 101 30 129 73l21 133c-20 39 -71 73 -126 73c-40 0 -74 -15 -102 -45
c-28 -29 -42 -66 -42 -110c0 -75 49 -124 120 -124z" />
    <glyph glyph-name="r" unicode="r" horiz-adv-x="423" 
d="M210 0h-141l79 499h141l-13 -83c18 26 45 48 80 67s72 29 109 29c7 0 12 0 16 -1l-22 -139c-13 4 -28 6 -47 6c-71 0 -128 -37 -155 -84z" />
    <glyph glyph-name="s" unicode="s" horiz-adv-x="503" 
d="M515 455l-19 -117c-55 40 -114 60 -179 60c-53 0 -80 -13 -80 -40c0 -11 6 -21 19 -28s42 -17 89 -31c100 -29 149 -72 149 -144c0 -55 -23 -96 -68 -125s-98 -43 -159 -43c-85 0 -175 24 -226 59l18 119c43 -32 119 -63 206 -63c57 0 85 14 85 43c0 13 -9 24 -33 33
c-23 11 -33 13 -66 24c-108 32 -162 72 -162 140c0 55 21 97 64 126s96 44 159 44c82 0 150 -19 203 -57z" />
    <glyph glyph-name="t" unicode="t" horiz-adv-x="441" 
d="M138 117c0 15 2 35 6 60l32 204h-98l19 118h98l22 137h141l-22 -137h142l-19 -118h-142l-28 -181c-3 -19 -4 -32 -4 -41c0 -31 19 -46 58 -46c26 0 51 6 75 19l-18 -116c-31 -19 -70 -29 -119 -29c-87 0 -143 46 -143 130z" />
    <glyph glyph-name="u" unicode="u" horiz-adv-x="617" 
d="M93 225l43 274h141l-40 -250c-3 -25 -5 -42 -5 -50c0 -53 35 -83 83 -83c47 0 93 28 118 67l52 316h141l-78 -499h-141l9 58c-45 -47 -100 -71 -167 -71c-101 0 -163 66 -163 166c0 19 2 43 7 72z" />
    <glyph glyph-name="v" unicode="v" horiz-adv-x="589" 
d="M320 174l184 325h149l-296 -503h-128l-138 503h146z" />
    <glyph glyph-name="w" unicode="w" horiz-adv-x="827" 
d="M597 200l147 299h142l-250 -503h-121l-58 302l-150 -302h-120l-89 503h136l52 -299l146 301h112z" />
    <glyph glyph-name="x" unicode="x" horiz-adv-x="593" 
d="M474 499h164l-221 -238l160 -261h-151l-97 158l-148 -158h-164l242 260l-146 239h151l85 -139z" />
    <glyph glyph-name="y" unicode="y" horiz-adv-x="582" 
d="M492 499h150l-310 -556c-56 -99 -131 -149 -226 -149c-37 0 -69 7 -96 21l19 122c23 -14 47 -21 72 -21c50 0 94 34 133 101l-149 482h147l90 -329z" />
    <glyph glyph-name="z" unicode="z" horiz-adv-x="526" 
d="M493 0h-461l15 93l294 288h-236l19 118h429l-15 -96l-295 -285h269z" />
    <glyph glyph-name="braceleft" unicode="{" horiz-adv-x="408" 
d="M404 706h79l-16 -111h-50c-43 0 -74 -28 -81 -71l-22 -142c-12 -72 -46 -116 -101 -132c41 -13 62 -44 62 -93c0 -12 -1 -25 -3 -39l-19 -123c-3 -21 -4 -33 -4 -35c0 -33 20 -55 59 -55h49l-17 -111h-80c-91 0 -144 50 -144 133c0 11 1 22 3 34l19 116c3 20 5 36 5 48
c0 41 -16 64 -64 69l18 112c64 7 84 46 96 122l18 111c16 103 90 167 193 167z" />
    <glyph glyph-name="bar" unicode="|" horiz-adv-x="346" 
d="M218 -111h-126l138 871h126z" />
    <glyph glyph-name="braceright" unicode="}" horiz-adv-x="409" 
d="M83 -206h-79l16 111h50c43 0 74 28 81 71l22 142c12 72 46 116 101 132c-41 13 -62 44 -62 93c0 12 1 25 3 39l19 123c3 21 4 33 4 35c0 33 -20 55 -59 55h-49l17 111h80c91 0 144 -50 144 -133c0 -11 -1 -22 -3 -34l-19 -116c-3 -20 -5 -36 -5 -48c0 -41 16 -64 64 -69
l-18 -112c-64 -7 -84 -46 -96 -122l-18 -111c-16 -103 -90 -167 -193 -167z" />
    <glyph glyph-name="asciitilde" unicode="~" horiz-adv-x="598" 
d="M475 292c49 0 91 15 126 46l-20 -127c-24 -25 -74 -42 -125 -42c-33 0 -75 9 -127 27c-51 18 -94 27 -127 27c-49 0 -90 -15 -124 -46l20 126c23 25 74 43 125 43c32 0 74 -9 125 -27s94 -27 127 -27z" />
    <glyph glyph-name="nbspace" unicode="&#xa0;" horiz-adv-x="256" 
 />
    <glyph glyph-name="exclamdown" unicode="&#xa1;" horiz-adv-x="334" 
d="M148 424c0 48 39 86 87 86s87 -38 87 -86c0 -49 -39 -88 -87 -88s-87 39 -87 88zM275 266l-42 -466h-192l105 466h129z" />
    <glyph glyph-name="cent" unicode="&#xa2;" horiz-adv-x="514" 
d="M320 508l18 108h119l-18 -110c35 -7 66 -19 94 -34l-19 -118c-43 23 -87 35 -132 35c-49 0 -89 -14 -121 -43c-32 -28 -48 -64 -48 -108c0 -41 15 -73 46 -95s67 -33 110 -33c41 0 82 9 121 28l-19 -123c-36 -16 -74 -25 -114 -27l-17 -105h-119l19 118
c-101 33 -167 117 -167 230c0 71 23 132 69 183c47 51 106 83 178 94z" />
    <glyph glyph-name="sterling" unicode="&#xa3;" horiz-adv-x="589" 
d="M166 282h-81l17 111h82l15 92c24 148 128 229 285 229c63 0 116 -12 157 -36l-21 -134c-39 23 -82 35 -129 35c-90 0 -141 -42 -154 -126l-10 -60h225l-17 -111h-226l-14 -89c-5 -30 -18 -51 -39 -64h314l-20 -129h-510l20 129h23c49 0 63 27 72 86z" />
    <glyph glyph-name="currency" unicode="&#xa4;" horiz-adv-x="575" 
d="M524 232l66 -66l-61 -61l-65 66c-73 -49 -167 -49 -240 0l-65 -66l-61 61l66 66c-48 71 -48 167 0 238l-66 66l61 61l65 -66c73 49 167 49 240 0l65 66l61 -61l-66 -66c48 -71 48 -167 0 -238zM264 270c22 -22 49 -33 80 -33s58 11 79 33c22 23 33 50 33 81
s-11 58 -33 80c-21 23 -48 34 -79 34s-58 -11 -80 -34c-21 -22 -32 -49 -32 -80s11 -58 32 -81z" />
    <glyph glyph-name="yen" unicode="&#xa5;" horiz-adv-x="673" 
d="M87 129l15 94h196l11 70h-196l16 95h156l-166 312h157l126 -250l207 250h162l-264 -312h158l-16 -95h-197l-11 -70h197l-15 -94h-197l-20 -129h-143l20 129h-196z" />
    <glyph glyph-name="brokenbar" unicode="&#xa6;" horiz-adv-x="346" 
d="M218 -111h-126l56 353h126zM300 407h-126l56 353h126z" />
    <glyph glyph-name="section" unicode="&#xa7;" 
d="M392 473l70 -24c121 -41 190 -89 190 -176c0 -71 -47 -125 -120 -153c29 -27 43 -58 43 -95c0 -63 -25 -111 -76 -143s-114 -48 -190 -48c-93 0 -171 20 -235 61l20 131c73 -45 147 -68 222 -68c74 0 111 18 111 53c0 18 -13 32 -36 44c-13 7 -21 10 -40 17l-24 8
c-12 5 -40 14 -55 19c-120 43 -190 89 -190 176c0 71 47 125 120 154c-29 27 -43 58 -43 94c0 63 25 111 76 143s114 48 190 48c93 0 171 -20 235 -61l-20 -130c-74 45 -148 67 -222 67s-111 -18 -111 -53c0 -18 14 -30 33 -42c11 -7 39 -17 52 -22zM366 206l75 -28
c43 8 76 34 76 73c0 19 -15 34 -36 46c-11 8 -38 19 -51 24l-62 22l-75 27c-43 -8 -76 -33 -76 -72c0 -21 14 -35 38 -49c15 -7 23 -11 40 -18l22 -8z" />
    <glyph glyph-name="dieresis" unicode="&#xa8;" horiz-adv-x="521" 
d="M519 590c-28 -28 -76 -28 -105 0c-28 29 -28 77 0 105c29 28 77 28 105 0s28 -76 0 -105zM247 569c-40 0 -74 33 -74 74c0 40 34 73 74 73c41 0 74 -32 74 -73s-33 -74 -74 -74z" />
    <glyph glyph-name="copyright" unicode="&#xa9;" horiz-adv-x="836" 
d="M112 350c0 99 35 185 106 256c71 72 156 108 257 108s186 -36 256 -107s105 -157 105 -257c0 -99 -35 -185 -106 -257c-71 -71 -156 -107 -257 -107s-186 36 -256 107s-105 157 -105 257zM499 150c-59 0 -109 19 -149 58s-60 87 -60 142c0 56 20 103 60 141
c40 39 90 58 149 58c38 0 72 -8 101 -23v-85c-32 19 -66 29 -101 29c-68 0 -121 -51 -121 -120c0 -35 12 -63 36 -86s54 -34 89 -34c41 0 76 11 105 33v-85c-31 -19 -68 -28 -109 -28zM473 20c92 0 169 32 232 97s95 143 95 234s-31 169 -94 233s-140 96 -231 96
s-169 -32 -232 -97s-95 -143 -95 -234s31 -168 94 -233c63 -64 140 -96 231 -96z" />
    <glyph glyph-name="ordfeminine" unicode="&#xaa;" horiz-adv-x="455" 
d="M357 431l7 41c-25 16 -55 24 -90 24c-48 0 -83 -19 -83 -58c0 -32 24 -48 71 -48c40 0 72 14 95 41zM478 397c7 0 13 1 19 3l-11 -70c-15 -8 -32 -12 -51 -12c-45 0 -70 16 -77 48c-35 -34 -78 -51 -128 -51c-81 0 -133 48 -133 115c0 41 15 73 45 96s66 35 109 35
c45 0 86 -10 123 -30c3 12 4 23 4 33c0 43 -33 64 -98 64c-40 0 -78 -9 -114 -26l13 80c35 17 78 25 130 25c93 0 163 -41 163 -129c0 -11 -2 -27 -5 -47l-13 -80c-2 -12 -3 -21 -3 -28c0 -17 9 -26 27 -26z" />
    <glyph glyph-name="guillemotleft" unicode="&#xab;" horiz-adv-x="604" 
d="M564 35h-140l-109 179l12 71l165 179h142l-196 -221zM316 35h-140l-108 179l11 71l165 179h142l-196 -221z" />
    <glyph glyph-name="logicalnot" unicode="&#xac;" horiz-adv-x="564" 
d="M536 138h-126l25 160h-337l20 127h463z" />
    <glyph glyph-name="uni00AD" unicode="&#xad;" horiz-adv-x="494" 
d="M434 214h-309l21 127h309z" />
    <glyph glyph-name="registered" unicode="&#xae;" horiz-adv-x="804" 
d="M80 350c0 99 35 185 106 256c71 72 156 108 257 108s186 -36 256 -107s105 -157 105 -257c0 -99 -35 -185 -106 -257c-71 -71 -156 -107 -257 -107s-186 36 -256 107s-105 157 -105 257zM374 168h-85v383h179c81 0 133 -47 133 -115c0 -51 -29 -91 -78 -106l118 -162h-95
l-111 152h-61v-152zM374 479v-89h90c34 0 51 14 51 43s-19 46 -51 46h-90zM441 20c92 0 169 32 232 97s95 143 95 234s-31 169 -94 233s-140 96 -231 96s-169 -32 -232 -97s-95 -143 -95 -234s31 -168 94 -233c63 -64 140 -96 231 -96z" />
    <glyph glyph-name="overscore" unicode="&#xaf;" horiz-adv-x="550" 
d="M529 595h-307l15 95h307z" />
    <glyph glyph-name="degree" unicode="&#xb0;" horiz-adv-x="390" 
d="M207 556c0 -43 33 -78 76 -78s76 35 76 78c0 44 -33 78 -76 78s-76 -34 -76 -78zM443 556c0 -43 -16 -80 -48 -111c-31 -31 -69 -46 -112 -46s-81 15 -113 46c-31 31 -47 68 -47 111s16 80 47 111c32 31 70 47 113 47s81 -16 112 -47c32 -31 48 -68 48 -111z" />
    <glyph glyph-name="plusminus" unicode="&#xb1;" horiz-adv-x="609" 
d="M401 210h-128l25 163h-190l20 126h190l27 167h128l-27 -167h191l-20 -126h-191zM561 19h-509l20 126h509z" />
    <glyph glyph-name="twosuperior" unicode="&#xb2;" horiz-adv-x="347" 
d="M133 583l16 95c31 19 67 29 110 29c75 0 134 -44 134 -117c0 -52 -28 -92 -96 -144l-58 -44h145l-13 -80h-283l12 68l121 95c55 43 74 64 74 91s-21 45 -56 45c-33 0 -69 -13 -106 -38z" />
    <glyph glyph-name="threesuperior" unicode="&#xb3;" horiz-adv-x="330" 
d="M398 700l-11 -70l-91 -71c43 -13 77 -48 77 -101c0 -87 -69 -143 -166 -143c-55 0 -99 11 -131 34l15 88c28 -25 65 -38 111 -38c41 0 77 19 77 55c0 27 -23 45 -63 45c-21 0 -40 -3 -57 -9l9 59l95 70h-133l14 81h254z" />
    <glyph glyph-name="acute" unicode="&#xb4;" horiz-adv-x="482" 
d="M360 570h-122l107 146h171z" />
    <glyph glyph-name="mu" unicode="&#xb5;" horiz-adv-x="627" 
d="M176 -200h-140l110 699h141l-40 -250c-3 -25 -5 -42 -5 -50c0 -53 35 -83 83 -83c47 0 93 28 118 67l52 316h141l-78 -499h-141l9 58c-45 -47 -100 -71 -167 -71c-16 0 -33 2 -52 7z" />
    <glyph glyph-name="paragraph" unicode="&#xb6;" horiz-adv-x="572" 
d="M382 700h223l-110 -700h-144l45 288h-78c-132 0 -210 73 -210 178c0 70 27 126 80 169s118 65 194 65z" />
    <glyph glyph-name="middot" unicode="&#xb7;" horiz-adv-x="263" 
d="M188 299c-49 0 -87 39 -87 88c0 48 38 87 87 87c47 0 86 -39 86 -87c0 -49 -39 -88 -86 -88z" />
    <glyph glyph-name="cedilla" unicode="&#xb8;" horiz-adv-x="503" 
d="M225 11h113l-71 -156h-163z" />
    <glyph glyph-name="onesuperior" unicode="&#xb9;" horiz-adv-x="263" 
d="M265 322h-96l44 280l-109 -51l15 94l113 55h92z" />
    <glyph glyph-name="ordmasculine" unicode="&#xba;" horiz-adv-x="462" 
d="M316 707c58 0 106 -18 144 -53c39 -35 58 -79 58 -134s-21 -103 -62 -144s-91 -61 -151 -61c-57 0 -105 18 -143 53s-57 81 -57 136s20 102 60 142c41 41 91 61 151 61zM305 404c63 0 111 50 111 118c0 56 -41 95 -98 95c-64 0 -111 -48 -111 -116c0 -56 41 -97 98 -97z
" />
    <glyph glyph-name="guillemotright" unicode="&#xbb;" horiz-adv-x="604" 
d="M114 464h140l108 -179l-11 -71l-165 -179h-141l195 222zM362 464h139l109 -179l-11 -71l-165 -179h-142l196 222z" />
    <glyph glyph-name="onequarter" unicode="&#xbc;" horiz-adv-x="769" 
d="M104 0l533 700h108l-533 -700h-108zM265 322h-96l44 280l-109 -51l15 94l113 55h92zM700 0h-92l14 90h-190l12 68l220 220h98l-35 -214h54l-13 -74h-53zM652 272l-111 -108h93z" />
    <glyph glyph-name="onehalf" unicode="&#xbd;" horiz-adv-x="818" 
d="M104 0l533 700h108l-533 -700h-108zM265 322h-96l44 280l-109 -51l15 94l113 55h92zM554 261l16 95c31 19 67 29 110 29c75 0 134 -44 134 -117c0 -52 -28 -92 -96 -144l-58 -44h145l-13 -80h-283l12 68l121 95c55 43 74 64 74 91s-21 45 -56 45c-33 0 -69 -13 -106 -38z
" />
    <glyph glyph-name="threequarters" unicode="&#xbe;" horiz-adv-x="809" 
d="M740 0h-92l14 90h-190l12 68l220 220h98l-35 -214h54l-13 -74h-53zM692 272l-111 -108h93zM398 700l-11 -70l-91 -71c43 -13 77 -48 77 -101c0 -87 -69 -143 -166 -143c-55 0 -99 11 -131 34l15 88c28 -25 65 -38 111 -38c41 0 77 19 77 55c0 27 -23 45 -63 45
c-21 0 -40 -3 -57 -9l9 59l95 70h-133l14 81h254zM144 0l533 700h108l-533 -700h-108z" />
    <glyph glyph-name="questiondown" unicode="&#xbf;" horiz-adv-x="491" 
d="M472 -27l-19 -128c-59 -34 -125 -51 -197 -51c-62 0 -115 17 -158 50s-65 78 -65 135c0 56 20 102 61 138s92 62 155 78l12 71h134l-23 -140c-67 -12 -192 -52 -192 -131c0 -47 44 -72 116 -72c52 0 111 17 176 50zM438 422c0 -48 -38 -87 -86 -87s-87 39 -87 87
c0 49 39 88 87 88s86 -39 86 -88z" />
    <glyph glyph-name="Agrave" unicode="&#xc0;" horiz-adv-x="770" 
d="M754 0h-150l-42 162h-299l-92 -162h-155l411 704h138zM531 281l-62 243l-139 -243h201zM316 907h170l83 -146h-122z" />
    <glyph glyph-name="Aacute" unicode="&#xc1;" horiz-adv-x="770" 
d="M754 0h-150l-42 162h-299l-92 -162h-155l411 704h138zM531 281l-62 243l-139 -243h201zM568 761h-122l108 146h170z" />
    <glyph glyph-name="Acircumflex" unicode="&#xc2;" horiz-adv-x="770" 
d="M754 0h-150l-42 162h-299l-92 -162h-155l411 704h138zM531 281l-62 243l-139 -243h201zM441 761h-127l144 146h137l96 -146h-118l-54 78z" />
    <glyph glyph-name="Atilde" unicode="&#xc3;" horiz-adv-x="770" 
d="M754 0h-150l-42 162h-299l-92 -162h-155l411 704h138zM531 281l-62 243l-139 -243h201zM635 900h73c-12 -81 -58 -138 -123 -138c-22 0 -47 8 -76 23c-28 15 -48 23 -61 23c-23 0 -40 -14 -50 -42h-74c13 88 57 139 124 139c21 0 45 -8 73 -23c29 -15 50 -23 63 -23
c24 0 41 14 51 41z" />
    <glyph glyph-name="Adieresis" unicode="&#xc4;" horiz-adv-x="770" 
d="M754 0h-150l-42 162h-299l-92 -162h-155l411 704h138zM531 281l-62 243l-139 -243h201zM676 781c-28 -28 -76 -28 -105 0c-28 29 -28 77 0 105c29 28 77 28 105 0s28 -76 0 -105zM404 760c-40 0 -74 33 -74 74c0 40 34 73 74 73c41 0 74 -32 74 -73s-33 -74 -74 -74z" />
    <glyph glyph-name="Aring" unicode="&#xc5;" horiz-adv-x="770" 
d="M754 0h-150l-42 162h-299l-92 -162h-155l411 704h138zM531 281l-62 243l-139 -243h201zM578 764c-41 -41 -107 -41 -148 0s-41 107 0 148s107 41 148 0s41 -107 0 -148zM471 805c19 -17 48 -17 65 0c19 19 19 48 0 65c-17 19 -46 19 -65 0c-17 -17 -17 -46 0 -65z" />
    <glyph glyph-name="AE" unicode="&#xc6;" horiz-adv-x="1063" 
d="M506 700h610l-20 -129h-363l-22 -135h291l-20 -127h-291l-29 -180h374l-20 -129h-518l25 162h-247l-116 -162h-159zM361 281h181l47 294h-17z" />
    <glyph glyph-name="Ccedilla" unicode="&#xc7;" horiz-adv-x="677" 
d="M252 326c0 -60 20 -109 59 -148c39 -38 92 -57 157 -57c76 0 142 20 198 59l-22 -146c-51 -27 -102 -42 -155 -46l-60 -133h-163l107 139c-82 15 -147 52 -196 111c-48 59 -72 129 -72 212c0 115 37 210 112 285s171 112 289 112c81 0 151 -16 212 -48l-24 -138
c-55 34 -118 51 -189 51c-75 0 -136 -24 -183 -71s-70 -107 -70 -182z" />
    <glyph glyph-name="Egrave" unicode="&#xc8;" horiz-adv-x="649" 
d="M602 0h-525l111 700h514l-20 -129h-370l-22 -135h298l-20 -127h-298l-29 -180h381zM289 907h170l83 -146h-122z" />
    <glyph glyph-name="Eacute" unicode="&#xc9;" horiz-adv-x="649" 
d="M602 0h-525l111 700h514l-20 -129h-370l-22 -135h298l-20 -127h-298l-29 -180h381zM495 761h-122l108 146h170z" />
    <glyph glyph-name="Ecircumflex" unicode="&#xca;" horiz-adv-x="649" 
d="M602 0h-525l111 700h514l-20 -129h-370l-22 -135h298l-20 -127h-298l-29 -180h381zM395 761h-127l144 146h137l96 -146h-118l-54 78z" />
    <glyph glyph-name="Edieresis" unicode="&#xcb;" horiz-adv-x="649" 
d="M602 0h-525l111 700h514l-20 -129h-370l-22 -135h298l-20 -127h-298l-29 -180h381zM625 781c-28 -28 -76 -28 -105 0c-28 29 -28 77 0 105c29 28 77 28 105 0s28 -76 0 -105zM353 760c-40 0 -74 33 -74 74c0 40 34 73 74 73c41 0 74 -32 74 -73s-33 -74 -74 -74z" />
    <glyph glyph-name="Igrave" unicode="&#xcc;" horiz-adv-x="307" 
d="M225 0h-143l111 700h143zM88 907h170l83 -146h-122z" />
    <glyph glyph-name="Iacute" unicode="&#xcd;" horiz-adv-x="307" 
d="M225 0h-143l111 700h143zM334 761h-122l108 146h170z" />
    <glyph glyph-name="Icircumflex" unicode="&#xce;" horiz-adv-x="307" 
d="M225 0h-143l111 700h143zM211 761h-127l144 146h137l96 -146h-118l-54 78z" />
    <glyph glyph-name="Idieresis" unicode="&#xcf;" horiz-adv-x="307" 
d="M225 0h-143l111 700h143zM445 781c-28 -28 -76 -28 -105 0c-28 29 -28 77 0 105c29 28 77 28 105 0s28 -76 0 -105zM173 760c-40 0 -74 33 -74 74c0 40 34 73 74 73c41 0 74 -32 74 -73s-33 -74 -74 -74z" />
    <glyph glyph-name="Eth" unicode="&#xd0;" horiz-adv-x="832" 
d="M178 307h-96l19 119h96l44 274h237c107 0 192 -30 257 -91c65 -60 97 -138 97 -235c0 -107 -38 -197 -115 -268s-175 -106 -294 -106h-293zM294 129h143c78 0 139 23 182 69c43 47 65 107 65 181c0 54 -18 99 -55 136s-85 56 -145 56h-119l-24 -145h138l-19 -119h-138z
" />
    <glyph glyph-name="Ntilde" unicode="&#xd1;" horiz-adv-x="770" 
d="M693 0h-118l-284 464l-73 -464h-141l110 700h122l281 -462l73 462h140zM638 900h73c-12 -81 -58 -138 -123 -138c-22 0 -47 8 -76 23c-28 15 -48 23 -61 23c-23 0 -40 -14 -50 -42h-74c13 88 57 139 124 139c21 0 45 -8 73 -23c29 -15 50 -23 63 -23c24 0 41 14 51 41z
" />
    <glyph glyph-name="Ograve" unicode="&#xd2;" horiz-adv-x="832" 
d="M487 714c105 0 188 -31 251 -94s94 -144 94 -244c0 -109 -37 -201 -111 -277c-73 -75 -164 -113 -273 -113c-103 0 -186 31 -249 94s-94 145 -94 244c0 109 37 202 110 277s164 113 272 113zM453 121c67 0 122 24 165 73c44 49 66 109 66 182c0 58 -18 106 -55 145
s-85 58 -146 58c-66 0 -121 -24 -165 -73s-66 -109 -66 -182c0 -58 18 -106 55 -145s85 -58 146 -58zM350 907h170l83 -146h-122z" />
    <glyph glyph-name="Oacute" unicode="&#xd3;" horiz-adv-x="832" 
d="M487 714c105 0 188 -31 251 -94s94 -144 94 -244c0 -109 -37 -201 -111 -277c-73 -75 -164 -113 -273 -113c-103 0 -186 31 -249 94s-94 145 -94 244c0 109 37 202 110 277s164 113 272 113zM453 121c67 0 122 24 165 73c44 49 66 109 66 182c0 58 -18 106 -55 145
s-85 58 -146 58c-66 0 -121 -24 -165 -73s-66 -109 -66 -182c0 -58 18 -106 55 -145s85 -58 146 -58zM590 761h-122l108 146h170z" />
    <glyph glyph-name="Ocircumflex" unicode="&#xd4;" horiz-adv-x="832" 
d="M487 714c105 0 188 -31 251 -94s94 -144 94 -244c0 -109 -37 -201 -111 -277c-73 -75 -164 -113 -273 -113c-103 0 -186 31 -249 94s-94 145 -94 244c0 109 37 202 110 277s164 113 272 113zM453 121c67 0 122 24 165 73c44 49 66 109 66 182c0 58 -18 106 -55 145
s-85 58 -146 58c-66 0 -121 -24 -165 -73s-66 -109 -66 -182c0 -58 18 -106 55 -145s85 -58 146 -58zM469 761h-127l144 146h137l96 -146h-118l-54 78z" />
    <glyph glyph-name="Otilde" unicode="&#xd5;" horiz-adv-x="832" 
d="M487 714c105 0 188 -31 251 -94s94 -144 94 -244c0 -109 -37 -201 -111 -277c-73 -75 -164 -113 -273 -113c-103 0 -186 31 -249 94s-94 145 -94 244c0 109 37 202 110 277s164 113 272 113zM453 121c67 0 122 24 165 73c44 49 66 109 66 182c0 58 -18 106 -55 145
s-85 58 -146 58c-66 0 -121 -24 -165 -73s-66 -109 -66 -182c0 -58 18 -106 55 -145s85 -58 146 -58zM663 900h73c-12 -81 -58 -138 -123 -138c-22 0 -47 8 -76 23c-28 15 -48 23 -61 23c-23 0 -40 -14 -50 -42h-74c13 88 57 139 124 139c21 0 45 -8 73 -23
c29 -15 50 -23 63 -23c24 0 41 14 51 41z" />
    <glyph glyph-name="Odieresis" unicode="&#xd6;" horiz-adv-x="832" 
d="M487 714c105 0 188 -31 251 -94s94 -144 94 -244c0 -109 -37 -201 -111 -277c-73 -75 -164 -113 -273 -113c-103 0 -186 31 -249 94s-94 145 -94 244c0 109 37 202 110 277s164 113 272 113zM453 121c67 0 122 24 165 73c44 49 66 109 66 182c0 58 -18 106 -55 145
s-85 58 -146 58c-66 0 -121 -24 -165 -73s-66 -109 -66 -182c0 -58 18 -106 55 -145s85 -58 146 -58zM695 781c-28 -28 -76 -28 -105 0c-28 29 -28 77 0 105c29 28 77 28 105 0s28 -76 0 -105zM423 760c-40 0 -74 33 -74 74c0 40 34 73 74 73c41 0 74 -32 74 -73
s-33 -74 -74 -74z" />
    <glyph glyph-name="multiply" unicode="&#xd7;" horiz-adv-x="586" 
d="M335 242l-168 -145l-79 92l169 145l-123 146l101 86l122 -145l169 145l77 -92l-168 -146l122 -145l-100 -86z" />
    <glyph glyph-name="Oslash" unicode="&#xd8;" horiz-adv-x="832" 
d="M487 714c85 0 157 -22 217 -65l50 51h120l-109 -111c45 -59 67 -130 67 -213c0 -109 -37 -201 -111 -277c-73 -75 -164 -113 -273 -113c-83 0 -153 21 -212 63l-49 -49h-120l107 109c-46 58 -69 130 -69 215c0 109 37 202 110 277s164 113 272 113zM252 324
c0 -41 9 -77 27 -108l322 328c-33 23 -72 35 -118 35c-66 0 -121 -24 -165 -73s-66 -109 -66 -182zM453 121c67 0 122 24 165 73c44 49 66 109 66 182c0 39 -9 73 -26 104l-320 -327c33 -21 72 -32 115 -32z" />
    <glyph glyph-name="Ugrave" unicode="&#xd9;" horiz-adv-x="739" 
d="M570 285l66 415h145l-67 -423c-15 -93 -52 -165 -113 -216c-61 -50 -133 -75 -216 -75c-77 0 -143 23 -196 68s-80 108 -80 189c0 23 2 48 7 76l60 381h145l-63 -390c-3 -19 -5 -36 -5 -52c0 -87 54 -137 145 -137s155 53 172 164zM310 907h170l83 -146h-122z" />
    <glyph glyph-name="Uacute" unicode="&#xda;" horiz-adv-x="739" 
d="M570 285l66 415h145l-67 -423c-15 -93 -52 -165 -113 -216c-61 -50 -133 -75 -216 -75c-77 0 -143 23 -196 68s-80 108 -80 189c0 23 2 48 7 76l60 381h145l-63 -390c-3 -19 -5 -36 -5 -52c0 -87 54 -137 145 -137s155 53 172 164zM542 761h-122l108 146h170z" />
    <glyph glyph-name="Ucircumflex" unicode="&#xdb;" horiz-adv-x="739" 
d="M570 285l66 415h145l-67 -423c-15 -93 -52 -165 -113 -216c-61 -50 -133 -75 -216 -75c-77 0 -143 23 -196 68s-80 108 -80 189c0 23 2 48 7 76l60 381h145l-63 -390c-3 -19 -5 -36 -5 -52c0 -87 54 -137 145 -137s155 53 172 164zM429 761h-127l144 146h137l96 -146
h-118l-54 78z" />
    <glyph glyph-name="Udieresis" unicode="&#xdc;" horiz-adv-x="739" 
d="M570 285l66 415h145l-67 -423c-15 -93 -52 -165 -113 -216c-61 -50 -133 -75 -216 -75c-77 0 -143 23 -196 68s-80 108 -80 189c0 23 2 48 7 76l60 381h145l-63 -390c-3 -19 -5 -36 -5 -52c0 -87 54 -137 145 -137s155 53 172 164zM664 781c-28 -28 -76 -28 -105 0
c-28 29 -28 77 0 105c29 28 77 28 105 0s28 -76 0 -105zM392 760c-40 0 -74 33 -74 74c0 40 34 73 74 73c41 0 74 -32 74 -73s-33 -74 -74 -74z" />
    <glyph glyph-name="Yacute" unicode="&#xdd;" horiz-adv-x="705" 
d="M420 443l221 257h163l-330 -383l-50 -317h-143l49 314l-210 386h161zM525 761h-122l108 146h170z" />
    <glyph glyph-name="Thorn" unicode="&#xde;" horiz-adv-x="672" 
d="M220 0h-143l111 700h143l-22 -139h167c139 0 223 -75 223 -186c0 -69 -25 -126 -76 -171c-50 -44 -114 -66 -192 -66h-189zM261 261h174c64 0 118 34 118 98c0 48 -33 76 -93 76h-171z" />
    <glyph glyph-name="germandbls" unicode="&#xdf;" horiz-adv-x="627" 
d="M389 -9c-45 0 -81 6 -106 17l17 108c23 -10 47 -15 73 -15c65 0 118 49 118 120c0 60 -47 104 -122 109l-20 1l15 91h25c57 1 101 36 101 93c0 45 -33 77 -89 77c-59 0 -103 -41 -115 -114l-76 -478h-141l77 487c11 71 41 126 88 165c48 40 106 60 174 60
c58 0 109 -16 152 -47c44 -31 66 -73 66 -128c0 -72 -41 -134 -113 -161c60 -20 113 -79 113 -160c0 -67 -22 -121 -67 -163c-45 -41 -101 -62 -170 -62z" />
    <glyph glyph-name="agrave" unicode="&#xe0;" horiz-adv-x="602" 
d="M569 106c8 0 16 2 25 5l-16 -102c-19 -12 -44 -18 -74 -18c-61 0 -97 21 -108 62c-45 -44 -101 -66 -166 -66c-109 0 -179 64 -179 155c0 55 20 98 60 129c41 31 90 47 147 47c59 0 112 -13 159 -38c3 19 4 31 4 36c0 54 -42 81 -127 81c-52 0 -102 -11 -150 -34l18 117
c49 21 108 32 175 32c65 0 118 -14 161 -43s64 -73 64 -134c0 -15 -2 -35 -7 -60l-16 -97c-3 -20 -5 -33 -5 -39c0 -22 12 -33 35 -33zM394 145l10 52c-29 20 -66 30 -110 30c-60 0 -103 -25 -103 -73c0 -40 35 -60 88 -60c45 0 91 22 115 51zM230 716h170l83 -146h-122z
" />
    <glyph glyph-name="aacute" unicode="&#xe1;" horiz-adv-x="602" 
d="M569 106c8 0 16 2 25 5l-16 -102c-19 -12 -44 -18 -74 -18c-61 0 -97 21 -108 62c-45 -44 -101 -66 -166 -66c-109 0 -179 64 -179 155c0 55 20 98 60 129c41 31 90 47 147 47c59 0 112 -13 159 -38c3 19 4 31 4 36c0 54 -42 81 -127 81c-52 0 -102 -11 -150 -34l18 117
c49 21 108 32 175 32c65 0 118 -14 161 -43s64 -73 64 -134c0 -15 -2 -35 -7 -60l-16 -97c-3 -20 -5 -33 -5 -39c0 -22 12 -33 35 -33zM394 145l10 52c-29 20 -66 30 -110 30c-60 0 -103 -25 -103 -73c0 -40 35 -60 88 -60c45 0 91 22 115 51zM428 570h-122l107 146h171z
" />
    <glyph glyph-name="acircumflex" unicode="&#xe2;" horiz-adv-x="602" 
d="M569 106c8 0 16 2 25 5l-16 -102c-19 -12 -44 -18 -74 -18c-61 0 -97 21 -108 62c-45 -44 -101 -66 -166 -66c-109 0 -179 64 -179 155c0 55 20 98 60 129c41 31 90 47 147 47c59 0 112 -13 159 -38c3 19 4 31 4 36c0 54 -42 81 -127 81c-52 0 -102 -11 -150 -34l18 117
c49 21 108 32 175 32c65 0 118 -14 161 -43s64 -73 64 -134c0 -15 -2 -35 -7 -60l-16 -97c-3 -20 -5 -33 -5 -39c0 -22 12 -33 35 -33zM394 145l10 52c-29 20 -66 30 -110 30c-60 0 -103 -25 -103 -73c0 -40 35 -60 88 -60c45 0 91 22 115 51zM313 570h-127l144 146h137
l96 -146h-118l-54 78z" />
    <glyph glyph-name="atilde" unicode="&#xe3;" horiz-adv-x="602" 
d="M569 106c8 0 16 2 25 5l-16 -102c-19 -12 -44 -18 -74 -18c-61 0 -97 21 -108 62c-45 -44 -101 -66 -166 -66c-109 0 -179 64 -179 155c0 55 20 98 60 129c41 31 90 47 147 47c59 0 112 -13 159 -38c3 19 4 31 4 36c0 54 -42 81 -127 81c-52 0 -102 -11 -150 -34l18 117
c49 21 108 32 175 32c65 0 118 -14 161 -43s64 -73 64 -134c0 -15 -2 -35 -7 -60l-16 -97c-3 -20 -5 -33 -5 -39c0 -22 12 -33 35 -33zM394 145l10 52c-29 20 -66 30 -110 30c-60 0 -103 -25 -103 -73c0 -40 35 -60 88 -60c45 0 91 22 115 51zM519 710h73
c-12 -81 -58 -138 -123 -138c-22 0 -47 8 -76 23c-28 15 -48 23 -61 23c-23 0 -40 -14 -50 -42h-74c13 88 57 139 124 139c21 0 45 -8 73 -23c29 -15 50 -23 63 -23c24 0 41 14 51 41z" />
    <glyph glyph-name="adieresis" unicode="&#xe4;" horiz-adv-x="602" 
d="M569 106c8 0 16 2 25 5l-16 -102c-19 -12 -44 -18 -74 -18c-61 0 -97 21 -108 62c-45 -44 -101 -66 -166 -66c-109 0 -179 64 -179 155c0 55 20 98 60 129c41 31 90 47 147 47c59 0 112 -13 159 -38c3 19 4 31 4 36c0 54 -42 81 -127 81c-52 0 -102 -11 -150 -34l18 117
c49 21 108 32 175 32c65 0 118 -14 161 -43s64 -73 64 -134c0 -15 -2 -35 -7 -60l-16 -97c-3 -20 -5 -33 -5 -39c0 -22 12 -33 35 -33zM394 145l10 52c-29 20 -66 30 -110 30c-60 0 -103 -25 -103 -73c0 -40 35 -60 88 -60c45 0 91 22 115 51zM544 590
c-28 -28 -76 -28 -105 0c-28 29 -28 77 0 105c29 28 77 28 105 0s28 -76 0 -105zM272 569c-40 0 -74 33 -74 74c0 40 34 73 74 73c41 0 74 -32 74 -73s-33 -74 -74 -74z" />
    <glyph glyph-name="aring" unicode="&#xe5;" horiz-adv-x="602" 
d="M569 106c8 0 16 2 25 5l-16 -102c-19 -12 -44 -18 -74 -18c-61 0 -97 21 -108 62c-45 -44 -101 -66 -166 -66c-109 0 -179 64 -179 155c0 55 20 98 60 129c41 31 90 47 147 47c59 0 112 -13 159 -38c3 19 4 31 4 36c0 54 -42 81 -127 81c-52 0 -102 -11 -150 -34l18 117
c49 21 108 32 175 32c65 0 118 -14 161 -43s64 -73 64 -134c0 -15 -2 -35 -7 -60l-16 -97c-3 -20 -5 -33 -5 -39c0 -22 12 -33 35 -33zM394 145l10 52c-29 20 -66 30 -110 30c-60 0 -103 -25 -103 -73c0 -40 35 -60 88 -60c45 0 91 22 115 51zM469 571
c-41 -41 -107 -41 -148 0s-41 107 0 148s107 41 148 0s41 -107 0 -148zM362 612c19 -17 48 -17 65 0c19 19 19 48 0 65c-17 19 -46 19 -65 0c-17 -17 -17 -46 0 -65z" />
    <glyph glyph-name="ae" unicode="&#xe6;" horiz-adv-x="897" 
d="M905 298c0 -27 -3 -56 -9 -87h-360c4 -68 69 -104 157 -104c55 0 108 14 159 41l-17 -116c-43 -30 -102 -45 -178 -45c-91 0 -160 30 -208 91c-59 -61 -132 -91 -217 -91c-111 0 -181 64 -181 155c0 55 20 98 60 129c41 31 90 47 147 47c59 0 112 -13 159 -38
c2 12 3 24 3 36c0 54 -42 81 -126 81c-52 0 -102 -11 -150 -34l18 117c49 21 108 32 175 32c71 0 128 -23 170 -68c49 45 106 68 172 68c69 0 123 -20 164 -61s62 -92 62 -153zM411 150c-2 10 -4 26 -7 47c-30 20 -67 30 -111 30c-59 0 -102 -25 -102 -73
c0 -40 35 -60 88 -60c56 0 109 24 132 56zM545 301h223v7c0 55 -35 93 -96 93s-112 -37 -127 -100z" />
    <glyph glyph-name="ccedilla" unicode="&#xe7;" horiz-adv-x="514" 
d="M365 -12l-60 -133h-163l110 143c-108 29 -179 114 -179 233c0 80 29 147 86 200c57 54 128 81 212 81c61 0 115 -13 162 -40l-19 -118c-43 23 -87 35 -132 35c-49 0 -89 -14 -121 -43c-32 -28 -48 -64 -48 -108c0 -41 15 -73 46 -95s67 -33 110 -33c41 0 82 9 121 28
l-19 -123c-33 -15 -68 -24 -106 -27z" />
    <glyph glyph-name="egrave" unicode="&#xe8;" horiz-adv-x="570" 
d="M366 107c55 0 108 14 159 41l-17 -116c-43 -30 -102 -45 -177 -45s-136 22 -185 66s-73 102 -73 174c0 80 26 147 79 202s120 83 200 83c69 0 123 -20 164 -61s62 -92 62 -153c0 -27 -3 -56 -9 -87h-360c4 -68 69 -104 157 -104zM219 301h223v7c0 55 -35 93 -96 93
s-112 -37 -127 -100zM222 716h170l83 -146h-122z" />
    <glyph glyph-name="eacute" unicode="&#xe9;" horiz-adv-x="570" 
d="M366 107c55 0 108 14 159 41l-17 -116c-43 -30 -102 -45 -177 -45s-136 22 -185 66s-73 102 -73 174c0 80 26 147 79 202s120 83 200 83c69 0 123 -20 164 -61s62 -92 62 -153c0 -27 -3 -56 -9 -87h-360c4 -68 69 -104 157 -104zM219 301h223v7c0 55 -35 93 -96 93
s-112 -37 -127 -100zM421 570h-122l107 146h171z" />
    <glyph glyph-name="ecircumflex" unicode="&#xea;" horiz-adv-x="570" 
d="M366 107c55 0 108 14 159 41l-17 -116c-43 -30 -102 -45 -177 -45s-136 22 -185 66s-73 102 -73 174c0 80 26 147 79 202s120 83 200 83c69 0 123 -20 164 -61s62 -92 62 -153c0 -27 -3 -56 -9 -87h-360c4 -68 69 -104 157 -104zM219 301h223v7c0 55 -35 93 -96 93
s-112 -37 -127 -100zM319 570h-127l144 146h137l96 -146h-118l-54 78z" />
    <glyph glyph-name="edieresis" unicode="&#xeb;" horiz-adv-x="570" 
d="M366 107c55 0 108 14 159 41l-17 -116c-43 -30 -102 -45 -177 -45s-136 22 -185 66s-73 102 -73 174c0 80 26 147 79 202s120 83 200 83c69 0 123 -20 164 -61s62 -92 62 -153c0 -27 -3 -56 -9 -87h-360c4 -68 69 -104 157 -104zM219 301h223v7c0 55 -35 93 -96 93
s-112 -37 -127 -100zM546 590c-28 -28 -76 -28 -105 0c-28 29 -28 77 0 105c29 28 77 28 105 0s28 -76 0 -105zM274 569c-40 0 -74 33 -74 74c0 40 34 73 74 73c41 0 74 -32 74 -73s-33 -74 -74 -74z" />
    <glyph glyph-name="igrave" unicode="&#xec;" horiz-adv-x="293" 
d="M296 499l-78 -499h-141l78 499h141zM48 716h170l83 -146h-122z" />
    <glyph glyph-name="iacute" unicode="&#xed;" horiz-adv-x="293" 
d="M296 499l-78 -499h-141l78 499h141zM302 570h-122l107 146h171z" />
    <glyph glyph-name="icircumflex" unicode="&#xee;" horiz-adv-x="293" 
d="M296 499l-78 -499h-141l78 499h141zM173 570h-127l144 146h137l96 -146h-118l-54 78z" />
    <glyph glyph-name="idieresis" unicode="&#xef;" horiz-adv-x="293" 
d="M403 590c-28 -28 -76 -28 -105 0c-28 29 -28 77 0 105c29 28 77 28 105 0s28 -76 0 -105zM131 569c-40 0 -74 33 -74 74c0 40 34 73 74 73c41 0 74 -32 74 -73s-33 -74 -74 -74zM296 499l-78 -499h-141l78 499h141z" />
    <glyph glyph-name="eth" unicode="&#xf0;" horiz-adv-x="608" 
d="M344 357c-36 0 -67 -13 -93 -38c-25 -25 -38 -57 -38 -96c0 -65 46 -113 117 -113c73 0 132 54 132 131c0 67 -47 116 -118 116zM450 584l72 -112c59 -85 82 -142 82 -211c0 -76 -26 -141 -78 -194c-51 -53 -119 -80 -202 -80c-71 0 -131 21 -179 62
c-48 42 -72 98 -72 169c0 67 22 123 67 170s103 70 173 70c33 0 64 -7 94 -21l-74 109l-126 -43l-45 70l123 42l-59 85h146l31 -46l108 37l44 -71z" />
    <glyph glyph-name="ntilde" unicode="&#xf1;" horiz-adv-x="615" 
d="M602 274l-43 -274h-141l40 250c3 25 5 41 5 50c0 53 -35 83 -83 83c-47 0 -93 -28 -118 -67l-52 -316h-141l78 499h141l-9 -58c45 47 100 71 167 71c101 0 163 -66 163 -166c0 -19 -2 -43 -7 -72zM536 710h73c-12 -81 -58 -138 -123 -138c-22 0 -47 8 -76 23
c-28 15 -48 23 -61 23c-23 0 -40 -14 -50 -42h-74c13 88 57 139 124 139c21 0 45 -8 73 -23c29 -15 50 -23 63 -23c24 0 41 14 51 41z" />
    <glyph glyph-name="ograve" unicode="&#xf2;" horiz-adv-x="608" 
d="M351 512c77 0 139 -24 188 -71s74 -106 74 -179c0 -75 -27 -139 -80 -194c-53 -54 -119 -81 -199 -81c-76 0 -139 23 -188 70s-73 108 -73 181c0 74 26 138 79 192c53 55 120 82 199 82zM334 110c40 0 74 15 102 45c29 30 43 67 43 111c0 75 -54 123 -127 123
c-40 0 -74 -15 -102 -44s-42 -66 -42 -110c0 -76 53 -125 126 -125zM220 716h170l83 -146h-122z" />
    <glyph glyph-name="oacute" unicode="&#xf3;" horiz-adv-x="608" 
d="M351 512c77 0 139 -24 188 -71s74 -106 74 -179c0 -75 -27 -139 -80 -194c-53 -54 -119 -81 -199 -81c-76 0 -139 23 -188 70s-73 108 -73 181c0 74 26 138 79 192c53 55 120 82 199 82zM334 110c40 0 74 15 102 45c29 30 43 67 43 111c0 75 -54 123 -127 123
c-40 0 -74 -15 -102 -44s-42 -66 -42 -110c0 -76 53 -125 126 -125zM435 570h-122l107 146h171z" />
    <glyph glyph-name="ocircumflex" unicode="&#xf4;" horiz-adv-x="608" 
d="M351 512c77 0 139 -24 188 -71s74 -106 74 -179c0 -75 -27 -139 -80 -194c-53 -54 -119 -81 -199 -81c-76 0 -139 23 -188 70s-73 108 -73 181c0 74 26 138 79 192c53 55 120 82 199 82zM334 110c40 0 74 15 102 45c29 30 43 67 43 111c0 75 -54 123 -127 123
c-40 0 -74 -15 -102 -44s-42 -66 -42 -110c0 -76 53 -125 126 -125zM327 570h-127l144 146h137l96 -146h-118l-54 78z" />
    <glyph glyph-name="otilde" unicode="&#xf5;" horiz-adv-x="608" 
d="M351 512c77 0 139 -24 188 -71s74 -106 74 -179c0 -75 -27 -139 -80 -194c-53 -54 -119 -81 -199 -81c-76 0 -139 23 -188 70s-73 108 -73 181c0 74 26 138 79 192c53 55 120 82 199 82zM334 110c40 0 74 15 102 45c29 30 43 67 43 111c0 75 -54 123 -127 123
c-40 0 -74 -15 -102 -44s-42 -66 -42 -110c0 -76 53 -125 126 -125zM527 710h73c-12 -81 -58 -138 -123 -138c-22 0 -47 8 -76 23c-28 15 -48 23 -61 23c-23 0 -40 -14 -50 -42h-74c13 88 57 139 124 139c21 0 45 -8 73 -23c29 -15 50 -23 63 -23c24 0 41 14 51 41z" />
    <glyph glyph-name="odieresis" unicode="&#xf6;" horiz-adv-x="608" 
d="M351 512c77 0 139 -24 188 -71s74 -106 74 -179c0 -75 -27 -139 -80 -194c-53 -54 -119 -81 -199 -81c-76 0 -139 23 -188 70s-73 108 -73 181c0 74 26 138 79 192c53 55 120 82 199 82zM334 110c40 0 74 15 102 45c29 30 43 67 43 111c0 75 -54 123 -127 123
c-40 0 -74 -15 -102 -44s-42 -66 -42 -110c0 -76 53 -125 126 -125zM560 590c-28 -28 -76 -28 -105 0c-28 29 -28 77 0 105c29 28 77 28 105 0s28 -76 0 -105zM288 569c-40 0 -74 33 -74 74c0 40 34 73 74 73c41 0 74 -32 74 -73s-33 -74 -74 -74z" />
    <glyph glyph-name="divide" unicode="&#xf7;" horiz-adv-x="602" 
d="M299 556c0 49 39 87 87 87s87 -38 87 -87c0 -48 -39 -87 -87 -87s-87 39 -87 87zM221 105c0 48 39 87 87 87s87 -39 87 -87c0 -49 -39 -88 -87 -88s-87 39 -87 88zM590 268h-500l21 126h500z" />
    <glyph glyph-name="oslash" unicode="&#xf8;" horiz-adv-x="625" 
d="M359 512c61 0 114 -15 159 -46l34 33h108l-88 -86c33 -43 49 -94 49 -151c0 -75 -27 -139 -80 -194c-53 -54 -119 -81 -199 -81c-59 0 -112 15 -157 46l-33 -33h-108l86 85c-33 43 -49 94 -49 153c0 74 26 138 79 192c53 55 120 82 199 82zM216 235c0 -21 4 -39 11 -56
l198 195c-19 10 -40 15 -65 15c-40 0 -74 -15 -102 -44s-42 -66 -42 -110zM342 110c40 0 74 15 102 45c29 30 43 67 43 111c0 19 -4 36 -11 53l-198 -195c20 -9 41 -14 64 -14z" />
    <glyph glyph-name="ugrave" unicode="&#xf9;" horiz-adv-x="617" 
d="M93 225l43 274h141l-40 -250c-3 -25 -5 -42 -5 -50c0 -53 35 -83 83 -83c47 0 93 28 118 67l52 316h141l-78 -499h-141l9 58c-45 -47 -100 -71 -167 -71c-101 0 -163 66 -163 166c0 19 2 43 7 72zM235 716h170l83 -146h-122z" />
    <glyph glyph-name="uacute" unicode="&#xfa;" horiz-adv-x="617" 
d="M93 225l43 274h141l-40 -250c-3 -25 -5 -42 -5 -50c0 -53 35 -83 83 -83c47 0 93 28 118 67l52 316h141l-78 -499h-141l9 58c-45 -47 -100 -71 -167 -71c-101 0 -163 66 -163 166c0 19 2 43 7 72zM437 570h-122l107 146h171z" />
    <glyph glyph-name="ucircumflex" unicode="&#xfb;" horiz-adv-x="617" 
d="M93 225l43 274h141l-40 -250c-3 -25 -5 -42 -5 -50c0 -53 35 -83 83 -83c47 0 93 28 118 67l52 316h141l-78 -499h-141l9 58c-45 -47 -100 -71 -167 -71c-101 0 -163 66 -163 166c0 19 2 43 7 72zM329 570h-127l144 146h137l96 -146h-118l-54 78z" />
    <glyph glyph-name="udieresis" unicode="&#xfc;" horiz-adv-x="617" 
d="M93 225l43 274h141l-40 -250c-3 -25 -5 -42 -5 -50c0 -53 35 -83 83 -83c47 0 93 28 118 67l52 316h141l-78 -499h-141l9 58c-45 -47 -100 -71 -167 -71c-101 0 -163 66 -163 166c0 19 2 43 7 72zM556 590c-28 -28 -76 -28 -105 0c-28 29 -28 77 0 105c29 28 77 28 105 0
s28 -76 0 -105zM284 569c-40 0 -74 33 -74 74c0 40 34 73 74 73c41 0 74 -32 74 -73s-33 -74 -74 -74z" />
    <glyph glyph-name="yacute" unicode="&#xfd;" horiz-adv-x="582" 
d="M492 499h150l-310 -556c-56 -99 -131 -149 -226 -149c-37 0 -69 7 -96 21l19 122c23 -14 47 -21 72 -21c50 0 94 34 133 101l-149 482h147l90 -329zM426 570h-122l107 146h171z" />
    <glyph glyph-name="thorn" unicode="&#xfe;" horiz-adv-x="647" 
d="M219 66l-42 -266h-141l142 900h141l-41 -259c45 47 100 71 166 71c63 0 113 -22 151 -67s57 -100 57 -166c0 -77 -24 -145 -73 -204c-48 -59 -112 -88 -191 -88c-77 0 -140 38 -169 79zM388 389c-51 0 -101 -30 -129 -73l-21 -133c20 -39 71 -73 126 -73
c40 0 74 15 102 44c28 30 42 67 42 111c0 75 -49 124 -120 124z" />
    <glyph glyph-name="ydieresis" unicode="&#xff;" horiz-adv-x="582" 
d="M492 499h150l-310 -556c-56 -99 -131 -149 -226 -149c-37 0 -69 7 -96 21l19 122c23 -14 47 -21 72 -21c50 0 94 34 133 101l-149 482h147l90 -329zM537 590c-28 -28 -76 -28 -105 0c-28 29 -28 77 0 105c29 28 77 28 105 0s28 -76 0 -105zM265 569c-40 0 -74 33 -74 74
c0 40 34 73 74 73c41 0 74 -32 74 -73s-33 -74 -74 -74z" />
    <glyph glyph-name="Amacron" unicode="&#x100;" horiz-adv-x="770" 
d="M754 0h-150l-42 162h-299l-92 -162h-155l411 704h138zM531 281l-62 243l-139 -243h201zM662 785h-306l15 95h306z" />
    <glyph glyph-name="amacron" unicode="&#x101;" horiz-adv-x="602" 
d="M569 106c8 0 16 2 25 5l-16 -102c-19 -12 -44 -18 -74 -18c-61 0 -97 21 -108 62c-45 -44 -101 -66 -166 -66c-109 0 -179 64 -179 155c0 55 20 98 60 129c41 31 90 47 147 47c59 0 112 -13 159 -38c3 19 4 31 4 36c0 54 -42 81 -127 81c-52 0 -102 -11 -150 -34l18 117
c49 21 108 32 175 32c65 0 118 -14 161 -43s64 -73 64 -134c0 -15 -2 -35 -7 -60l-16 -97c-3 -20 -5 -33 -5 -39c0 -22 12 -33 35 -33zM394 145l10 52c-29 20 -66 30 -110 30c-60 0 -103 -25 -103 -73c0 -40 35 -60 88 -60c45 0 91 22 115 51zM536 595h-307l15 95h307z" />
    <glyph glyph-name="Abreve" unicode="&#x102;" horiz-adv-x="770" 
d="M754 0h-150l-42 162h-299l-92 -162h-155l411 704h138zM531 281l-62 243l-139 -243h201zM601 909h90c-17 -99 -89 -159 -178 -159c-85 0 -150 52 -150 135c0 5 1 13 2 24h91v-8c0 -40 23 -66 62 -66c43 0 74 30 83 74z" />
    <glyph glyph-name="abreve" unicode="&#x103;" horiz-adv-x="602" 
d="M569 106c8 0 16 2 25 5l-16 -102c-19 -12 -44 -18 -74 -18c-61 0 -97 21 -108 62c-45 -44 -101 -66 -166 -66c-109 0 -179 64 -179 155c0 55 20 98 60 129c41 31 90 47 147 47c59 0 112 -13 159 -38c3 19 4 31 4 36c0 54 -42 81 -127 81c-52 0 -102 -11 -150 -34l18 117
c49 21 108 32 175 32c65 0 118 -14 161 -43s64 -73 64 -134c0 -15 -2 -35 -7 -60l-16 -97c-3 -20 -5 -33 -5 -39c0 -22 12 -33 35 -33zM394 145l10 52c-29 20 -66 30 -110 30c-60 0 -103 -25 -103 -73c0 -40 35 -60 88 -60c45 0 91 22 115 51zM480 723h90
c-17 -99 -89 -159 -178 -159c-85 0 -150 52 -150 135c0 5 1 13 2 24h91v-8c0 -40 23 -66 62 -66c43 0 74 30 83 74z" />
    <glyph glyph-name="Aogonek" unicode="&#x104;" horiz-adv-x="770" 
d="M565 704l189 -704c-31 -25 -47 -51 -47 -78c0 -26 16 -39 47 -39c15 0 27 2 38 7l-14 -84c-16 -5 -36 -8 -61 -8c-72 0 -113 36 -113 87c0 41 21 80 62 115h-62l-42 162h-299l-92 -162h-155l411 704h138zM531 281l-62 243l-139 -243h201z" />
    <glyph glyph-name="aogonek" unicode="&#x105;" horiz-adv-x="602" 
d="M569 106c8 0 16 2 25 5l-16 -102c-31 -25 -47 -51 -47 -78c0 -26 16 -39 47 -39c15 0 27 2 38 7l-14 -84c-16 -5 -36 -8 -61 -8c-72 0 -113 36 -113 87c0 35 15 69 45 100c-43 7 -68 26 -77 59c-45 -44 -101 -66 -166 -66c-109 0 -179 64 -179 155c0 55 20 98 60 129
c41 31 90 47 147 47c59 0 112 -13 159 -38c3 19 4 31 4 36c0 54 -42 81 -127 81c-52 0 -102 -11 -150 -34l18 117c49 21 108 32 175 32c65 0 118 -14 161 -43s64 -73 64 -134c0 -15 -2 -35 -7 -60l-16 -97c-3 -20 -5 -33 -5 -39c0 -22 12 -33 35 -33zM394 145l10 52
c-29 20 -66 30 -110 30c-60 0 -103 -25 -103 -73c0 -40 35 -60 88 -60c45 0 91 22 115 51z" />
    <glyph glyph-name="Cacute" unicode="&#x106;" horiz-adv-x="677" 
d="M252 326c0 -60 20 -109 59 -148c39 -38 92 -57 157 -57c76 0 142 20 198 59l-22 -146c-60 -32 -123 -48 -189 -48c-105 0 -189 31 -254 93c-64 62 -96 141 -96 238c0 115 37 210 112 285s171 112 289 112c81 0 151 -16 212 -48l-24 -138c-55 34 -118 51 -189 51
c-75 0 -136 -24 -183 -71s-70 -107 -70 -182zM568 761h-122l108 146h170z" />
    <glyph glyph-name="cacute" unicode="&#x107;" horiz-adv-x="514" 
d="M533 472l-19 -118c-43 23 -87 35 -132 35c-49 0 -89 -14 -121 -43c-32 -28 -48 -64 -48 -108c0 -41 15 -73 46 -95s67 -33 110 -33c41 0 82 9 121 28l-19 -123c-41 -19 -87 -28 -136 -28c-75 0 -138 22 -188 67c-49 45 -74 104 -74 177c0 80 29 147 86 200
c57 54 128 81 212 81c61 0 115 -13 162 -40zM430 570h-122l107 146h171z" />
    <glyph glyph-name="Ccircumflex" unicode="&#x108;" horiz-adv-x="677" 
d="M252 326c0 -60 20 -109 59 -148c39 -38 92 -57 157 -57c76 0 142 20 198 59l-22 -146c-60 -32 -123 -48 -189 -48c-105 0 -189 31 -254 93c-64 62 -96 141 -96 238c0 115 37 210 112 285s171 112 289 112c81 0 151 -16 212 -48l-24 -138c-55 34 -118 51 -189 51
c-75 0 -136 -24 -183 -71s-70 -107 -70 -182zM452 761h-127l144 146h137l96 -146h-118l-54 78z" />
    <glyph glyph-name="ccircumflex" unicode="&#x109;" horiz-adv-x="514" 
d="M533 472l-19 -118c-43 23 -87 35 -132 35c-49 0 -89 -14 -121 -43c-32 -28 -48 -64 -48 -108c0 -41 15 -73 46 -95s67 -33 110 -33c41 0 82 9 121 28l-19 -123c-41 -19 -87 -28 -136 -28c-75 0 -138 22 -188 67c-49 45 -74 104 -74 177c0 80 29 147 86 200
c57 54 128 81 212 81c61 0 115 -13 162 -40zM307 570h-127l144 146h137l96 -146h-118l-54 78z" />
    <glyph glyph-name="Cdotaccent" unicode="&#x10a;" horiz-adv-x="677" 
d="M252 326c0 -60 20 -109 59 -148c39 -38 92 -57 157 -57c76 0 142 20 198 59l-22 -146c-60 -32 -123 -48 -189 -48c-105 0 -189 31 -254 93c-64 62 -96 141 -96 238c0 115 37 210 112 285s171 112 289 112c81 0 151 -16 212 -48l-24 -138c-55 34 -118 51 -189 51
c-75 0 -136 -24 -183 -71s-70 -107 -70 -182zM532 760c-40 0 -74 33 -74 74c0 40 34 73 74 73c41 0 74 -33 74 -73c0 -41 -33 -74 -74 -74z" />
    <glyph glyph-name="cdotaccent" unicode="&#x10b;" horiz-adv-x="514" 
d="M533 472l-19 -118c-43 23 -87 35 -132 35c-49 0 -89 -14 -121 -43c-32 -28 -48 -64 -48 -108c0 -41 15 -73 46 -95s67 -33 110 -33c41 0 82 9 121 28l-19 -123c-41 -19 -87 -28 -136 -28c-75 0 -138 22 -188 67c-49 45 -74 104 -74 177c0 80 29 147 86 200
c57 54 128 81 212 81c61 0 115 -13 162 -40zM409 569c-40 0 -74 33 -74 74c0 40 34 73 74 73c41 0 73 -32 73 -73s-32 -74 -73 -74z" />
    <glyph glyph-name="Ccaron" unicode="&#x10c;" horiz-adv-x="677" 
d="M252 326c0 -60 20 -109 59 -148c39 -38 92 -57 157 -57c76 0 142 20 198 59l-22 -146c-60 -32 -123 -48 -189 -48c-105 0 -189 31 -254 93c-64 62 -96 141 -96 238c0 115 37 210 112 285s171 112 289 112c81 0 151 -16 212 -48l-24 -138c-55 34 -118 51 -189 51
c-75 0 -136 -24 -183 -71s-70 -107 -70 -182zM604 907h127l-145 -146h-136l-97 146h119l54 -78z" />
    <glyph glyph-name="ccaron" unicode="&#x10d;" horiz-adv-x="514" 
d="M533 472l-19 -118c-43 23 -87 35 -132 35c-49 0 -89 -14 -121 -43c-32 -28 -48 -64 -48 -108c0 -41 15 -73 46 -95s67 -33 110 -33c41 0 82 9 121 28l-19 -123c-41 -19 -87 -28 -136 -28c-75 0 -138 22 -188 67c-49 45 -74 104 -74 177c0 80 29 147 86 200
c57 54 128 81 212 81c61 0 115 -13 162 -40zM458 716h127l-145 -146h-136l-97 146h119l54 -78z" />
    <glyph glyph-name="Dcaron" unicode="&#x10e;" horiz-adv-x="779" 
d="M188 700h237c107 0 192 -30 257 -91c65 -60 97 -138 97 -235c0 -107 -38 -197 -115 -268s-175 -106 -294 -106h-293zM241 129h143c78 0 139 23 182 69c43 47 65 107 65 181c0 54 -18 99 -55 136s-85 56 -145 56h-119zM552 907h127l-145 -146h-136l-97 146h119l54 -78z
" />
    <glyph glyph-name="dcaron" unicode="&#x10f;" horiz-adv-x="826" 
d="M506 433l42 267h141l-111 -700h-141l10 58c-45 -47 -100 -71 -166 -71c-63 0 -113 22 -151 67s-57 100 -57 166c0 77 24 145 72 204c49 59 113 88 192 88c77 0 140 -38 169 -79zM337 110c51 0 101 30 129 73l21 133c-20 39 -71 73 -126 73c-40 0 -74 -15 -102 -45
c-28 -29 -42 -66 -42 -110c0 -75 49 -124 120 -124zM921 700l-82 -204h-105l64 204h123z" />
    <glyph glyph-name="Dcroat" unicode="&#x110;" horiz-adv-x="832" 
d="M178 307h-96l19 119h96l44 274h237c107 0 192 -30 257 -91c65 -60 97 -138 97 -235c0 -107 -38 -197 -115 -268s-175 -106 -294 -106h-293zM294 129h143c78 0 139 23 182 69c43 47 65 107 65 181c0 54 -18 99 -55 136s-85 56 -145 56h-119l-24 -145h138l-19 -119h-138z
" />
    <glyph glyph-name="dslash" unicode="&#x111;" horiz-adv-x="668" 
d="M537 632l11 68h141l-11 -68h94l-11 -73h-95l-88 -559h-141l10 58c-45 -47 -100 -71 -166 -71c-63 0 -113 22 -151 67s-57 100 -57 166c0 77 24 145 72 204c49 59 113 88 192 88c77 0 140 -38 169 -79l20 126h-122l11 73h122zM337 110c51 0 101 30 129 73l21 133
c-20 39 -71 73 -126 73c-40 0 -74 -15 -102 -45c-28 -29 -42 -66 -42 -110c0 -75 49 -124 120 -124z" />
    <glyph glyph-name="Emacron" unicode="&#x112;" horiz-adv-x="649" 
d="M602 0h-525l111 700h514l-20 -129h-370l-22 -135h298l-20 -127h-298l-29 -180h381zM614 785h-306l15 95h306z" />
    <glyph glyph-name="emacron" unicode="&#x113;" horiz-adv-x="570" 
d="M366 107c55 0 108 14 159 41l-17 -116c-43 -30 -102 -45 -177 -45s-136 22 -185 66s-73 102 -73 174c0 80 26 147 79 202s120 83 200 83c69 0 123 -20 164 -61s62 -92 62 -153c0 -27 -3 -56 -9 -87h-360c4 -68 69 -104 157 -104zM219 301h223v7c0 55 -35 93 -96 93
s-112 -37 -127 -100zM530 595h-307l15 95h307z" />
    <glyph glyph-name="Ebreve" unicode="&#x114;" horiz-adv-x="649" 
d="M602 0h-525l111 700h514l-20 -129h-370l-22 -135h298l-20 -127h-298l-29 -180h381zM544 909h90c-17 -99 -89 -159 -178 -159c-85 0 -150 52 -150 135c0 5 1 13 2 24h91v-8c0 -40 23 -66 62 -66c43 0 74 30 83 74z" />
    <glyph glyph-name="ebreve" unicode="&#x115;" horiz-adv-x="570" 
d="M366 107c55 0 108 14 159 41l-17 -116c-43 -30 -102 -45 -177 -45s-136 22 -185 66s-73 102 -73 174c0 80 26 147 79 202s120 83 200 83c69 0 123 -20 164 -61s62 -92 62 -153c0 -27 -3 -56 -9 -87h-360c4 -68 69 -104 157 -104zM219 301h223v7c0 55 -35 93 -96 93
s-112 -37 -127 -100zM470 723h90c-17 -99 -89 -159 -178 -159c-85 0 -150 52 -150 135c0 5 1 13 2 24h91v-8c0 -40 23 -66 62 -66c43 0 74 30 83 74z" />
    <glyph glyph-name="Edotaccent" unicode="&#x116;" horiz-adv-x="649" 
d="M602 0h-525l111 700h514l-20 -129h-370l-22 -135h298l-20 -127h-298l-29 -180h381zM460 760c-40 0 -74 33 -74 74c0 40 34 73 74 73c41 0 74 -33 74 -73c0 -41 -33 -74 -74 -74z" />
    <glyph glyph-name="edotaccent" unicode="&#x117;" horiz-adv-x="570" 
d="M366 107c55 0 108 14 159 41l-17 -116c-43 -30 -102 -45 -177 -45s-136 22 -185 66s-73 102 -73 174c0 80 26 147 79 202s120 83 200 83c69 0 123 -20 164 -61s62 -92 62 -153c0 -27 -3 -56 -9 -87h-360c4 -68 69 -104 157 -104zM219 301h223v7c0 55 -35 93 -96 93
s-112 -37 -127 -100zM391 569c-40 0 -74 33 -74 74c0 40 34 73 74 73c41 0 73 -32 73 -73s-32 -74 -73 -74z" />
    <glyph glyph-name="Eogonek" unicode="&#x118;" horiz-adv-x="649" 
d="M514 0h-437l111 700h514l-20 -129h-370l-22 -135h298l-20 -127h-298l-29 -180h381l-20 -129c-31 -25 -47 -51 -47 -78c0 -26 16 -39 47 -39c15 0 27 2 38 7l-14 -84c-16 -5 -36 -8 -61 -8c-72 0 -113 36 -113 87c0 41 21 80 62 115z" />
    <glyph glyph-name="eogonek" unicode="&#x119;" horiz-adv-x="570" 
d="M366 107c55 0 108 14 159 41l-17 -116c-17 -9 -29 -17 -36 -22c-30 -23 -45 -47 -45 -74c0 -26 16 -39 47 -39c15 0 27 2 38 7l-14 -84c-16 -5 -36 -8 -61 -8c-72 0 -113 36 -113 87c0 31 12 61 35 89c-6 -1 -15 -1 -28 -1c-75 0 -136 22 -185 66s-73 102 -73 174
c0 80 26 147 79 202s120 83 200 83c69 0 123 -20 164 -61s62 -92 62 -153c0 -27 -3 -56 -9 -87h-360c4 -68 69 -104 157 -104zM219 301h223v7c0 55 -35 93 -96 93s-112 -37 -127 -100z" />
    <glyph glyph-name="Ecaron" unicode="&#x11a;" horiz-adv-x="649" 
d="M602 0h-525l111 700h514l-20 -129h-370l-22 -135h298l-20 -127h-298l-29 -180h381zM541 907h127l-145 -146h-136l-97 146h119l54 -78z" />
    <glyph glyph-name="ecaron" unicode="&#x11b;" horiz-adv-x="570" 
d="M366 107c55 0 108 14 159 41l-17 -116c-43 -30 -102 -45 -177 -45s-136 22 -185 66s-73 102 -73 174c0 80 26 147 79 202s120 83 200 83c69 0 123 -20 164 -61s62 -92 62 -153c0 -27 -3 -56 -9 -87h-360c4 -68 69 -104 157 -104zM219 301h223v7c0 55 -35 93 -96 93
s-112 -37 -127 -100zM464 716h127l-145 -146h-136l-97 146h119l54 -78z" />
    <glyph glyph-name="Gcircumflex" unicode="&#x11c;" horiz-adv-x="766" 
d="M588 158l41 248h144l-52 -319c-73 -67 -166 -101 -278 -101c-99 0 -181 31 -244 93s-94 142 -94 240c0 114 37 208 112 283s171 112 289 112c86 0 159 -18 220 -54l-24 -137c-54 37 -120 56 -197 56c-75 0 -136 -24 -183 -71s-70 -108 -70 -184c0 -62 19 -112 57 -149
c39 -37 88 -56 148 -56c51 0 95 13 131 39zM456 761h-127l144 146h137l96 -146h-118l-54 78z" />
    <glyph glyph-name="gcircumflex" unicode="&#x11d;" horiz-adv-x="640" 
d="M440 46l5 35c-44 -47 -99 -70 -164 -70c-63 0 -114 21 -152 64c-37 43 -56 97 -56 160c0 74 24 139 71 194c48 55 112 83 191 83s135 -34 166 -74l10 61h141l-72 -458c-13 -85 -50 -147 -111 -187s-132 -60 -215 -60c-82 0 -146 14 -192 43l20 127
c49 -32 107 -48 174 -48c29 0 55 3 78 10c48 12 97 53 106 120zM338 132c50 0 92 23 126 68l19 124c-20 36 -68 65 -124 65c-41 0 -75 -13 -102 -40s-40 -61 -40 -102c0 -69 49 -115 121 -115zM338 570h-127l144 146h137l96 -146h-118l-54 78z" />
    <glyph glyph-name="Gbreve" unicode="&#x11e;" horiz-adv-x="766" 
d="M588 158l41 248h144l-52 -319c-73 -67 -166 -101 -278 -101c-99 0 -181 31 -244 93s-94 142 -94 240c0 114 37 208 112 283s171 112 289 112c86 0 159 -18 220 -54l-24 -137c-54 37 -120 56 -197 56c-75 0 -136 -24 -183 -71s-70 -108 -70 -184c0 -62 19 -112 57 -149
c39 -37 88 -56 148 -56c51 0 95 13 131 39zM628 921h90c-17 -99 -89 -159 -178 -159c-85 0 -150 52 -150 135c0 5 1 13 2 24h91v-8c0 -40 23 -66 62 -66c43 0 74 30 83 74z" />
    <glyph glyph-name="gbreve" unicode="&#x11f;" horiz-adv-x="640" 
d="M440 46l5 35c-44 -47 -99 -70 -164 -70c-63 0 -114 21 -152 64c-37 43 -56 97 -56 160c0 74 24 139 71 194c48 55 112 83 191 83s135 -34 166 -74l10 61h141l-72 -458c-13 -85 -50 -147 -111 -187s-132 -60 -215 -60c-82 0 -146 14 -192 43l20 127
c49 -32 107 -48 174 -48c29 0 55 3 78 10c48 12 97 53 106 120zM338 132c50 0 92 23 126 68l19 124c-20 36 -68 65 -124 65c-41 0 -75 -13 -102 -40s-40 -61 -40 -102c0 -69 49 -115 121 -115zM492 723h90c-17 -99 -89 -159 -178 -159c-85 0 -150 52 -150 135c0 5 1 13 2 24
h91v-8c0 -40 23 -66 62 -66c43 0 74 30 83 74z" />
    <glyph glyph-name="Gdotaccent" unicode="&#x120;" horiz-adv-x="766" 
d="M588 158l41 248h144l-52 -319c-73 -67 -166 -101 -278 -101c-99 0 -181 31 -244 93s-94 142 -94 240c0 114 37 208 112 283s171 112 289 112c86 0 159 -18 220 -54l-24 -137c-54 37 -120 56 -197 56c-75 0 -136 -24 -183 -71s-70 -108 -70 -184c0 -62 19 -112 57 -149
c39 -37 88 -56 148 -56c51 0 95 13 131 39zM534 760c-40 0 -74 33 -74 74c0 40 34 73 74 73c41 0 74 -33 74 -73c0 -41 -33 -74 -74 -74z" />
    <glyph glyph-name="gdotaccent" unicode="&#x121;" horiz-adv-x="640" 
d="M440 46l5 35c-44 -47 -99 -70 -164 -70c-63 0 -114 21 -152 64c-37 43 -56 97 -56 160c0 74 24 139 71 194c48 55 112 83 191 83s135 -34 166 -74l10 61h141l-72 -458c-13 -85 -50 -147 -111 -187s-132 -60 -215 -60c-82 0 -146 14 -192 43l20 127
c49 -32 107 -48 174 -48c29 0 55 3 78 10c48 12 97 53 106 120zM338 132c50 0 92 23 126 68l19 124c-20 36 -68 65 -124 65c-41 0 -75 -13 -102 -40s-40 -61 -40 -102c0 -69 49 -115 121 -115zM427 569c-40 0 -74 33 -74 74c0 40 34 73 74 73c41 0 73 -32 73 -73
s-32 -74 -73 -74z" />
    <glyph glyph-name="uni0122" unicode="&#x122;" horiz-adv-x="766" 
d="M588 158l41 248h144l-52 -319c-73 -67 -166 -101 -278 -101c-99 0 -181 31 -244 93s-94 142 -94 240c0 114 37 208 112 283s171 112 289 112c86 0 159 -18 220 -54l-24 -137c-54 37 -120 56 -197 56c-75 0 -136 -24 -183 -71s-70 -108 -70 -184c0 -62 19 -112 57 -149
c39 -37 88 -56 148 -56c51 0 95 13 131 39zM497 -66l-82 -204h-105l64 204h123z" />
    <glyph glyph-name="uni0123" unicode="&#x123;" horiz-adv-x="640" 
d="M440 46l5 35c-44 -47 -99 -70 -164 -70c-63 0 -114 21 -152 64c-37 43 -56 97 -56 160c0 74 24 139 71 194c48 55 112 83 191 83s135 -34 166 -74l10 61h141l-72 -458c-13 -85 -50 -147 -111 -187s-132 -60 -215 -60c-82 0 -146 14 -192 43l20 127
c49 -32 107 -48 174 -48c29 0 55 3 78 10c48 12 97 53 106 120zM338 132c50 0 92 23 126 68l19 124c-20 36 -68 65 -124 65c-41 0 -75 -13 -102 -40s-40 -61 -40 -102c0 -69 49 -115 121 -115zM315 574l82 204h105l-64 -204h-123z" />
    <glyph glyph-name="Hcircumflex" unicode="&#x124;" horiz-adv-x="758" 
d="M221 0h-144l111 700h144l-42 -262h316l42 262h143l-111 -700h-143l49 307h-316zM435 761h-127l144 146h137l96 -146h-118l-54 78z" />
    <glyph glyph-name="hcircumflex" unicode="&#x125;" horiz-adv-x="615" 
d="M602 274l-43 -274h-141l40 250c3 25 5 41 5 50c0 53 -35 83 -83 83c-47 0 -93 -28 -118 -67l-52 -316h-141l111 700h141l-42 -259c45 47 100 71 167 71c101 0 163 -66 163 -166c0 -19 -2 -43 -7 -72zM199 761h-127l144 146h137l96 -146h-118l-54 78z" />
    <glyph glyph-name="Hbar" unicode="&#x126;" horiz-adv-x="863" 
d="M273 0h-143l82 518h-72l15 93h72l14 89h143l-14 -89h317l14 89h143l-14 -89h71l-15 -93h-71l-82 -518h-143l49 307h-317zM355 518l-13 -80h317l13 80h-317z" />
    <glyph glyph-name="hbar" unicode="&#x127;" horiz-adv-x="656" 
d="M192 518h-102l15 93h102l14 89h141l-15 -89h161l-15 -93h-161l-24 -148c45 47 100 71 167 71c101 0 163 -66 163 -166c0 -19 -2 -43 -7 -72l-31 -203h-141l28 179c3 25 5 42 5 50c0 53 -35 83 -83 83c-47 0 -93 -28 -118 -67l-40 -245h-141z" />
    <glyph glyph-name="Itilde" unicode="&#x128;" horiz-adv-x="307" 
d="M404 900h73c-12 -81 -58 -138 -123 -138c-22 0 -47 8 -76 23c-28 15 -48 23 -61 23c-23 0 -40 -14 -50 -42h-74c13 88 57 139 124 139c21 0 45 -8 73 -23c29 -15 50 -23 63 -23c24 0 41 14 51 41zM225 0h-143l111 700h143z" />
    <glyph glyph-name="itilde" unicode="&#x129;" horiz-adv-x="293" 
d="M364 710h73c-12 -81 -58 -138 -123 -138c-22 0 -47 8 -76 23c-28 15 -48 23 -61 23c-23 0 -40 -14 -50 -42h-74c13 88 57 139 124 139c21 0 45 -8 73 -23c29 -15 50 -23 63 -23c24 0 41 14 51 41zM296 499l-78 -499h-141l78 499h141z" />
    <glyph glyph-name="Imacron" unicode="&#x12a;" horiz-adv-x="307" 
d="M225 0h-143l111 700h143zM432 785h-306l15 95h306z" />
    <glyph glyph-name="imacron" unicode="&#x12b;" horiz-adv-x="293" 
d="M296 499l-78 -499h-141l78 499h141zM395 595h-307l15 95h307z" />
    <glyph glyph-name="Ibreve" unicode="&#x12c;" horiz-adv-x="307" 
d="M369 909h90c-17 -99 -89 -159 -178 -159c-85 0 -150 52 -150 135c0 5 1 13 2 24h91v-8c0 -40 23 -66 62 -66c43 0 74 30 83 74zM225 0h-143l111 700h143z" />
    <glyph glyph-name="ibreve" unicode="&#x12d;" horiz-adv-x="293" 
d="M332 723h90c-17 -99 -89 -159 -178 -159c-85 0 -150 52 -150 135c0 5 1 13 2 24h91v-8c0 -40 23 -66 62 -66c43 0 74 30 83 74zM296 499l-78 -499h-141l78 499h141z" />
    <glyph glyph-name="Iogonek" unicode="&#x12e;" horiz-adv-x="307" 
d="M137 0h-55l111 700h143l-111 -700c-31 -25 -47 -51 -47 -78c0 -26 16 -39 47 -39c15 0 27 2 38 7l-14 -84c-16 -5 -36 -8 -61 -8c-72 0 -113 36 -113 87c0 41 21 80 62 115z" />
    <glyph glyph-name="iogonek" unicode="&#x12f;" horiz-adv-x="293" 
d="M295 499l-78 -499c-31 -25 -47 -51 -47 -78c0 -26 16 -39 47 -39c15 0 27 2 38 7l-14 -84c-16 -5 -36 -8 -61 -8c-72 0 -113 36 -113 87c0 41 21 80 62 115h-53l78 499h141zM160 631c0 48 37 85 84 85s85 -37 85 -85c0 -47 -38 -84 -85 -84s-84 37 -84 84z" />
    <glyph glyph-name="Idot" unicode="&#x130;" horiz-adv-x="307" 
d="M225 0h-143l111 700h143zM278 760c-40 0 -74 33 -74 74c0 40 34 73 74 73c41 0 74 -33 74 -73c0 -41 -33 -74 -74 -74z" />
    <glyph glyph-name="dotlessi" unicode="&#x131;" horiz-adv-x="293" 
d="M296 499l-78 -499h-141l78 499h141z" />
    <glyph glyph-name="IJ" unicode="&#x132;" horiz-adv-x="630" 
d="M267 270h-143l69 430h143zM274 -14c-81 0 -143 14 -188 43l23 143c49 -34 103 -51 163 -51c111 0 171 41 187 141l70 438h143l-73 -459c-15 -90 -51 -155 -110 -195s-130 -60 -215 -60z" />
    <glyph glyph-name="Jcircumflex" unicode="&#x134;" horiz-adv-x="499" 
d="M397 700h143l-76 -478c-25 -157 -116 -236 -271 -236c-64 0 -136 17 -173 46l23 143c31 -32 87 -54 138 -54c84 0 130 38 146 142zM415 761h-127l144 146h137l96 -146h-118l-54 78z" />
    <glyph glyph-name="jcircumflex" unicode="&#x135;" horiz-adv-x="293" 
d="M81 35l73 464h141l-82 -522c-20 -121 -97 -183 -210 -183c-47 0 -83 7 -107 22l19 120c21 -13 45 -19 71 -19c60 0 80 29 95 118zM169 570h-127l144 146h137l96 -146h-118l-54 78z" />
    <glyph glyph-name="uni0136" unicode="&#x136;" horiz-adv-x="702" 
d="M221 0h-144l110 700h144l-44 -277l296 277h180l-348 -333l291 -367h-172l-262 324zM427 -66l-82 -204h-105l64 204h123z" />
    <glyph glyph-name="uni0137" unicode="&#x137;" horiz-adv-x="596" 
d="M210 0h-141l110 700h142l-61 -378l198 177h179l-256 -234l211 -265h-164l-183 223zM382 -66l-82 -204h-105l64 204h123z" />
    <glyph glyph-name="kgreenlandic" unicode="&#x138;" horiz-adv-x="596" 
d="M210 0h-141l79 499h142l-30 -177l198 177h179l-256 -234l211 -265h-164l-183 223z" />
    <glyph glyph-name="Lacute" unicode="&#x139;" horiz-adv-x="603" 
d="M576 0h-499l111 700h144l-91 -571h355zM332 761h-122l108 146h170z" />
    <glyph glyph-name="lacute" unicode="&#x13a;" horiz-adv-x="310" 
d="M171 700h141l-83 -523c-3 -21 -4 -32 -4 -33c0 -21 12 -32 37 -32c14 0 26 3 37 8l-17 -116c-22 -11 -51 -17 -86 -17c-73 0 -117 38 -117 113c0 11 2 31 6 60zM317 761h-122l108 146h170z" />
    <glyph glyph-name="uni013B" unicode="&#x13b;" horiz-adv-x="603" 
d="M576 0h-499l111 700h144l-91 -571h355zM405 -66l-82 -204h-105l64 204h123z" />
    <glyph glyph-name="lcommaaccent" unicode="&#x13c;" horiz-adv-x="310" 
d="M171 700h141l-83 -523c-3 -21 -4 -32 -4 -33c0 -21 12 -32 37 -32c14 0 26 3 37 8l-17 -116c-22 -11 -51 -17 -86 -17c-73 0 -117 38 -117 113c0 11 2 31 6 60zM231 -66l-82 -204h-105l64 204h123z" />
    <glyph glyph-name="Lcaron" unicode="&#x13d;" horiz-adv-x="611" 
d="M576 0h-499l111 700h144l-91 -571h355zM698 700l-82 -204h-105l64 204h123z" />
    <glyph glyph-name="lcaron" unicode="&#x13e;" horiz-adv-x="451" 
d="M164 700h141l-83 -523c-3 -21 -4 -32 -4 -33c0 -21 12 -32 37 -32c14 0 26 3 37 8l-17 -116c-22 -11 -51 -17 -86 -17c-73 0 -117 38 -117 113c0 11 2 31 6 60zM546 700l-82 -204h-105l64 204h123z" />
    <glyph glyph-name="Ldot" unicode="&#x13f;" horiz-adv-x="603" 
d="M576 0h-499l111 700h144l-91 -571h355zM551 298c-49 0 -87 39 -87 88c0 48 38 87 87 87c47 0 86 -39 86 -87c0 -49 -39 -88 -86 -88z" />
    <glyph glyph-name="ldot" unicode="&#x140;" horiz-adv-x="476" 
d="M173 700h141l-83 -523c-3 -21 -4 -32 -4 -33c0 -21 12 -32 37 -32c14 0 26 3 37 8l-17 -116c-22 -11 -51 -17 -86 -17c-73 0 -117 38 -117 113c0 11 2 31 6 60zM438 298c-49 0 -87 39 -87 88c0 48 38 87 87 87c47 0 86 -39 86 -87c0 -49 -39 -88 -86 -88z" />
    <glyph glyph-name="Lslash" unicode="&#x141;" horiz-adv-x="634" 
d="M152 279l-107 -62l20 124l107 62l47 297h144l-32 -204l161 95l-20 -124l-161 -95l-39 -243h355l-20 -129h-499z" />
    <glyph glyph-name="lslash" unicode="&#x142;" horiz-adv-x="393" 
d="M229 700h141l-35 -219l113 67l-20 -124l-113 -66l-28 -181c-3 -15 -4 -26 -4 -33c0 -21 12 -32 37 -32c14 0 26 3 37 8l-17 -116c-22 -11 -51 -17 -86 -17c-73 0 -117 38 -117 113c0 11 2 31 6 60l17 106l-113 -66l19 124l114 66z" />
    <glyph glyph-name="Nacute" unicode="&#x143;" horiz-adv-x="770" 
d="M693 0h-118l-284 464l-73 -464h-141l110 700h122l281 -462l73 462h140zM568 761h-122l108 146h170z" />
    <glyph glyph-name="nacute" unicode="&#x144;" horiz-adv-x="615" 
d="M602 274l-43 -274h-141l40 250c3 25 5 41 5 50c0 53 -35 83 -83 83c-47 0 -93 -28 -118 -67l-52 -316h-141l78 499h141l-9 -58c45 47 100 71 167 71c101 0 163 -66 163 -166c0 -19 -2 -43 -7 -72zM444 570h-122l107 146h171z" />
    <glyph glyph-name="uni0145" unicode="&#x145;" horiz-adv-x="770" 
d="M693 0h-118l-284 464l-73 -464h-141l110 700h122l281 -462l73 462h140zM468 -66l-82 -204h-105l64 204h123z" />
    <glyph glyph-name="uni0146" unicode="&#x146;" horiz-adv-x="615" 
d="M602 274l-43 -274h-141l40 250c3 25 5 41 5 50c0 53 -35 83 -83 83c-47 0 -93 -28 -118 -67l-52 -316h-141l78 499h141l-9 -58c45 47 100 71 167 71c101 0 163 -66 163 -166c0 -19 -2 -43 -7 -72zM369 -66l-82 -204h-105l64 204h123z" />
    <glyph glyph-name="Ncaron" unicode="&#x147;" horiz-adv-x="770" 
d="M693 0h-118l-284 464l-73 -464h-141l110 700h122l281 -462l73 462h140zM587 907h127l-145 -146h-136l-97 146h119l54 -78z" />
    <glyph glyph-name="ncaron" unicode="&#x148;" horiz-adv-x="615" 
d="M602 274l-43 -274h-141l40 250c3 25 5 41 5 50c0 53 -35 83 -83 83c-47 0 -93 -28 -118 -67l-52 -316h-141l78 499h141l-9 -58c45 47 100 71 167 71c101 0 163 -66 163 -166c0 -19 -2 -43 -7 -72zM492 716h127l-145 -146h-136l-97 146h119l54 -78z" />
    <glyph glyph-name="napostrophe" unicode="&#x149;" horiz-adv-x="769" 
d="M756 274l-43 -274h-141l40 250c3 25 5 42 5 50c0 53 -35 83 -83 83c-47 0 -93 -28 -118 -67l-52 -316h-141l78 499h141l-9 -58c45 47 100 71 167 71c101 0 163 -66 163 -166c0 -19 -2 -43 -7 -72zM290 700l-82 -204h-105l64 204h123z" />
    <glyph glyph-name="Eng" unicode="&#x14a;" horiz-adv-x="770" 
d="M468 -206c-52 0 -91 8 -117 23l20 125c23 -15 50 -22 81 -22c57 0 91 30 101 90l3 20l-265 434l-73 -464h-141l110 700h122l281 -462l73 462h140l-110 -702c-20 -129 -104 -204 -225 -204z" />
    <glyph glyph-name="eng" unicode="&#x14b;" horiz-adv-x="615" 
d="M602 274l-46 -297c-20 -121 -97 -183 -210 -183c-47 0 -83 7 -107 22l19 120c21 -13 45 -19 71 -19c56 0 80 26 91 95l38 238c3 25 5 41 5 50c0 53 -35 83 -83 83c-47 0 -93 -28 -118 -67l-52 -316h-141l78 499h141l-9 -58c45 47 100 71 167 71c101 0 163 -66 163 -166
c0 -19 -2 -43 -7 -72z" />
    <glyph glyph-name="Omacron" unicode="&#x14c;" horiz-adv-x="832" 
d="M487 714c105 0 188 -31 251 -94s94 -144 94 -244c0 -109 -37 -201 -111 -277c-73 -75 -164 -113 -273 -113c-103 0 -186 31 -249 94s-94 145 -94 244c0 109 37 202 110 277s164 113 272 113zM453 121c67 0 122 24 165 73c44 49 66 109 66 182c0 58 -18 106 -55 145
s-85 58 -146 58c-66 0 -121 -24 -165 -73s-66 -109 -66 -182c0 -58 18 -106 55 -145s85 -58 146 -58zM691 785h-306l15 95h306z" />
    <glyph glyph-name="omacron" unicode="&#x14d;" horiz-adv-x="608" 
d="M351 512c77 0 139 -24 188 -71s74 -106 74 -179c0 -75 -27 -139 -80 -194c-53 -54 -119 -81 -199 -81c-76 0 -139 23 -188 70s-73 108 -73 181c0 74 26 138 79 192c53 55 120 82 199 82zM334 110c40 0 74 15 102 45c29 30 43 67 43 111c0 75 -54 123 -127 123
c-40 0 -74 -15 -102 -44s-42 -66 -42 -110c0 -76 53 -125 126 -125zM552 595h-307l15 95h307z" />
    <glyph glyph-name="Obreve" unicode="&#x14e;" horiz-adv-x="832" 
d="M487 714c105 0 188 -31 251 -94s94 -144 94 -244c0 -109 -37 -201 -111 -277c-73 -75 -164 -113 -273 -113c-103 0 -186 31 -249 94s-94 145 -94 244c0 109 37 202 110 277s164 113 272 113zM453 121c67 0 122 24 165 73c44 49 66 109 66 182c0 58 -18 106 -55 145
s-85 58 -146 58c-66 0 -121 -24 -165 -73s-66 -109 -66 -182c0 -58 18 -106 55 -145s85 -58 146 -58zM633 921h90c-17 -99 -89 -159 -178 -159c-85 0 -150 52 -150 135c0 5 1 13 2 24h91v-8c0 -40 23 -66 62 -66c43 0 74 30 83 74z" />
    <glyph glyph-name="obreve" unicode="&#x14f;" horiz-adv-x="608" 
d="M351 512c77 0 139 -24 188 -71s74 -106 74 -179c0 -75 -27 -139 -80 -194c-53 -54 -119 -81 -199 -81c-76 0 -139 23 -188 70s-73 108 -73 181c0 74 26 138 79 192c53 55 120 82 199 82zM334 110c40 0 74 15 102 45c29 30 43 67 43 111c0 75 -54 123 -127 123
c-40 0 -74 -15 -102 -44s-42 -66 -42 -110c0 -76 53 -125 126 -125zM492 730h90c-17 -99 -89 -159 -178 -159c-85 0 -150 52 -150 135c0 5 1 13 2 24h91v-8c0 -40 23 -66 62 -66c43 0 74 30 83 74z" />
    <glyph glyph-name="Ohungarumlaut" unicode="&#x150;" horiz-adv-x="832" 
d="M487 714c105 0 188 -31 251 -94s94 -144 94 -244c0 -109 -37 -201 -111 -277c-73 -75 -164 -113 -273 -113c-103 0 -186 31 -249 94s-94 145 -94 244c0 109 37 202 110 277s164 113 272 113zM453 121c67 0 122 24 165 73c44 49 66 109 66 182c0 58 -18 106 -55 145
s-85 58 -146 58c-66 0 -121 -24 -165 -73s-66 -109 -66 -182c0 -58 18 -106 55 -145s85 -58 146 -58zM700 761h-123l107 146h172zM462 761h-123l107 146h172z" />
    <glyph glyph-name="ohungarumlaut" unicode="&#x151;" horiz-adv-x="608" 
d="M351 512c77 0 139 -24 188 -71s74 -106 74 -179c0 -75 -27 -139 -80 -194c-53 -54 -119 -81 -199 -81c-76 0 -139 23 -188 70s-73 108 -73 181c0 74 26 138 79 192c53 55 120 82 199 82zM334 110c40 0 74 15 102 45c29 30 43 67 43 111c0 75 -54 123 -127 123
c-40 0 -74 -15 -102 -44s-42 -66 -42 -110c0 -76 53 -125 126 -125zM566 570h-123l95 146h172zM338 570h-123l95 146h172z" />
    <glyph glyph-name="OE" unicode="&#x152;" horiz-adv-x="1117" 
d="M1070 0h-615c-106 0 -191 30 -255 89c-63 59 -95 137 -95 232c0 109 38 200 115 271c77 72 176 108 295 108h655l-20 -129h-363l-22 -135h291l-20 -127h-291l-28 -180h373zM252 321c0 -56 19 -102 56 -138c38 -36 89 -54 153 -54h111l71 442h-134
c-79 0 -141 -23 -188 -69c-46 -45 -69 -106 -69 -181z" />
    <glyph glyph-name="oe" unicode="&#x153;" horiz-adv-x="959" 
d="M967 298c0 -27 -3 -56 -9 -87h-361c5 -69 69 -104 157 -104c55 0 109 14 160 41l-17 -116c-43 -30 -102 -45 -175 -45c-83 0 -156 31 -197 82c-51 -55 -116 -82 -194 -82c-74 0 -136 24 -185 71s-73 107 -73 180c0 74 26 138 79 192c53 55 120 82 200 82
c83 0 148 -28 195 -83c51 55 115 83 194 83c68 0 123 -20 164 -61s62 -92 62 -153zM334 110c40 0 74 15 102 45c29 30 43 67 43 111c0 75 -54 123 -127 123c-40 0 -74 -15 -102 -44s-42 -66 -42 -110c0 -76 53 -125 126 -125zM607 301h223v7c0 55 -35 93 -96 93
s-112 -37 -127 -100z" />
    <glyph glyph-name="Racute" unicode="&#x154;" horiz-adv-x="730" 
d="M548 299l174 -299h-162l-165 283h-129l-45 -283h-144l111 700h306c69 0 123 -18 162 -53s59 -80 59 -135c0 -100 -64 -178 -167 -213zM285 404h172c64 0 112 34 112 93c0 48 -35 77 -94 77h-163zM481 761h-122l108 146h170z" />
    <glyph glyph-name="racute" unicode="&#x155;" horiz-adv-x="423" 
d="M210 0h-141l79 499h141l-13 -83c18 26 45 48 80 67s72 29 109 29c7 0 12 0 16 -1l-22 -139c-13 4 -28 6 -47 6c-71 0 -128 -37 -155 -84zM356 570h-122l107 146h171z" />
    <glyph glyph-name="uni0156" unicode="&#x156;" horiz-adv-x="730" 
d="M548 299l174 -299h-162l-165 283h-129l-45 -283h-144l111 700h306c69 0 123 -18 162 -53s59 -80 59 -135c0 -100 -64 -178 -167 -213zM285 404h172c64 0 112 34 112 93c0 48 -35 77 -94 77h-163zM442 -66l-82 -204h-105l64 204h123z" />
    <glyph glyph-name="uni0157" unicode="&#x157;" horiz-adv-x="423" 
d="M210 0h-141l79 499h141l-13 -83c18 26 45 48 80 67s72 29 109 29c7 0 12 0 16 -1l-22 -139c-13 4 -28 6 -47 6c-71 0 -128 -37 -155 -84zM192 -66l-82 -204h-105l64 204h123z" />
    <glyph glyph-name="Rcaron" unicode="&#x158;" horiz-adv-x="730" 
d="M548 299l174 -299h-162l-165 283h-129l-45 -283h-144l111 700h306c69 0 123 -18 162 -53s59 -80 59 -135c0 -100 -64 -178 -167 -213zM285 404h172c64 0 112 34 112 93c0 48 -35 77 -94 77h-163zM539 907h127l-145 -146h-136l-97 146h119l54 -78z" />
    <glyph glyph-name="rcaron" unicode="&#x159;" horiz-adv-x="423" 
d="M210 0h-141l79 499h141l-13 -83c18 26 45 48 80 67s72 29 109 29c7 0 12 0 16 -1l-22 -139c-13 4 -28 6 -47 6c-71 0 -128 -37 -155 -84zM399 716h127l-145 -146h-136l-97 146h119l54 -78z" />
    <glyph glyph-name="Sacute" unicode="&#x15a;" horiz-adv-x="629" 
d="M642 656l-23 -140c-27 19 -62 34 -104 47c-41 13 -82 19 -123 19c-77 0 -126 -26 -126 -74c0 -19 10 -32 34 -44l34 -14l47 -14l50 -15c57 -19 95 -36 134 -67c39 -29 60 -73 60 -128c0 -74 -29 -133 -87 -176s-129 -64 -213 -64c-104 0 -211 28 -272 75l23 147
c25 -25 61 -47 108 -64s95 -26 144 -26c23 0 44 2 64 6c40 9 83 38 83 83c0 23 -13 41 -34 52c-13 8 -19 12 -38 17l-22 8c-11 4 -40 12 -52 16c-35 11 -62 20 -81 28s-40 19 -63 34c-47 29 -67 71 -67 130c0 72 27 127 81 165c55 38 123 57 205 57c91 0 182 -25 238 -58z
M460 761h-122l108 146h170z" />
    <glyph glyph-name="sacute" unicode="&#x15b;" horiz-adv-x="503" 
d="M515 455l-19 -117c-55 40 -114 60 -179 60c-53 0 -80 -13 -80 -40c0 -11 6 -21 19 -28s42 -17 89 -31c100 -29 149 -72 149 -144c0 -55 -23 -96 -68 -125s-98 -43 -159 -43c-85 0 -175 24 -226 59l18 119c43 -32 119 -63 206 -63c57 0 85 14 85 43c0 13 -9 24 -33 33
c-23 11 -33 13 -66 24c-108 32 -162 72 -162 140c0 55 21 97 64 126s96 44 159 44c82 0 150 -19 203 -57zM374 570h-122l107 146h171z" />
    <glyph glyph-name="Scircumflex" unicode="&#x15c;" horiz-adv-x="629" 
d="M642 656l-23 -140c-27 19 -62 34 -104 47c-41 13 -82 19 -123 19c-77 0 -126 -26 -126 -74c0 -19 10 -32 34 -44l34 -14l47 -14l50 -15c57 -19 95 -36 134 -67c39 -29 60 -73 60 -128c0 -74 -29 -133 -87 -176s-129 -64 -213 -64c-104 0 -211 28 -272 75l23 147
c25 -25 61 -47 108 -64s95 -26 144 -26c23 0 44 2 64 6c40 9 83 38 83 83c0 23 -13 41 -34 52c-13 8 -19 12 -38 17l-22 8c-11 4 -40 12 -52 16c-35 11 -62 20 -81 28s-40 19 -63 34c-47 29 -67 71 -67 130c0 72 27 127 81 165c55 38 123 57 205 57c91 0 182 -25 238 -58z
M363 761h-127l144 146h137l96 -146h-118l-54 78z" />
    <glyph glyph-name="scircumflex" unicode="&#x15d;" horiz-adv-x="503" 
d="M515 455l-19 -117c-55 40 -114 60 -179 60c-53 0 -80 -13 -80 -40c0 -11 6 -21 19 -28s42 -17 89 -31c100 -29 149 -72 149 -144c0 -55 -23 -96 -68 -125s-98 -43 -159 -43c-85 0 -175 24 -226 59l18 119c43 -32 119 -63 206 -63c57 0 85 14 85 43c0 13 -9 24 -33 33
c-23 11 -33 13 -66 24c-108 32 -162 72 -162 140c0 55 21 97 64 126s96 44 159 44c82 0 150 -19 203 -57zM285 570h-127l144 146h137l96 -146h-118l-54 78z" />
    <glyph glyph-name="Scedilla" unicode="&#x15e;" horiz-adv-x="629" 
d="M642 656l-23 -140c-27 19 -62 34 -104 47c-41 13 -82 19 -123 19c-77 0 -126 -26 -126 -74c0 -19 10 -32 34 -44l34 -14l47 -14l50 -15c57 -19 95 -36 134 -67c39 -29 60 -73 60 -128c0 -65 -23 -118 -68 -159s-102 -67 -172 -77l-61 -135h-163l104 134
c-93 10 -163 34 -212 72l23 147c25 -25 61 -47 108 -64s95 -26 144 -26c23 0 44 2 64 6c40 9 83 38 83 83c0 23 -13 41 -34 52c-13 8 -19 12 -38 17l-22 8c-11 4 -40 12 -52 16c-35 11 -62 20 -81 28s-40 19 -63 34c-47 29 -67 71 -67 130c0 72 27 127 81 165
c55 38 123 57 205 57c91 0 182 -25 238 -58z" />
    <glyph glyph-name="scedilla" unicode="&#x15f;" horiz-adv-x="503" 
d="M515 455l-19 -117c-55 40 -114 60 -179 60c-53 0 -80 -13 -80 -40c0 -11 6 -21 19 -28s42 -17 89 -31c100 -29 149 -72 149 -144c0 -91 -71 -147 -167 -163l-62 -137h-163l105 136c-69 8 -125 26 -166 55l18 119c43 -32 119 -63 206 -63c57 0 85 14 85 43
c0 13 -9 24 -33 33c-23 11 -33 13 -66 24c-108 32 -162 72 -162 140c0 55 21 97 64 126s96 44 159 44c82 0 150 -19 203 -57z" />
    <glyph glyph-name="Scaron" unicode="&#x160;" horiz-adv-x="629" 
d="M642 656l-23 -140c-27 19 -62 34 -104 47c-41 13 -82 19 -123 19c-77 0 -126 -26 -126 -74c0 -19 10 -32 34 -44l34 -14l47 -14l50 -15c57 -19 95 -36 134 -67c39 -29 60 -73 60 -128c0 -74 -29 -133 -87 -176s-129 -64 -213 -64c-104 0 -211 28 -272 75l23 147
c25 -25 61 -47 108 -64s95 -26 144 -26c23 0 44 2 64 6c40 9 83 38 83 83c0 23 -13 41 -34 52c-13 8 -19 12 -38 17l-22 8c-11 4 -40 12 -52 16c-35 11 -62 20 -81 28s-40 19 -63 34c-47 29 -67 71 -67 130c0 72 27 127 81 165c55 38 123 57 205 57c91 0 182 -25 238 -58z
M509 907h127l-145 -146h-136l-97 146h119l54 -78z" />
    <glyph glyph-name="scaron" unicode="&#x161;" horiz-adv-x="501" 
d="M515 455l-19 -117c-55 40 -114 60 -179 60c-53 0 -80 -13 -80 -40c0 -11 6 -21 19 -28s42 -17 89 -31c100 -29 149 -72 149 -144c0 -55 -23 -96 -68 -125s-98 -43 -159 -43c-85 0 -175 24 -226 59l18 119c43 -32 119 -63 206 -63c57 0 85 14 85 43c0 13 -9 24 -33 33
c-23 11 -33 13 -66 24c-108 32 -162 72 -162 140c0 55 21 97 64 126s96 44 159 44c82 0 150 -19 203 -57zM425 716h127l-145 -146h-136l-97 146h119l54 -78z" />
    <glyph glyph-name="uni0162" unicode="&#x162;" horiz-adv-x="647" 
d="M121 571l20 129h587l-20 -129h-222l-91 -571h-14l-66 -145h-163l112 145h-13l91 571h-221z" />
    <glyph glyph-name="uni0163" unicode="&#x163;" horiz-adv-x="441" 
d="M138 117c0 15 2 35 6 60l32 204h-98l19 118h98l22 137h141l-22 -137h142l-19 -118h-142l-28 -181c-3 -19 -4 -32 -4 -41c0 -31 19 -46 58 -46c26 0 51 6 75 19l-18 -116c-16 -11 -40 -19 -72 -25l-62 -136h-163l111 144c-51 18 -76 57 -76 118z" />
    <glyph glyph-name="Tcaron" unicode="&#x164;" horiz-adv-x="647" 
d="M121 571l20 129h587l-20 -129h-222l-91 -571h-144l91 571h-221zM527 907h127l-145 -146h-136l-97 146h119l54 -78z" />
    <glyph glyph-name="tcaron" unicode="&#x165;" horiz-adv-x="621" 
d="M142 117c0 15 2 35 6 60l32 204h-98l19 118h98l22 137h141l-22 -137h142l-19 -118h-142l-28 -181c-3 -19 -4 -32 -4 -41c0 -31 19 -46 58 -46c26 0 51 6 75 19l-18 -116c-31 -19 -70 -29 -119 -29c-87 0 -143 46 -143 130zM716 700l-82 -204h-105l64 204h123z" />
    <glyph glyph-name="Tbar" unicode="&#x166;" horiz-adv-x="647" 
d="M395 0h-144l48 300h-123l18 118h123l25 153h-221l20 129h587l-20 -129h-222l-25 -153h121l-18 -118h-121z" />
    <glyph glyph-name="tbar" unicode="&#x167;" horiz-adv-x="469" 
d="M159 213h-98l16 103h98l11 65h-98l19 118h98l22 137h141l-22 -137h142l-19 -118h-142l-10 -65h141l-16 -103h-141l-2 -13c-3 -19 -4 -32 -4 -41c0 -31 19 -46 58 -46c26 0 51 6 75 19l-18 -116c-31 -19 -70 -29 -119 -29c-87 0 -143 46 -143 130c0 15 2 35 6 60z" />
    <glyph glyph-name="Utilde" unicode="&#x168;" horiz-adv-x="739" 
d="M570 285l66 415h145l-67 -423c-15 -93 -52 -165 -113 -216c-61 -50 -133 -75 -216 -75c-77 0 -143 23 -196 68s-80 108 -80 189c0 23 2 48 7 76l60 381h145l-63 -390c-3 -19 -5 -36 -5 -52c0 -87 54 -137 145 -137s155 53 172 164zM623 900h73
c-12 -81 -58 -138 -123 -138c-22 0 -47 8 -76 23c-28 15 -48 23 -61 23c-23 0 -40 -14 -50 -42h-74c13 88 57 139 124 139c21 0 45 -8 73 -23c29 -15 50 -23 63 -23c24 0 41 14 51 41z" />
    <glyph glyph-name="utilde" unicode="&#x169;" horiz-adv-x="617" 
d="M93 225l43 274h141l-40 -250c-3 -25 -5 -42 -5 -50c0 -53 35 -83 83 -83c47 0 93 28 118 67l52 316h141l-78 -499h-141l9 58c-45 -47 -100 -71 -167 -71c-101 0 -163 66 -163 166c0 19 2 43 7 72zM525 710h73c-12 -81 -58 -138 -123 -138c-22 0 -47 8 -76 23
c-28 15 -48 23 -61 23c-23 0 -40 -14 -50 -42h-74c13 88 57 139 124 139c21 0 45 -8 73 -23c29 -15 50 -23 63 -23c24 0 41 14 51 41z" />
    <glyph glyph-name="Umacron" unicode="&#x16a;" horiz-adv-x="739" 
d="M570 285l66 415h145l-67 -423c-15 -93 -52 -165 -113 -216c-61 -50 -133 -75 -216 -75c-77 0 -143 23 -196 68s-80 108 -80 189c0 23 2 48 7 76l60 381h145l-63 -390c-3 -19 -5 -36 -5 -52c0 -87 54 -137 145 -137s155 53 172 164zM647 785h-306l15 95h306z" />
    <glyph glyph-name="umacron" unicode="&#x16b;" horiz-adv-x="617" 
d="M93 225l43 274h141l-40 -250c-3 -25 -5 -42 -5 -50c0 -53 35 -83 83 -83c47 0 93 28 118 67l52 316h141l-78 -499h-141l9 58c-45 -47 -100 -71 -167 -71c-101 0 -163 66 -163 166c0 19 2 43 7 72zM550 595h-307l15 95h307z" />
    <glyph glyph-name="Ubreve" unicode="&#x16c;" horiz-adv-x="739" 
d="M570 285l66 415h145l-67 -423c-15 -93 -52 -165 -113 -216c-61 -50 -133 -75 -216 -75c-77 0 -143 23 -196 68s-80 108 -80 189c0 23 2 48 7 76l60 381h145l-63 -390c-3 -19 -5 -36 -5 -52c0 -87 54 -137 145 -137s155 53 172 164zM579 909h90
c-17 -99 -89 -159 -178 -159c-85 0 -150 52 -150 135c0 5 1 13 2 24h91v-8c0 -40 23 -66 62 -66c43 0 74 30 83 74z" />
    <glyph glyph-name="ubreve" unicode="&#x16d;" horiz-adv-x="617" 
d="M93 225l43 274h141l-40 -250c-3 -25 -5 -42 -5 -50c0 -53 35 -83 83 -83c47 0 93 28 118 67l52 316h141l-78 -499h-141l9 58c-45 -47 -100 -71 -167 -71c-101 0 -163 66 -163 166c0 19 2 43 7 72zM488 723h90c-17 -99 -89 -159 -178 -159c-85 0 -150 52 -150 135
c0 5 1 13 2 24h91v-8c0 -40 23 -66 62 -66c43 0 74 30 83 74z" />
    <glyph glyph-name="Uring" unicode="&#x16e;" horiz-adv-x="739" 
d="M570 285l66 415h145l-67 -423c-15 -93 -52 -165 -113 -216c-61 -50 -133 -75 -216 -75c-77 0 -143 23 -196 68s-80 108 -80 189c0 23 2 48 7 76l60 381h145l-63 -390c-3 -19 -5 -36 -5 -52c0 -87 54 -137 145 -137s155 53 172 164zM563 764c-41 -41 -107 -41 -148 0
s-41 107 0 148s107 41 148 0s41 -107 0 -148zM456 805c19 -17 48 -17 65 0c19 19 19 48 0 65c-17 19 -46 19 -65 0c-17 -17 -17 -46 0 -65z" />
    <glyph glyph-name="uring" unicode="&#x16f;" horiz-adv-x="617" 
d="M93 225l43 274h141l-40 -250c-3 -25 -5 -42 -5 -50c0 -53 35 -83 83 -83c47 0 93 28 118 67l52 316h141l-78 -499h-141l9 58c-45 -47 -100 -71 -167 -71c-101 0 -163 66 -163 166c0 19 2 43 7 72zM475 576c-41 -41 -107 -41 -148 0s-41 107 0 148s107 41 148 0
s41 -107 0 -148zM368 617c19 -17 48 -17 65 0c19 19 19 48 0 65c-17 19 -46 19 -65 0c-17 -17 -17 -46 0 -65z" />
    <glyph glyph-name="Uhungarumlaut" unicode="&#x170;" horiz-adv-x="761" 
d="M570 285l66 415h145l-67 -423c-15 -93 -52 -165 -113 -216c-61 -50 -133 -75 -216 -75c-77 0 -143 23 -196 68s-80 108 -80 189c0 23 2 48 7 76l60 381h145l-63 -390c-3 -19 -5 -36 -5 -52c0 -87 54 -137 145 -137s155 53 172 164zM647 761h-123l107 146h172zM409 761
h-123l107 146h172z" />
    <glyph glyph-name="uhungarumlaut" unicode="&#x171;" horiz-adv-x="617" 
d="M93 225l43 274h141l-40 -250c-3 -25 -5 -42 -5 -50c0 -53 35 -83 83 -83c47 0 93 28 118 67l52 316h141l-78 -499h-141l9 58c-45 -47 -100 -71 -167 -71c-101 0 -163 66 -163 166c0 19 2 43 7 72zM554 570h-123l95 146h172zM326 570h-123l95 146h172z" />
    <glyph glyph-name="Uogonek" unicode="&#x172;" horiz-adv-x="739" 
d="M570 285l66 415h145l-67 -423c-22 -139 -94 -230 -216 -273c-45 -16 -71 -50 -71 -81c0 -26 16 -39 47 -39c15 0 27 2 38 7l-14 -84c-16 -5 -36 -8 -61 -8c-72 0 -113 36 -113 87c0 36 15 69 46 100c-74 3 -136 27 -186 72s-75 107 -75 185c0 23 2 48 7 76l60 381h145
l-63 -390c-3 -19 -5 -36 -5 -52c0 -87 54 -137 145 -137s155 53 172 164z" />
    <glyph glyph-name="uogonek" unicode="&#x173;" horiz-adv-x="617" 
d="M93 225l43 274h141l-40 -250c-3 -25 -5 -42 -5 -50c0 -53 35 -83 83 -83c47 0 93 28 118 67l52 316h141l-78 -499c-31 -25 -47 -51 -47 -78c0 -26 16 -39 47 -39c15 0 27 2 38 7l-14 -84c-16 -5 -36 -8 -61 -8c-72 0 -113 36 -113 87c0 41 21 80 62 115h-53l9 58
c-45 -47 -100 -71 -167 -71c-101 0 -163 66 -163 166c0 19 2 43 7 72z" />
    <glyph glyph-name="Wcircumflex" unicode="&#x174;" horiz-adv-x="1075" 
d="M357 227l234 475h112l83 -475l219 473h160l-347 -704h-127l-80 467l-229 -467h-127l-124 704h156zM587 761h-127l144 146h137l96 -146h-118l-54 78z" />
    <glyph glyph-name="wcircumflex" unicode="&#x175;" horiz-adv-x="827" 
d="M597 200l147 299h142l-250 -503h-121l-58 302l-150 -302h-120l-89 503h136l52 -299l146 301h112zM430 570h-127l144 146h137l96 -146h-118l-54 78z" />
    <glyph glyph-name="Ycircumflex" unicode="&#x176;" horiz-adv-x="705" 
d="M420 443l221 257h163l-330 -383l-50 -317h-143l49 314l-210 386h161zM396 761h-127l144 146h137l96 -146h-118l-54 78z" />
    <glyph glyph-name="ycircumflex" unicode="&#x177;" horiz-adv-x="582" 
d="M492 499h150l-310 -556c-56 -99 -131 -149 -226 -149c-37 0 -69 7 -96 21l19 122c23 -14 47 -21 72 -21c50 0 94 34 133 101l-149 482h147l90 -329zM305 570h-127l144 146h137l96 -146h-118l-54 78z" />
    <glyph glyph-name="Ydieresis" unicode="&#x178;" horiz-adv-x="705" 
d="M420 443l221 257h163l-330 -383l-50 -317h-143l49 314l-210 386h161zM633 781c-28 -28 -76 -28 -105 0c-28 29 -28 77 0 105c29 28 77 28 105 0s28 -76 0 -105zM361 760c-40 0 -74 33 -74 74c0 40 34 73 74 73c41 0 74 -32 74 -73s-33 -74 -74 -74z" />
    <glyph glyph-name="Zacute" unicode="&#x179;" horiz-adv-x="641" 
d="M608 0h-574l16 102l434 469h-346l20 129h541l-16 -101l-434 -470h379zM472 761h-122l108 146h170z" />
    <glyph glyph-name="zacute" unicode="&#x17a;" horiz-adv-x="526" 
d="M493 0h-461l15 93l294 288h-236l19 118h429l-15 -96l-295 -285h269zM383 570h-122l107 146h171z" />
    <glyph glyph-name="Zdotaccent" unicode="&#x17b;" horiz-adv-x="641" 
d="M608 0h-574l16 102l434 469h-346l20 129h541l-16 -101l-434 -470h379zM439 760c-40 0 -74 33 -74 74c0 40 34 73 74 73c41 0 74 -33 74 -73c0 -41 -33 -74 -74 -74z" />
    <glyph glyph-name="zdotaccent" unicode="&#x17c;" horiz-adv-x="526" 
d="M493 0h-461l15 93l294 288h-236l19 118h429l-15 -96l-295 -285h269zM346 569c-40 0 -74 33 -74 74c0 40 34 73 74 73c41 0 73 -32 73 -73s-32 -74 -73 -74z" />
    <glyph glyph-name="Zcaron" unicode="&#x17d;" horiz-adv-x="641" 
d="M608 0h-574l16 102l434 469h-346l20 129h541l-16 -101l-434 -470h379zM526 907h127l-145 -146h-136l-97 146h119l54 -78z" />
    <glyph glyph-name="zcaron" unicode="&#x17e;" horiz-adv-x="536" 
d="M493 0h-461l15 93l294 288h-236l19 118h429l-15 -96l-295 -285h269zM436 716h127l-145 -146h-136l-97 146h119l54 -78z" />
    <glyph glyph-name="longs" unicode="&#x17f;" horiz-adv-x="413" 
d="M327 499l-79 -499h-141l61 381h-89l19 118h89l5 37c16 109 84 176 197 176c47 0 88 -7 123 -22l-18 -114c-29 12 -57 18 -82 18c-55 0 -74 -28 -85 -95z" />
    <glyph glyph-name="florin" unicode="&#x192;" horiz-adv-x="514" 
d="M375 427h133v-118h-152l-49 -308c-19 -121 -93 -207 -225 -207c-39 0 -72 6 -98 19v116c23 -9 46 -13 68 -13c64 0 102 39 115 116l44 277h-104v118h123l13 78c19 121 93 207 225 207c39 0 72 -6 98 -19v-116c-23 9 -46 13 -68 13c-64 0 -102 -39 -115 -116z" />
    <glyph glyph-name="uni0218" unicode="&#x218;" horiz-adv-x="629" 
d="M642 656l-23 -140c-27 19 -62 34 -104 47c-41 13 -82 19 -123 19c-77 0 -126 -26 -126 -74c0 -19 10 -32 34 -44l34 -14l47 -14l50 -15c57 -19 95 -36 134 -67c39 -29 60 -73 60 -128c0 -74 -29 -133 -87 -176s-129 -64 -213 -64c-104 0 -211 28 -272 75l23 147
c25 -25 61 -47 108 -64s95 -26 144 -26c23 0 44 2 64 6c40 9 83 38 83 83c0 23 -13 41 -34 52c-13 8 -19 12 -38 17l-22 8c-11 4 -40 12 -52 16c-35 11 -62 20 -81 28s-40 19 -63 34c-47 29 -67 71 -67 130c0 72 27 127 81 165c55 38 123 57 205 57c91 0 182 -25 238 -58z
M385 -66l-82 -204h-105l64 204h123z" />
    <glyph glyph-name="uni0219" unicode="&#x219;" horiz-adv-x="503" 
d="M515 455l-19 -117c-55 40 -114 60 -179 60c-53 0 -80 -13 -80 -40c0 -11 6 -21 19 -28s42 -17 89 -31c100 -29 149 -72 149 -144c0 -55 -23 -96 -68 -125s-98 -43 -159 -43c-85 0 -175 24 -226 59l18 119c43 -32 119 -63 206 -63c57 0 85 14 85 43c0 13 -9 24 -33 33
c-23 11 -33 13 -66 24c-108 32 -162 72 -162 140c0 55 21 97 64 126s96 44 159 44c82 0 150 -19 203 -57zM329 -66l-82 -204h-105l64 204h123z" />
    <glyph glyph-name="uni021A" unicode="&#x21a;" horiz-adv-x="647" 
d="M121 571l20 129h587l-20 -129h-222l-91 -571h-144l91 571h-221zM374 -66l-82 -204h-105l64 204h123z" />
    <glyph glyph-name="uni021B" unicode="&#x21b;" horiz-adv-x="441" 
d="M138 117c0 15 2 35 6 60l32 204h-98l19 118h98l22 137h141l-22 -137h142l-19 -118h-142l-28 -181c-3 -19 -4 -32 -4 -41c0 -31 19 -46 58 -46c26 0 51 6 75 19l-18 -116c-31 -19 -70 -29 -119 -29c-87 0 -143 46 -143 130zM329 -66l-82 -204h-105l64 204h123z" />
    <glyph glyph-name="circumflex" unicode="&#x2c6;" horiz-adv-x="540" 
d="M298 570h-127l144 146h137l96 -146h-118l-54 78z" />
    <glyph glyph-name="caron" unicode="&#x2c7;" horiz-adv-x="478" 
d="M405 716h127l-145 -146h-136l-97 146h119l54 -78z" />
    <glyph glyph-name="uni02C9" unicode="&#x2c9;" horiz-adv-x="503" 
d="M512 596h-333l15 94h333z" />
    <glyph glyph-name="breve" unicode="&#x2d8;" horiz-adv-x="480" 
d="M425 723h90c-17 -99 -89 -159 -178 -159c-85 0 -150 52 -150 135c0 5 1 13 2 24h91v-8c0 -40 23 -66 62 -66c43 0 74 30 83 74z" />
    <glyph glyph-name="dotaccent" unicode="&#x2d9;" horiz-adv-x="426" 
d="M307 569c-40 0 -74 33 -74 74c0 40 34 73 74 73c41 0 73 -32 73 -73s-32 -74 -73 -74z" />
    <glyph glyph-name="ring" unicode="&#x2da;" horiz-adv-x="501" 
d="M414 576c-41 -41 -107 -41 -148 0s-41 107 0 148s107 41 148 0s41 -107 0 -148zM307 617c19 -17 48 -17 65 0c19 19 19 48 0 65c-17 19 -46 19 -65 0c-17 -17 -17 -46 0 -65z" />
    <glyph glyph-name="ogonek" unicode="&#x2db;" horiz-adv-x="496" 
d="M219 2h88c-31 -25 -47 -51 -47 -78c0 -26 16 -39 47 -39c15 0 27 2 38 7l-14 -84c-16 -5 -36 -8 -61 -8c-72 0 -113 36 -113 87c0 41 21 80 62 115z" />
    <glyph glyph-name="tilde" unicode="&#x2dc;" horiz-adv-x="509" 
d="M474 710h73c-12 -81 -58 -138 -123 -138c-22 0 -47 8 -76 23c-28 15 -48 23 -61 23c-23 0 -40 -14 -50 -42h-74c13 88 57 139 124 139c21 0 45 -8 73 -23c29 -15 50 -23 63 -23c24 0 41 14 51 41z" />
    <glyph glyph-name="hungarumlaut" unicode="&#x2dd;" horiz-adv-x="627" 
d="M517 570h-123l95 146h172zM289 570h-123l95 146h172z" />
    <glyph glyph-name="acutecomb" unicode="&#x301;" horiz-adv-x="12" 
d="M-139 570h-122l107 146h171z" />
    <glyph glyph-name="uni037E" unicode="&#x37e;" horiz-adv-x="297" 
d="M106 -152h-115l134 303h154zM231 319c-49 0 -87 39 -87 88c0 48 38 87 87 87c47 0 86 -39 86 -87c0 -49 -39 -88 -86 -88z" />
    <glyph glyph-name="uni0394" unicode="&#x394;" horiz-adv-x="769" 
d="M753 0h-737l410 700h138zM471 521l-229 -394h332z" />
    <glyph glyph-name="uni03A9" unicode="&#x3a9;" horiz-adv-x="792" 
d="M779 418c0 -112 -51 -216 -139 -289h100l-20 -129h-269l17 111c48 30 87 71 116 122c30 52 45 107 45 165c0 51 -14 94 -42 129s-68 53 -120 53c-124 1 -206 -134 -202 -251c0 -44 8 -86 25 -127c17 -40 39 -70 64 -91l-17 -111h-267l20 129h109c-47 51 -77 136 -77 224
c0 101 33 187 100 256c67 70 152 105 254 105c86 0 158 -27 216 -81c58 -53 87 -125 87 -215z" />
    <glyph glyph-name="uni03BC" unicode="&#x3bc;" horiz-adv-x="612" 
d="M169 -200h-140l110 699h141l-40 -250c-3 -25 -5 -42 -5 -50c0 -53 35 -83 83 -83c47 0 93 28 118 67l52 316h141l-78 -499h-141l9 58c-45 -47 -100 -71 -167 -71c-16 0 -33 2 -52 7z" />
    <glyph glyph-name="pi" unicode="&#x3c0;" horiz-adv-x="708" 
d="M559 -11c-71 0 -117 36 -117 115c0 12 1 25 3 39l37 238h-158l-60 -381h-141l60 381h-97l19 118h631l-19 -118h-99l-29 -179c-3 -27 -5 -42 -5 -46c0 -29 13 -41 42 -41c19 0 36 5 51 15l-18 -116c-25 -17 -58 -25 -100 -25z" />
    <glyph glyph-name="uni0401" unicode="&#x401;" horiz-adv-x="649" 
d="M602 0h-525l111 700h514l-20 -129h-370l-22 -135h298l-20 -127h-298l-29 -180h381zM628 781c-28 -28 -76 -28 -105 0c-28 29 -28 77 0 105c29 28 77 28 105 0s28 -76 0 -105zM356 760c-40 0 -74 33 -74 74c0 40 34 73 74 73c41 0 74 -32 74 -73s-33 -74 -74 -74z" />
    <glyph glyph-name="uni0402" unicode="&#x402;" horiz-adv-x="774" 
d="M643 571h-222l-26 -160c48 17 98 26 150 26c71 0 128 -21 171 -62c44 -41 66 -93 66 -154c0 -69 -24 -125 -73 -167c-49 -41 -111 -62 -186 -62c-35 0 -66 4 -92 13l18 115c22 -7 44 -11 65 -11c69 0 124 39 124 102c0 57 -45 93 -121 93c-51 0 -99 -10 -144 -30
l-42 -274h-144l91 571h-157l20 129h522z" />
    <glyph glyph-name="uni0403" unicode="&#x403;" horiz-adv-x="614" 
d="M221 0h-144l111 700h505l-20 -129h-361zM489 761h-122l108 146h170z" />
    <glyph glyph-name="uni0404" unicode="&#x404;" horiz-adv-x="681" 
d="M543 421l-19 -121h-271c5 -112 87 -181 215 -181c73 0 139 19 196 57l-22 -142c-59 -32 -121 -48 -187 -48c-105 0 -189 31 -254 93c-64 62 -96 141 -96 238c0 115 37 210 112 285s172 112 290 112c86 0 158 -16 215 -49l-23 -136c-54 35 -118 52 -193 52
c-121 0 -213 -60 -240 -160h277z" />
    <glyph glyph-name="uni0405" unicode="&#x405;" horiz-adv-x="629" 
d="M642 656l-23 -140c-27 19 -62 34 -104 47c-41 13 -82 19 -123 19c-77 0 -126 -26 -126 -74c0 -19 10 -32 34 -44l34 -14l47 -14l50 -15c57 -19 95 -36 134 -67c39 -29 60 -73 60 -128c0 -74 -29 -133 -87 -176s-129 -64 -213 -64c-104 0 -211 28 -272 75l23 147
c25 -25 61 -47 108 -64s95 -26 144 -26c23 0 44 2 64 6c40 9 83 38 83 83c0 23 -13 41 -34 52c-13 8 -19 12 -38 17l-22 8c-11 4 -40 12 -52 16c-35 11 -62 20 -81 28s-40 19 -63 34c-47 29 -67 71 -67 130c0 72 27 127 81 165c55 38 123 57 205 57c91 0 182 -25 238 -58z
" />
    <glyph glyph-name="uni0406" unicode="&#x406;" horiz-adv-x="307" 
d="M225 0h-143l111 700h143z" />
    <glyph glyph-name="uni0407" unicode="&#x407;" horiz-adv-x="307" 
d="M225 0h-143l111 700h143zM445 781c-28 -28 -76 -28 -105 0c-28 29 -28 77 0 105c29 28 77 28 105 0s28 -76 0 -105zM173 760c-40 0 -74 33 -74 74c0 40 34 73 74 73c41 0 74 -32 74 -73s-33 -74 -74 -74z" />
    <glyph glyph-name="uni0408" unicode="&#x408;" horiz-adv-x="499" 
d="M397 700h143l-76 -478c-25 -157 -116 -236 -271 -236c-64 0 -136 17 -173 46l23 143c31 -32 87 -54 138 -54c84 0 130 38 146 142z" />
    <glyph glyph-name="uni0409" unicode="&#x409;" horiz-adv-x="1104" 
d="M846 350h-139l-36 -227h142c41 0 77 11 107 33c31 23 46 54 46 95c0 61 -47 99 -120 99zM598 571h-209l-16 -96c-11 -67 -22 -123 -33 -168c-10 -45 -23 -89 -39 -132s-34 -76 -55 -100c-40 -48 -101 -80 -181 -80c-26 0 -45 3 -57 9l21 131c13 -6 27 -9 40 -9
c51 -5 84 36 107 90c7 17 15 41 22 74c8 33 15 64 20 93l20 118l32 199h492l-36 -232h147c75 0 133 -19 175 -58c43 -39 64 -88 64 -148c0 -83 -31 -147 -94 -193s-140 -69 -233 -69h-276z" />
    <glyph glyph-name="uni040A" unicode="&#x40a;" horiz-adv-x="1122" 
d="M745 469h146c75 0 133 -20 175 -59c43 -39 64 -88 64 -148c0 -78 -30 -141 -90 -190c-59 -48 -132 -72 -217 -72h-296l50 321h-305l-51 -321h-144l111 700h144l-40 -248h306l39 248h145zM691 127h145c41 0 75 11 104 32s44 52 44 92c0 59 -44 96 -116 96h-142z" />
    <glyph glyph-name="uni040B" unicode="&#x40b;" horiz-adv-x="801" 
d="M643 571h-222l-25 -160c53 17 107 26 162 26c145 0 226 -63 226 -180c0 -14 -1 -28 -3 -42l-34 -215h-144l30 186c2 16 3 27 3 32c0 63 -40 86 -116 86c-55 0 -103 -10 -146 -29l-43 -275h-144l91 571h-157l20 129h522z" />
    <glyph glyph-name="uni040C" unicode="&#x40c;" horiz-adv-x="702" 
d="M221 0h-144l110 700h144l-44 -277l296 277h180l-348 -333l291 -367h-172l-262 324zM516 761h-122l108 146h170z" />
    <glyph glyph-name="uni040E" unicode="&#x40e;" horiz-adv-x="672" 
d="M602 700h158l-329 -548c-67 -111 -147 -166 -240 -166c-45 0 -81 8 -108 24l19 123c23 -13 51 -19 83 -19c28 0 51 6 69 19c19 13 40 38 65 77l-201 490h154l135 -344zM284 907h98c-1 -3 -1 -8 -1 -13c0 -37 26 -62 70 -62c48 0 84 30 92 75h99
c-17 -103 -96 -166 -197 -166c-93 0 -163 53 -163 138c0 7 1 16 2 28z" />
    <glyph glyph-name="uni040F" unicode="&#x40f;" horiz-adv-x="736" 
d="M413 -143h-136l22 143h-222l111 700h144l-90 -571h293l90 571h144l-111 -700h-223z" />
    <glyph glyph-name="uni0410" unicode="&#x410;" horiz-adv-x="770" 
d="M754 0h-150l-42 162h-299l-92 -162h-155l411 704h138zM531 281l-62 243l-139 -243h201z" />
    <glyph glyph-name="uni0411" unicode="&#x411;" horiz-adv-x="687" 
d="M294 459h154c73 0 130 -19 171 -58c42 -38 63 -87 63 -146c0 -77 -29 -138 -87 -185s-129 -70 -213 -70h-305l111 700h507l-19 -129h-364zM241 127h155c76 0 141 42 141 119c0 57 -42 93 -113 93h-149z" />
    <glyph glyph-name="uni0412" unicode="&#x412;" horiz-adv-x="716" 
d="M591 384c67 -15 119 -74 119 -159c0 -69 -25 -123 -76 -164c-50 -41 -114 -61 -191 -61h-366l110 700h314c117 0 195 -59 195 -156c0 -71 -38 -131 -105 -160zM241 124h194c68 0 120 38 120 103c0 49 -37 80 -97 80h-188zM289 426h163c57 0 102 31 102 87
c0 41 -30 67 -82 67h-159z" />
    <glyph glyph-name="uni0413" unicode="&#x413;" horiz-adv-x="614" 
d="M221 0h-144l111 700h505l-20 -129h-361z" />
    <glyph glyph-name="uni0414" unicode="&#x414;" horiz-adv-x="794" 
d="M130 -143h-135l43 272h69c40 49 73 109 98 180c26 71 48 164 67 280l17 111h492l-90 -571h96l-43 -272h-135l22 143h-479zM267 129h280l70 442h-205c-14 -91 -32 -171 -53 -242s-51 -137 -92 -200z" />
    <glyph glyph-name="uni0415" unicode="&#x415;" horiz-adv-x="649" 
d="M602 0h-525l111 700h514l-20 -129h-370l-22 -135h298l-20 -127h-298l-29 -180h381z" />
    <glyph glyph-name="uni0416" unicode="&#x416;" horiz-adv-x="1053" 
d="M200 0h-184l366 368l-201 332h167l171 -293l46 293h144l-47 -293l273 293h176l-323 -347l240 -353h-178l-204 306l-48 -306h-143l48 307z" />
    <glyph glyph-name="uni0417" unicode="&#x417;" horiz-adv-x="629" 
d="M523 375c60 -25 102 -77 102 -150c0 -50 -16 -94 -49 -131c-65 -75 -165 -108 -270 -108c-103 0 -185 22 -248 65l21 141c69 -49 146 -74 230 -74c47 0 87 9 120 27c33 19 49 46 49 82c0 55 -43 82 -129 82h-99l18 121h100c75 0 122 27 122 79c0 49 -42 73 -125 73
c-81 0 -157 -20 -228 -59l21 136c72 37 149 55 230 55c76 0 136 -17 180 -51c45 -33 67 -77 67 -132c0 -71 -44 -128 -112 -156z" />
    <glyph glyph-name="uni0418" unicode="&#x418;" horiz-adv-x="761" 
d="M541 0l72 455l-415 -455h-121l110 700h144l-71 -451l410 451h124l-110 -700h-143z" />
    <glyph glyph-name="uni0419" unicode="&#x419;" horiz-adv-x="761" 
d="M541 0l72 455l-415 -455h-121l110 700h144l-71 -451l410 451h124l-110 -700h-143zM345 907h98c-1 -3 -1 -8 -1 -13c0 -37 26 -62 70 -62c48 0 84 30 92 75h99c-17 -103 -96 -166 -197 -166c-93 0 -163 53 -163 138c0 7 1 16 2 28z" />
    <glyph glyph-name="uni041A" unicode="&#x41a;" horiz-adv-x="702" 
d="M221 0h-144l110 700h144l-44 -277l296 277h180l-348 -333l291 -367h-172l-262 324z" />
    <glyph glyph-name="uni041B" unicode="&#x41b;" horiz-adv-x="731" 
d="M764 700l-110 -700h-143l90 571h-212l-16 -96c-11 -67 -22 -123 -32 -168s-23 -88 -40 -131c-16 -43 -34 -76 -55 -101c-40 -48 -101 -80 -181 -80c-26 0 -45 3 -57 9l21 131c13 -6 27 -9 40 -9c51 -5 84 36 107 90c7 17 15 41 22 74c8 33 15 64 20 93l20 118l32 199h494
z" />
    <glyph glyph-name="uni041C" unicode="&#x41c;" horiz-adv-x="845" 
d="M878 700l-110 -700h-142l76 482l-196 -228h-80l-130 228l-75 -482h-144l110 700h138l158 -293l248 293h147z" />
    <glyph glyph-name="uni041D" unicode="&#x41d;" horiz-adv-x="758" 
d="M221 0h-144l111 700h144l-42 -262h316l42 262h143l-111 -700h-143l49 307h-316z" />
    <glyph glyph-name="uni041E" unicode="&#x41e;" horiz-adv-x="832" 
d="M487 714c105 0 188 -31 251 -94s94 -144 94 -244c0 -109 -37 -201 -111 -277c-73 -75 -164 -113 -273 -113c-103 0 -186 31 -249 94s-94 145 -94 244c0 109 37 202 110 277s164 113 272 113zM453 121c67 0 122 24 165 73c44 49 66 109 66 182c0 58 -18 106 -55 145
s-85 58 -146 58c-66 0 -121 -24 -165 -73s-66 -109 -66 -182c0 -58 18 -106 55 -145s85 -58 146 -58z" />
    <glyph glyph-name="uni041F" unicode="&#x41f;" horiz-adv-x="741" 
d="M221 0h-144l111 700h586l-111 -700h-143l91 571h-299z" />
    <glyph glyph-name="uni0420" unicode="&#x420;" horiz-adv-x="659" 
d="M188 700h294c139 0 223 -75 223 -186c0 -69 -25 -126 -76 -171c-50 -44 -114 -66 -192 -66h-172l-44 -277h-144zM284 400h157c64 0 118 34 118 98c0 48 -33 76 -93 76h-154z" />
    <glyph glyph-name="uni0421" unicode="&#x421;" horiz-adv-x="677" 
d="M252 326c0 -60 20 -109 59 -148c39 -38 92 -57 157 -57c76 0 142 20 198 59l-22 -146c-60 -32 -123 -48 -189 -48c-105 0 -189 31 -254 93c-64 62 -96 141 -96 238c0 115 37 210 112 285s171 112 289 112c81 0 151 -16 212 -48l-24 -138c-55 34 -118 51 -189 51
c-75 0 -136 -24 -183 -71s-70 -107 -70 -182z" />
    <glyph glyph-name="uni0422" unicode="&#x422;" horiz-adv-x="647" 
d="M121 571l20 129h587l-20 -129h-222l-91 -571h-144l91 571h-221z" />
    <glyph glyph-name="uni0423" unicode="&#x423;" horiz-adv-x="672" 
d="M602 700h158l-329 -548c-67 -111 -147 -166 -240 -166c-45 0 -81 8 -108 24l19 123c23 -13 51 -19 83 -19c28 0 51 6 69 19c19 13 40 38 65 77l-201 490h154l135 -344z" />
    <glyph glyph-name="uni0424" unicode="&#x424;" horiz-adv-x="932" 
d="M419 177l57 361c-65 -1 -118 -19 -160 -56s-63 -85 -63 -145c0 -92 69 -153 166 -160zM619 535l-57 -361c65 1 118 19 160 56s63 85 63 145c0 92 -69 153 -166 160zM542 46l-12 -73h-144l12 77c-93 11 -166 42 -217 92c-51 51 -76 113 -76 188c0 101 37 182 110 243
s167 92 280 93l10 60h145l-11 -64c93 -11 165 -42 216 -93c51 -50 77 -112 77 -187c0 -101 -37 -182 -110 -243s-167 -92 -280 -93z" />
    <glyph glyph-name="uni0425" unicode="&#x425;" horiz-adv-x="725" 
d="M557 0l-148 262l-230 -262h-173l332 377l-180 323h162l115 -207l182 207h171l-282 -322l213 -378h-162z" />
    <glyph glyph-name="uni0426" unicode="&#x426;" horiz-adv-x="783" 
d="M733 -143h-136l22 143h-542l111 700h144l-90 -571h293l90 571h144l-90 -571h97z" />
    <glyph glyph-name="uni0427" unicode="&#x427;" horiz-adv-x="691" 
d="M535 411l46 289h143l-110 -700h-143l43 273c-52 -17 -106 -25 -162 -25c-145 0 -226 63 -226 180c0 15 2 33 5 54l33 218h144l-31 -195c-2 -14 -3 -27 -3 -38c0 -63 39 -86 114 -86c54 0 103 10 147 30z" />
    <glyph glyph-name="uni0428" unicode="&#x428;" horiz-adv-x="1033" 
d="M955 0h-878l111 700h144l-91 -571h223l91 571h143l-91 -571h224l91 571h144z" />
    <glyph glyph-name="uni0429" unicode="&#x429;" horiz-adv-x="1080" 
d="M1030 -143h-136l22 143h-839l111 700h144l-90 -571h224l90 571h143l-90 -571h224l90 571h143l-90 -571h97z" />
    <glyph glyph-name="uni042A" unicode="&#x42a;" horiz-adv-x="799" 
d="M417 469h151c75 0 133 -20 175 -59c43 -39 64 -88 64 -148c0 -78 -30 -141 -90 -190c-59 -48 -132 -72 -217 -72h-301l90 571h-178l20 129h323zM363 127h150c41 0 75 11 104 32s44 52 44 92c0 59 -44 96 -116 96h-147z" />
    <glyph glyph-name="uni042B" unicode="&#x42b;" horiz-adv-x="927" 
d="M960 700l-110 -700h-144l110 700h144zM295 469h129c75 0 133 -20 175 -59c43 -39 64 -88 64 -148c0 -78 -30 -141 -90 -190c-59 -48 -132 -72 -217 -72h-279l110 700h145zM241 127h128c41 0 75 11 104 32s44 52 44 92c0 59 -44 96 -116 96h-125z" />
    <glyph glyph-name="uni042C" unicode="&#x42c;" horiz-adv-x="677" 
d="M295 469h151c75 0 133 -20 175 -59c43 -39 64 -88 64 -148c0 -78 -30 -141 -90 -190c-59 -48 -132 -72 -217 -72h-301l110 700h145zM241 127h150c41 0 75 11 104 32s44 52 44 92c0 59 -44 96 -116 96h-147z" />
    <glyph glyph-name="uni042D" unicode="&#x42d;" horiz-adv-x="677" 
d="M521 300h-282l19 121h266c-17 97 -95 160 -211 160c-70 0 -133 -17 -190 -52l23 141c59 29 119 44 181 44c105 0 189 -31 253 -93c65 -62 97 -141 97 -238c0 -115 -38 -210 -113 -285s-171 -112 -289 -112c-87 0 -159 16 -215 49l23 136c53 -35 117 -52 193 -52
c125 0 218 69 245 181z" />
    <glyph glyph-name="uni042E" unicode="&#x42e;" horiz-adv-x="1053" 
d="M749 714c91 0 164 -32 220 -95s84 -140 84 -232c0 -67 -16 -130 -47 -191s-75 -111 -134 -151c-58 -39 -123 -59 -195 -59c-86 0 -157 29 -212 86s-86 129 -91 215h-106l-45 -287h-146l111 700h146l-45 -282h98c22 83 66 153 131 210c66 57 143 86 231 86zM691 121
c65 0 117 26 157 79s60 114 60 183c0 120 -69 196 -173 196c-65 0 -117 -27 -157 -80s-60 -113 -60 -182c0 -120 69 -196 173 -196z" />
    <glyph glyph-name="uni042F" unicode="&#x42f;" horiz-adv-x="733" 
d="M437 283l-246 -283h-167l259 300c-75 24 -119 91 -119 168c0 70 27 126 80 168c54 43 120 64 197 64h325l-111 -700h-144l45 283h-119zM398 404h177l27 170h-177c-61 0 -114 -34 -114 -97c0 -44 32 -73 87 -73z" />
    <glyph glyph-name="uni0430" unicode="&#x430;" horiz-adv-x="602" 
d="M569 106c8 0 16 2 25 5l-16 -102c-19 -12 -44 -18 -74 -18c-61 0 -97 21 -108 62c-45 -44 -101 -66 -166 -66c-109 0 -179 64 -179 155c0 55 20 98 60 129c41 31 90 47 147 47c59 0 112 -13 159 -38c3 19 4 31 4 36c0 54 -42 81 -127 81c-52 0 -102 -11 -150 -34l18 117
c49 21 108 32 175 32c65 0 118 -14 161 -43s64 -73 64 -134c0 -15 -2 -35 -7 -60l-16 -97c-3 -20 -5 -33 -5 -39c0 -22 12 -33 35 -33zM394 145l10 52c-29 20 -66 30 -110 30c-60 0 -103 -25 -103 -73c0 -40 35 -60 88 -60c45 0 91 22 115 51z" />
    <glyph glyph-name="uni0431" unicode="&#x431;" horiz-adv-x="610" 
d="M460 560c-140 -21 -220 -70 -241 -177c53 56 116 84 189 84c59 0 107 -20 145 -61c39 -41 58 -91 58 -151c0 -76 -26 -140 -79 -191s-120 -77 -202 -77c-77 0 -138 25 -183 75c-44 51 -66 115 -66 194c0 216 107 370 322 411c29 6 71 14 126 23s87 15 96 17l-21 -128
c-2 0 -50 -6 -144 -19zM220 269l-2 -27c0 -79 45 -136 122 -136c37 0 68 13 93 40s38 60 38 99c0 63 -45 105 -110 105c-57 0 -113 -36 -141 -81z" />
    <glyph glyph-name="uni0432" unicode="&#x432;" horiz-adv-x="586" 
d="M492 257c51 -19 76 -54 76 -105c0 -101 -82 -152 -205 -152h-294l79 499h282c92 0 142 -51 142 -116c0 -61 -36 -105 -80 -126zM224 99h128c44 1 75 25 75 66c0 31 -24 46 -73 46h-113zM255 300h106c40 0 69 23 69 59c0 32 -22 43 -70 43h-88z" />
    <glyph glyph-name="uni0433" unicode="&#x433;" horiz-adv-x="492" 
d="M210 0h-141l79 499h396l-19 -118h-255z" />
    <glyph glyph-name="uni0434" unicode="&#x434;" horiz-adv-x="676" 
d="M135 -127h-134l37 245h64c48 59 83 154 106 284l17 97h420l-61 -381h82l-38 -245h-133l20 127h-360zM246 118h200l43 263h-156c-17 -103 -46 -191 -87 -263z" />
    <glyph glyph-name="uni0435" unicode="&#x435;" horiz-adv-x="570" 
d="M366 107c55 0 108 14 159 41l-17 -116c-43 -30 -102 -45 -177 -45s-136 22 -185 66s-73 102 -73 174c0 80 26 147 79 202s120 83 200 83c69 0 123 -20 164 -61s62 -92 62 -153c0 -27 -3 -56 -9 -87h-360c4 -68 69 -104 157 -104zM219 301h223v7c0 55 -35 93 -96 93
s-112 -37 -127 -100z" />
    <glyph glyph-name="uni0436" unicode="&#x436;" horiz-adv-x="844" 
d="M184 0h-174l264 274l-143 225h155l113 -188l30 188h141l-30 -188l176 188h165l-227 -241l178 -258h-161l-146 213l-34 -213h-140l33 213z" />
    <glyph glyph-name="uni0437" unicode="&#x437;" horiz-adv-x="532" 
d="M433 268c45 -12 83 -52 83 -107c0 -51 -25 -93 -75 -126c-50 -32 -113 -48 -189 -48c-85 0 -151 13 -198 38l18 114c48 -27 105 -40 170 -40c75 0 130 22 130 63c0 29 -29 44 -88 44h-95l15 102h94c55 0 80 21 80 49c0 29 -32 43 -97 43c-57 0 -111 -12 -162 -35l16 109
c57 25 117 38 182 38c61 0 111 -12 150 -37c39 -24 58 -55 58 -93c0 -60 -44 -105 -92 -114z" />
    <glyph glyph-name="uni0438" unicode="&#x438;" horiz-adv-x="635" 
d="M244 212l268 287h132l-78 -499h-141l44 287l-268 -287h-132l79 499h141z" />
    <glyph glyph-name="uni0439" unicode="&#x439;" horiz-adv-x="635" 
d="M244 212l268 287h132l-78 -499h-141l44 287l-268 -287h-132l79 499h141zM250 723h97c0 -3 -1 -9 -1 -13c0 -37 27 -61 71 -61c48 0 83 29 92 74h99c-17 -103 -96 -166 -197 -166c-93 0 -163 54 -163 138c0 7 1 16 2 28z" />
    <glyph glyph-name="uni043A" unicode="&#x43a;" horiz-adv-x="596" 
d="M210 0h-141l79 499h142l-30 -177l198 177h179l-256 -234l211 -265h-164l-183 223z" />
    <glyph glyph-name="uni043B" unicode="&#x43b;" horiz-adv-x="634" 
d="M483 381h-154l-12 -67l-13 -66c-6 -28 -12 -50 -18 -66s-14 -35 -24 -58c-19 -44 -40 -65 -71 -92c-31 -25 -69 -36 -116 -36c-25 0 -44 3 -55 9l19 115c7 -3 17 -4 28 -4c64 0 92 74 120 239l24 144h432l-79 -499h-141z" />
    <glyph glyph-name="uni043C" unicode="&#x43c;" horiz-adv-x="708" 
d="M400 313l175 186h142l-79 -499h-133l49 310l-149 -157h-55l-99 157l-48 -310h-134l79 499h136z" />
    <glyph glyph-name="uni043D" unicode="&#x43d;" horiz-adv-x="626" 
d="M210 0h-141l79 499h141l-29 -185h205l29 185h141l-79 -499h-141l31 196h-205z" />
    <glyph glyph-name="uni043E" unicode="&#x43e;" horiz-adv-x="608" 
d="M351 512c77 0 139 -24 188 -71s74 -106 74 -179c0 -75 -27 -139 -80 -194c-53 -54 -119 -81 -199 -81c-76 0 -139 23 -188 70s-73 108 -73 181c0 74 26 138 79 192c53 55 120 82 199 82zM334 110c40 0 74 15 102 45c29 30 43 67 43 111c0 75 -54 123 -127 123
c-40 0 -74 -15 -102 -44s-42 -66 -42 -110c0 -76 53 -125 126 -125z" />
    <glyph glyph-name="uni043F" unicode="&#x43f;" horiz-adv-x="620" 
d="M210 0h-141l79 499h481l-79 -499h-141l61 381h-199z" />
    <glyph glyph-name="uni0440" unicode="&#x440;" horiz-adv-x="647" 
d="M219 66l-42 -266h-141l111 699h141l-10 -58c45 47 100 71 166 71c63 0 113 -22 151 -67s57 -100 57 -166c0 -77 -24 -145 -73 -204c-48 -59 -112 -88 -191 -88c-77 0 -140 38 -169 79zM388 389c-51 0 -101 -30 -129 -73l-21 -133c20 -39 71 -73 126 -73
c40 0 74 15 102 44c28 30 42 67 42 111c0 75 -49 124 -120 124z" />
    <glyph glyph-name="uni0441" unicode="&#x441;" horiz-adv-x="514" 
d="M533 472l-19 -118c-43 23 -87 35 -132 35c-49 0 -89 -14 -121 -43c-32 -28 -48 -64 -48 -108c0 -41 15 -73 46 -95s67 -33 110 -33c41 0 82 9 121 28l-19 -123c-41 -19 -87 -28 -136 -28c-75 0 -138 22 -188 67c-49 45 -74 104 -74 177c0 80 29 147 86 200
c57 54 128 81 212 81c61 0 115 -13 162 -40z" />
    <glyph glyph-name="uni0442" unicode="&#x442;" horiz-adv-x="484" 
d="M312 0h-141l60 381h-156l19 118h455l-19 -118h-158z" />
    <glyph glyph-name="uni0443" unicode="&#x443;" horiz-adv-x="582" 
d="M492 499h150l-310 -556c-56 -99 -131 -149 -226 -149c-37 0 -69 7 -96 21l19 122c23 -14 47 -21 72 -21c50 0 94 34 133 101l-149 482h147l90 -329z" />
    <glyph glyph-name="uni0444" unicode="&#x444;" horiz-adv-x="763" 
d="M419 -200h-141l32 197c-152 21 -237 112 -237 228c0 82 30 149 90 201s136 78 227 78l31 196h141l-31 -197c152 -21 237 -112 237 -228c0 -82 -30 -149 -90 -201s-136 -78 -227 -78zM515 387l-44 -278c46 0 84 15 114 44c31 29 46 67 46 112c0 63 -44 113 -116 122z
M326 112l44 278c-45 -1 -83 -15 -114 -44s-46 -66 -46 -111c0 -64 44 -114 116 -123z" />
    <glyph glyph-name="uni0445" unicode="&#x445;" horiz-adv-x="593" 
d="M474 499h164l-221 -238l160 -261h-151l-97 158l-148 -158h-164l242 260l-146 239h151l85 -139z" />
    <glyph glyph-name="uni0446" unicode="&#x446;" horiz-adv-x="663" 
d="M614 -127h-136l20 127h-429l79 499h141l-60 -381h201l60 381h141l-60 -381h82z" />
    <glyph glyph-name="uni0447" unicode="&#x447;" horiz-adv-x="578" 
d="M282 147c-109 0 -188 50 -188 154c0 12 2 31 6 56l24 142h141l-22 -136c-2 -10 -3 -21 -3 -34c0 -42 27 -63 81 -63c35 0 65 6 90 19l35 214h141l-79 -499h-141l26 164c-34 -11 -71 -17 -111 -17z" />
    <glyph glyph-name="uni0448" unicode="&#x448;" horiz-adv-x="861" 
d="M791 0h-722l79 499h139l-60 -381h152l60 381h138l-60 -381h155l60 381h138z" />
    <glyph glyph-name="uni0449" unicode="&#x449;" horiz-adv-x="902" 
d="M853 -127h-127l20 127h-677l79 499h139l-60 -381h152l60 381h138l-60 -381h155l60 381h138l-60 -381h82z" />
    <glyph glyph-name="uni044A" unicode="&#x44a;" horiz-adv-x="652" 
d="M374 499l-23 -146h106c116 0 188 -61 188 -156c0 -57 -20 -105 -61 -142c-40 -37 -93 -55 -158 -55h-272l61 381h-141l19 118h281zM334 248l-22 -139h81c75 0 113 26 113 78c0 41 -29 61 -86 61h-86z" />
    <glyph glyph-name="uni044B" unicode="&#x44b;" horiz-adv-x="787" 
d="M576 0l79 499h141l-79 -499h-141zM289 499l-23 -146h90c116 0 188 -61 188 -156c0 -57 -20 -105 -61 -142c-40 -37 -93 -55 -158 -55h-256l80 499h140zM249 248l-22 -139h65c75 0 113 26 113 78c0 41 -29 61 -86 61h-70z" />
    <glyph glyph-name="uni044C" unicode="&#x44c;" horiz-adv-x="567" 
d="M289 499l-23 -146h106c116 0 188 -61 188 -156c0 -57 -20 -105 -61 -142c-40 -37 -93 -55 -158 -55h-272l80 499h140zM249 248l-22 -139h81c75 0 113 26 113 78c0 41 -29 61 -86 61h-86z" />
    <glyph glyph-name="uni044D" unicode="&#x44d;" horiz-adv-x="512" 
d="M266 512c71 0 131 -22 179 -65s72 -101 72 -172c0 -81 -28 -150 -85 -205c-56 -55 -127 -83 -213 -83c-65 0 -119 12 -163 37l19 112c39 -21 83 -32 131 -32c77 0 140 37 163 98h-188l15 98h180c-13 61 -71 96 -146 96c-41 0 -80 -9 -117 -26l19 115c38 18 83 27 134 27z
" />
    <glyph glyph-name="uni044E" unicode="&#x44e;" horiz-adv-x="836" 
d="M598 512c71 0 130 -23 175 -70c45 -46 68 -105 68 -176c0 -75 -26 -141 -79 -196s-117 -83 -192 -83c-65 0 -120 19 -164 58s-70 89 -77 152h-88l-31 -197h-141l79 499h141l-29 -184h79c17 57 50 104 97 141s101 56 162 56zM572 110c36 0 67 15 94 45c27 31 40 68 40 113
c0 73 -45 121 -110 121c-36 0 -67 -15 -94 -46c-27 -30 -40 -67 -40 -112c0 -73 45 -121 110 -121z" />
    <glyph glyph-name="uni044F" unicode="&#x44f;" horiz-adv-x="590" 
d="M329 499h270l-79 -499h-141l26 165h-83l-139 -165h-158l162 190c-53 21 -80 62 -80 125c0 59 21 104 62 135c41 32 95 48 160 49zM315 267h106l20 122h-108c-44 0 -83 -23 -83 -70c0 -33 25 -52 65 -52z" />
    <glyph glyph-name="uni0451" unicode="&#x451;" horiz-adv-x="570" 
d="M366 107c55 0 108 14 159 41l-17 -116c-43 -30 -102 -45 -177 -45s-136 22 -185 66s-73 102 -73 174c0 80 26 147 79 202s120 83 200 83c69 0 123 -20 164 -61s62 -92 62 -153c0 -27 -3 -56 -9 -87h-360c4 -68 69 -104 157 -104zM219 301h223v7c0 55 -35 93 -96 93
s-112 -37 -127 -100zM542 583c-28 -28 -76 -28 -105 0c-28 29 -28 77 0 105c29 28 77 28 105 0s28 -76 0 -105zM270 562c-40 0 -74 33 -74 74c0 40 34 73 74 73c41 0 74 -32 74 -73s-33 -74 -74 -74z" />
    <glyph glyph-name="uni0452" unicode="&#x452;" horiz-adv-x="656" 
d="M631 203l-34 -226c-19 -121 -95 -183 -210 -183c-47 0 -83 7 -107 22l19 119c21 -13 45 -19 71 -19c52 0 80 24 89 84l28 179c3 25 5 42 5 50c0 53 -35 83 -83 83c-47 0 -93 -28 -118 -67l-40 -245h-141l82 518h-102l15 93h102l14 89h141l-15 -89h161l-15 -93h-161
l-24 -148c45 47 100 71 167 71c101 0 163 -66 163 -166c0 -19 -2 -43 -7 -72z" />
    <glyph glyph-name="uni0453" unicode="&#x453;" horiz-adv-x="492" 
d="M210 0h-141l79 499h396l-19 -118h-255zM393 570h-122l107 146h171z" />
    <glyph glyph-name="uni0454" unicode="&#x454;" horiz-adv-x="514" 
d="M324 -13c-71 0 -131 22 -179 65s-72 101 -72 172c0 82 28 150 84 205c57 55 128 83 214 83c65 0 119 -12 162 -36l-19 -114c-39 21 -83 32 -130 32c-79 0 -140 -34 -163 -95h187l-15 -97h-181c14 -65 63 -98 148 -98c43 0 84 10 123 29l-19 -117
c-39 -19 -86 -29 -140 -29z" />
    <glyph glyph-name="uni0455" unicode="&#x455;" horiz-adv-x="503" 
d="M515 455l-19 -117c-55 40 -114 60 -179 60c-53 0 -80 -13 -80 -40c0 -11 6 -21 19 -28s42 -17 89 -31c100 -29 149 -72 149 -144c0 -55 -23 -96 -68 -125s-98 -43 -159 -43c-85 0 -175 24 -226 59l18 119c43 -32 119 -63 206 -63c57 0 85 14 85 43c0 13 -9 24 -33 33
c-23 11 -33 13 -66 24c-108 32 -162 72 -162 140c0 55 21 97 64 126s96 44 159 44c82 0 150 -19 203 -57z" />
    <glyph glyph-name="uni0456" unicode="&#x456;" horiz-adv-x="293" 
d="M295 499l-78 -499h-141l78 499h141zM160 631c0 48 37 85 84 85s85 -37 85 -85c0 -47 -38 -84 -85 -84s-84 37 -84 84z" />
    <glyph glyph-name="uni0457" unicode="&#x457;" horiz-adv-x="293" 
d="M403 590c-28 -28 -76 -28 -105 0c-28 29 -28 77 0 105c29 28 77 28 105 0s28 -76 0 -105zM131 569c-40 0 -74 33 -74 74c0 40 34 73 74 73c41 0 74 -32 74 -73s-33 -74 -74 -74zM296 499l-78 -499h-141l78 499h141z" />
    <glyph glyph-name="uni0458" unicode="&#x458;" horiz-adv-x="293" 
d="M81 35l73 464h141l-82 -522c-20 -121 -97 -183 -210 -183c-47 0 -83 7 -107 22l19 120c21 -13 45 -19 71 -19c60 0 80 29 95 118zM160 631c0 48 37 85 84 85s85 -37 85 -85c0 -47 -38 -84 -85 -84s-84 37 -84 84z" />
    <glyph glyph-name="uni0459" unicode="&#x459;" horiz-adv-x="921" 
d="M483 381h-154l-12 -67l-13 -66c-6 -28 -12 -50 -18 -66s-14 -35 -24 -58c-19 -44 -40 -65 -71 -92c-31 -25 -69 -36 -116 -36c-25 0 -44 3 -55 9l19 115c7 -3 17 -4 28 -4c64 0 92 74 120 239l24 144h432l-23 -146h106c116 0 188 -61 188 -156c0 -57 -20 -105 -61 -142
c-40 -37 -93 -55 -158 -55h-272zM689 248h-86l-22 -139h81c75 0 113 26 113 78c0 41 -29 61 -86 61z" />
    <glyph glyph-name="uni045A" unicode="&#x45a;" horiz-adv-x="913" 
d="M210 0h-141l79 499h141l-29 -185h205l29 185h141l-23 -146h106c116 0 188 -61 188 -156c0 -57 -20 -105 -61 -142c-40 -37 -93 -55 -158 -55h-272l31 196h-205zM681 248h-86l-22 -139h81c75 0 113 26 113 78c0 41 -29 61 -86 61z" />
    <glyph glyph-name="uni045B" unicode="&#x45b;" horiz-adv-x="656" 
d="M192 518h-102l15 93h102l14 89h141l-15 -89h161l-15 -93h-161l-24 -148c45 47 100 71 167 71c101 0 163 -66 163 -166c0 -19 -2 -43 -7 -72l-31 -203h-141l28 179c3 25 5 42 5 50c0 53 -35 83 -83 83c-47 0 -93 -28 -118 -67l-40 -245h-141z" />
    <glyph glyph-name="uni045C" unicode="&#x45c;" horiz-adv-x="596" 
d="M210 0h-141l79 499h142l-30 -177l198 177h179l-256 -234l211 -265h-164l-183 223zM444 570h-122l107 146h171z" />
    <glyph glyph-name="uni045E" unicode="&#x45e;" horiz-adv-x="582" 
d="M492 499h150l-310 -556c-56 -99 -131 -149 -226 -149c-37 0 -69 7 -96 21l19 122c23 -14 47 -21 72 -21c50 0 94 34 133 101l-149 482h147l90 -329zM210 723h97c0 -3 -1 -9 -1 -13c0 -37 27 -61 71 -61c48 0 83 29 92 74h99c-17 -103 -96 -166 -197 -166
c-93 0 -163 54 -163 138c0 7 1 16 2 28z" />
    <glyph glyph-name="uni045F" unicode="&#x45f;" horiz-adv-x="622" 
d="M359 -127h-137l20 127h-173l79 499h141l-60 -381h201l60 381h141l-79 -499h-173z" />
    <glyph glyph-name="uni0490" unicode="&#x490;" horiz-adv-x="610" 
d="M221 0h-144l111 700h373l22 139h130l-43 -268h-359z" />
    <glyph glyph-name="uni0491" unicode="&#x491;" horiz-adv-x="492" 
d="M210 0h-141l79 499h267l20 124h129l-38 -242h-255z" />
    <glyph glyph-name="uni1E02" unicode="&#x1e02;" horiz-adv-x="716" 
d="M591 384c67 -15 119 -74 119 -159c0 -69 -25 -123 -76 -164c-50 -41 -114 -61 -191 -61h-366l110 700h314c117 0 195 -59 195 -156c0 -71 -38 -131 -105 -160zM241 124h194c68 0 120 38 120 103c0 49 -37 80 -97 80h-188zM289 426h163c57 0 102 31 102 87
c0 41 -30 67 -82 67h-159zM457 760c-40 0 -74 33 -74 74c0 40 34 73 74 73c41 0 74 -33 74 -73c0 -41 -33 -74 -74 -74z" />
    <glyph glyph-name="uni1E03" unicode="&#x1e03;" horiz-adv-x="648" 
d="M220 66l-10 -66h-141l111 700h141l-42 -259c45 47 100 71 166 71c63 0 113 -22 151 -67s57 -100 57 -166c0 -77 -24 -145 -73 -204c-48 -59 -112 -88 -191 -88c-77 0 -140 38 -169 79zM389 389c-51 0 -101 -30 -129 -73l-21 -133c20 -39 71 -73 126 -73
c40 0 74 15 102 44c28 30 42 67 42 111c0 75 -49 124 -120 124zM430 760c-40 0 -74 33 -74 74c0 40 34 73 74 73c41 0 74 -33 74 -73c0 -41 -33 -74 -74 -74z" />
    <glyph glyph-name="uni1E0A" unicode="&#x1e0a;" horiz-adv-x="779" 
d="M188 700h237c107 0 192 -30 257 -91c65 -60 97 -138 97 -235c0 -107 -38 -197 -115 -268s-175 -106 -294 -106h-293zM241 129h143c78 0 139 23 182 69c43 47 65 107 65 181c0 54 -18 99 -55 136s-85 56 -145 56h-119zM479 760c-40 0 -74 33 -74 74c0 40 34 73 74 73
c41 0 74 -33 74 -73c0 -41 -33 -74 -74 -74z" />
    <glyph glyph-name="uni1E0B" unicode="&#x1e0b;" horiz-adv-x="647" 
d="M506 433l42 267h141l-111 -700h-141l10 58c-45 -47 -100 -71 -166 -71c-63 0 -113 22 -151 67s-57 100 -57 166c0 77 24 145 72 204c49 59 113 88 192 88c77 0 140 -38 169 -79zM337 110c51 0 101 30 129 73l21 133c-20 39 -71 73 -126 73c-40 0 -74 -15 -102 -45
c-28 -29 -42 -66 -42 -110c0 -75 49 -124 120 -124zM446 760c-40 0 -74 33 -74 74c0 40 34 73 74 73c41 0 74 -33 74 -73c0 -41 -33 -74 -74 -74z" />
    <glyph glyph-name="uni1E1E" unicode="&#x1e1e;" horiz-adv-x="628" 
d="M221 0h-144l111 700h513l-20 -129h-369l-23 -142h285l-20 -127h-285zM456 760c-40 0 -74 33 -74 74c0 40 34 73 74 73c41 0 74 -33 74 -73c0 -41 -33 -74 -74 -74z" />
    <glyph glyph-name="uni1E1F" unicode="&#x1e1f;" horiz-adv-x="432" 
d="M107 0l61 381h-89l19 118h89l5 37c16 109 84 176 197 176c47 0 88 -7 123 -22l-18 -114c-29 12 -57 18 -82 18c-55 0 -76 -28 -85 -95h155l-19 -118h-154l-61 -381h-141zM389 760c-40 0 -74 33 -74 74c0 40 34 73 74 73c41 0 74 -33 74 -73c0 -41 -33 -74 -74 -74z" />
    <glyph glyph-name="uni1E40" unicode="&#x1e40;" horiz-adv-x="845" 
d="M878 700l-110 -700h-142l76 482l-196 -228h-80l-130 228l-75 -482h-144l110 700h138l158 -293l248 293h147zM537 760c-40 0 -74 33 -74 74c0 40 34 73 74 73c41 0 74 -33 74 -73c0 -41 -33 -74 -74 -74z" />
    <glyph glyph-name="uni1E41" unicode="&#x1e41;" horiz-adv-x="927" 
d="M210 0h-141l79 499h141l-10 -61c41 49 95 74 164 74c73 0 126 -38 141 -85c51 57 111 85 181 85c92 0 156 -55 156 -155c0 -7 -2 -28 -7 -64l-46 -293h-141l43 273c2 13 3 24 3 35c0 56 -34 75 -74 75c-43 0 -88 -29 -109 -66l-51 -317h-141l43 270c3 16 4 29 4 38
c0 55 -34 75 -73 75c-41 0 -88 -29 -112 -66zM566 569c-40 0 -74 33 -74 74c0 40 34 73 74 73c41 0 73 -32 73 -73s-32 -74 -73 -74z" />
    <glyph glyph-name="uni1E56" unicode="&#x1e56;" horiz-adv-x="659" 
d="M188 700h294c139 0 223 -75 223 -186c0 -69 -25 -126 -76 -171c-50 -44 -114 -66 -192 -66h-172l-44 -277h-144zM284 400h157c64 0 118 34 118 98c0 48 -33 76 -93 76h-154zM455 760c-40 0 -74 33 -74 74c0 40 34 73 74 73c41 0 74 -33 74 -73c0 -41 -33 -74 -74 -74z
" />
    <glyph glyph-name="uni1E57" unicode="&#x1e57;" horiz-adv-x="647" 
d="M219 66l-42 -266h-141l111 699h141l-10 -58c45 47 100 71 166 71c63 0 113 -22 151 -67s57 -100 57 -166c0 -77 -24 -145 -73 -204c-48 -59 -112 -88 -191 -88c-77 0 -140 38 -169 79zM388 389c-51 0 -101 -30 -129 -73l-21 -133c20 -39 71 -73 126 -73
c40 0 74 15 102 44c28 30 42 67 42 111c0 75 -49 124 -120 124zM417 569c-40 0 -74 33 -74 74c0 40 34 73 74 73c41 0 73 -32 73 -73s-32 -74 -73 -74z" />
    <glyph glyph-name="uni1E60" unicode="&#x1e60;" horiz-adv-x="629" 
d="M642 656l-23 -140c-27 19 -62 34 -104 47c-41 13 -82 19 -123 19c-77 0 -126 -26 -126 -74c0 -19 10 -32 34 -44l34 -14l47 -14l50 -15c57 -19 95 -36 134 -67c39 -29 60 -73 60 -128c0 -74 -29 -133 -87 -176s-129 -64 -213 -64c-104 0 -211 28 -272 75l23 147
c25 -25 61 -47 108 -64s95 -26 144 -26c23 0 44 2 64 6c40 9 83 38 83 83c0 23 -13 41 -34 52c-13 8 -19 12 -38 17l-22 8c-11 4 -40 12 -52 16c-35 11 -62 20 -81 28s-40 19 -63 34c-47 29 -67 71 -67 130c0 72 27 127 81 165c55 38 123 57 205 57c91 0 182 -25 238 -58z
M430 760c-40 0 -74 33 -74 74c0 40 34 73 74 73c41 0 74 -33 74 -73c0 -41 -33 -74 -74 -74z" />
    <glyph glyph-name="uni1E61" unicode="&#x1e61;" horiz-adv-x="503" 
d="M515 455l-19 -117c-55 40 -114 60 -179 60c-53 0 -80 -13 -80 -40c0 -11 6 -21 19 -28s42 -17 89 -31c100 -29 149 -72 149 -144c0 -55 -23 -96 -68 -125s-98 -43 -159 -43c-85 0 -175 24 -226 59l18 119c43 -32 119 -63 206 -63c57 0 85 14 85 43c0 13 -9 24 -33 33
c-23 11 -33 13 -66 24c-108 32 -162 72 -162 140c0 55 21 97 64 126s96 44 159 44c82 0 150 -19 203 -57zM347 569c-40 0 -74 33 -74 74c0 40 34 73 74 73c41 0 73 -32 73 -73s-32 -74 -73 -74z" />
    <glyph glyph-name="uni1E6A" unicode="&#x1e6a;" horiz-adv-x="647" 
d="M121 571l20 129h587l-20 -129h-222l-91 -571h-144l91 571h-221zM443 760c-40 0 -74 33 -74 74c0 40 34 73 74 73c41 0 74 -33 74 -73c0 -41 -33 -74 -74 -74z" />
    <glyph glyph-name="uni1E6B" unicode="&#x1e6b;" horiz-adv-x="441" 
d="M138 117c0 15 2 35 6 60l32 204h-98l19 118h98l22 137h141l-22 -137h142l-19 -118h-142l-28 -181c-3 -19 -4 -32 -4 -41c0 -31 19 -46 58 -46c26 0 51 6 75 19l-18 -116c-31 -19 -70 -29 -119 -29c-87 0 -143 46 -143 130zM303 692c-40 0 -74 33 -74 74c0 40 34 73 74 73
c41 0 73 -32 73 -73s-32 -74 -73 -74z" />
    <glyph glyph-name="Wgrave" unicode="&#x1e80;" horiz-adv-x="1075" 
d="M357 227l234 475h112l83 -475l219 473h160l-347 -704h-127l-80 467l-229 -467h-127l-124 704h156zM464 907h170l83 -146h-122z" />
    <glyph glyph-name="wgrave" unicode="&#x1e81;" horiz-adv-x="827" 
d="M597 200l147 299h142l-250 -503h-121l-58 302l-150 -302h-120l-89 503h136l52 -299l146 301h112zM306 716h170l83 -146h-122z" />
    <glyph glyph-name="Wacute" unicode="&#x1e82;" horiz-adv-x="1075" 
d="M357 227l234 475h112l83 -475l219 473h160l-347 -704h-127l-80 467l-229 -467h-127l-124 704h156zM726 761h-122l108 146h170z" />
    <glyph glyph-name="wacute" unicode="&#x1e83;" horiz-adv-x="827" 
d="M597 200l147 299h142l-250 -503h-121l-58 302l-150 -302h-120l-89 503h136l52 -299l146 301h112zM564 570h-122l107 146h171z" />
    <glyph glyph-name="Wdieresis" unicode="&#x1e84;" horiz-adv-x="1075" 
d="M357 227l234 475h112l83 -475l219 473h160l-347 -704h-127l-80 467l-229 -467h-127l-124 704h156zM829 781c-28 -28 -76 -28 -105 0c-28 29 -28 77 0 105c29 28 77 28 105 0s28 -76 0 -105zM557 760c-40 0 -74 33 -74 74c0 40 34 73 74 73c41 0 74 -32 74 -73
s-33 -74 -74 -74z" />
    <glyph glyph-name="wdieresis" unicode="&#x1e85;" horiz-adv-x="827" 
d="M597 200l147 299h142l-250 -503h-121l-58 302l-150 -302h-120l-89 503h136l52 -299l146 301h112zM660 590c-28 -28 -76 -28 -105 0c-28 29 -28 77 0 105c29 28 77 28 105 0s28 -76 0 -105zM388 569c-40 0 -74 33 -74 74c0 40 34 73 74 73c41 0 74 -32 74 -73
s-33 -74 -74 -74z" />
    <glyph glyph-name="Ygrave" unicode="&#x1ef2;" horiz-adv-x="705" 
d="M420 443l221 257h163l-330 -383l-50 -317h-143l49 314l-210 386h161zM289 907h170l83 -146h-122z" />
    <glyph glyph-name="ygrave" unicode="&#x1ef3;" horiz-adv-x="582" 
d="M492 499h150l-310 -556c-56 -99 -131 -149 -226 -149c-37 0 -69 7 -96 21l19 122c23 -14 47 -21 72 -21c50 0 94 34 133 101l-149 482h147l90 -329zM196 716h170l83 -146h-122z" />
    <glyph glyph-name="endash" unicode="&#x2013;" horiz-adv-x="764" 
d="M704 214h-579l21 127h579z" />
    <glyph glyph-name="emdash" unicode="&#x2014;" horiz-adv-x="910" 
d="M850 214h-725l21 127h725z" />
    <glyph glyph-name="uni2015" unicode="&#x2015;" horiz-adv-x="764" 
d="M704 214h-579l21 127h579z" />
    <glyph glyph-name="quoteleft" unicode="&#x2018;" horiz-adv-x="290" 
d="M256 700h115l-134 -303h-154z" />
    <glyph glyph-name="quoteright" unicode="&#x2019;" horiz-adv-x="290" 
d="M194 397h-115l134 303h154z" />
    <glyph glyph-name="quotesinglbase" unicode="&#x201a;" horiz-adv-x="300" 
d="M106 -152h-115l134 303h154z" />
    <glyph glyph-name="quotedblleft" unicode="&#x201c;" horiz-adv-x="506" 
d="M472 700h115l-134 -303h-154zM256 700h115l-134 -303h-154z" />
    <glyph glyph-name="quotedblright" unicode="&#x201d;" horiz-adv-x="507" 
d="M411 397h-115l134 303h154zM194 397h-115l134 303h154z" />
    <glyph glyph-name="quotedblbase" unicode="&#x201e;" horiz-adv-x="517" 
d="M323 -152h-115l134 303h154zM106 -152h-115l134 303h154z" />
    <glyph glyph-name="dagger" unicode="&#x2020;" horiz-adv-x="500" 
d="M303 0h-114l65 409h-164l17 111h164l29 180h114l-29 -180h164l-17 -111h-164z" />
    <glyph glyph-name="daggerdbl" unicode="&#x2021;" horiz-adv-x="500" 
d="M303 0h-114l28 174h-163l16 111h164l20 124h-164l17 111h164l29 180h114l-29 -180h164l-17 -111h-164l-20 -124h164l-17 -111h-164z" />
    <glyph glyph-name="bullet" unicode="&#x2022;" horiz-adv-x="414" 
d="M122 388c0 41 14 75 43 104s63 43 104 43s75 -14 103 -43c29 -29 43 -63 43 -104c0 -40 -14 -74 -43 -103c-28 -29 -62 -43 -103 -43s-75 14 -104 43s-43 63 -43 103z" />
    <glyph glyph-name="ellipsis" unicode="&#x2026;" horiz-adv-x="753" 
d="M145 -11c-49 0 -87 39 -87 88c0 48 38 87 87 87c47 0 86 -39 86 -87c0 -49 -39 -88 -86 -88zM390 -11c-49 0 -87 39 -87 88c0 48 38 87 87 87c47 0 86 -39 86 -87c0 -49 -39 -88 -86 -88zM635 -11c-49 0 -87 39 -87 88c0 48 38 87 87 87c47 0 86 -39 86 -87
c0 -49 -39 -88 -86 -88z" />
    <glyph glyph-name="perthousand" unicode="&#x2030;" horiz-adv-x="1211" 
d="M253 0h-106l529 700h105zM658 336c50 0 91 -15 123 -46s48 -70 48 -117c0 -49 -17 -91 -52 -126s-78 -53 -129 -53c-50 0 -91 15 -123 46s-48 70 -48 117c0 49 17 91 52 126s78 53 129 53zM648 84c44 0 82 41 82 90c0 43 -31 72 -72 72c-45 0 -83 -41 -83 -90
c0 -43 32 -72 73 -72zM280 706c50 0 91 -15 123 -46s48 -70 48 -117c0 -49 -17 -91 -52 -126s-78 -53 -129 -53c-50 0 -91 15 -123 46s-48 70 -48 117c0 49 17 91 52 126s78 53 129 53zM270 454c44 0 82 41 82 90c0 43 -31 72 -72 72c-45 0 -83 -41 -83 -90
c0 -43 32 -72 73 -72zM1048 336c50 0 91 -15 123 -46s48 -70 48 -117c0 -49 -17 -91 -52 -126s-78 -53 -129 -53c-50 0 -91 15 -123 46s-48 70 -48 117c0 49 17 91 52 126s78 53 129 53zM1038 84c44 0 82 41 82 90c0 43 -31 72 -72 72c-45 0 -83 -41 -83 -90
c0 -43 32 -72 73 -72z" />
    <glyph glyph-name="guilsinglleft" unicode="&#x2039;" horiz-adv-x="356" 
d="M316 35h-140l-108 179l11 71l165 179h142l-196 -221z" />
    <glyph glyph-name="guilsinglright" unicode="&#x203a;" horiz-adv-x="356" 
d="M114 464h140l108 -179l-11 -71l-165 -179h-141l195 222z" />
    <glyph glyph-name="fraction" unicode="&#x2044;" horiz-adv-x="218" 
d="M-155 0l533 700h108l-533 -700h-108z" />
    <glyph glyph-name="zerosuperior" unicode="&#x2070;" horiz-adv-x="394" 
d="M293 707c97 0 159 -71 159 -171c0 -55 -17 -106 -52 -152s-81 -69 -138 -69c-97 0 -159 71 -159 171c0 55 17 106 52 152s81 69 138 69zM265 401c27 0 49 14 64 43c16 29 24 59 24 91c0 48 -21 86 -62 86c-27 0 -49 -14 -65 -43c-15 -29 -23 -59 -23 -91
c0 -48 21 -86 62 -86z" />
    <glyph glyph-name="foursuperior" unicode="&#x2074;" horiz-adv-x="365" 
d="M346 322h-92l14 90h-190l12 68l220 220h98l-35 -214h54l-13 -74h-53zM298 594l-111 -108h93z" />
    <glyph glyph-name="fivesuperior" unicode="&#x2075;" horiz-adv-x="332" 
d="M242 574c81 0 135 -48 135 -115c0 -92 -73 -144 -177 -144c-51 0 -91 10 -121 30l14 89c32 -23 68 -35 108 -35c41 0 78 17 78 56c0 28 -27 47 -75 47c-27 0 -57 -5 -90 -14l57 212h218l-13 -81h-145l-13 -47c8 1 16 2 24 2z" />
    <glyph glyph-name="sixsuperior" unicode="&#x2076;" horiz-adv-x="350" 
d="M307 624c-51 0 -91 -32 -102 -83c19 22 47 33 84 33c64 0 110 -49 110 -112c0 -85 -64 -147 -157 -147c-91 0 -143 63 -143 152c0 63 18 119 54 167c37 49 87 73 152 73c41 0 73 -9 98 -27l-13 -84c-23 19 -51 28 -83 28zM254 504c-27 0 -48 -11 -63 -34
c-1 -5 -2 -13 -2 -25c3 -33 26 -53 55 -53c35 0 61 26 61 62c0 29 -19 50 -51 50z" />
    <glyph glyph-name="sevensuperior" unicode="&#x2077;" horiz-adv-x="330" 
d="M200 322h-107l200 297h-171l13 81h282l-12 -75z" />
    <glyph glyph-name="eightsuperior" unicode="&#x2078;" horiz-adv-x="355" 
d="M348 517c33 -15 57 -48 57 -83c0 -36 -16 -65 -47 -87c-31 -21 -67 -32 -109 -32c-43 0 -81 10 -114 29c-32 19 -48 47 -48 84c0 47 34 87 83 100c-27 15 -41 39 -41 70c0 32 14 58 42 78c29 21 62 31 101 31c35 0 68 -9 97 -27s44 -44 44 -77c0 -39 -26 -71 -65 -86z
M217 587c0 -21 22 -39 50 -39c29 0 54 17 54 42c0 24 -21 40 -52 40c-27 0 -52 -16 -52 -43zM246 393c33 0 64 18 64 49c0 27 -25 47 -61 47c-35 0 -65 -19 -65 -50c0 -27 26 -46 62 -46z" />
    <glyph glyph-name="ninesuperior" unicode="&#x2079;" horiz-adv-x="357" 
d="M198 398c51 0 90 31 102 83c-20 -22 -48 -33 -85 -33c-64 0 -110 49 -110 112c0 85 64 147 157 147c92 0 143 -63 143 -152c0 -63 -18 -119 -55 -168c-36 -48 -86 -72 -150 -72c-42 0 -75 9 -98 27l13 84c23 -19 50 -28 83 -28zM251 518c26 0 47 11 63 34c1 10 2 18 1 25
c-1 33 -25 53 -54 53c-35 0 -61 -26 -61 -62c0 -29 19 -50 51 -50z" />
    <glyph glyph-name="zeroinferior" unicode="&#x2080;" horiz-adv-x="394" 
d="M243 385c97 0 159 -71 159 -171c0 -55 -17 -106 -52 -152s-81 -69 -138 -69c-97 0 -159 71 -159 171c0 55 17 106 52 152s81 69 138 69zM215 79c27 0 49 14 64 43c16 29 24 59 24 91c0 48 -21 86 -62 86c-27 0 -49 -14 -65 -43c-15 -29 -23 -59 -23 -91
c0 -48 21 -86 62 -86z" />
    <glyph glyph-name="oneinferior" unicode="&#x2081;" horiz-adv-x="253" 
d="M216 0h-96l44 280l-109 -51l15 94l113 55h92z" />
    <glyph glyph-name="twoinferior" unicode="&#x2082;" horiz-adv-x="347" 
d="M83 261l16 95c31 19 67 29 110 29c75 0 134 -44 134 -117c0 -52 -28 -92 -96 -144l-58 -44h145l-13 -80h-283l12 68l121 95c55 43 74 64 74 91s-21 45 -56 45c-33 0 -69 -13 -106 -38z" />
    <glyph glyph-name="threeinferior" unicode="&#x2083;" horiz-adv-x="330" 
d="M348 378l-11 -70l-91 -71c43 -13 77 -48 77 -101c0 -87 -69 -143 -166 -143c-55 0 -99 11 -131 34l15 88c28 -25 65 -38 111 -38c41 0 77 19 77 55c0 27 -23 45 -63 45c-21 0 -40 -3 -57 -9l9 59l95 70h-133l14 81h254z" />
    <glyph glyph-name="fourinferior" unicode="&#x2084;" horiz-adv-x="365" 
d="M296 0h-92l14 90h-190l12 68l220 220h98l-35 -214h54l-13 -74h-53zM248 272l-111 -108h93z" />
    <glyph glyph-name="fiveinferior" unicode="&#x2085;" horiz-adv-x="332" 
d="M192 252c81 0 135 -48 135 -115c0 -92 -73 -144 -177 -144c-51 0 -91 10 -121 30l14 89c32 -23 68 -35 108 -35c41 0 78 17 78 56c0 28 -27 47 -75 47c-27 0 -57 -5 -90 -14l57 212h218l-13 -81h-145l-13 -47c8 1 16 2 24 2z" />
    <glyph glyph-name="sixinferior" unicode="&#x2086;" horiz-adv-x="350" 
d="M257 302c-51 0 -91 -32 -102 -83c19 22 47 33 84 33c64 0 110 -49 110 -112c0 -85 -64 -147 -157 -147c-91 0 -143 63 -143 152c0 63 18 119 54 167c37 49 87 73 152 73c41 0 73 -9 98 -27l-13 -84c-23 19 -51 28 -83 28zM204 182c-27 0 -48 -11 -63 -34
c-1 -5 -2 -13 -2 -25c3 -33 26 -53 55 -53c35 0 61 26 61 62c0 29 -19 50 -51 50z" />
    <glyph glyph-name="seveninferior" unicode="&#x2087;" horiz-adv-x="330" 
d="M150 0h-107l200 297h-171l13 81h282l-12 -75z" />
    <glyph glyph-name="eightinferior" unicode="&#x2088;" horiz-adv-x="355" 
d="M298 195c33 -15 57 -48 57 -83c0 -36 -16 -65 -47 -87c-31 -21 -67 -32 -109 -32c-43 0 -81 10 -114 29c-32 19 -48 47 -48 84c0 47 34 87 83 100c-27 15 -41 39 -41 70c0 32 14 58 42 78c29 21 62 31 101 31c35 0 68 -9 97 -27s44 -44 44 -77c0 -39 -26 -71 -65 -86z
M167 265c0 -21 22 -39 50 -39c29 0 54 17 54 42c0 24 -21 40 -52 40c-27 0 -52 -16 -52 -43zM196 71c33 0 64 18 64 49c0 27 -25 47 -61 47c-35 0 -65 -19 -65 -50c0 -27 26 -46 62 -46z" />
    <glyph glyph-name="nineinferior" unicode="&#x2089;" horiz-adv-x="351" 
d="M156 76c51 0 90 31 102 83c-20 -22 -48 -33 -85 -33c-64 0 -110 49 -110 112c0 85 64 147 157 147c92 0 143 -63 143 -152c0 -63 -18 -119 -55 -168c-36 -48 -86 -72 -150 -72c-42 0 -75 9 -98 27l13 84c23 -19 50 -28 83 -28zM209 196c26 0 47 11 63 34c1 10 2 18 1 25
c-1 33 -25 53 -54 53c-35 0 -61 -26 -61 -62c0 -29 19 -50 51 -50z" />
    <glyph glyph-name="franc" unicode="&#x20a3;" horiz-adv-x="661" 
d="M127 108h-101l16 103h101l78 489h513l-21 -131h-369l-22 -140h285l-20 -128h-285l-15 -90h149l-16 -103h-149l-17 -108h-144z" />
    <glyph glyph-name="lira" unicode="&#x20a4;" horiz-adv-x="602" 
d="M184 362h-82l13 79h82l7 44c24 148 128 229 285 229c63 0 116 -12 157 -36l-21 -134c-39 23 -82 35 -129 35c-89 0 -141 -42 -154 -126l-2 -12h211l-13 -79h-211l-10 -61h212l-13 -79h-212l-4 -29c-5 -30 -18 -51 -39 -64h314l-20 -129h-510l20 129h23c49 0 63 27 72 86
l1 7h-81l13 79h81z" />
    <glyph glyph-name="peseta" unicode="&#x20a7;" horiz-adv-x="752" 
d="M816 539l-18 -115h-83c-37 -91 -131 -147 -250 -147h-172l-44 -277h-144l67 424h-91l18 115h91l26 161h294c128 0 210 -64 221 -161h85zM312 400h157c64 0 118 34 118 98c0 48 -33 76 -93 76h-154z" />
    <glyph glyph-name="Euro" unicode="&#x20ac;" horiz-adv-x="662" 
d="M68 239l13 87h69c1 23 3 45 6 67h-64l14 86h73c56 145 187 235 355 235c66 0 122 -14 169 -42l-26 -132c-41 28 -90 42 -147 42c-91 0 -157 -34 -197 -103h205l-14 -86h-222c-4 -21 -6 -44 -6 -67h217l-14 -87h-192c24 -83 95 -121 188 -121c65 0 120 17 163 50l-22 -144
c-45 -25 -101 -38 -166 -38c-79 0 -147 22 -205 67s-94 107 -108 186h-89z" />
    <glyph glyph-name="uni20B4" unicode="&#x20b4;" horiz-adv-x="601" 
d="M456 531c0 37 -38 56 -115 56c-57 0 -111 -10 -160 -29l20 130c43 17 99 26 169 26c41 0 78 -5 113 -15c35 -9 65 -26 91 -51s39 -56 39 -93c0 -33 -12 -62 -37 -88h56l-12 -79h-510l13 79h291c28 16 42 37 42 64zM262 177c0 -41 40 -62 121 -62c66 0 124 12 174 35
l-20 -132c-56 -21 -115 -32 -178 -32c-59 0 -114 10 -167 33c-52 23 -87 68 -87 128c0 45 18 83 54 113h-69l12 80h510l-12 -80h-267c-47 -22 -71 -50 -71 -83z" />
    <glyph glyph-name="uni20B6" unicode="&#x20b6;" horiz-adv-x="720" 
d="M195 380l50 320h291c69 0 123 -18 163 -53s60 -81 60 -137c0 -69 -25 -126 -76 -169c-50 -43 -114 -64 -192 -64h-169l-11 -66h254l-16 -103h-254l-17 -108h-143l17 108h-110l16 103h110l11 66h-110l16 103h110zM369 574l-31 -194h141c73 0 133 36 133 108
c0 53 -37 86 -105 86h-138z" />
    <glyph glyph-name="uni20B6" unicode="&#x20cf;" horiz-adv-x="720" 
d="M195 380l50 320h291c69 0 123 -18 163 -53s60 -81 60 -137c0 -69 -25 -126 -76 -169c-50 -43 -114 -64 -192 -64h-169l-11 -66h254l-16 -103h-254l-17 -108h-143l17 108h-110l16 103h110l11 66h-110l16 103h110zM369 574l-31 -194h141c73 0 133 36 133 108
c0 53 -37 86 -105 86h-138z" />
    <glyph glyph-name="uni20B6" unicode="&#x20ce;" horiz-adv-x="720" 
d="M195 380l50 320h291c69 0 123 -18 163 -53s60 -81 60 -137c0 -69 -25 -126 -76 -169c-50 -43 -114 -64 -192 -64h-169l-11 -66h254l-16 -103h-254l-17 -108h-143l17 108h-110l16 103h110l11 66h-110l16 103h110zM369 574l-31 -194h141c73 0 133 36 133 108
c0 53 -37 86 -105 86h-138z" />
    <glyph glyph-name="uni20B6" unicode="&#x20cd;" horiz-adv-x="720" 
d="M195 380l50 320h291c69 0 123 -18 163 -53s60 -81 60 -137c0 -69 -25 -126 -76 -169c-50 -43 -114 -64 -192 -64h-169l-11 -66h254l-16 -103h-254l-17 -108h-143l17 108h-110l16 103h110l11 66h-110l16 103h110zM369 574l-31 -194h141c73 0 133 36 133 108
c0 53 -37 86 -105 86h-138z" />
    <glyph glyph-name="uni20B6" unicode="&#x20cc;" horiz-adv-x="720" 
d="M195 380l50 320h291c69 0 123 -18 163 -53s60 -81 60 -137c0 -69 -25 -126 -76 -169c-50 -43 -114 -64 -192 -64h-169l-11 -66h254l-16 -103h-254l-17 -108h-143l17 108h-110l16 103h110l11 66h-110l16 103h110zM369 574l-31 -194h141c73 0 133 36 133 108
c0 53 -37 86 -105 86h-138z" />
    <glyph glyph-name="uni20B6" unicode="&#x20cb;" horiz-adv-x="720" 
d="M195 380l50 320h291c69 0 123 -18 163 -53s60 -81 60 -137c0 -69 -25 -126 -76 -169c-50 -43 -114 -64 -192 -64h-169l-11 -66h254l-16 -103h-254l-17 -108h-143l17 108h-110l16 103h110l11 66h-110l16 103h110zM369 574l-31 -194h141c73 0 133 36 133 108
c0 53 -37 86 -105 86h-138z" />
    <glyph glyph-name="uni20B6" unicode="&#x20ca;" horiz-adv-x="720" 
d="M195 380l50 320h291c69 0 123 -18 163 -53s60 -81 60 -137c0 -69 -25 -126 -76 -169c-50 -43 -114 -64 -192 -64h-169l-11 -66h254l-16 -103h-254l-17 -108h-143l17 108h-110l16 103h110l11 66h-110l16 103h110zM369 574l-31 -194h141c73 0 133 36 133 108
c0 53 -37 86 -105 86h-138z" />
    <glyph glyph-name="uni20B6" unicode="&#x20c9;" horiz-adv-x="720" 
d="M195 380l50 320h291c69 0 123 -18 163 -53s60 -81 60 -137c0 -69 -25 -126 -76 -169c-50 -43 -114 -64 -192 -64h-169l-11 -66h254l-16 -103h-254l-17 -108h-143l17 108h-110l16 103h110l11 66h-110l16 103h110zM369 574l-31 -194h141c73 0 133 36 133 108
c0 53 -37 86 -105 86h-138z" />
    <glyph glyph-name="uni20B6" unicode="&#x20c8;" horiz-adv-x="720" 
d="M195 380l50 320h291c69 0 123 -18 163 -53s60 -81 60 -137c0 -69 -25 -126 -76 -169c-50 -43 -114 -64 -192 -64h-169l-11 -66h254l-16 -103h-254l-17 -108h-143l17 108h-110l16 103h110l11 66h-110l16 103h110zM369 574l-31 -194h141c73 0 133 36 133 108
c0 53 -37 86 -105 86h-138z" />
    <glyph glyph-name="uni20B6" unicode="&#x20c7;" horiz-adv-x="720" 
d="M195 380l50 320h291c69 0 123 -18 163 -53s60 -81 60 -137c0 -69 -25 -126 -76 -169c-50 -43 -114 -64 -192 -64h-169l-11 -66h254l-16 -103h-254l-17 -108h-143l17 108h-110l16 103h110l11 66h-110l16 103h110zM369 574l-31 -194h141c73 0 133 36 133 108
c0 53 -37 86 -105 86h-138z" />
    <glyph glyph-name="uni20B6" unicode="&#x20c6;" horiz-adv-x="720" 
d="M195 380l50 320h291c69 0 123 -18 163 -53s60 -81 60 -137c0 -69 -25 -126 -76 -169c-50 -43 -114 -64 -192 -64h-169l-11 -66h254l-16 -103h-254l-17 -108h-143l17 108h-110l16 103h110l11 66h-110l16 103h110zM369 574l-31 -194h141c73 0 133 36 133 108
c0 53 -37 86 -105 86h-138z" />
    <glyph glyph-name="uni20B6" unicode="&#x20c5;" horiz-adv-x="720" 
d="M195 380l50 320h291c69 0 123 -18 163 -53s60 -81 60 -137c0 -69 -25 -126 -76 -169c-50 -43 -114 -64 -192 -64h-169l-11 -66h254l-16 -103h-254l-17 -108h-143l17 108h-110l16 103h110l11 66h-110l16 103h110zM369 574l-31 -194h141c73 0 133 36 133 108
c0 53 -37 86 -105 86h-138z" />
    <glyph glyph-name="uni20B6" unicode="&#x20c4;" horiz-adv-x="720" 
d="M195 380l50 320h291c69 0 123 -18 163 -53s60 -81 60 -137c0 -69 -25 -126 -76 -169c-50 -43 -114 -64 -192 -64h-169l-11 -66h254l-16 -103h-254l-17 -108h-143l17 108h-110l16 103h110l11 66h-110l16 103h110zM369 574l-31 -194h141c73 0 133 36 133 108
c0 53 -37 86 -105 86h-138z" />
    <glyph glyph-name="uni20B6" unicode="&#x20c3;" horiz-adv-x="720" 
d="M195 380l50 320h291c69 0 123 -18 163 -53s60 -81 60 -137c0 -69 -25 -126 -76 -169c-50 -43 -114 -64 -192 -64h-169l-11 -66h254l-16 -103h-254l-17 -108h-143l17 108h-110l16 103h110l11 66h-110l16 103h110zM369 574l-31 -194h141c73 0 133 36 133 108
c0 53 -37 86 -105 86h-138z" />
    <glyph glyph-name="uni20B6" unicode="&#x20c2;" horiz-adv-x="720" 
d="M195 380l50 320h291c69 0 123 -18 163 -53s60 -81 60 -137c0 -69 -25 -126 -76 -169c-50 -43 -114 -64 -192 -64h-169l-11 -66h254l-16 -103h-254l-17 -108h-143l17 108h-110l16 103h110l11 66h-110l16 103h110zM369 574l-31 -194h141c73 0 133 36 133 108
c0 53 -37 86 -105 86h-138z" />
    <glyph glyph-name="uni20B6" unicode="&#x20c1;" horiz-adv-x="720" 
d="M195 380l50 320h291c69 0 123 -18 163 -53s60 -81 60 -137c0 -69 -25 -126 -76 -169c-50 -43 -114 -64 -192 -64h-169l-11 -66h254l-16 -103h-254l-17 -108h-143l17 108h-110l16 103h110l11 66h-110l16 103h110zM369 574l-31 -194h141c73 0 133 36 133 108
c0 53 -37 86 -105 86h-138z" />
    <glyph glyph-name="uni20B6" unicode="&#x20c0;" horiz-adv-x="720" 
d="M195 380l50 320h291c69 0 123 -18 163 -53s60 -81 60 -137c0 -69 -25 -126 -76 -169c-50 -43 -114 -64 -192 -64h-169l-11 -66h254l-16 -103h-254l-17 -108h-143l17 108h-110l16 103h110l11 66h-110l16 103h110zM369 574l-31 -194h141c73 0 133 36 133 108
c0 53 -37 86 -105 86h-138z" />
    <glyph glyph-name="uni20B6" unicode="&#x20bf;" horiz-adv-x="720" 
d="M195 380l50 320h291c69 0 123 -18 163 -53s60 -81 60 -137c0 -69 -25 -126 -76 -169c-50 -43 -114 -64 -192 -64h-169l-11 -66h254l-16 -103h-254l-17 -108h-143l17 108h-110l16 103h110l11 66h-110l16 103h110zM369 574l-31 -194h141c73 0 133 36 133 108
c0 53 -37 86 -105 86h-138z" />
    <glyph glyph-name="uni20B6" unicode="&#x20be;" horiz-adv-x="720" 
d="M195 380l50 320h291c69 0 123 -18 163 -53s60 -81 60 -137c0 -69 -25 -126 -76 -169c-50 -43 -114 -64 -192 -64h-169l-11 -66h254l-16 -103h-254l-17 -108h-143l17 108h-110l16 103h110l11 66h-110l16 103h110zM369 574l-31 -194h141c73 0 133 36 133 108
c0 53 -37 86 -105 86h-138z" />
    <glyph glyph-name="uni20B6" unicode="&#x20bd;" horiz-adv-x="720" 
d="M195 380l50 320h291c69 0 123 -18 163 -53s60 -81 60 -137c0 -69 -25 -126 -76 -169c-50 -43 -114 -64 -192 -64h-169l-11 -66h254l-16 -103h-254l-17 -108h-143l17 108h-110l16 103h110l11 66h-110l16 103h110zM369 574l-31 -194h141c73 0 133 36 133 108
c0 53 -37 86 -105 86h-138z" />
    <glyph glyph-name="uni20B6" unicode="&#x20bc;" horiz-adv-x="720" 
d="M195 380l50 320h291c69 0 123 -18 163 -53s60 -81 60 -137c0 -69 -25 -126 -76 -169c-50 -43 -114 -64 -192 -64h-169l-11 -66h254l-16 -103h-254l-17 -108h-143l17 108h-110l16 103h110l11 66h-110l16 103h110zM369 574l-31 -194h141c73 0 133 36 133 108
c0 53 -37 86 -105 86h-138z" />
    <glyph glyph-name="uni20B6" unicode="&#x20bb;" horiz-adv-x="720" 
d="M195 380l50 320h291c69 0 123 -18 163 -53s60 -81 60 -137c0 -69 -25 -126 -76 -169c-50 -43 -114 -64 -192 -64h-169l-11 -66h254l-16 -103h-254l-17 -108h-143l17 108h-110l16 103h110l11 66h-110l16 103h110zM369 574l-31 -194h141c73 0 133 36 133 108
c0 53 -37 86 -105 86h-138z" />
    <glyph glyph-name="uni20B6" unicode="&#x20ba;" horiz-adv-x="720" 
d="M195 380l50 320h291c69 0 123 -18 163 -53s60 -81 60 -137c0 -69 -25 -126 -76 -169c-50 -43 -114 -64 -192 -64h-169l-11 -66h254l-16 -103h-254l-17 -108h-143l17 108h-110l16 103h110l11 66h-110l16 103h110zM369 574l-31 -194h141c73 0 133 36 133 108
c0 53 -37 86 -105 86h-138z" />
    <glyph glyph-name="uni20B6" unicode="&#x20b9;" horiz-adv-x="720" 
d="M195 380l50 320h291c69 0 123 -18 163 -53s60 -81 60 -137c0 -69 -25 -126 -76 -169c-50 -43 -114 -64 -192 -64h-169l-11 -66h254l-16 -103h-254l-17 -108h-143l17 108h-110l16 103h110l11 66h-110l16 103h110zM369 574l-31 -194h141c73 0 133 36 133 108
c0 53 -37 86 -105 86h-138z" />
    <glyph glyph-name="uni20B6" unicode="&#x20b7;" horiz-adv-x="720" 
d="M195 380l50 320h291c69 0 123 -18 163 -53s60 -81 60 -137c0 -69 -25 -126 -76 -169c-50 -43 -114 -64 -192 -64h-169l-11 -66h254l-16 -103h-254l-17 -108h-143l17 108h-110l16 103h110l11 66h-110l16 103h110zM369 574l-31 -194h141c73 0 133 36 133 108
c0 53 -37 86 -105 86h-138z" />
    <glyph glyph-name="uni2113" unicode="&#x2113;" horiz-adv-x="423" 
d="M189 146c0 -43 27 -65 82 -65c38 0 73 12 105 36l-13 -92c-35 -25 -78 -38 -127 -38c-89 0 -150 51 -150 139c0 16 1 33 4 50l45 291c11 72 33 131 66 176c34 46 79 69 136 69c83 0 133 -57 133 -136c0 -76 -33 -152 -93 -221c-30 -34 -59 -64 -86 -89s-59 -52 -97 -82
c-3 -20 -5 -33 -5 -38zM242 482l-28 -170c108 93 162 175 162 247c0 38 -15 57 -44 57c-45 0 -75 -45 -90 -134z" />
    <glyph glyph-name="uni2116" unicode="&#x2116;" horiz-adv-x="1148" 
d="M693 0h-118l-283 463l-72 -463h-143l110 700h122l280 -462l72 462h142zM1133 225h-326l14 86h326zM1025 706c50 0 91 -15 123 -46s48 -70 48 -117c0 -49 -17 -91 -52 -126s-78 -53 -129 -53c-50 0 -91 15 -123 46s-48 70 -48 117c0 49 17 91 52 126s78 53 129 53z
M1015 454c44 0 82 41 82 90c0 43 -31 72 -72 72c-45 0 -83 -41 -83 -90c0 -43 32 -72 73 -72z" />
    <glyph glyph-name="trademark" unicode="&#x2122;" horiz-adv-x="682" 
d="M452 389h-78l49 311h71l65 -113l99 113h76l-49 -311h-79l29 185l-68 -74h-40l-46 75zM238 389h-79l38 240h-95l11 71h269l-11 -71h-95z" />
    <glyph glyph-name="Omega" unicode="&#x2126;" horiz-adv-x="792" 
d="M779 418c0 -112 -51 -216 -139 -289h100l-20 -129h-269l17 111c48 30 87 71 116 122c30 52 45 107 45 165c0 51 -14 94 -42 129s-68 53 -120 53c-124 1 -206 -134 -202 -251c0 -44 8 -86 25 -127c17 -40 39 -70 64 -91l-17 -111h-267l20 129h109c-47 51 -77 136 -77 224
c0 101 33 187 100 256c67 70 152 105 254 105c86 0 158 -27 216 -81c58 -53 87 -125 87 -215z" />
    <glyph glyph-name="estimated" unicode="&#x212e;" horiz-adv-x="789" 
d="M430 20c116 0 220 60 279 160h39c-27 -55 -69 -102 -126 -139s-121 -55 -194 -55c-92 0 -169 29 -231 88c-61 59 -92 134 -92 226c0 101 34 186 103 257s155 106 258 106c93 0 170 -30 231 -90c61 -59 92 -133 92 -220c0 -14 -1 -25 -2 -33h-568l-20 -193
c56 -71 133 -107 231 -107zM243 541l-20 -188h452l18 172c-58 70 -134 105 -228 105c-85 0 -159 -30 -222 -89z" />
    <glyph glyph-name="onethird" unicode="&#x2153;" horiz-adv-x="800" 
d="M104 0l533 700h108l-533 -700h-108zM265 322h-96l44 280l-109 -51l15 94l113 55h92zM818 378l-11 -70l-91 -71c43 -13 77 -48 77 -101c0 -87 -69 -143 -166 -143c-55 0 -99 11 -131 34l15 88c28 -25 65 -38 111 -38c41 0 77 19 77 55c0 27 -23 45 -63 45
c-21 0 -40 -3 -57 -9l9 59l95 70h-133l14 81h254z" />
    <glyph glyph-name="twothirds" unicode="&#x2154;" horiz-adv-x="893" 
d="M133 583l16 95c31 19 67 29 110 29c75 0 134 -44 134 -117c0 -52 -28 -92 -96 -144l-58 -44h145l-13 -80h-283l12 68l121 95c55 43 74 64 74 91s-21 45 -56 45c-33 0 -69 -13 -106 -38zM911 378l-11 -70l-91 -71c43 -13 77 -48 77 -101c0 -87 -69 -143 -166 -143
c-55 0 -99 11 -131 34l15 88c28 -25 65 -38 111 -38c41 0 77 19 77 55c0 27 -23 45 -63 45c-21 0 -40 -3 -57 -9l9 59l95 70h-133l14 81h254zM197 0l533 700h108l-533 -700h-108z" />
    <glyph glyph-name="uni2155" unicode="&#x2155;" horiz-adv-x="781" 
d="M104 0l533 700h108l-533 -700h-108zM265 322h-96l44 280l-109 -51l15 94l113 55h92zM641 252c81 0 135 -48 135 -115c0 -92 -73 -144 -177 -144c-51 0 -91 10 -121 30l14 89c32 -23 68 -35 108 -35c43 0 78 17 78 56c0 28 -27 47 -75 47c-27 0 -57 -5 -90 -14l57 212h218
l-13 -81h-145l-13 -47c8 1 16 2 24 2z" />
    <glyph glyph-name="uni2156" unicode="&#x2156;" horiz-adv-x="874" 
d="M133 583l16 95c31 19 67 29 110 29c75 0 134 -44 134 -117c0 -52 -28 -92 -96 -144l-58 -44h145l-13 -80h-283l12 68l121 95c55 43 74 64 74 91s-21 45 -56 45c-33 0 -69 -13 -106 -38zM734 252c81 0 135 -48 135 -115c0 -92 -73 -144 -177 -144c-51 0 -91 10 -121 30
l14 89c32 -23 68 -35 108 -35c41 0 78 17 78 56c0 28 -27 47 -75 47c-27 0 -57 -5 -90 -14l57 212h218l-13 -81h-145l-13 -47c8 1 16 2 24 2zM197 0l533 700h108l-533 -700h-108z" />
    <glyph glyph-name="uni2157" unicode="&#x2157;" horiz-adv-x="820" 
d="M680 252c81 0 135 -48 135 -115c0 -92 -73 -144 -177 -144c-51 0 -91 10 -121 30l14 89c32 -23 68 -35 108 -35c41 0 78 17 78 56c0 28 -27 47 -75 47c-27 0 -57 -5 -90 -14l57 212h218l-13 -81h-145l-13 -47c8 1 16 2 24 2zM398 700l-11 -70l-91 -71
c43 -13 77 -48 77 -101c0 -87 -69 -143 -166 -143c-55 0 -99 11 -131 34l15 88c28 -25 65 -38 111 -38c41 0 77 19 77 55c0 27 -23 45 -63 45c-21 0 -40 -3 -57 -9l9 59l95 70h-133l14 81h254zM144 0l533 700h108l-533 -700h-108z" />
    <glyph glyph-name="uni2158" unicode="&#x2158;" horiz-adv-x="862" 
d="M346 322h-92l14 90h-190l12 68l220 220h98l-35 -214h54l-13 -74h-53zM298 594l-111 -108h93zM722 252c81 0 135 -48 135 -115c0 -92 -73 -144 -177 -144c-51 0 -91 10 -121 30l14 89c32 -23 68 -35 108 -35c41 0 78 17 78 56c0 28 -27 47 -75 47c-27 0 -57 -5 -90 -14
l57 212h218l-13 -81h-145l-13 -47c8 1 16 2 24 2zM185 0l533 700h108l-533 -700h-108z" />
    <glyph glyph-name="uni2159" unicode="&#x2159;" horiz-adv-x="785" 
d="M104 0l533 700h108l-533 -700h-108zM265 322h-96l44 280l-109 -51l15 94l113 55h92zM692 302c-51 0 -91 -32 -102 -83c19 22 47 33 84 33c64 0 110 -49 110 -112c0 -85 -64 -147 -157 -147c-91 0 -143 63 -143 152c0 63 18 119 54 167c37 49 87 73 152 73
c41 0 73 -9 98 -27l-13 -84c-23 19 -51 28 -83 28zM639 182c-27 0 -48 -11 -63 -34c-1 -5 -2 -13 -2 -25c3 -33 26 -53 55 -53c35 0 61 26 61 62c0 29 -19 50 -51 50z" />
    <glyph glyph-name="uni215A" unicode="&#x215a;" horiz-adv-x="824" 
d="M731 302c-51 0 -91 -32 -102 -83c19 22 47 33 84 33c64 0 110 -49 110 -112c0 -85 -64 -147 -157 -147c-91 0 -143 63 -143 152c0 63 18 119 54 167c37 49 87 73 152 73c41 0 73 -9 98 -27l-13 -84c-23 19 -51 28 -83 28zM678 182c-27 0 -48 -11 -63 -34
c-1 -5 -2 -13 -2 -25c3 -33 26 -53 55 -53c35 0 61 26 61 62c0 29 -19 50 -51 50zM242 574c81 0 135 -48 135 -115c0 -92 -73 -144 -177 -144c-51 0 -91 10 -121 30l14 89c32 -23 68 -35 108 -35c41 0 78 17 78 56c0 28 -27 47 -75 47c-27 0 -57 -5 -90 -14l57 212h218
l-13 -81h-145l-13 -47c8 1 16 2 24 2zM143 0l533 700h108l-533 -700h-108z" />
    <glyph glyph-name="oneeighth" unicode="&#x215b;" horiz-adv-x="802" 
d="M104 0l533 700h108l-533 -700h-108zM265 322h-96l44 280l-109 -51l15 94l113 55h92zM745 195c33 -15 57 -48 57 -83c0 -36 -16 -65 -47 -87c-31 -21 -67 -32 -109 -32c-43 0 -81 10 -114 29c-32 19 -48 47 -48 84c0 47 34 87 83 100c-27 15 -41 39 -41 70
c0 32 14 58 42 78c29 21 62 31 101 31c35 0 68 -9 97 -27s44 -44 44 -77c0 -39 -26 -71 -65 -86zM614 265c0 -21 22 -39 50 -39c29 0 54 17 54 42c0 24 -21 40 -52 40c-27 0 -52 -16 -52 -43zM643 71c33 0 64 18 64 49c0 27 -25 47 -61 47c-35 0 -65 -19 -65 -50
c0 -27 26 -46 62 -46z" />
    <glyph glyph-name="threeeighths" unicode="&#x215c;" horiz-adv-x="842" 
d="M785 195c33 -15 57 -48 57 -83c0 -36 -16 -65 -47 -87c-31 -21 -67 -32 -109 -32c-43 0 -81 10 -114 29c-32 19 -48 47 -48 84c0 47 34 87 83 100c-27 15 -41 39 -41 70c0 32 14 58 42 78c29 21 62 31 101 31c35 0 68 -9 97 -27s44 -44 44 -77c0 -39 -26 -71 -65 -86z
M654 265c0 -21 22 -39 50 -39c29 0 54 17 54 42c0 24 -21 40 -52 40c-27 0 -52 -16 -52 -43zM683 71c33 0 64 18 64 49c0 27 -25 47 -61 47c-35 0 -65 -19 -65 -50c0 -27 26 -46 62 -46zM398 700l-11 -70l-91 -71c43 -13 77 -48 77 -101c0 -87 -69 -143 -166 -143
c-55 0 -99 11 -131 34l15 88c28 -25 65 -38 111 -38c41 0 77 19 77 55c0 27 -23 45 -63 45c-21 0 -40 -3 -57 -9l9 59l95 70h-133l14 81h254zM144 0l533 700h108l-533 -700h-108z" />
    <glyph glyph-name="fiveeighths" unicode="&#x215d;" horiz-adv-x="839" 
d="M782 195c33 -15 57 -48 57 -83c0 -36 -16 -65 -47 -87c-31 -21 -67 -32 -109 -32c-43 0 -81 10 -114 29c-32 19 -48 47 -48 84c0 47 34 87 83 100c-27 15 -41 39 -41 70c0 32 14 58 42 78c29 21 62 31 101 31c35 0 68 -9 97 -27s44 -44 44 -77c0 -39 -26 -71 -65 -86z
M651 265c0 -21 22 -39 50 -39c29 0 54 17 54 42c0 24 -21 40 -52 40c-27 0 -52 -16 -52 -43zM680 71c33 0 64 18 64 49c0 27 -25 47 -61 47c-35 0 -65 -19 -65 -50c0 -27 26 -46 62 -46zM242 574c81 0 135 -48 135 -115c0 -92 -73 -144 -177 -144c-51 0 -91 10 -121 30
l14 89c32 -23 68 -35 108 -35c41 0 78 17 78 56c0 28 -27 47 -75 47c-27 0 -57 -5 -90 -14l57 212h218l-13 -81h-145l-13 -47c8 1 16 2 24 2zM141 0l533 700h108l-533 -700h-108z" />
    <glyph glyph-name="seveneighths" unicode="&#x215e;" horiz-adv-x="792" 
d="M735 195c33 -15 57 -48 57 -83c0 -36 -16 -65 -47 -87c-31 -21 -67 -32 -109 -32c-43 0 -81 10 -114 29c-32 19 -48 47 -48 84c0 47 34 87 83 100c-27 15 -41 39 -41 70c0 32 14 58 42 78c29 21 62 31 101 31c35 0 68 -9 97 -27s44 -44 44 -77c0 -39 -26 -71 -65 -86z
M604 265c0 -21 22 -39 50 -39c29 0 54 17 54 42c0 24 -21 40 -52 40c-27 0 -52 -16 -52 -43zM633 71c33 0 64 18 64 49c0 27 -25 47 -61 47c-35 0 -65 -19 -65 -50c0 -27 26 -46 62 -46zM200 322h-107l200 297h-171l13 81h282l-12 -75zM94 0l533 700h108l-533 -700h-108z
" />
    <glyph glyph-name="uni215F" unicode="&#x215f;" horiz-adv-x="476" 
d="M265 322h-96l44 280l-109 -51l15 94l113 55h92zM104 0l533 700h108l-533 -700h-108z" />
    <glyph glyph-name="arrowleft" unicode="&#x2190;" horiz-adv-x="706" 
d="M84 267l225 221h144l-173 -166h414l-17 -111h-425l121 -166h-134z" />
    <glyph glyph-name="arrowup" unicode="&#x2191;" horiz-adv-x="567" 
d="M379 602l191 -190l-22 -134l-143 146l-66 -424h-111l66 415l-189 -147l22 144z" />
    <glyph glyph-name="arrowright" unicode="&#x2192;" horiz-adv-x="706" 
d="M536 322l-119 166h134l155 -221l-225 -222h-144l173 166h-415l17 111h424z" />
    <glyph glyph-name="arrowdown" unicode="&#x2193;" horiz-adv-x="567" 
d="M281 -14l-191 190l22 134l143 -146l66 424h111l-66 -415l189 147l-22 -144z" />
    <glyph glyph-name="partialdiff" unicode="&#x2202;" horiz-adv-x="619" 
d="M306 -13c-68 0 -124 20 -168 61c-43 41 -65 96 -65 164c0 70 22 129 66 177s100 72 169 72c75 0 131 -27 170 -82c0 60 -16 112 -47 157s-77 68 -136 68c-49 0 -96 -13 -139 -39v104c44 29 96 43 156 43c87 0 157 -32 209 -96c52 -63 78 -148 78 -255
c0 -96 -21 -182 -66 -255c-44 -73 -124 -119 -227 -119zM318 93c83 0 141 63 153 167c-23 59 -76 100 -137 100c-38 0 -71 -13 -98 -39s-41 -60 -41 -102c0 -75 50 -126 123 -126z" />
    <glyph glyph-name="increment" unicode="&#x2206;" horiz-adv-x="769" 
d="M753 0h-737l410 700h138zM471 521l-229 -394h332z" />
    <glyph glyph-name="product" unicode="&#x220f;" horiz-adv-x="775" 
d="M258 -134h-123l115 724h-121l18 110h701l-18 -110h-122l-115 -724h-123l115 724h-212z" />
    <glyph glyph-name="summation" unicode="&#x2211;" horiz-adv-x="635" 
d="M584 0h-541l16 102l267 251l-181 245l16 102h527l-21 -129h-330l142 -193l-9 -56l-203 -193h337z" />
    <glyph glyph-name="minus" unicode="&#x2212;" horiz-adv-x="681" 
d="M673 268h-580l19 126h580z" />
    <glyph glyph-name="uni2215" unicode="&#x2215;" horiz-adv-x="543" 
d="M6 0l533 700h107l-533 -700h-107z" />
    <glyph glyph-name="uni2219" unicode="&#x2219;" horiz-adv-x="248" 
d="M166 178c-49 0 -87 39 -87 88c0 48 38 87 87 87c47 0 86 -39 86 -87c0 -49 -39 -88 -86 -88z" />
    <glyph glyph-name="radical" unicode="&#x221a;" horiz-adv-x="730" 
d="M432 0h-112l-114 388h-138l17 111h215l96 -339l300 540h131z" />
    <glyph glyph-name="infinity" unicode="&#x221e;" horiz-adv-x="803" 
d="M648 490c49 0 89 -16 120 -47s47 -72 47 -123c0 -58 -20 -107 -59 -148c-39 -40 -89 -60 -148 -60c-70 0 -126 35 -169 104c-59 -69 -122 -104 -191 -104c-100 0 -167 68 -167 171c0 58 20 107 59 147s89 60 148 60c67 0 129 -39 169 -104c57 69 121 104 191 104z
M269 214c40 0 82 29 125 87c-29 59 -64 89 -107 89c-55 0 -94 -48 -94 -99c0 -47 29 -77 76 -77zM609 213c55 0 94 48 94 99c0 47 -29 77 -76 77c-40 0 -81 -29 -124 -87c27 -59 62 -89 106 -89z" />
    <glyph glyph-name="integral" unicode="&#x222b;" horiz-adv-x="514" 
d="M468 712c39 0 72 -6 98 -19v-116c-23 9 -46 13 -68 13c-64 0 -102 -39 -115 -116l-76 -473c-19 -121 -93 -207 -225 -207c-39 0 -72 6 -98 19v116c23 -9 46 -13 68 -13c64 0 102 39 115 116l76 473c19 121 93 207 225 207z" />
    <glyph glyph-name="approxequal" unicode="&#x2248;" horiz-adv-x="625" 
d="M525 464c53 0 97 16 133 48l-20 -127c-25 -25 -79 -43 -132 -43c-34 0 -78 9 -133 27c-54 19 -98 28 -133 28c-52 0 -96 -16 -131 -47l19 127c24 25 79 44 131 44c35 0 79 -10 133 -29s98 -28 133 -28zM489 234c53 0 97 16 133 48l-20 -127c-25 -25 -79 -43 -132 -43
c-34 0 -78 9 -133 28c-54 19 -98 28 -133 28c-51 0 -95 -16 -131 -48l19 127c24 25 79 44 131 44c35 0 79 -10 133 -29s98 -28 133 -28z" />
    <glyph glyph-name="notequal" unicode="&#x2260;" horiz-adv-x="609" 
d="M329 381h-219l20 127h286l67 98h126l-67 -98h97l-20 -127h-164l-67 -99h215l-20 -128h-282l-72 -106h-126l72 106h-101l20 128h168z" />
    <glyph glyph-name="lessequal" unicode="&#x2264;" horiz-adv-x="609" 
d="M609 313l-23 -137l-479 186l20 121l538 186l-23 -145l-382 -105zM561 19h-508l20 126h509z" />
    <glyph glyph-name="greaterequal" unicode="&#x2265;" horiz-adv-x="609" 
d="M616 362l-538 -186l23 145l382 106l-349 105l22 137l480 -186zM562 19h-508l20 126h509z" />
    <glyph glyph-name="dotmath" unicode="&#x22c5;" horiz-adv-x="263" 
d="M188 299c-49 0 -87 39 -87 88c0 48 38 87 87 87c47 0 86 -39 86 -87c0 -49 -39 -88 -86 -88z" />
    <glyph glyph-name="lozenge" unicode="&#x25ca;" horiz-adv-x="565" 
d="M344 0h-121l-134 350l245 350h121l136 -350zM216 345l83 -234l166 244l-83 234z" />
    <glyph glyph-name="uniF401" unicode="&#xf401;" horiz-adv-x="12" 
d="M-224 761h-122l108 146h170z" />
    <glyph glyph-name="uniF639" unicode="&#xf639;" 
d="M401 714c83 0 149 -29 196 -88c48 -59 72 -135 72 -229c0 -65 -12 -128 -37 -190c-24 -61 -61 -114 -112 -157c-50 -43 -108 -64 -173 -64c-83 0 -149 29 -197 87c-47 59 -71 135 -71 230c0 65 12 128 36 189c25 62 62 114 112 157c51 43 109 65 174 65zM351 116
c37 0 70 16 97 47c55 63 77 150 77 234c0 108 -44 187 -128 187c-37 0 -70 -16 -97 -47c-55 -63 -77 -150 -77 -234c0 -108 44 -187 128 -187z" />
    <glyph glyph-name="uniF63A" unicode="&#xf63a;" 
d="M147 505l24 149c57 40 123 60 200 60c66 0 121 -19 166 -58s67 -90 67 -154c0 -96 -56 -172 -180 -271l-132 -105h294l-19 -126h-499l17 105l228 186c53 43 91 78 113 105s33 55 33 84c0 63 -45 99 -116 99c-67 0 -133 -25 -196 -74z" />
    <glyph glyph-name="uniF63B" unicode="&#xf63b;" 
d="M659 700l-18 -108l-188 -155c42 -9 79 -29 112 -62s49 -76 49 -130c0 -78 -28 -141 -84 -188s-127 -71 -213 -71c-93 0 -169 21 -228 64l21 135c62 -47 130 -70 203 -70c43 0 80 11 111 33c32 22 48 53 48 94c0 63 -52 104 -136 104c-31 0 -60 -5 -88 -16l14 92l193 154
h-264l20 124h448z" />
    <glyph glyph-name="uniF63C" unicode="&#xf63c;" 
d="M513 0h-140l28 175h-350l15 104l416 421h142l-65 -409h103l-18 -116h-103zM455 519l-228 -228h192z" />
    <glyph glyph-name="uniF63D" unicode="&#xf63d;" 
d="M372 464c73 0 131 -21 175 -63c45 -42 67 -94 67 -155c0 -81 -30 -145 -89 -191s-133 -69 -223 -69c-89 0 -160 19 -213 56l20 136c59 -42 123 -63 192 -63c45 0 84 10 117 30c34 21 51 52 51 95c0 63 -54 108 -153 108c-48 0 -101 -8 -158 -24l100 376h379l-18 -124
h-271l-32 -117c18 3 37 5 56 5z" />
    <glyph glyph-name="uniF63E" unicode="&#xf63e;" 
d="M419 459c61 -1 110 -21 147 -60s56 -87 56 -146c0 -77 -26 -140 -77 -191s-116 -76 -197 -76c-80 0 -142 26 -187 77s-67 117 -67 198c0 119 36 230 96 314c61 85 158 139 269 139c72 0 129 -17 172 -52l-20 -129c-41 34 -91 51 -150 51c-53 0 -98 -18 -137 -55
c-38 -36 -61 -81 -69 -135c39 43 94 65 164 65zM480 240c0 61 -42 107 -109 107c-53 0 -108 -36 -136 -88c-1 -7 -2 -13 -2 -19c0 -76 49 -130 122 -130s125 54 125 130z" />
    <glyph glyph-name="uniF63F" unicode="&#xf63f;" 
d="M277 0h-154l377 571h-330l20 129h494l-18 -111z" />
    <glyph glyph-name="uniF640" unicode="&#xf640;" 
d="M518 361c65 -27 108 -86 108 -157c0 -67 -27 -120 -81 -159s-119 -59 -195 -59c-142 0 -287 63 -287 207c0 88 61 163 158 191c-51 25 -80 74 -80 131c0 61 24 109 73 145s109 54 178 54c41 0 79 -6 115 -19c73 -25 132 -87 132 -168c0 -76 -48 -138 -121 -166zM478 212
c0 56 -51 98 -130 98c-75 0 -134 -41 -134 -105c0 -59 58 -98 130 -98s134 40 134 105zM385 416c59 0 112 34 112 90c0 51 -48 85 -108 85c-57 0 -110 -35 -110 -91c0 -49 49 -84 106 -84z" />
    <glyph glyph-name="uniF641" unicode="&#xf641;" 
d="M319 241c-61 1 -110 20 -147 59s-56 88 -56 147c0 77 25 140 76 191s117 76 198 76c80 0 142 -26 187 -77s67 -117 67 -198c0 -119 -36 -230 -97 -315c-60 -84 -157 -138 -268 -138c-72 0 -129 17 -172 52l20 129c41 -34 91 -51 150 -51c53 0 98 18 136 54
c39 37 62 82 70 136c-39 -43 -94 -65 -164 -65zM258 460c0 -61 42 -107 109 -107c53 0 108 36 136 88c1 7 2 13 2 19c0 76 -49 130 -122 130s-125 -54 -125 -130z" />
    <glyph glyph-name="uniF643" unicode="&#xf643;" 
d="M368 512c77 0 139 -24 188 -71s74 -106 74 -179c0 -75 -27 -139 -80 -194c-53 -54 -119 -81 -199 -81c-76 0 -139 23 -188 70s-73 108 -73 181c0 74 26 138 79 192c53 55 120 82 199 82zM351 110c40 0 74 15 102 45c29 30 43 67 43 111c0 75 -54 123 -127 123
c-40 0 -74 -15 -102 -44s-42 -66 -42 -110c0 -76 53 -125 126 -125z" />
    <glyph glyph-name="uniF644" unicode="&#xf644;" 
d="M430 124h166l-19 -124h-486l20 124h178l36 224l-160 -75l22 138l178 88h125z" />
    <glyph glyph-name="uniF645" unicode="&#xf645;" 
d="M580 354c0 -48 -26 -95 -62 -127c-17 -16 -38 -31 -62 -46c-48 -28 -86 -42 -130 -57h249l-19 -124h-486l16 106l242 120c32 17 47 26 70 43c24 19 35 39 35 62c0 34 -26 51 -77 51c-70 0 -143 -24 -219 -72l21 135c71 45 145 67 222 67c58 0 106 -15 143 -44
c38 -29 57 -67 57 -114z" />
    <glyph glyph-name="uniF646" unicode="&#xf646;" 
d="M593 393l-189 -153c43 -10 80 -31 112 -62c33 -31 49 -73 49 -127c0 -78 -28 -140 -84 -187s-127 -70 -213 -70c-93 0 -169 21 -228 64l22 133c62 -47 129 -70 202 -70c43 0 80 11 111 33c32 22 48 53 48 94c0 63 -51 100 -136 100c-31 0 -60 -5 -88 -16l15 94l194 151
h-266l20 122h448z" />
    <glyph glyph-name="uniF647" unicode="&#xf647;" 
d="M482 -200h-143l32 200h-347l15 105l412 394h142l-61 -381h103l-18 -118h-103zM423 329l-222 -211h188z" />
    <glyph glyph-name="uniF648" unicode="&#xf648;" 
d="M329 263c73 0 131 -20 175 -61c45 -41 67 -91 67 -152c0 -81 -29 -143 -88 -188s-133 -68 -224 -68c-89 0 -160 19 -213 56l20 134c58 -43 122 -64 192 -64c45 0 84 10 117 31c34 20 51 51 51 93c0 63 -54 106 -153 106c-48 0 -101 -8 -158 -24l100 373h379l-18 -123
h-273l-33 -118c19 3 38 5 59 5z" />
    <glyph glyph-name="uniF649" unicode="&#xf649;" 
d="M419 459c61 -1 110 -21 147 -60s56 -87 56 -146c0 -77 -26 -140 -77 -191s-116 -76 -197 -76c-80 0 -142 26 -187 77s-67 117 -67 198c0 119 36 230 96 314c61 85 158 139 269 139c72 0 129 -17 172 -52l-20 -129c-41 34 -91 51 -150 51c-53 0 -98 -18 -137 -55
c-38 -36 -61 -81 -69 -135c39 43 94 65 164 65zM480 240c0 61 -42 107 -109 107c-53 0 -108 -36 -136 -88c-1 -7 -2 -13 -2 -19c0 -76 49 -130 122 -130s125 54 125 130z" />
    <glyph glyph-name="uniF64A" unicode="&#xf64a;" 
d="M238 -200h-153l375 571h-331l20 128h494l-18 -111z" />
    <glyph glyph-name="uniF64B" unicode="&#xf64b;" 
d="M519 361c65 -27 108 -86 108 -157c0 -67 -27 -120 -81 -159s-119 -59 -195 -59c-142 0 -287 63 -287 207c0 88 61 163 158 191c-51 25 -80 74 -80 131c0 61 24 109 73 145s109 54 178 54c41 0 79 -6 115 -19c73 -25 132 -87 132 -168c0 -76 -48 -138 -121 -166zM479 212
c0 56 -51 98 -130 98c-75 0 -134 -41 -134 -105c0 -59 58 -98 130 -98s134 40 134 105zM386 416c59 0 112 34 112 90c0 51 -48 85 -108 85c-57 0 -110 -35 -110 -91c0 -49 49 -84 106 -84z" />
    <glyph glyph-name="uniF64C" unicode="&#xf64c;" 
d="M292 39c-61 1 -110 21 -147 60s-56 88 -56 147c0 77 25 140 76 190c51 51 117 76 198 76c80 0 142 -26 186 -77c45 -51 67 -116 67 -197c0 -79 -14 -152 -43 -219c-28 -67 -70 -121 -127 -162c-56 -42 -121 -63 -194 -63c-74 0 -131 17 -172 51l20 127
c41 -34 91 -51 149 -51c53 0 99 17 137 52s61 79 70 133c-43 -45 -97 -67 -164 -67zM362 391c-36 0 -67 -13 -93 -39s-39 -58 -39 -96c0 -61 43 -106 111 -106c52 0 106 35 135 86c1 5 2 13 2 22c0 77 -45 133 -116 133z" />
    <glyph glyph-name="uniF64E" unicode="&#xf64e;" horiz-adv-x="574" 
d="M60 275l9 61h69c43 108 149 176 280 176c61 0 115 -13 162 -40l-18 -110c-43 23 -87 35 -134 35c-65 0 -114 -20 -145 -61h171l-10 -61h-190c-2 -12 -3 -24 -3 -36v-13h185l-10 -61h-154c27 -41 74 -62 143 -62c45 0 85 9 120 26l-18 -114c-41 -19 -86 -28 -135 -28
c-128 0 -228 66 -255 178h-85l9 61h68v15c0 11 1 23 3 34h-62z" />
    <glyph glyph-name="uniF653" unicode="&#xf653;" horiz-adv-x="503" 
d="M307 -10l-14 -89h-125l15 94c-59 9 -107 26 -142 51l18 119c43 -32 119 -63 206 -63c57 0 85 14 85 43c0 13 -9 24 -33 33c-23 11 -33 13 -66 24c-108 32 -162 72 -162 140c0 96 72 154 175 167l15 89h125l-15 -93c50 -9 92 -26 126 -50l-19 -117c-55 40 -114 60 -179 60
c-53 0 -80 -13 -80 -40c0 -11 6 -21 19 -28s42 -17 89 -31c100 -29 149 -72 149 -144c0 -49 -18 -87 -54 -115s-80 -45 -133 -50z" />
    <glyph glyph-name="commaaccent" unicode="&#xf6c3;" horiz-adv-x="237" 
d="M219 -66l-82 -204h-105l64 204h123z" />
    <glyph glyph-name="cyrbreve" unicode="&#xf6d4;" horiz-adv-x="489" 
d="M175 723h97c0 -3 -1 -9 -1 -13c0 -37 27 -61 71 -61c48 0 83 29 92 74h99c-17 -103 -96 -166 -197 -166c-93 0 -163 54 -163 138c0 7 1 16 2 28z" />
    <glyph glyph-name="uniF6DC" unicode="&#xf6dc;" 
d="M430 126h170l-19 -126h-492l20 126h180l67 422l-160 -75l22 139l179 88h125z" />
    <glyph glyph-name="uniF721" unicode="&#xf721;" horiz-adv-x="562" 
d="M121 173h-44l9 60h442l-9 -60h-251c-21 -11 -32 -24 -32 -39c0 -26 33 -39 100 -39c47 0 97 7 149 22l-17 -108c-45 -15 -96 -22 -152 -22c-43 0 -85 5 -136 21c-25 8 -45 20 -61 37c-31 35 -31 91 2 128zM93 272l9 60h255c19 8 28 20 28 37c0 23 -33 35 -100 35
c-50 0 -96 -7 -139 -21l16 108c45 15 94 23 149 23c45 0 88 -6 135 -22s78 -51 78 -99c0 -26 -7 -46 -22 -61h42l-9 -60h-442z" />
    <glyph glyph-name="uniF722" unicode="&#xf722;" horiz-adv-x="610" 
d="M428 119l-10 -61h-165l-9 -58h-137l9 58h-86l10 61h86l6 39h-86l14 86h86l40 255h246c115 0 185 -62 185 -154c0 -57 -21 -102 -62 -136s-95 -51 -161 -51h-125l-6 -39h165zM283 244h94c59 0 106 28 106 85c0 44 -32 66 -97 66h-79z" />
    <glyph glyph-name="uniF725" unicode="&#xf725;" horiz-adv-x="573" 
d="M167 197h-73l14 86h73l7 45c19 117 105 184 246 184c56 0 104 -9 143 -28l-18 -116c-37 19 -75 29 -114 29c-79 0 -115 -32 -127 -103l-2 -11h187l-14 -86h-188l-6 -40c-4 -25 -15 -42 -33 -50h269l-16 -107h-452l16 107h27c31 0 50 19 56 56z" />
    <glyph glyph-name="uniF727" unicode="&#xf727;" horiz-adv-x="633" 
d="M274 204h-146l10 61h116l-138 234h146l96 -177l153 177h153l-216 -234h120l-10 -61h-147l-7 -45h147l-9 -61h-148l-15 -98h-137l15 98h-145l9 61h146z" />
    <glyph glyph-name="uniF730" unicode="&#xf730;" horiz-adv-x="625" 
d="M359 512c77 0 139 -24 188 -71s74 -106 74 -179c0 -75 -27 -139 -80 -194c-53 -54 -119 -81 -199 -81c-76 0 -139 23 -188 70s-73 108 -73 181c0 74 26 138 79 192c53 55 120 82 199 82zM342 110c40 0 74 15 102 45c29 30 43 67 43 111c0 75 -54 123 -127 123
c-40 0 -74 -15 -102 -44s-42 -66 -42 -110c0 -76 53 -125 126 -125z" />
    <glyph glyph-name="uniF731" unicode="&#xf731;" horiz-adv-x="363" 
d="M309 0h-141l55 345l-160 -75l22 141l178 88h125z" />
    <glyph glyph-name="uniF732" unicode="&#xf732;" horiz-adv-x="574" 
d="M546 354c0 -48 -26 -95 -62 -127c-17 -16 -38 -31 -62 -46c-48 -28 -86 -42 -130 -57h249l-19 -124h-486l16 106l242 120c32 17 47 26 70 43c24 19 35 39 35 62c0 34 -26 51 -77 51c-70 0 -143 -24 -219 -72l21 135c71 45 145 67 222 67c58 0 106 -15 143 -44
c38 -29 57 -67 57 -114z" />
    <glyph glyph-name="uniF733" unicode="&#xf733;" horiz-adv-x="565" 
d="M553 391l-188 -148c42 -9 79 -30 112 -63c33 -32 49 -75 49 -129c0 -78 -28 -140 -84 -187s-127 -70 -213 -70c-93 0 -169 21 -228 64l22 135c62 -47 129 -70 202 -70c43 0 81 11 112 32s47 52 47 93c0 63 -52 101 -136 101c-31 0 -60 -5 -88 -16l15 92l191 150h-263
l20 124h448z" />
    <glyph glyph-name="uniF734" unicode="&#xf734;" horiz-adv-x="651" 
d="M482 -200h-143l32 200h-347l15 105l412 394h142l-61 -381h103l-18 -118h-103zM423 329l-222 -211h188z" />
    <glyph glyph-name="uniF735" unicode="&#xf735;" horiz-adv-x="569" 
d="M300 268c73 0 131 -21 175 -63c45 -41 67 -93 67 -154c0 -81 -30 -144 -89 -189s-133 -68 -224 -68c-88 0 -159 19 -212 56l20 137c57 -43 121 -64 192 -64c78 -2 166 34 168 123c0 63 -54 108 -154 108c-48 0 -101 -8 -158 -24l101 369h379l-19 -124h-271l-31 -112
c18 3 37 5 56 5z" />
    <glyph glyph-name="uniF736" unicode="&#xf736;" horiz-adv-x="635" 
d="M421 459c61 -1 110 -21 147 -60s56 -87 56 -146c0 -77 -26 -140 -77 -191s-116 -76 -197 -76c-80 0 -142 26 -187 77s-67 117 -67 198c0 119 36 230 96 314c61 85 158 139 269 139c72 0 129 -17 172 -52l-20 -129c-41 34 -91 51 -150 51c-53 0 -98 -18 -137 -55
c-38 -36 -61 -81 -69 -135c39 43 94 65 164 65zM482 240c0 61 -42 107 -109 107c-53 0 -108 -36 -136 -88c-1 -7 -2 -13 -2 -19c0 -76 49 -130 122 -130s125 54 125 130z" />
    <glyph glyph-name="uniF737" unicode="&#xf737;" horiz-adv-x="569" 
d="M206 -200h-153l375 571h-331l20 128h494l-18 -111z" />
    <glyph glyph-name="uniF738" unicode="&#xf738;" horiz-adv-x="634" 
d="M513 361c65 -27 108 -86 108 -157c0 -67 -27 -120 -81 -159s-119 -59 -195 -59c-142 0 -287 63 -287 207c0 88 61 163 158 191c-51 25 -80 74 -80 131c0 61 24 109 73 145s109 54 178 54c41 0 79 -6 115 -19c73 -25 132 -87 132 -168c0 -76 -48 -138 -121 -166zM473 212
c0 56 -51 98 -130 98c-75 0 -134 -41 -134 -105c0 -59 58 -98 130 -98s134 40 134 105zM380 416c59 0 112 34 112 90c0 51 -48 85 -108 85c-57 0 -110 -35 -110 -91c0 -49 49 -84 106 -84z" />
    <glyph glyph-name="uniF739" unicode="&#xf739;" horiz-adv-x="634" 
d="M290 39c-61 1 -110 20 -147 59s-56 88 -56 147c0 77 25 140 76 191s117 76 198 76c80 0 142 -26 187 -77s67 -117 67 -198c0 -79 -14 -152 -43 -219s-71 -121 -128 -162c-56 -41 -121 -62 -194 -62c-72 0 -129 17 -172 52l20 129c41 -34 91 -51 150 -51
c54 0 100 17 137 50c38 33 61 77 69 130c-39 -43 -94 -65 -164 -65zM361 388c-36 0 -67 -13 -93 -38s-39 -56 -39 -94c0 -61 42 -105 110 -105c53 0 107 36 135 88c1 5 2 11 2 19c0 76 -44 130 -115 130z" />
    <glyph glyph-name="uni20B6.mono" 
d="M171 380l50 320h291c69 0 123 -18 163 -53s60 -81 60 -137c0 -69 -25 -126 -76 -169c-50 -43 -114 -64 -192 -64h-169l-11 -66h254l-16 -103h-254l-17 -108h-143l17 108h-110l16 103h110l11 66h-110l16 103h110zM345 574l-31 -194h141c73 0 133 36 133 108
c0 53 -37 86 -105 86h-138z" />
    <glyph glyph-name="liralow.mono" 
d="M205 268h-73l10 61h73c19 117 105 183 246 183c56 0 104 -9 143 -28l-18 -116c-37 19 -75 29 -114 29c-61 0 -101 -23 -118 -68h183l-10 -61h-187l-7 -45h187l-9 -61h-188c-4 -28 -15 -46 -34 -55h269l-16 -107h-452l16 107h27c31 0 50 18 56 55h-73l9 61h73z" />
    <glyph glyph-name="cyrbreve.cap" horiz-adv-x="552" 
d="M218 907h98c-1 -3 -1 -8 -1 -13c0 -37 26 -62 70 -62c48 0 84 30 92 75h99c-17 -103 -96 -166 -197 -166c-93 0 -163 53 -163 138c0 7 1 16 2 28z" />
    <glyph glyph-name="idieresis_idieresis" horiz-adv-x="559" 
d="M481 0h-141l79 499h141zM216 0h-141l79 499h141zM135 569c-40 0 -74 33 -74 74c0 40 34 73 74 73c41 0 74 -32 74 -73s-33 -74 -74 -74zM672 590c-28 -28 -76 -28 -105 0c-28 29 -28 77 0 105c29 28 77 28 105 0c29 -28 29 -76 0 -105zM429 590c-28 -28 -76 -28 -105 0
c-28 29 -28 77 0 105c29 28 77 28 105 0c29 -28 29 -76 0 -105z" />
    <glyph glyph-name="peseta.mono" 
d="M769 539l-18 -115h-83c-37 -91 -131 -147 -250 -147h-172l-44 -277h-144l67 424h-91l18 115h91l26 161h294c128 0 210 -64 221 -161h85zM265 400h157c64 0 118 34 118 98c0 48 -33 76 -93 76h-154z" />
    <glyph glyph-name="pesolow" horiz-adv-x="658" 
d="M147 275h-91l14 86h91l22 138h251c107 0 178 -54 187 -138h80l-14 -86h-77c-28 -79 -106 -129 -207 -129h-135l-23 -146h-141zM307 390l-22 -139h84c75 0 113 26 113 78c0 41 -29 61 -86 61h-89z" />
    <glyph glyph-name="liralow" horiz-adv-x="573" 
d="M178 268h-73l10 61h73c19 117 105 183 246 183c56 0 104 -9 143 -28l-18 -116c-37 19 -75 29 -114 29c-61 0 -101 -23 -118 -68h183l-10 -61h-187l-7 -45h187l-9 -61h-188c-4 -28 -15 -46 -34 -55h269l-16 -107h-452l16 107h27c31 0 50 18 56 55h-73l9 61h73z" />
    <glyph glyph-name="aring.alt" horiz-adv-x="648" 
d="M506 433l10 66h141l-79 -499h-141l10 58c-45 -47 -100 -71 -166 -71c-63 0 -113 22 -151 67s-57 100 -57 166c0 77 24 145 72 204c49 59 113 88 192 88c77 0 140 -38 169 -79zM337 110c49 0 101 31 129 74l21 131c-20 39 -71 74 -126 74c-40 0 -74 -15 -102 -45
c-28 -29 -42 -66 -42 -110c0 -75 49 -124 120 -124zM485 576c-41 -41 -107 -41 -148 0s-41 107 0 148s107 41 148 0s41 -107 0 -148zM378 617c19 -17 48 -17 65 0c19 19 19 48 0 65c-17 19 -46 19 -65 0c-17 -17 -17 -46 0 -65z" />
    <glyph glyph-name="acircumflex.alt" horiz-adv-x="648" 
d="M506 433l10 66h141l-79 -499h-141l10 58c-45 -47 -100 -71 -166 -71c-63 0 -113 22 -151 67s-57 100 -57 166c0 77 24 145 72 204c49 59 113 88 192 88c77 0 140 -38 169 -79zM337 110c49 0 101 31 129 74l21 131c-20 39 -71 74 -126 74c-40 0 -74 -15 -102 -45
c-28 -29 -42 -66 -42 -110c0 -75 49 -124 120 -124zM338 570h-127l144 146h137l96 -146h-118l-54 78z" />
    <glyph glyph-name="agrave.alt" horiz-adv-x="648" 
d="M506 433l10 66h141l-79 -499h-141l10 58c-45 -47 -100 -71 -166 -71c-63 0 -113 22 -151 67s-57 100 -57 166c0 77 24 145 72 204c49 59 113 88 192 88c77 0 140 -38 169 -79zM337 110c49 0 101 31 129 74l21 131c-20 39 -71 74 -126 74c-40 0 -74 -15 -102 -45
c-28 -29 -42 -66 -42 -110c0 -75 49 -124 120 -124zM253 716h170l83 -146h-122z" />
    <glyph glyph-name="uniF722.mono" 
d="M440 119l-10 -61h-165l-9 -58h-137l9 58h-86l10 61h86l6 39h-86l14 86h86l40 255h246c115 0 185 -62 185 -154c0 -57 -21 -102 -62 -136s-95 -51 -161 -51h-125l-6 -39h165zM295 244h94c59 0 106 28 106 85c0 44 -32 66 -97 66h-79z" />
    <glyph glyph-name="adieresis.alt" horiz-adv-x="648" 
d="M506 433l10 66h141l-79 -499h-141l10 58c-45 -47 -100 -71 -166 -71c-63 0 -113 22 -151 67s-57 100 -57 166c0 77 24 145 72 204c49 59 113 88 192 88c77 0 140 -38 169 -79zM337 110c49 0 101 31 129 74l21 131c-20 39 -71 74 -126 74c-40 0 -74 -15 -102 -45
c-28 -29 -42 -66 -42 -110c0 -75 49 -124 120 -124zM572 590c-28 -28 -76 -28 -105 0c-28 29 -28 77 0 105c29 28 77 28 105 0s28 -76 0 -105zM300 569c-40 0 -74 33 -74 74c0 40 34 73 74 73c41 0 74 -32 74 -73s-33 -74 -74 -74z" />
    <glyph glyph-name="atilde.alt" horiz-adv-x="648" 
d="M506 433l10 66h141l-79 -499h-141l10 58c-45 -47 -100 -71 -166 -71c-63 0 -113 22 -151 67s-57 100 -57 166c0 77 24 145 72 204c49 59 113 88 192 88c77 0 140 -38 169 -79zM337 110c49 0 101 31 129 74l21 131c-20 39 -71 74 -126 74c-40 0 -74 -15 -102 -45
c-28 -29 -42 -66 -42 -110c0 -75 49 -124 120 -124zM545 710h73c-12 -81 -58 -138 -123 -138c-22 0 -47 8 -76 23c-28 15 -48 23 -61 23c-23 0 -40 -14 -50 -42h-74c13 88 57 139 124 139c21 0 45 -8 73 -23c29 -15 50 -23 63 -23c24 0 41 14 51 41z" />
    <glyph glyph-name="pesolow.mono" 
d="M141 275h-91l14 86h91l22 138h251c107 0 178 -54 187 -138h80l-14 -86h-77c-28 -79 -106 -129 -207 -129h-135l-23 -146h-141zM301 390l-22 -139h84c75 0 113 26 113 78c0 41 -29 61 -86 61h-89z" />
    <glyph glyph-name="uniF64E.mono" 
d="M98 275l9 61h69c43 108 149 176 280 176c61 0 115 -13 162 -40l-18 -110c-43 23 -87 35 -134 35c-65 0 -114 -20 -145 -61h171l-10 -61h-190c-2 -12 -3 -24 -3 -36v-13h185l-10 -61h-154c27 -41 74 -62 143 -62c45 0 85 9 120 26l-18 -114c-41 -19 -86 -28 -135 -28
c-128 0 -228 66 -255 178h-85l9 61h68v15c0 11 1 23 3 34h-62z" />
    <glyph glyph-name="franclow" horiz-adv-x="535" 
d="M218 0h-135l9 58h-67l10 61h67l60 380h419l-18 -115h-284l-16 -100h215l-17 -106h-215l-9 -59h114l-10 -61h-114z" />
    <glyph glyph-name="O_O" horiz-adv-x="1411" 
d="M1066 714c104 0 187 -31 250 -94s95 -144 95 -244c0 -109 -37 -201 -111 -277c-73 -75 -164 -113 -273 -113c-125 0 -225 50 -284 137c-72 -85 -178 -137 -295 -137c-103 0 -186 31 -249 94s-94 145 -94 244c0 109 37 202 110 277s164 113 272 113
c127 0 223 -46 286 -137c71 85 176 137 293 137zM1032 121c67 0 122 24 165 73c44 49 66 109 66 182c0 58 -18 106 -55 145s-85 58 -146 58c-66 0 -121 -24 -165 -73s-66 -109 -66 -182c0 -58 18 -106 55 -145s85 -58 146 -58zM453 121c67 0 122 24 165 73
c44 49 66 109 66 182c0 58 -18 106 -55 145s-85 58 -146 58c-66 0 -121 -24 -165 -73s-66 -109 -66 -182c0 -58 18 -106 55 -145s85 -58 146 -58z" />
    <glyph glyph-name="o_c" horiz-adv-x="919" 
d="M740 -13c-90 0 -158 31 -204 92c-51 -61 -118 -92 -202 -92c-76 0 -139 23 -188 70s-73 108 -73 181c0 74 26 138 79 192c53 55 120 82 199 82c89 0 157 -32 204 -97c55 65 128 97 221 97c61 0 115 -13 162 -40l-19 -118c-43 23 -87 35 -132 35c-49 0 -89 -14 -121 -43
c-32 -28 -48 -64 -48 -108c0 -41 15 -73 46 -95s67 -33 110 -33c41 0 82 9 121 28l-19 -123c-41 -19 -87 -28 -136 -28zM334 110c40 0 74 15 102 45c29 30 43 67 43 111c0 75 -54 123 -127 123c-40 0 -74 -15 -102 -44s-42 -66 -42 -110c0 -76 53 -125 126 -125z" />
    <glyph glyph-name="o_o" horiz-adv-x="1014" 
d="M757 512c77 0 139 -24 188 -71s74 -106 74 -179c0 -75 -27 -139 -80 -194c-53 -54 -119 -81 -199 -81c-86 0 -153 32 -202 97c-55 -65 -123 -97 -204 -97c-76 0 -139 23 -188 70s-73 108 -73 181c0 74 26 138 79 192c53 55 120 82 199 82c86 0 153 -32 202 -97
c55 65 123 97 204 97zM740 110c40 0 74 15 102 45c29 30 43 67 43 111c0 75 -54 123 -127 123c-40 0 -74 -15 -102 -44s-42 -66 -42 -110c0 -76 53 -125 126 -125zM334 110c40 0 74 15 102 45c29 30 43 67 43 111c0 75 -54 123 -127 123c-40 0 -74 -15 -102 -44
s-42 -66 -42 -110c0 -76 53 -125 126 -125z" />
    <glyph glyph-name="franc.mono" 
d="M124 108h-101l16 103h101l78 489h513l-21 -131h-369l-22 -140h285l-20 -128h-285l-15 -90h149l-16 -103h-149l-17 -108h-144z" />
    <glyph glyph-name="O_C" horiz-adv-x="1256" 
d="M831 326c0 -60 20 -109 59 -148c39 -38 92 -57 157 -57c76 0 142 20 198 59l-22 -146c-60 -32 -123 -48 -189 -48c-128 0 -231 50 -292 137c-71 -85 -177 -137 -294 -137c-103 0 -186 31 -249 94s-94 145 -94 244c0 109 37 202 110 277s164 113 272 113
c125 0 227 -50 286 -137c72 87 183 137 312 137c81 0 151 -16 212 -48l-24 -138c-55 34 -118 51 -189 51c-75 0 -136 -24 -183 -71s-70 -107 -70 -182zM453 121c67 0 122 24 165 73c44 49 66 109 66 182c0 58 -18 106 -55 145s-85 58 -146 58c-66 0 -121 -24 -165 -73
s-66 -109 -66 -182c0 -58 18 -106 55 -145s85 -58 146 -58z" />
    <glyph glyph-name="Idieresis_Idieresis" horiz-adv-x="588" 
d="M225 0h-143l111 700h143zM504 0h-143l111 700h143zM175 760c-40 0 -74 33 -74 74c0 40 34 73 74 73c41 0 74 -32 74 -73s-33 -74 -74 -74zM726 781c-28 -28 -76 -28 -105 0c-28 29 -28 77 0 105c29 28 77 28 105 0s28 -76 0 -105zM477 781c-28 -28 -76 -28 -105 0
c-28 29 -28 77 0 105c29 28 77 28 105 0s28 -76 0 -105z" />
    <glyph glyph-name="lira.mono" 
d="M200 362h-82l13 79h82l7 44c24 148 128 229 285 229c63 0 116 -12 157 -36l-21 -134c-39 23 -82 35 -129 35c-90 0 -141 -42 -154 -126l-2 -12h211l-13 -79h-211l-10 -61h212l-13 -79h-212l-4 -29c-5 -30 -18 -51 -39 -64h314l-20 -129h-510l20 129h23c49 0 63 27 72 86
l1 7h-81l13 79h81z" />
    <glyph glyph-name="uniF653.mono" 
d="M371 -10l-14 -89h-125l15 94c-59 9 -107 26 -142 51l18 119c43 -32 119 -63 206 -63c57 0 85 14 85 43c0 13 -9 24 -33 33c-23 11 -33 13 -66 24c-108 32 -162 72 -162 140c0 96 72 154 175 167l15 89h125l-15 -93c50 -9 92 -26 126 -50l-19 -117c-55 40 -115 60 -179 60
c-53 0 -80 -13 -80 -40c0 -11 6 -21 19 -28s42 -17 89 -31c100 -29 149 -72 149 -144c0 -49 -18 -87 -54 -115s-80 -45 -133 -50z" />
    <glyph glyph-name="uniF727.mono" 
d="M276 204h-146l10 61h116l-138 234h146l96 -177l153 177h153l-216 -234h120l-10 -61h-147l-7 -45h147l-9 -61h-148l-15 -98h-137l15 98h-145l9 61h146z" />
    <glyph glyph-name="uniF725.mono" 
d="M194 197h-73l14 86h73l7 45c19 117 105 184 246 184c56 0 104 -9 143 -28l-18 -116c-37 19 -75 29 -114 29c-79 0 -115 -32 -127 -103l-2 -11h187l-14 -86h-188l-6 -40c-4 -25 -15 -42 -33 -50h269l-16 -107h-452l16 107h27c31 0 50 19 56 56z" />
    <glyph glyph-name="g.alt" horiz-adv-x="598" 
d="M329 512c62 0 113 -17 154 -52l151 53l-11 -113l-81 -32c5 -23 8 -41 8 -54c0 -45 -14 -86 -41 -123c36 -43 54 -92 54 -145c0 -69 -26 -129 -79 -178s-118 -74 -197 -74c-76 0 -139 23 -188 69s-73 106 -74 179h135c4 -75 54 -126 130 -126c77 0 138 51 138 128
c0 27 -8 50 -25 69c-25 -11 -55 -17 -90 -17c-63 0 -115 18 -157 53c-42 36 -63 85 -63 146s22 112 67 154s101 63 169 63zM315 206c56 0 102 48 102 108c0 49 -38 86 -89 86c-28 0 -52 -11 -72 -32s-30 -46 -30 -75c0 -51 38 -87 89 -87z" />
    <glyph glyph-name="ring.cap" horiz-adv-x="518" 
d="M415 764c-41 -41 -107 -41 -148 0s-41 107 0 148s107 41 148 0s41 -107 0 -148zM308 805c19 -17 48 -17 65 0c19 19 19 48 0 65c-17 19 -46 19 -65 0c-17 -17 -17 -46 0 -65z" />
    <glyph glyph-name="grave.cap" horiz-adv-x="504" 
d="M236 907h170l83 -146h-122z" />
    <glyph glyph-name="uni20B4.mono" 
d="M470 531c0 37 -38 56 -115 56c-57 0 -111 -10 -160 -29l20 130c43 17 99 26 169 26c41 0 78 -5 113 -15c35 -9 65 -26 91 -51s39 -56 39 -93c0 -33 -12 -62 -37 -88h56l-12 -79h-510l13 79h291c28 16 42 37 42 64zM276 177c0 -41 40 -62 121 -62c66 0 124 12 174 35
l-20 -132c-56 -21 -115 -32 -178 -32c-59 0 -114 10 -167 33c-52 23 -87 68 -87 128c0 45 18 83 54 113h-69l12 80h510l-12 -80h-267c-47 -22 -71 -50 -71 -83z" />
    <glyph glyph-name="acute.cap" horiz-adv-x="449" 
d="M353 761h-122l108 146h170z" />
    <glyph glyph-name="amacron.alt" horiz-adv-x="648" 
d="M506 433l10 66h141l-79 -499h-141l10 58c-45 -47 -100 -71 -166 -71c-63 0 -113 22 -151 67s-57 100 -57 166c0 77 24 145 72 204c49 59 113 88 192 88c77 0 140 -38 169 -79zM337 110c49 0 101 31 129 74l21 131c-20 39 -71 74 -126 74c-40 0 -74 -15 -102 -45
c-28 -29 -42 -66 -42 -110c0 -75 49 -124 120 -124zM577 595h-307l15 95h307z" />
    <glyph glyph-name="Q.alt01" horiz-adv-x="838" 
d="M487 714c105 0 188 -31 251 -94s94 -144 94 -244c0 -97 -31 -182 -92 -256l73 -120h-153l-22 35c-58 -33 -121 -49 -190 -49c-103 0 -186 31 -249 94s-94 145 -94 244c0 109 37 202 110 277s164 113 272 113zM453 121c41 0 80 10 115 31l-120 198h153l57 -95
c17 36 26 76 26 121c0 58 -18 106 -55 145s-85 58 -146 58c-66 0 -121 -24 -165 -73s-66 -109 -66 -182c0 -58 18 -106 55 -145s85 -58 146 -58z" />
    <glyph glyph-name="Q.alt02" horiz-adv-x="840" 
d="M487 714c105 0 188 -31 251 -94s94 -144 94 -244c0 -105 -35 -195 -105 -270c-69 -75 -156 -114 -260 -119c25 -5 61 -18 108 -37c68 -28 120 -42 157 -42c21 0 41 5 58 14l-19 -119c-17 -7 -38 -11 -65 -11c-45 0 -103 15 -174 45c-68 28 -120 42 -157 42
c-63 0 -115 -15 -156 -45l20 130c27 17 63 28 106 35c-74 19 -133 57 -176 115c-43 59 -64 129 -64 210c0 109 37 202 110 277s164 113 272 113zM453 121c67 0 122 24 165 73c44 49 66 109 66 182c0 58 -18 106 -55 145s-85 58 -146 58c-66 0 -121 -24 -165 -73
s-66 -109 -66 -182c0 -58 18 -106 55 -145s85 -58 146 -58z" />
    <glyph glyph-name="aogonek.alt" horiz-adv-x="648" 
d="M506 433l10 66h141l-79 -499c-31 -25 -47 -51 -47 -78c0 -26 16 -39 47 -39c15 0 27 2 38 7l-14 -84c-16 -5 -36 -8 -61 -8c-72 0 -113 36 -113 87c0 41 21 80 62 115h-53l10 58c-45 -47 -100 -71 -166 -71c-63 0 -113 22 -151 67s-57 100 -57 166c0 77 24 145 72 204
c49 59 113 88 192 88c77 0 140 -38 169 -79zM337 110c49 0 101 31 129 74l21 131c-20 39 -71 74 -126 74c-40 0 -74 -15 -102 -45c-28 -29 -42 -66 -42 -110c0 -75 49 -124 120 -124z" />
    <glyph glyph-name="abreve.alt" horiz-adv-x="648" 
d="M506 433l10 66h141l-79 -499h-141l10 58c-45 -47 -100 -71 -166 -71c-63 0 -113 22 -151 67s-57 100 -57 166c0 77 24 145 72 204c49 59 113 88 192 88c77 0 140 -38 169 -79zM337 110c49 0 101 31 129 74l21 131c-20 39 -71 74 -126 74c-40 0 -74 -15 -102 -45
c-28 -29 -42 -66 -42 -110c0 -75 49 -124 120 -124zM502 723h90c-17 -99 -89 -159 -178 -159c-85 0 -150 52 -150 135c0 5 1 13 2 24h91v-8c0 -40 23 -66 62 -66c43 0 74 30 83 74z" />
    <glyph glyph-name="gcircumflex.alt" horiz-adv-x="598" 
d="M329 512c62 0 113 -17 154 -52l151 53l-11 -113l-81 -32c5 -23 8 -41 8 -54c0 -45 -14 -86 -41 -123c36 -43 54 -92 54 -145c0 -69 -26 -129 -79 -178s-118 -74 -197 -74c-76 0 -139 23 -188 69s-73 106 -74 179h135c4 -75 54 -126 130 -126c77 0 138 51 138 128
c0 27 -8 50 -25 69c-25 -11 -55 -17 -90 -17c-63 0 -115 18 -157 53c-42 36 -63 85 -63 146s22 112 67 154s101 63 169 63zM315 206c56 0 102 48 102 108c0 49 -38 86 -89 86c-28 0 -52 -11 -72 -32s-30 -46 -30 -75c0 -51 38 -87 89 -87zM309 570h-127l144 146h137l96 -146
h-118l-54 78z" />
    <glyph glyph-name="macron.cap" horiz-adv-x="541" 
d="M573 785h-306l15 95h306z" />
    <glyph glyph-name="dieresis.cap" horiz-adv-x="497" 
d="M540 781c-28 -28 -76 -28 -105 0c-28 29 -28 77 0 105c29 28 77 28 105 0s28 -76 0 -105zM268 760c-40 0 -74 33 -74 74c0 40 34 73 74 73c41 0 74 -32 74 -73s-33 -74 -74 -74z" />
    <glyph glyph-name="circumflex.cap" horiz-adv-x="514" 
d="M311 761h-127l144 146h137l96 -146h-118l-54 78z" />
    <glyph glyph-name="gcommaaccent.alt" horiz-adv-x="598" 
d="M329 512c62 0 113 -17 154 -52l151 53l-11 -113l-81 -32c5 -23 8 -41 8 -54c0 -45 -14 -86 -41 -123c36 -43 54 -92 54 -145c0 -69 -26 -129 -79 -178s-118 -74 -197 -74c-76 0 -139 23 -188 69s-73 106 -74 179h135c4 -75 54 -126 130 -126c77 0 138 51 138 128
c0 27 -8 50 -25 69c-25 -11 -55 -17 -90 -17c-63 0 -115 18 -157 53c-42 36 -63 85 -63 146s22 112 67 154s101 63 169 63zM315 206c56 0 102 48 102 108c0 49 -38 86 -89 86c-28 0 -52 -11 -72 -32s-30 -46 -30 -75c0 -51 38 -87 89 -87zM281 574l82 204h105l-64 -204h-123
z" />
    <glyph glyph-name="gdotaccent.alt" horiz-adv-x="598" 
d="M329 512c62 0 113 -17 154 -52l151 53l-11 -113l-81 -32c5 -23 8 -41 8 -54c0 -45 -14 -86 -41 -123c36 -43 54 -92 54 -145c0 -69 -26 -129 -79 -178s-118 -74 -197 -74c-76 0 -139 23 -188 69s-73 106 -74 179h135c4 -75 54 -126 130 -126c77 0 138 51 138 128
c0 27 -8 50 -25 69c-25 -11 -55 -17 -90 -17c-63 0 -115 18 -157 53c-42 36 -63 85 -63 146s22 112 67 154s101 63 169 63zM315 206c56 0 102 48 102 108c0 49 -38 86 -89 86c-28 0 -52 -11 -72 -32s-30 -46 -30 -75c0 -51 38 -87 89 -87zM378 569c-40 0 -74 33 -74 74
c0 40 34 73 74 73c41 0 73 -32 73 -73s-32 -74 -73 -74z" />
    <glyph glyph-name="uniF721.mono" 
d="M164 173h-44l9 60h442l-9 -60h-251c-21 -11 -32 -24 -32 -39c0 -26 33 -39 100 -39c47 0 97 7 149 22l-17 -108c-45 -15 -96 -22 -152 -22c-43 0 -85 5 -136 21c-25 8 -45 20 -61 37c-31 35 -31 91 2 128zM136 272l9 60h255c19 8 28 20 28 37c0 23 -33 35 -100 35
c-49 0 -96 -7 -139 -21l16 108c45 15 94 23 149 23c45 0 88 -6 135 -22s78 -51 78 -99c0 -26 -7 -46 -22 -61h42l-9 -60h-442z" />
    <glyph glyph-name="aacute.alt" horiz-adv-x="648" 
d="M506 433l10 66h141l-79 -499h-141l10 58c-45 -47 -100 -71 -166 -71c-63 0 -113 22 -151 67s-57 100 -57 166c0 77 24 145 72 204c49 59 113 88 192 88c77 0 140 -38 169 -79zM337 110c49 0 101 31 129 74l21 131c-20 39 -71 74 -126 74c-40 0 -74 -15 -102 -45
c-28 -29 -42 -66 -42 -110c0 -75 49 -124 120 -124zM437 570h-122l107 146h171z" />
    <glyph glyph-name="t_t" horiz-adv-x="801" 
d="M138 117c0 15 2 35 6 60l32 204h-98l19 118h98l22 137h141l-22 -137h219l22 137h141l-22 -137h142l-19 -118h-142l-28 -181c-3 -19 -4 -32 -4 -41c0 -31 19 -46 58 -46c26 0 51 6 75 19l-18 -116c-31 -19 -70 -29 -119 -29c-87 0 -143 46 -143 130c0 15 2 35 6 60l32 204
h-219l-28 -181c-3 -19 -4 -32 -4 -41c0 -31 19 -46 58 -46c26 0 51 6 75 19l-18 -116c-31 -19 -70 -29 -119 -29c-87 0 -143 46 -143 130z" />
    <glyph glyph-name="tilde.cap" horiz-adv-x="509" 
d="M515 900h73c-12 -81 -58 -138 -123 -138c-22 0 -47 8 -76 23c-28 15 -48 23 -61 23c-23 0 -40 -14 -50 -42h-74c13 88 57 139 124 139c21 0 45 -8 73 -23c29 -15 50 -23 63 -23c24 0 41 14 51 41z" />
    <glyph glyph-name="Euro.mono" 
d="M66 239l13 87h69c1 23 3 45 6 67h-64l14 86h73c56 145 187 235 355 235c66 0 122 -14 169 -42l-26 -132c-41 28 -90 42 -147 42c-91 0 -157 -34 -197 -103h205l-14 -86h-222c-4 -21 -6 -44 -6 -67h217l-14 -87h-192c24 -83 95 -121 188 -121c65 0 120 17 163 50l-22 -144
c-45 -25 -101 -38 -166 -38c-79 0 -147 22 -205 67s-94 107 -108 186h-89z" />
    <glyph glyph-name="sterling.mono" 
d="M189 282h-81l17 111h82l15 92c24 148 128 229 285 229c63 0 116 -12 157 -36l-21 -134c-39 23 -82 35 -129 35c-89 0 -141 -42 -154 -126l-10 -60h225l-17 -111h-226l-14 -89c-5 -30 -18 -51 -39 -64h314l-20 -129h-510l20 129h23c49 0 63 27 72 86z" />
    <glyph glyph-name="yen.mono" 
d="M69 129l15 94h196l11 70h-196l16 95h156l-166 312h157l126 -250l207 250h162l-264 -312h158l-16 -95h-197l-11 -70h197l-15 -94h-197l-20 -129h-143l20 129h-196z" />
    <glyph glyph-name="dollar.mono" 
d="M657 656l-23 -140c-27 19 -62 34 -104 47c-41 13 -82 19 -123 19c-77 0 -126 -26 -126 -74c0 -19 10 -32 34 -44l34 -14l47 -14l50 -15c57 -19 95 -36 134 -67c39 -29 60 -73 60 -128c0 -67 -24 -121 -72 -163s-108 -67 -181 -74l-15 -98h-130l15 101
c-81 11 -144 34 -189 69l23 147c25 -25 61 -47 108 -64s95 -26 144 -26c23 0 44 2 64 6c40 9 83 38 83 83c0 23 -13 41 -34 52c-13 8 -19 12 -38 17l-22 8c-11 4 -40 12 -52 16c-35 11 -62 20 -81 28s-40 19 -63 34c-47 29 -67 71 -67 130c0 65 22 116 66 153
c45 37 102 59 172 66l16 98h130l-16 -102c61 -9 113 -26 156 -51z" />
    <glyph glyph-name="hungarumlaut.cap" horiz-adv-x="635" 
d="M530 761h-123l107 146h172zM292 761h-123l107 146h172z" />
    </font>
</defs>
</svg>
