<?xml version="1.0" standalone="no"?>
<!DOCTYPE svg PUBLIC "-//W3C//DTD SVG 1.1//EN" "http://www.w3.org/Graphics/SVG/1.1/DTD/svg11.dtd" >
<svg xmlns="http://www.w3.org/2000/svg" xmlns:xlink="http://www.w3.org/1999/xlink" version="1.1">
<metadata>
Created by FontForge 20170910 at Wed Dec 11 00:49:48 2013
 By Jimmy Wärting
Copyright (c) 2012 by Vyacheslav Kirilenko, Gayane Bagdasaryan. All rights reserved.
</metadata>
<defs>
<font id="Geometria-ExtraBold" horiz-adv-x="660" >
  <font-face 
    font-family="Geometria"
    font-weight="800"
    font-stretch="normal"
    units-per-em="1000"
    panose-1="2 11 8 3 2 2 4 2 2 4"
    ascent="786"
    descent="-214"
    x-height="508"
    cap-height="700"
    bbox="-498 -290 1422 943"
    underline-thickness="50"
    underline-position="-100"
    unicode-range="U+0020-FB04"
  />
<missing-glyph horiz-adv-x="621" 
d="M197 574v-448h210v448h-210zM550 0h-495v700h495v-700z" />
    <glyph glyph-name="ij" unicode="ij" horiz-adv-x="600" 
d="M444 554c-56 0 -101 45 -101 102s45 102 101 102c57 0 102 -45 102 -102s-45 -102 -102 -102zM329 -206c-54 0 -94 7 -120 21v145c23 -11 47 -16 74 -16c49 0 74 24 74 72v492h177v-507c0 -128 -76 -207 -205 -207zM243 0h-177v508h177v-508zM154 554
c-56 0 -101 45 -101 102s45 102 101 102c57 0 102 -45 102 -102s-45 -102 -102 -102z" />
    <glyph glyph-name="f_f" unicode="ff" horiz-adv-x="832" 
d="M664 366v-366h-177v366h-210v-366h-177v366h-85v142h85v27c0 105 62 179 186 179c53 0 99 -7 139 -22v-136c-27 10 -56 15 -87 15c-41 0 -61 -18 -61 -54v-9h210v27c0 105 62 179 186 179c53 0 99 -7 139 -22v-136c-27 10 -56 15 -87 15c-41 0 -61 -18 -61 -54v-9h148
v-142h-148z" />
    <glyph glyph-name="fi" unicode="fi" horiz-adv-x="732" 
d="M100 0v366h-85v142h85v27c0 105 62 179 186 179c53 0 99 -7 139 -22v-136c-27 10 -56 15 -87 15c-41 0 -61 -18 -61 -54v-9h387v-508h-177v366h-210v-366h-177zM576 554c-56 0 -101 45 -101 102s45 102 101 102c57 0 102 -45 102 -102s-45 -102 -102 -102z" />
    <glyph glyph-name="fl" unicode="fl" horiz-adv-x="760" 
d="M632 -13c-97 0 -145 49 -145 148v231h-210v-366h-177v366h-85v142h85v27c0 105 62 179 186 179c53 0 99 -7 139 -22v-136c-27 10 -56 15 -87 15c-41 0 -61 -18 -61 -54v-9h210v192h177v-523c0 -26 12 -39 36 -39c11 0 21 2 30 7v-139c-25 -13 -58 -19 -98 -19z" />
    <glyph glyph-name="f_f_i" unicode="ffi" horiz-adv-x="1110" 
d="M874 0v366h-210v-366h-177v366h-210v-366h-177v366h-85v142h85v27c0 105 62 179 186 179c53 0 99 -7 139 -22v-136c-27 10 -56 15 -87 15c-41 0 -61 -18 -61 -54v-9h210v27c0 105 62 179 186 179c53 0 99 -7 139 -22v-136c-27 10 -56 15 -87 15c-41 0 -61 -18 -61 -54v-9
h387v-508h-177zM962 554c-56 0 -101 45 -101 102s45 102 101 102c57 0 102 -45 102 -102s-45 -102 -102 -102z" />
    <glyph glyph-name="f_f_l" unicode="ffl" horiz-adv-x="1147" 
d="M1019 -13c-97 0 -145 49 -145 148v231h-210v-366h-177v366h-210v-366h-177v366h-85v142h85v27c0 105 62 179 186 179c53 0 99 -7 139 -22v-136c-27 10 -56 15 -87 15c-41 0 -61 -18 -61 -54v-9h210v27c0 105 62 179 186 179c53 0 99 -7 139 -22v-136
c-27 10 -56 15 -87 15c-41 0 -61 -18 -61 -54v-9h210v192h177v-523c0 -26 12 -39 36 -39c11 0 21 2 30 7v-139c-25 -13 -58 -19 -98 -19z" />
    <glyph glyph-name=".notdef" horiz-adv-x="621" 
d="M197 574v-448h210v448h-210zM550 0h-495v700h495v-700z" />
    <glyph glyph-name="NULL" horiz-adv-x="0" 
 />
    <glyph glyph-name="CR" horiz-adv-x="333" 
 />
    <glyph glyph-name="space" unicode=" " horiz-adv-x="252" 
 />
    <glyph glyph-name="exclam" unicode="!" horiz-adv-x="361" 
d="M75 91c0 59 46 106 105 106s105 -47 105 -106c0 -29 -10 -53 -31 -74c-20 -21 -45 -31 -74 -31s-54 10 -75 31c-20 21 -30 45 -30 74zM261 242h-161l-41 458h243z" />
    <glyph glyph-name="quotedbl" unicode="&#x22;" horiz-adv-x="412" 
d="M177 380h-152v320h152v-320zM387 380h-152v320h152v-320z" />
    <glyph glyph-name="numbersign" unicode="#" horiz-adv-x="802" 
d="M283 0h-137l25 155h-136l22 135h135l19 120h-135l21 135h136l24 155h137l-24 -155h125l24 155h137l-24 -155h135l-22 -135h-135l-19 -120h136l-22 -135h-135l-25 -155h-137l25 155h-125zM348 410l-19 -120h125l19 120h-125z" />
    <glyph glyph-name="dollar" unicode="$" horiz-adv-x="636" 
d="M400 -107h-154v97c-79 9 -147 32 -203 71v184c29 -27 69 -49 120 -68s99 -28 144 -28c71 0 107 18 107 55c0 21 -11 30 -27 41c-8 7 -33 14 -45 18l-63 19l-51 15l-46 18c-20 8 -35 15 -46 22c-20 15 -53 39 -68 64c-13 25 -25 62 -25 103c0 113 76 185 203 204v99h154
v-100c54 -9 106 -26 155 -51v-173c-31 19 -68 35 -111 48s-84 20 -124 20c-61 0 -92 -15 -92 -46c0 -13 8 -23 29 -32l32 -11c21 -7 67 -19 96 -28c67 -22 120 -50 158 -83s57 -80 57 -140c0 -112 -79 -192 -200 -216v-102z" />
    <glyph glyph-name="percent" unicode="%" horiz-adv-x="819" 
d="M258 0h-119l423 700h119zM66 657c34 33 77 50 130 50s96 -17 130 -50s51 -75 51 -124s-17 -91 -51 -124s-77 -50 -130 -50s-96 17 -130 50s-51 75 -51 124s17 91 51 124zM150 484c24 -25 68 -25 92 0c24 27 24 72 0 97c-24 27 -68 27 -92 0c-24 -25 -24 -70 0 -97z
M493 291c34 33 77 50 130 50s96 -17 130 -50s51 -75 51 -124s-17 -91 -51 -124s-77 -50 -130 -50s-96 17 -130 50s-51 75 -51 124s17 91 51 124zM577 118c24 -25 68 -25 92 0c24 27 24 72 0 97c-24 27 -68 27 -92 0c-24 -25 -24 -70 0 -97z" />
    <glyph glyph-name="ampersand" unicode="&#x26;" horiz-adv-x="773" 
d="M611 156l157 -156h-216l-48 45c-59 -39 -124 -59 -197 -59c-80 0 -146 20 -198 61c-51 41 -77 97 -77 170c0 46 12 86 36 120c25 35 52 60 82 76c-23 35 -35 72 -35 111c0 55 20 100 59 136s91 54 155 54c73 0 137 -16 193 -49v-164c-51 41 -104 62 -158 62
c-49 0 -73 -18 -73 -53c0 -24 26 -61 77 -111l127 -127c14 27 22 65 24 115h162c-3 -85 -27 -162 -70 -231zM314 137c28 0 53 7 74 21l-142 145c-23 -13 -41 -42 -41 -75c0 -55 45 -91 109 -91z" />
    <glyph glyph-name="quotesingle" unicode="'" horiz-adv-x="202" 
d="M177 380h-152v320h152v-320z" />
    <glyph glyph-name="parenleft" unicode="(" horiz-adv-x="411" 
d="M388 -206h-180c-95 122 -143 274 -143 456s48 334 143 456h180c-107 -137 -160 -289 -160 -456s53 -319 160 -456z" />
    <glyph glyph-name="parenright" unicode=")" horiz-adv-x="411" 
d="M203 -206h-180c107 137 160 289 160 456s-53 319 -160 456h180c95 -122 143 -274 143 -456s-48 -334 -143 -456z" />
    <glyph glyph-name="asterisk" unicode="*" horiz-adv-x="419" 
d="M258 326h-97l4 110l-93 -59l-49 85l98 51l-98 51l49 85l93 -60l-4 111h97l-4 -111l93 60l49 -85l-98 -51l98 -51l-49 -85l-93 59z" />
    <glyph glyph-name="plus" unicode="+" horiz-adv-x="654" 
d="M405 67h-156v184h-184v156h184v185h156v-185h184v-156h-184v-184z" />
    <glyph glyph-name="comma" unicode="," horiz-adv-x="327" 
d="M162 -152h-141l90 328h180z" />
    <glyph glyph-name="hyphen" unicode="-" horiz-adv-x="513" 
d="M418 202h-323v156h323v-156z" />
    <glyph glyph-name="period" unicode="." horiz-adv-x="280" 
d="M214 17c-20 -21 -45 -31 -74 -31s-54 10 -75 31c-20 21 -30 46 -30 75s10 54 30 74c21 21 46 31 75 31s54 -10 74 -31c21 -20 31 -45 31 -74s-10 -54 -31 -75z" />
    <glyph glyph-name="slash" unicode="/" horiz-adv-x="546" 
d="M139 -140h-167l421 932h167z" />
    <glyph glyph-name="zero" unicode="0" horiz-adv-x="706" 
d="M522 39c-48 -35 -104 -53 -169 -53s-121 18 -169 53s-83 80 -106 134c-23 55 -34 114 -34 177c0 127 44 240 140 311c48 35 104 53 169 53s121 -18 169 -53s83 -80 106 -135c23 -54 34 -113 34 -176c0 -127 -44 -240 -140 -311zM353 151c41 0 73 20 95 59
c23 39 34 86 34 140s-11 101 -34 140c-22 39 -54 59 -95 59s-72 -20 -95 -59s-34 -86 -34 -140s11 -101 34 -140s54 -59 95 -59z" />
    <glyph glyph-name="one" unicode="1" horiz-adv-x="401" 
d="M334 0h-177v510l-143 -66v173l164 83h156v-700z" />
    <glyph glyph-name="two" unicode="2" horiz-adv-x="582" 
d="M540 0h-508v130l189 168c88 79 117 121 117 172c0 48 -40 79 -99 79c-63 0 -124 -25 -183 -74v180c56 39 123 59 202 59c69 0 130 -20 182 -61c52 -40 78 -94 78 -161c0 -49 -11 -93 -33 -132c-21 -38 -60 -82 -115 -131l-85 -76h255v-153z" />
    <glyph glyph-name="three" unicode="3" horiz-adv-x="582" 
d="M38 44v167c69 -45 139 -67 209 -67c68 0 119 35 119 94c0 52 -43 90 -112 90c-41 0 -78 -8 -110 -24v117l148 128h-235v151h457v-135l-136 -120c36 -9 70 -27 107 -59s62 -85 62 -148c0 -77 -28 -139 -84 -184c-55 -45 -124 -68 -207 -68s-155 19 -218 58z" />
    <glyph glyph-name="four" unicode="4" horiz-adv-x="647" 
d="M530 0h-175v166h-337v126l334 408h178v-394h97v-140h-97v-166zM355 482l-147 -176h147v176z" />
    <glyph glyph-name="five" unicode="5" horiz-adv-x="585" 
d="M243 -14c-77 0 -144 17 -203 50v167c63 -39 128 -59 194 -59c73 0 129 29 129 94c0 57 -49 94 -133 94c-50 0 -106 -11 -168 -32l46 400h388v-153h-255l-9 -77c16 3 30 4 43 4c79 0 143 -22 193 -65c51 -43 76 -100 76 -171c0 -81 -29 -143 -87 -187
c-58 -43 -129 -65 -214 -65z" />
    <glyph glyph-name="six" unicode="6" horiz-adv-x="639" 
d="M333 -14c-91 0 -161 29 -211 88s-75 139 -75 240c0 103 26 198 77 274c52 77 141 126 252 126c62 0 116 -15 163 -45v-159c-43 31 -91 46 -142 46c-92 0 -157 -60 -165 -144c38 37 85 55 141 55c64 0 117 -21 159 -62s63 -97 63 -168c0 -75 -25 -135 -75 -182
c-49 -46 -112 -69 -187 -69zM322 136c56 0 94 39 94 96c0 55 -38 98 -93 98c-43 0 -76 -20 -99 -61c0 -85 39 -133 98 -133z" />
    <glyph glyph-name="seven" unicode="7" horiz-adv-x="577" 
d="M261 0h-191l270 543h-309v157h511v-140z" />
    <glyph glyph-name="eight" unicode="8" horiz-adv-x="636" 
d="M478 372c71 -25 125 -94 125 -170c0 -68 -28 -121 -83 -159s-122 -57 -202 -57s-148 19 -203 57s-82 91 -82 159c0 76 54 145 125 170c-55 24 -95 82 -95 143c0 59 24 107 72 144c49 37 110 55 183 55s134 -18 182 -55c49 -37 73 -85 73 -144c0 -61 -40 -119 -95 -143z
M378 546c-32 27 -88 27 -121 0c-32 -27 -32 -73 0 -100c33 -25 89 -25 121 0c33 27 33 73 0 100zM420 217c0 47 -43 82 -102 82s-102 -35 -102 -82c0 -45 43 -81 102 -81s102 36 102 81z" />
    <glyph glyph-name="nine" unicode="9" horiz-adv-x="639" 
d="M263 -14c-62 0 -116 15 -163 45v159c43 -31 91 -46 142 -46c92 0 157 60 165 144c-38 -37 -85 -55 -141 -55c-64 0 -117 21 -159 62s-63 97 -63 168c0 75 25 135 74 181c50 47 113 70 188 70c91 0 161 -30 211 -89s75 -138 75 -239c0 -103 -26 -198 -78 -275
c-51 -76 -140 -125 -251 -125zM316 370c43 0 76 20 99 61c0 85 -39 133 -98 133c-56 0 -94 -39 -94 -96c0 -55 38 -98 93 -98z" />
    <glyph glyph-name="colon" unicode=":" horiz-adv-x="280" 
d="M214 325c-20 -21 -45 -31 -74 -31s-54 10 -75 31c-20 21 -30 46 -30 75s10 54 30 74c21 21 46 31 75 31s54 -10 74 -31c21 -20 31 -45 31 -74s-10 -54 -31 -75zM214 17c-20 -21 -45 -31 -74 -31s-54 10 -75 31c-20 21 -30 46 -30 75s10 54 30 74c21 21 46 31 75 31
s54 -10 74 -31c21 -20 31 -45 31 -74s-10 -54 -31 -75z" />
    <glyph glyph-name="semicolon" unicode=";" horiz-adv-x="330" 
d="M162 -152h-141l90 328h180zM263 325c-20 -21 -45 -31 -74 -31s-54 10 -75 31c-20 21 -30 46 -30 75s10 54 31 74c41 41 107 41 148 0c21 -20 31 -45 31 -74s-10 -54 -31 -75z" />
    <glyph glyph-name="less" unicode="&#x3c;" horiz-adv-x="654" 
d="M589 214v-172l-524 208v167l524 208v-171l-347 -120z" />
    <glyph glyph-name="equal" unicode="=" horiz-adv-x="654" 
d="M589 137h-524v158h524v-158zM589 364h-524v158h524v-158z" />
    <glyph glyph-name="greater" unicode="&#x3e;" horiz-adv-x="654" 
d="M589 250l-524 -208v172l347 120l-347 120v171l524 -208v-167z" />
    <glyph glyph-name="question" unicode="?" horiz-adv-x="501" 
d="M297 17c-20 -21 -45 -31 -74 -31s-54 10 -75 31c-20 21 -30 46 -30 75s10 54 31 74c41 41 107 41 148 0c21 -20 31 -45 31 -74s-10 -54 -31 -75zM304 242h-168v149c44 8 83 21 116 40s50 41 50 66c0 39 -32 58 -97 58c-56 0 -117 -18 -182 -53v154c59 39 130 58 212 58
c69 0 127 -18 175 -53c49 -35 73 -86 73 -151c0 -49 -18 -91 -54 -126c-35 -35 -77 -60 -125 -75v-67z" />
    <glyph glyph-name="at" unicode="@" horiz-adv-x="931" 
d="M466 -162c-123 0 -226 41 -311 124c-84 83 -126 187 -126 314c0 123 42 227 127 311c85 85 189 127 310 127c123 0 227 -40 310 -120c84 -80 126 -177 126 -292c0 -156 -77 -252 -189 -252c-70 0 -120 23 -151 68c-35 -49 -85 -73 -150 -73c-59 0 -107 22 -144 65
c-37 44 -56 99 -56 164c0 66 19 121 56 164s85 65 142 65c55 0 99 -20 133 -60v49h143v-289c0 -66 22 -99 65 -99c56 0 108 74 108 198c0 103 -36 191 -109 264c-72 73 -167 110 -284 110c-114 0 -208 -39 -283 -117c-74 -77 -111 -172 -111 -283c0 -113 37 -208 111 -285
s168 -115 283 -115c75 0 149 21 220 63v-43c-65 -39 -139 -58 -220 -58zM456 174c39 0 68 16 87 47v106c-19 31 -48 47 -87 47c-55 0 -92 -43 -92 -100s37 -100 92 -100z" />
    <glyph glyph-name="A" unicode="A" horiz-adv-x="781" 
d="M200 0h-190l294 704h173l294 -704h-193l-59 148h-260zM389 479l-73 -187h146z" />
    <glyph glyph-name="B" unicode="B" horiz-adv-x="712" 
d="M427 0h-360v700h341c128 0 218 -62 218 -177c0 -68 -39 -116 -82 -136c34 -8 65 -28 92 -61s41 -74 41 -125c0 -60 -23 -109 -69 -146c-45 -37 -106 -55 -181 -55zM247 299v-149h145c55 0 88 27 88 74s-35 75 -88 75h-145zM247 554v-122h134c44 0 72 23 72 60
c0 39 -28 62 -72 62h-134z" />
    <glyph glyph-name="C" unicode="C" horiz-adv-x="672" 
d="M435 -14c-112 0 -205 34 -279 102s-111 155 -111 262s37 194 110 262c74 68 167 102 279 102c66 0 126 -13 181 -40v-177c-55 34 -114 51 -179 51c-59 0 -108 -19 -147 -56s-59 -85 -59 -142c0 -58 20 -106 60 -143c41 -37 92 -55 153 -55c74 0 135 19 184 56v-178
c-57 -29 -121 -44 -192 -44z" />
    <glyph glyph-name="D" unicode="D" horiz-adv-x="778" 
d="M346 0h-279v700h279c114 0 207 -33 279 -98s108 -149 108 -252s-36 -188 -108 -253s-165 -97 -279 -97zM247 542v-384h86c136 0 214 69 214 192s-78 192 -214 192h-86z" />
    <glyph glyph-name="E" unicode="E" horiz-adv-x="642" 
d="M607 0h-540v700h532v-158h-352v-95h280v-152h-280v-137h360v-158z" />
    <glyph glyph-name="F" unicode="F" horiz-adv-x="634" 
d="M247 0h-180v700h532v-158h-352v-102h263v-152h-263v-288z" />
    <glyph glyph-name="G" unicode="G" horiz-adv-x="763" 
d="M426 -14c-108 0 -199 34 -272 102c-73 69 -109 156 -109 262c0 107 37 194 110 262s166 102 278 102c73 0 141 -17 204 -50v-169c-64 35 -128 53 -191 53c-64 0 -116 -19 -156 -56s-60 -85 -60 -145c0 -62 19 -111 57 -147s84 -54 139 -54c47 0 84 11 111 33v229h181
v-311c-28 -31 -68 -57 -121 -79c-53 -21 -110 -32 -171 -32z" />
    <glyph glyph-name="H" unicode="H" horiz-adv-x="758" 
d="M247 0h-180v700h180v-249h264v249h180v-700h-180v291h-264v-291z" />
    <glyph glyph-name="I" unicode="I" horiz-adv-x="322" 
d="M251 0h-180v700h180v-700z" />
    <glyph glyph-name="J" unicode="J" horiz-adv-x="514" 
d="M197 -14c-76 0 -133 13 -172 39v173c41 -31 85 -46 133 -46c79 0 118 32 118 116v432h180v-461c0 -95 -30 -165 -81 -202c-51 -36 -107 -51 -178 -51z" />
    <glyph glyph-name="K" unicode="K" horiz-adv-x="735" 
d="M247 0h-180v700h180v-267l227 267h216l-271 -322l321 -378h-219l-274 311v-311z" />
    <glyph glyph-name="L" unicode="L" horiz-adv-x="609" 
d="M583 0h-516v700h180v-542h336v-158z" />
    <glyph glyph-name="M" unicode="M" horiz-adv-x="846" 
d="M247 0h-180v700h179l177 -269l178 269h178v-700h-179v427l-125 -188h-99l-129 188v-427z" />
    <glyph glyph-name="N" unicode="N" horiz-adv-x="770" 
d="M244 0h-177v700h154l306 -385v385h176v-700h-149l-310 387v-387z" />
    <glyph glyph-name="O" unicode="O" horiz-adv-x="828" 
d="M282 208c35 -37 79 -56 132 -56s96 19 131 56s53 85 53 142s-18 105 -53 142s-78 56 -131 56s-97 -19 -132 -56s-52 -85 -52 -142s17 -105 52 -142zM678 92c-70 -71 -158 -106 -264 -106s-194 35 -264 106s-105 157 -105 258s35 187 105 258s158 106 264 106
s194 -35 264 -106s105 -157 105 -258s-35 -187 -105 -258z" />
    <glyph glyph-name="P" unicode="P" horiz-adv-x="657" 
d="M247 0h-180v700h312c78 0 140 -20 186 -61s69 -93 69 -158s-23 -118 -69 -159s-108 -61 -186 -61h-132v-261zM247 548v-139h119c52 0 86 26 86 70s-33 69 -86 69h-119z" />
    <glyph glyph-name="Q" unicode="Q" horiz-adv-x="828" 
d="M638 -175c-84 0 -162 43 -259 163c-97 8 -177 46 -240 115s-94 152 -94 247c0 101 35 187 105 258s158 106 264 106s194 -35 264 -106s105 -157 105 -258c0 -73 -19 -139 -57 -198s-89 -104 -154 -133c24 -29 56 -43 95 -43c30 0 58 7 83 21v-149
c-34 -15 -71 -23 -112 -23zM282 208c35 -37 79 -56 132 -56s96 19 131 56s53 85 53 142s-18 105 -53 142s-78 56 -131 56s-97 -19 -132 -56s-52 -85 -52 -142s17 -105 52 -142z" />
    <glyph glyph-name="R" unicode="R" horiz-adv-x="729" 
d="M247 0h-180v700h329c77 0 138 -20 183 -61c46 -40 69 -92 69 -155c0 -91 -51 -164 -136 -197l212 -287h-207l-198 267h-72v-267zM247 548v-134h139c49 0 80 25 80 66s-31 68 -80 68h-139z" />
    <glyph glyph-name="S" unicode="S" horiz-adv-x="636" 
d="M314 -14c-108 0 -198 25 -271 75v184c29 -27 69 -49 120 -68s99 -28 144 -28c71 0 107 18 107 55c0 21 -11 30 -27 41c-8 7 -33 14 -45 18l-63 19l-51 15l-46 18c-20 8 -35 15 -46 22c-20 15 -53 39 -68 64c-13 25 -25 62 -25 103c0 135 107 210 275 210
c85 0 164 -19 237 -58v-173c-31 19 -68 35 -111 48s-84 20 -124 20c-61 0 -92 -15 -92 -46c0 -13 8 -23 29 -32l32 -11c21 -7 67 -19 96 -28c67 -22 120 -50 158 -83s57 -80 57 -140c0 -69 -27 -123 -80 -164s-122 -61 -206 -61z" />
    <glyph glyph-name="T" unicode="T" horiz-adv-x="657" 
d="M418 0h-180v542h-210v158h601v-158h-211v-542z" />
    <glyph glyph-name="U" unicode="U" horiz-adv-x="730" 
d="M58 293v407h180v-416c0 -89 54 -132 127 -132c75 0 127 43 127 132v416h180v-407c0 -97 -29 -173 -87 -227c-58 -53 -131 -80 -220 -80s-162 27 -220 80c-58 54 -87 130 -87 227z" />
    <glyph glyph-name="V" unicode="V" horiz-adv-x="766" 
d="M468 -4h-171l-286 704h199l174 -456l175 456h196z" />
    <glyph glyph-name="W" unicode="W" horiz-adv-x="1088" 
d="M404 -4h-160l-232 704h201l118 -417l146 419h140l146 -419l118 417h197l-234 -704h-158l-140 410z" />
    <glyph glyph-name="X" unicode="X" horiz-adv-x="736" 
d="M203 0h-208l268 376l-228 324h210l124 -180l125 180h207l-228 -323l268 -377h-211l-164 233z" />
    <glyph glyph-name="Y" unicode="Y" horiz-adv-x="728" 
d="M454 0h-180v310l-269 390h205l156 -231l157 231h200l-269 -386v-314z" />
    <glyph glyph-name="Z" unicode="Z" horiz-adv-x="642" 
d="M617 0h-592v128l334 414h-321v158h563v-127l-333 -415h349v-158z" />
    <glyph glyph-name="bracketleft" unicode="[" horiz-adv-x="452" 
d="M417 -206h-346v912h346v-136h-186v-640h186v-136z" />
    <glyph glyph-name="backslash" unicode="\" horiz-adv-x="546" 
d="M574 -140h-167l-421 932h167z" />
    <glyph glyph-name="bracketright" unicode="]" horiz-adv-x="452" 
d="M35 706h346v-912h-346v136h186v640h-186v136z" />
    <glyph glyph-name="asciicircum" unicode="^" horiz-adv-x="569" 
d="M192 335h-167l176 415h167l176 -415h-166l-93 264z" />
    <glyph glyph-name="underscore" unicode="_" 
d="M657 -160h-654v116h654v-116z" />
    <glyph glyph-name="grave" unicode="`" horiz-adv-x="522" 
d="M423 576h-147l-157 152h209z" />
    <glyph glyph-name="a" unicode="a" horiz-adv-x="611" 
d="M205 -13c-55 0 -100 16 -134 47s-51 72 -51 122c1 115 105 167 198 164c51 0 94 -9 129 -26v7c0 36 -15 60 -42 69c-25 9 -45 12 -76 12c-53 0 -103 -12 -148 -37v139c53 25 117 37 191 37c75 0 135 -19 181 -56s69 -86 69 -149v-154c0 -18 10 -27 30 -27c12 0 22 2 29 6
v-126c-22 -17 -52 -26 -90 -26c-59 0 -101 19 -124 58c-41 -40 -95 -60 -162 -60zM265 106c36 0 63 15 82 44v53c-20 15 -45 22 -74 22c-44 0 -79 -24 -79 -61c0 -36 31 -58 71 -58z" />
    <glyph glyph-name="b" unicode="b" horiz-adv-x="651" 
d="M238 57v-57h-177v700h177v-249c36 47 87 70 152 70c67 0 122 -26 166 -77s66 -114 66 -190s-22 -140 -66 -191s-99 -76 -166 -76s-117 23 -152 70zM339 137c63 0 107 50 107 117s-44 117 -107 117c-45 0 -78 -18 -101 -54v-126c23 -36 56 -54 101 -54z" />
    <glyph glyph-name="c" unicode="c" horiz-adv-x="514" 
d="M308 -13c-75 0 -140 24 -196 72c-55 48 -83 113 -83 196s28 148 84 195s122 71 197 71c56 0 106 -10 150 -31v-148c-41 17 -82 26 -122 26c-76 0 -135 -43 -135 -114s59 -115 134 -115c49 0 92 10 130 30v-147c-49 -23 -102 -35 -159 -35z" />
    <glyph glyph-name="d" unicode="d" horiz-adv-x="651" 
d="M261 -13c-67 0 -122 25 -166 76s-66 115 -66 191s22 139 66 190s99 77 166 77c65 0 116 -23 152 -70v249h177v-700h-177v57c-35 -47 -86 -70 -152 -70zM312 137c45 0 78 18 101 54v126c-23 36 -56 54 -101 54c-63 0 -107 -50 -107 -117s44 -117 107 -117z" />
    <glyph glyph-name="e" unicode="e" horiz-adv-x="576" 
d="M312 -13c-79 0 -146 24 -201 72c-55 49 -82 114 -82 195c0 75 25 139 74 190s114 77 195 77c72 0 131 -25 176 -75c46 -49 69 -113 69 -191v-44h-340c15 -53 75 -79 148 -79c55 0 110 15 163 44v-136c-48 -35 -115 -53 -202 -53zM202 305h168c-1 51 -37 86 -80 86
c-47 0 -81 -33 -88 -86z" />
    <glyph glyph-name="f" unicode="f" horiz-adv-x="445" 
d="M277 366v-366h-177v366h-85v142h85v27c0 105 62 179 186 179c53 0 99 -7 139 -22v-136c-27 10 -56 15 -87 15c-41 0 -61 -18 -61 -54v-9h148v-142h-148z" />
    <glyph glyph-name="g" unicode="g" horiz-adv-x="640" 
d="M282 -206c-86 0 -153 14 -201 43v154c54 -33 115 -49 182 -49c24 0 46 3 65 8c40 11 80 49 80 110v26c-40 -43 -91 -65 -154 -65c-66 0 -120 24 -162 71s-63 107 -63 179s21 132 63 179s96 71 162 71c62 0 113 -22 154 -66v53h177v-437c0 -92 -39 -168 -99 -211
c-60 -44 -131 -66 -204 -66zM307 169c45 0 79 16 101 47v110c-23 31 -56 47 -101 47c-63 0 -102 -43 -102 -102s39 -102 102 -102z" />
    <glyph glyph-name="h" unicode="h" horiz-adv-x="625" 
d="M238 318v-318h-177v700h177v-249c44 47 95 70 154 70c113 0 181 -81 181 -209v-312h-177v279c0 60 -32 84 -73 84c-35 0 -63 -15 -85 -45z" />
    <glyph glyph-name="i" unicode="i" horiz-adv-x="310" 
d="M243 0h-177v508h177v-508zM154 554c-56 0 -101 45 -101 102s45 102 101 102c57 0 102 -45 102 -102s-45 -102 -102 -102z" />
    <glyph glyph-name="j" unicode="j" horiz-adv-x="310" 
d="M154 554c-56 0 -101 45 -101 102s45 102 101 102c57 0 102 -45 102 -102s-45 -102 -102 -102zM39 -206c-54 0 -94 7 -120 21v145c23 -11 47 -16 74 -16c49 0 74 24 74 72v492h177v-507c0 -128 -76 -207 -205 -207z" />
    <glyph glyph-name="k" unicode="k" horiz-adv-x="632" 
d="M238 0h-177v700h177v-372l151 180h209l-201 -228l234 -280h-221l-172 210v-210z" />
    <glyph glyph-name="l" unicode="l" horiz-adv-x="334" 
d="M206 -13c-97 0 -145 49 -145 148v565h177v-523c0 -26 12 -39 36 -39c11 0 21 2 30 7v-139c-25 -13 -58 -19 -98 -19z" />
    <glyph glyph-name="m" unicode="m" horiz-adv-x="933" 
d="M238 0h-177v508h177v-60c37 49 89 73 156 73c65 0 117 -41 140 -84c33 48 98 84 166 84c107 0 181 -71 181 -204v-317h-177v282c0 55 -21 82 -64 82c-35 0 -62 -16 -80 -47v-317h-177v282c0 55 -21 82 -64 82c-35 0 -62 -16 -81 -47v-317z" />
    <glyph glyph-name="n" unicode="n" horiz-adv-x="625" 
d="M238 318v-318h-177v508h177v-57c44 47 95 70 154 70c113 0 181 -81 181 -209v-312h-177v279c0 60 -32 84 -73 84c-35 0 -63 -15 -85 -45z" />
    <glyph glyph-name="o" unicode="o" horiz-adv-x="630" 
d="M427 254c0 65 -47 116 -112 116s-112 -51 -112 -116c0 -67 47 -116 112 -116s112 49 112 116zM520 63c-54 -51 -122 -76 -205 -76s-151 25 -205 76s-81 115 -81 191s27 139 81 190s122 77 205 77s151 -26 205 -77s81 -114 81 -190s-27 -140 -81 -191z" />
    <glyph glyph-name="p" unicode="p" horiz-adv-x="651" 
d="M238 -200h-177v708h177v-57c35 47 85 70 152 70s122 -26 166 -77s66 -114 66 -190s-22 -140 -66 -191s-99 -76 -166 -76c-65 0 -116 23 -152 70v-257zM339 137c63 0 107 50 107 117s-44 117 -107 117c-45 0 -78 -18 -101 -54v-126c23 -36 56 -54 101 -54z" />
    <glyph glyph-name="q" unicode="q" horiz-adv-x="651" 
d="M590 -200h-177v257c-36 -47 -87 -70 -152 -70c-67 0 -122 25 -166 76s-66 115 -66 191s22 139 66 190s99 77 166 77c66 0 117 -23 152 -70v57h177v-708zM312 137c45 0 78 18 101 54v126c-23 36 -56 54 -101 54c-63 0 -107 -50 -107 -117s44 -117 107 -117z" />
    <glyph glyph-name="r" unicode="r" horiz-adv-x="453" 
d="M238 0h-177v508h177v-83c12 23 34 45 65 65c32 21 66 31 102 31c9 0 17 -1 22 -2v-171c-21 5 -41 8 -60 8c-60 0 -109 -25 -129 -61v-295z" />
    <glyph glyph-name="s" unicode="s" horiz-adv-x="518" 
d="M257 -13c-94 0 -166 15 -215 45v149c21 -15 50 -28 88 -39s78 -16 119 -16s62 8 62 25c0 9 -5 16 -22 23l-23 8c-13 4 -52 14 -71 19c-58 17 -99 36 -123 57c-23 21 -35 55 -35 101c0 101 88 162 233 162c75 0 139 -16 192 -48v-144c-59 37 -120 55 -185 55
c-38 0 -57 -9 -57 -26c0 -9 7 -18 23 -23l24 -7c15 -4 49 -11 66 -15c108 -28 156 -73 156 -162c0 -49 -21 -88 -63 -119c-41 -30 -98 -45 -169 -45z" />
    <glyph glyph-name="t" unicode="t" horiz-adv-x="449" 
d="M280 -13c-104 0 -176 58 -176 166v213h-89v142h89v130h177v-130h129v-142h-129v-165c0 -44 16 -61 59 -61c24 0 47 6 70 18v-141c-32 -20 -75 -30 -130 -30z" />
    <glyph glyph-name="u" unicode="u" horiz-adv-x="625" 
d="M233 -13c-113 0 -181 81 -181 209v312h177v-279c0 -60 32 -84 73 -84c35 0 63 15 85 45v318h177v-508h-177v57c-44 -47 -95 -70 -154 -70z" />
    <glyph glyph-name="v" unicode="v" horiz-adv-x="602" 
d="M381 -4h-160l-215 512h188l110 -292l110 292h182z" />
    <glyph glyph-name="w" unicode="w" horiz-adv-x="833" 
d="M327 -4h-151l-166 512h175l81 -259l81 261h140l83 -261l79 259h174l-169 -512h-152l-89 261z" />
    <glyph glyph-name="x" unicode="x" horiz-adv-x="597" 
d="M202 0h-192l183 262l-170 246h193l83 -126l83 126h192l-170 -245l182 -263h-195l-94 140z" />
    <glyph glyph-name="y" unicode="y" horiz-adv-x="609" 
d="M163 -206c-43 0 -81 8 -113 23v152c25 -16 53 -24 82 -24c45 0 73 20 94 72l-216 491h188l113 -306l106 306h184l-227 -559c-42 -103 -112 -155 -211 -155z" />
    <glyph glyph-name="z" unicode="z" horiz-adv-x="540" 
d="M508 0h-478v117l226 248h-213v143h449v-121l-230 -244h246v-143z" />
    <glyph glyph-name="braceleft" unicode="{" horiz-adv-x="434" 
d="M346 -70h53v-136h-91c-112 0 -182 71 -182 182v95c0 73 -14 104 -77 111v136c63 7 77 38 77 111v95c0 111 70 182 182 182h91v-136h-53c-36 0 -60 -26 -60 -62v-133c0 -68 -29 -110 -86 -125c57 -17 86 -58 86 -125v-133c0 -36 24 -62 60 -62z" />
    <glyph glyph-name="bar" unicode="|" horiz-adv-x="362" 
d="M257 -111h-152v871h152v-871z" />
    <glyph glyph-name="braceright" unicode="}" horiz-adv-x="434" 
d="M126 -206h-91v136h53c36 0 60 26 60 62v133c0 67 29 108 86 125c-57 15 -86 57 -86 125v133c0 36 -24 62 -60 62h-53v136h91c112 0 182 -71 182 -182v-95c0 -73 14 -104 77 -111v-136c-63 -7 -77 -38 -77 -111v-95c0 -111 -70 -182 -182 -182z" />
    <glyph glyph-name="asciitilde" unicode="~" horiz-adv-x="654" 
d="M464 153c-35 0 -80 9 -137 27c-57 19 -103 28 -138 28c-53 0 -94 -16 -124 -47v157c20 25 72 44 124 44c35 0 81 -9 138 -28s102 -28 137 -28c53 0 94 16 125 48v-158c-21 -25 -72 -43 -125 -43z" />
    <glyph glyph-name="nbspace" unicode="&#xa0;" horiz-adv-x="252" 
 />
    <glyph glyph-name="exclamdown" unicode="&#xa1;" horiz-adv-x="361" 
d="M261 265l41 -465h-243l41 465h161zM254 341c-20 -21 -45 -31 -74 -31s-54 10 -75 31c-20 21 -30 46 -30 75s10 54 30 74c21 21 46 31 75 31s54 -10 74 -31c21 -20 31 -45 31 -74s-10 -54 -31 -75z" />
    <glyph glyph-name="cent" unicode="&#xa2;" horiz-adv-x="514" 
d="M373 -117h-148v115h1c-57 15 -105 45 -142 90s-55 100 -55 167c0 66 18 121 55 165s84 74 141 89v115h148v-107c26 -3 55 -12 87 -27v-148c-41 17 -82 26 -122 26c-76 0 -135 -43 -135 -114s59 -115 134 -115c49 0 92 10 130 30v-147c-31 -15 -63 -25 -94 -30v-109z" />
    <glyph glyph-name="sterling" unicode="&#xa3;" horiz-adv-x="586" 
d="M561 0h-531v158h30c38 0 57 21 57 64v54h-87v131h87v62c0 76 24 136 71 179c48 44 113 66 194 66c61 0 114 -10 159 -31v-165c-47 20 -90 30 -129 30c-77 0 -115 -35 -115 -104v-37h200v-131h-200v-55c0 -28 -12 -51 -23 -58l-8 -5h295v-158z" />
    <glyph glyph-name="currency" unicode="&#xa4;" horiz-adv-x="585" 
d="M175 159l-66 -66l-74 75l66 66c-44 71 -44 163 0 234l-66 66l74 75l66 -66c37 22 76 33 117 33c43 0 82 -11 117 -33l67 66l74 -75l-66 -66c44 -71 44 -163 0 -234l66 -66l-74 -75l-67 66c-35 -22 -74 -33 -117 -33c-41 0 -80 11 -117 33zM292 260c51 0 91 40 91 91
s-40 91 -91 91c-49 0 -90 -40 -90 -91s41 -91 90 -91z" />
    <glyph glyph-name="yen" unicode="&#xa5;" horiz-adv-x="698" 
d="M439 0h-180v123h-189v110h189v60h-189v110h145l-210 297h190l156 -236l157 236h185l-212 -297h147v-110h-189v-60h189v-110h-189v-123z" />
    <glyph glyph-name="brokenbar" unicode="&#xa6;" horiz-adv-x="362" 
d="M257 -111h-152v353h152v-353zM257 407h-152v353h152v-353z" />
    <glyph glyph-name="section" unicode="&#xa7;" horiz-adv-x="648" 
d="M309 -170c-85 0 -160 17 -226 51v155c77 -40 155 -60 233 -60c54 0 81 13 81 39c0 13 -6 24 -30 33c-11 5 -21 8 -30 11l-45 13l-50 14c-64 20 -106 36 -150 67s-67 75 -67 131c0 55 30 97 91 126c-33 31 -49 70 -49 116c0 60 25 106 75 139c51 33 116 49 196 49
c85 0 161 -17 227 -51v-155c-77 40 -155 60 -233 60c-54 0 -81 -13 -81 -39c0 -13 6 -24 29 -33c12 -5 22 -8 31 -11l45 -13l50 -14c64 -20 106 -36 150 -67s67 -75 67 -131s-30 -98 -91 -126c33 -31 49 -70 49 -116c0 -60 -25 -106 -76 -139c-50 -33 -115 -49 -196 -49z
M413 199c31 7 46 23 46 46c0 17 -13 31 -36 40c-13 7 -22 10 -39 15c-20 6 -49 13 -74 21l-75 24c-31 -7 -46 -23 -46 -47c0 -17 13 -31 36 -40c13 -5 22 -9 39 -14c20 -6 49 -13 74 -21c18 -7 57 -17 75 -24z" />
    <glyph glyph-name="dieresis" unicode="&#xa8;" horiz-adv-x="522" 
d="M155 566c-47 0 -87 39 -87 87s39 86 87 86c49 0 87 -38 87 -86s-38 -87 -87 -87zM443 591c-33 -33 -88 -33 -123 0c-33 35 -33 90 0 123c35 33 90 33 123 0c35 -33 35 -88 0 -123z" />
    <glyph glyph-name="copyright" unicode="&#xa9;" horiz-adv-x="814" 
d="M436 148c-61 0 -112 20 -154 59c-41 40 -62 88 -62 143c0 56 21 103 62 142s93 59 154 59c38 0 71 -7 100 -22v-99c-31 19 -64 29 -100 29c-64 0 -113 -46 -113 -109c0 -64 50 -109 118 -109c40 0 74 10 102 31v-99c-31 -17 -67 -25 -107 -25zM406 23c92 0 169 32 231 96
s93 142 93 233c0 90 -31 167 -93 230c-61 63 -138 95 -229 95s-168 -32 -231 -96c-62 -64 -93 -142 -93 -233c0 -90 31 -167 93 -230s138 -95 229 -95zM45 350c0 99 35 185 106 256c71 72 156 108 257 108s186 -36 256 -107s105 -157 105 -257c0 -99 -35 -185 -106 -257
c-71 -71 -156 -107 -257 -107s-186 36 -256 107s-105 157 -105 257z" />
    <glyph glyph-name="ordfeminine" unicode="&#xaa;" horiz-adv-x="424" 
d="M265 434v39c-21 15 -46 22 -75 22c-43 0 -73 -19 -73 -50c0 -32 29 -50 66 -50c35 0 62 13 82 39zM397 408c9 0 16 2 21 5v-80c-15 -11 -35 -16 -58 -16c-42 0 -70 16 -84 48c-33 -34 -75 -51 -127 -51c-81 0 -138 50 -138 126c0 40 15 70 44 91s64 32 104 32
c39 0 74 -8 106 -25v12c0 46 -33 69 -98 69c-38 0 -76 -10 -113 -30v90c39 19 85 29 139 29c107 0 177 -55 177 -147v-125c0 -17 12 -28 27 -28z" />
    <glyph glyph-name="guillemotleft" unicode="&#xab;" horiz-adv-x="604" 
d="M327 32h-176l-130 178v87l130 179h176l-160 -222zM585 32h-176l-130 178v87l130 179h176l-160 -222z" />
    <glyph glyph-name="logicalnot" unicode="&#xac;" horiz-adv-x="612" 
d="M547 131h-158v155h-324v158h482v-313z" />
    <glyph glyph-name="uni00AD" unicode="&#xad;" horiz-adv-x="513" 
d="M418 202h-323v156h323v-156z" />
    <glyph glyph-name="registered" unicode="&#xae;" horiz-adv-x="814" 
d="M348 168h-99v387h182c85 0 139 -48 139 -119c0 -51 -28 -92 -75 -109l116 -159h-110l-108 148h-45v-148zM348 472v-76h78c29 0 43 12 43 37c0 24 -16 39 -43 39h-78zM406 23c92 0 169 32 231 96s93 142 93 233c0 90 -31 167 -93 230c-61 63 -138 95 -229 95
c-92 0 -169 -32 -231 -96s-93 -142 -93 -233c0 -90 31 -167 92 -230c62 -63 139 -95 230 -95zM45 350c0 99 35 185 106 256c71 72 156 108 257 108s186 -36 256 -107s105 -157 105 -257c0 -99 -35 -185 -106 -257c-71 -71 -156 -107 -257 -107s-186 36 -256 107
s-105 157 -105 257z" />
    <glyph glyph-name="overscore" unicode="&#xaf;" horiz-adv-x="504" 
d="M416 592h-334v116h334v-116z" />
    <glyph glyph-name="degree" unicode="&#xb0;" horiz-adv-x="377" 
d="M236 602c-25 27 -68 27 -95 0c-25 -27 -25 -71 0 -98c27 -25 70 -25 95 0c25 27 25 71 0 98zM352 553c0 -43 -16 -81 -49 -113c-32 -31 -70 -47 -114 -47s-82 16 -115 47c-33 32 -49 70 -49 113c0 44 16 82 49 113c33 32 71 48 115 48s82 -16 114 -48
c33 -31 49 -69 49 -113z" />
    <glyph glyph-name="plusminus" unicode="&#xb1;" horiz-adv-x="654" 
d="M589 0h-524v158h524v-158zM405 218h-156v159h-184v156h184v167h156v-167h184v-156h-184v-159z" />
    <glyph glyph-name="twosuperior" unicode="&#xb2;" horiz-adv-x="355" 
d="M322 322h-285v77l103 86c42 35 63 64 63 87s-19 38 -50 38c-35 0 -69 -13 -102 -38v106c31 20 68 30 111 30c39 0 74 -11 103 -33c30 -22 45 -52 45 -89c0 -55 -21 -91 -82 -143l-37 -32h131v-89z" />
    <glyph glyph-name="threesuperior" unicode="&#xb3;" horiz-adv-x="329" 
d="M144 314c-47 0 -88 10 -123 31v97c39 -23 77 -34 114 -34c39 0 66 17 66 44c0 24 -21 42 -58 42c-27 0 -48 -4 -64 -12v65l81 64h-129v89h259v-79l-74 -61c61 -17 92 -54 92 -111c0 -41 -16 -73 -48 -98c-31 -25 -70 -37 -116 -37z" />
    <glyph glyph-name="acute" unicode="&#xb4;" horiz-adv-x="440" 
d="M269 576h-147l95 152h209z" />
    <glyph glyph-name="mu" unicode="&#xb5;" horiz-adv-x="634" 
d="M238 -200h-177v708h177v-279c0 -60 32 -84 73 -84c35 0 63 15 85 45v318h177v-508h-177v57c-44 -47 -95 -70 -154 -70h-4v-187z" />
    <glyph glyph-name="paragraph" unicode="&#xb6;" horiz-adv-x="598" 
d="M531 0h-180v274h-76c-76 0 -136 20 -181 59c-45 40 -67 91 -67 154s22 114 67 153c45 40 105 60 181 60h256v-700z" />
    <glyph glyph-name="middot" unicode="&#xb7;" horiz-adv-x="280" 
d="M214 317c-20 -21 -45 -31 -74 -31s-54 10 -75 31c-20 21 -30 46 -30 75s10 54 30 74c21 21 46 31 75 31s54 -10 74 -31c21 -20 31 -45 31 -74s-10 -54 -31 -75z" />
    <glyph glyph-name="cedilla" unicode="&#xb8;" horiz-adv-x="516" 
d="M297 -152h-204l128 165h140z" />
    <glyph glyph-name="onesuperior" unicode="&#xb9;" horiz-adv-x="256" 
d="M222 322h-106v270l-100 -49v103l104 54h102v-378z" />
    <glyph glyph-name="ordmasculine" unicode="&#xba;" horiz-adv-x="444" 
d="M222 413c56 0 94 42 94 99c0 55 -39 96 -94 96s-93 -41 -93 -96c0 -57 38 -99 93 -99zM370 370c-39 -37 -88 -56 -148 -56s-110 19 -149 56c-39 38 -58 85 -58 141s19 103 58 140c39 38 89 57 149 57s109 -19 148 -57c39 -37 59 -84 59 -140s-20 -103 -59 -141z" />
    <glyph glyph-name="guillemotright" unicode="&#xbb;" horiz-adv-x="604" 
d="M195 32h-176l160 222l-160 222h176l130 -179v-87zM453 32h-176l160 222l-160 222h176l130 -179v-87z" />
    <glyph glyph-name="onequarter" unicode="&#xbc;" horiz-adv-x="771" 
d="M216 0h-120l425 700h120zM222 322h-106v270l-100 -49v103l104 54h102v-378zM706 0h-103v87h-187v75l181 216h109v-209h52v-82h-52v-87zM603 262l-81 -93h81v93z" />
    <glyph glyph-name="onehalf" unicode="&#xbd;" horiz-adv-x="807" 
d="M216 0h-120l425 700h120zM222 322h-106v270l-100 -49v103l104 54h102v-378zM774 0h-285v77l103 86c42 35 63 64 63 87s-19 38 -50 38c-35 0 -69 -13 -102 -38v106c31 20 68 30 111 30c39 0 74 -11 103 -33c30 -22 45 -52 45 -89c0 -55 -21 -91 -82 -143l-37 -32h131v-89z
" />
    <glyph glyph-name="threequarters" unicode="&#xbe;" horiz-adv-x="813" 
d="M257 0h-120l425 700h120zM748 0h-103v87h-187v75l181 216h109v-209h52v-82h-52v-87zM645 262l-81 -93h81v93zM144 314c-47 0 -88 10 -123 31v97c39 -23 77 -34 114 -34c39 0 66 17 66 44c0 24 -21 42 -58 42c-27 0 -48 -4 -64 -12v65l81 64h-129v89h259v-79l-74 -61
c61 -17 92 -54 92 -111c0 -41 -16 -73 -48 -98c-31 -25 -70 -37 -116 -37z" />
    <glyph glyph-name="questiondown" unicode="&#xbf;" horiz-adv-x="501" 
d="M203 491c21 21 46 31 75 31s54 -10 74 -31c41 -41 41 -109 0 -150c-20 -20 -45 -30 -74 -30s-54 10 -75 30c-40 41 -40 109 0 150zM197 266h168v-149c-44 -8 -83 -21 -116 -40s-50 -41 -50 -66c0 -39 32 -58 97 -58c56 0 117 18 182 53v-154c-59 -39 -130 -58 -212 -58
c-69 0 -127 18 -176 53c-48 35 -72 86 -72 151c0 49 18 91 53 126c36 35 78 60 126 75v67z" />
    <glyph glyph-name="Agrave" unicode="&#xc0;" horiz-adv-x="781" 
d="M200 0h-190l294 704h173l294 -704h-193l-59 148h-260zM389 479l-73 -187h146zM469 760h-147l-157 152h209z" />
    <glyph glyph-name="Aacute" unicode="&#xc1;" horiz-adv-x="781" 
d="M200 0h-190l294 704h173l294 -704h-193l-59 148h-260zM389 479l-73 -187h146zM467 760h-147l95 152h209z" />
    <glyph glyph-name="Acircumflex" unicode="&#xc2;" horiz-adv-x="781" 
d="M200 0h-190l294 704h173l294 -704h-193l-59 148h-260zM389 479l-73 -187h146zM327 761h-147l127 151h167l124 -151h-150l-61 69z" />
    <glyph glyph-name="Atilde" unicode="&#xc3;" horiz-adv-x="781" 
d="M200 0h-190l294 704h173l294 -704h-193l-59 148h-260zM389 479l-73 -187h146zM459 757c-23 0 -47 7 -73 20c-25 13 -45 20 -58 20c-23 0 -38 -12 -44 -36h-89c0 43 12 79 35 109c23 31 54 46 91 46c21 0 45 -7 70 -20c26 -13 46 -19 60 -19c23 0 38 12 44 35h89
c0 -39 -12 -75 -36 -107c-23 -32 -53 -48 -89 -48z" />
    <glyph glyph-name="Adieresis" unicode="&#xc4;" horiz-adv-x="781" 
d="M200 0h-190l294 704h173l294 -704h-193l-59 148h-260zM389 479l-73 -187h146zM276 750c-47 0 -87 39 -87 87s39 86 87 86c49 0 87 -38 87 -86s-38 -87 -87 -87zM564 775c-33 -33 -88 -33 -123 0c-33 35 -33 90 0 123c35 33 90 33 123 0c35 -33 35 -88 0 -123z" />
    <glyph glyph-name="Aring" unicode="&#xc5;" horiz-adv-x="781" 
d="M200 0h-190l294 704h173l294 -704h-193l-59 148h-260zM389 479l-73 -187h146zM390 943c29 0 53 -10 74 -31s31 -46 31 -75s-10 -53 -31 -74c-41 -41 -106 -41 -149 0c-21 21 -31 45 -31 74s10 53 31 74s46 32 75 32zM434 837c3 58 -91 58 -89 0c0 -24 21 -44 45 -44
s44 20 44 44z" />
    <glyph glyph-name="AE" unicode="&#xc6;" horiz-adv-x="1070" 
d="M1035 0h-530v141h-231l-75 -141h-196l376 700h648v-158h-342v-95h270v-152h-270v-137h350v-158zM488 546l-134 -254h151v254h-17z" />
    <glyph glyph-name="Ccedilla" unicode="&#xc7;" horiz-adv-x="672" 
d="M450 -152h-204l112 145c-93 15 -168 55 -226 119c-58 65 -87 144 -87 238c0 107 37 194 110 262c74 68 167 102 279 102c66 0 126 -13 181 -40v-177c-55 34 -114 51 -179 51c-59 0 -108 -19 -147 -56s-59 -85 -59 -142c0 -58 20 -106 60 -143c41 -37 92 -55 153 -55
c74 0 135 19 184 56v-178c-33 -18 -74 -31 -122 -38z" />
    <glyph glyph-name="Egrave" unicode="&#xc8;" horiz-adv-x="642" 
d="M607 0h-540v700h532v-158h-352v-95h280v-152h-280v-137h360v-158zM433 760h-147l-157 152h209z" />
    <glyph glyph-name="Eacute" unicode="&#xc9;" horiz-adv-x="642" 
d="M607 0h-540v700h532v-158h-352v-95h280v-152h-280v-137h360v-158zM375 760h-147l95 152h209z" />
    <glyph glyph-name="Ecircumflex" unicode="&#xca;" horiz-adv-x="642" 
d="M607 0h-540v700h532v-158h-352v-95h280v-152h-280v-137h360v-158zM275 761h-147l127 151h167l124 -151h-150l-61 69z" />
    <glyph glyph-name="Edieresis" unicode="&#xcb;" horiz-adv-x="642" 
d="M607 0h-540v700h532v-158h-352v-95h280v-152h-280v-137h360v-158zM221 750c-47 0 -87 39 -87 87s39 86 87 86c49 0 87 -38 87 -86s-38 -87 -87 -87zM509 775c-33 -33 -88 -33 -123 0c-33 35 -33 90 0 123c35 33 90 33 123 0c35 -33 35 -88 0 -123z" />
    <glyph glyph-name="Igrave" unicode="&#xcc;" horiz-adv-x="322" 
d="M251 0h-180v700h180v-700zM238 760h-147l-157 152h209z" />
    <glyph glyph-name="Iacute" unicode="&#xcd;" horiz-adv-x="322" 
d="M251 0h-180v700h180v-700zM236 760h-147l95 152h209z" />
    <glyph glyph-name="Icircumflex" unicode="&#xce;" horiz-adv-x="322" 
d="M99 761h-147l127 151h167l124 -151h-150l-61 69zM251 0h-180v700h180v-700z" />
    <glyph glyph-name="Idieresis" unicode="&#xcf;" horiz-adv-x="321" 
d="M47 750c-47 0 -87 39 -87 87s39 86 87 86c49 0 87 -38 87 -86s-38 -87 -87 -87zM335 775c-33 -33 -88 -33 -123 0c-33 35 -33 90 0 123c35 33 90 33 123 0c35 -33 35 -88 0 -123zM250 0h-180v700h180v-700z" />
    <glyph glyph-name="Eth" unicode="&#xd0;" horiz-adv-x="836" 
d="M125 296h-89v149h89v255h279c114 0 207 -33 279 -98s108 -149 108 -252s-36 -188 -108 -253s-165 -97 -279 -97h-279v296zM305 296v-138h86c136 0 214 69 214 192s-78 192 -214 192h-86v-97h126v-149h-126z" />
    <glyph glyph-name="Ntilde" unicode="&#xd1;" horiz-adv-x="770" 
d="M244 0h-177v700h154l306 -385v385h176v-700h-149l-310 387v-387zM455 757c-23 0 -47 7 -73 20c-25 13 -45 20 -58 20c-23 0 -38 -12 -44 -36h-89c0 43 12 79 35 109c23 31 54 46 91 46c21 0 45 -7 70 -20c26 -13 46 -19 60 -19c23 0 38 12 44 35h89
c0 -39 -12 -75 -36 -107c-23 -32 -53 -48 -89 -48z" />
    <glyph glyph-name="Ograve" unicode="&#xd2;" horiz-adv-x="828" 
d="M282 208c35 -37 79 -56 132 -56s96 19 131 56s53 85 53 142s-18 105 -53 142s-78 56 -131 56s-97 -19 -132 -56s-52 -85 -52 -142s17 -105 52 -142zM678 92c-70 -71 -158 -106 -264 -106s-194 35 -264 106s-105 157 -105 258s35 187 105 258s158 106 264 106
s194 -35 264 -106s105 -157 105 -258s-35 -187 -105 -258zM490 760h-147l-157 152h209z" />
    <glyph glyph-name="Oacute" unicode="&#xd3;" horiz-adv-x="828" 
d="M282 208c35 -37 79 -56 132 -56s96 19 131 56s53 85 53 142s-18 105 -53 142s-78 56 -131 56s-97 -19 -132 -56s-52 -85 -52 -142s17 -105 52 -142zM678 92c-70 -71 -158 -106 -264 -106s-194 35 -264 106s-105 157 -105 258s35 187 105 258s158 106 264 106
s194 -35 264 -106s105 -157 105 -258s-35 -187 -105 -258zM479 760h-147l95 152h209z" />
    <glyph glyph-name="Ocircumflex" unicode="&#xd4;" horiz-adv-x="828" 
d="M282 208c35 -37 79 -56 132 -56s96 19 131 56s53 85 53 142s-18 105 -53 142s-78 56 -131 56s-97 -19 -132 -56s-52 -85 -52 -142s17 -105 52 -142zM678 92c-70 -71 -158 -106 -264 -106s-194 35 -264 106s-105 157 -105 258s35 187 105 258s158 106 264 106
s194 -35 264 -106s105 -157 105 -258s-35 -187 -105 -258zM352 761h-147l127 151h167l124 -151h-150l-61 69z" />
    <glyph glyph-name="Otilde" unicode="&#xd5;" horiz-adv-x="828" 
d="M282 208c35 -37 79 -56 132 -56s96 19 131 56s53 85 53 142s-18 105 -53 142s-78 56 -131 56s-97 -19 -132 -56s-52 -85 -52 -142s17 -105 52 -142zM678 92c-70 -71 -158 -106 -264 -106s-194 35 -264 106s-105 157 -105 258s35 187 105 258s158 106 264 106
s194 -35 264 -106s105 -157 105 -258s-35 -187 -105 -258zM484 757c-23 0 -47 7 -73 20c-25 13 -45 20 -58 20c-23 0 -38 -12 -44 -36h-89c0 43 12 79 35 109c23 31 54 46 91 46c21 0 45 -7 70 -20c26 -13 46 -19 60 -19c23 0 38 12 44 35h89c0 -39 -12 -75 -36 -107
c-23 -32 -53 -48 -89 -48z" />
    <glyph glyph-name="Odieresis" unicode="&#xd6;" horiz-adv-x="828" 
d="M282 208c35 -37 79 -56 132 -56s96 19 131 56s53 85 53 142s-18 105 -53 142s-78 56 -131 56s-97 -19 -132 -56s-52 -85 -52 -142s17 -105 52 -142zM678 92c-70 -71 -158 -106 -264 -106s-194 35 -264 106s-105 157 -105 258s35 187 105 258s158 106 264 106
s194 -35 264 -106s105 -157 105 -258s-35 -187 -105 -258zM302 750c-47 0 -87 39 -87 87s39 86 87 86c49 0 87 -38 87 -86s-38 -87 -87 -87zM590 775c-33 -33 -88 -33 -123 0c-33 35 -33 90 0 123c35 33 90 33 123 0c35 -33 35 -88 0 -123z" />
    <glyph glyph-name="multiply" unicode="&#xd7;" horiz-adv-x="632" 
d="M316 223l-139 -140l-112 112l140 139l-140 140l112 112l139 -140l140 140l111 -112l-139 -140l139 -139l-111 -112z" />
    <glyph glyph-name="Oslash" unicode="&#xd8;" horiz-adv-x="828" 
d="M414 -14c-71 0 -135 17 -192 50l-30 -36h-135l84 102c-64 68 -96 151 -96 248c0 101 35 187 105 258s158 106 264 106c68 0 132 -17 191 -50l30 36h135l-84 -101c65 -70 97 -153 97 -249c0 -101 -35 -187 -105 -258s-158 -106 -264 -106zM257 242l237 288
c-26 12 -53 18 -80 18c-53 0 -97 -19 -132 -56s-52 -85 -52 -142c0 -41 9 -77 27 -108zM414 152c53 0 96 19 131 56s53 85 53 142c0 41 -9 77 -28 108l-237 -288c24 -12 51 -18 81 -18z" />
    <glyph glyph-name="Ugrave" unicode="&#xd9;" horiz-adv-x="730" 
d="M58 293v407h180v-416c0 -89 54 -132 127 -132c75 0 127 43 127 132v416h180v-407c0 -97 -29 -173 -87 -227c-58 -53 -131 -80 -220 -80s-162 27 -220 80c-58 54 -87 130 -87 227zM443 760h-147l-157 152h209z" />
    <glyph glyph-name="Uacute" unicode="&#xda;" horiz-adv-x="730" 
d="M58 293v407h180v-416c0 -89 54 -132 127 -132c75 0 127 43 127 132v416h180v-407c0 -97 -29 -173 -87 -227c-58 -53 -131 -80 -220 -80s-162 27 -220 80c-58 54 -87 130 -87 227zM433 760h-147l95 152h209z" />
    <glyph glyph-name="Ucircumflex" unicode="&#xdb;" horiz-adv-x="730" 
d="M58 293v407h180v-416c0 -89 54 -132 127 -132c75 0 127 43 127 132v416h180v-407c0 -97 -29 -173 -87 -227c-58 -53 -131 -80 -220 -80s-162 27 -220 80c-58 54 -87 130 -87 227zM303 761h-147l127 151h167l124 -151h-150l-61 69z" />
    <glyph glyph-name="Udieresis" unicode="&#xdc;" horiz-adv-x="730" 
d="M58 293v407h180v-416c0 -89 54 -132 127 -132c75 0 127 43 127 132v416h180v-407c0 -97 -29 -173 -87 -227c-58 -53 -131 -80 -220 -80s-162 27 -220 80c-58 54 -87 130 -87 227zM253 750c-47 0 -87 39 -87 87s39 86 87 86c49 0 87 -38 87 -86s-38 -87 -87 -87zM541 775
c-33 -33 -88 -33 -123 0c-33 35 -33 90 0 123c35 33 90 33 123 0c35 -33 35 -88 0 -123z" />
    <glyph glyph-name="Yacute" unicode="&#xdd;" horiz-adv-x="728" 
d="M454 0h-180v310l-269 390h205l156 -231l157 231h200l-269 -386v-314zM430 760h-147l95 152h209z" />
    <glyph glyph-name="Thorn" unicode="&#xde;" horiz-adv-x="674" 
d="M247 0h-180v700h180v-131h149c78 0 140 -20 186 -61s69 -93 69 -158s-23 -118 -69 -159s-108 -61 -186 -61h-149v-130zM247 417v-139h134c52 0 88 25 88 68c0 45 -31 71 -83 71h-139z" />
    <glyph glyph-name="germandbls" unicode="&#xdf;" horiz-adv-x="634" 
d="M387 -8c-42 0 -72 4 -90 11v136c17 -5 35 -8 54 -8c49 0 82 33 82 84c0 59 -44 95 -113 95h-17v117h16c47 0 72 26 72 67s-28 66 -71 66c-48 0 -82 -33 -82 -96v-464h-177v464c0 79 24 140 71 184c48 44 110 66 185 66c77 0 136 -19 178 -57c43 -38 64 -85 64 -142
c0 -71 -41 -120 -81 -137c33 -11 62 -33 88 -64s39 -71 39 -118c0 -133 -89 -204 -218 -204z" />
    <glyph glyph-name="agrave" unicode="&#xe0;" horiz-adv-x="611" 
d="M205 -13c-55 0 -100 16 -134 47s-51 72 -51 122c1 115 105 167 198 164c51 0 94 -9 129 -26v7c0 36 -15 60 -42 69c-25 9 -45 12 -76 12c-53 0 -103 -12 -148 -37v139c53 25 117 37 191 37c75 0 135 -19 181 -56s69 -86 69 -149v-154c0 -18 10 -27 30 -27c12 0 22 2 29 6
v-126c-22 -17 -52 -26 -90 -26c-59 0 -101 19 -124 58c-41 -40 -95 -60 -162 -60zM265 106c36 0 63 15 82 44v53c-20 15 -45 22 -74 22c-44 0 -79 -24 -79 -61c0 -36 31 -58 71 -58zM387 576h-147l-157 152h209z" />
    <glyph glyph-name="aacute" unicode="&#xe1;" horiz-adv-x="611" 
d="M205 -13c-55 0 -100 16 -134 47s-51 72 -51 122c1 115 105 167 198 164c51 0 94 -9 129 -26v7c0 36 -15 60 -42 69c-25 9 -45 12 -76 12c-53 0 -103 -12 -148 -37v139c53 25 117 37 191 37c75 0 135 -19 181 -56s69 -86 69 -149v-154c0 -18 10 -27 30 -27c12 0 22 2 29 6
v-126c-22 -17 -52 -26 -90 -26c-59 0 -101 19 -124 58c-41 -40 -95 -60 -162 -60zM265 106c36 0 63 15 82 44v53c-20 15 -45 22 -74 22c-44 0 -79 -24 -79 -61c0 -36 31 -58 71 -58zM330 576h-147l95 152h209z" />
    <glyph glyph-name="acircumflex" unicode="&#xe2;" horiz-adv-x="611" 
d="M205 -13c-55 0 -100 16 -134 47s-51 72 -51 122c1 115 105 167 198 164c51 0 94 -9 129 -26v7c0 36 -15 60 -42 69c-25 9 -45 12 -76 12c-53 0 -103 -12 -148 -37v139c53 25 117 37 191 37c75 0 135 -19 181 -56s69 -86 69 -149v-154c0 -18 10 -27 30 -27c12 0 22 2 29 6
v-126c-22 -17 -52 -26 -90 -26c-59 0 -101 19 -124 58c-41 -40 -95 -60 -162 -60zM265 106c36 0 63 15 82 44v53c-20 15 -45 22 -74 22c-44 0 -79 -24 -79 -61c0 -36 31 -58 71 -58zM233 577h-147l127 151h167l124 -151h-150l-61 69z" />
    <glyph glyph-name="atilde" unicode="&#xe3;" horiz-adv-x="611" 
d="M205 -13c-55 0 -100 16 -134 47s-51 72 -51 122c1 115 105 167 198 164c51 0 94 -9 129 -26v7c0 36 -15 60 -42 69c-25 9 -45 12 -76 12c-53 0 -103 -12 -148 -37v139c53 25 117 37 191 37c75 0 135 -19 181 -56s69 -86 69 -149v-154c0 -18 10 -27 30 -27c12 0 22 2 29 6
v-126c-22 -17 -52 -26 -90 -26c-59 0 -101 19 -124 58c-41 -40 -95 -60 -162 -60zM265 106c36 0 63 15 82 44v53c-20 15 -45 22 -74 22c-44 0 -79 -24 -79 -61c0 -36 31 -58 71 -58zM378 573c-23 0 -47 7 -73 20c-25 13 -45 20 -58 20c-23 0 -38 -12 -44 -36h-89
c0 43 12 79 35 109c23 31 54 46 91 46c21 0 45 -7 70 -20c26 -13 46 -19 60 -19c23 0 38 12 44 35h89c0 -39 -12 -75 -36 -107c-23 -32 -53 -48 -89 -48z" />
    <glyph glyph-name="adieresis" unicode="&#xe4;" horiz-adv-x="611" 
d="M205 -13c-55 0 -100 16 -134 47s-51 72 -51 122c1 115 105 167 198 164c51 0 94 -9 129 -26v7c0 36 -15 60 -42 69c-25 9 -45 12 -76 12c-53 0 -103 -12 -148 -37v139c53 25 117 37 191 37c75 0 135 -19 181 -56s69 -86 69 -149v-154c0 -18 10 -27 30 -27c12 0 22 2 29 6
v-126c-22 -17 -52 -26 -90 -26c-59 0 -101 19 -124 58c-41 -40 -95 -60 -162 -60zM265 106c36 0 63 15 82 44v53c-20 15 -45 22 -74 22c-44 0 -79 -24 -79 -61c0 -36 31 -58 71 -58zM167 566c-47 0 -87 39 -87 87s39 86 87 86c49 0 87 -38 87 -86s-38 -87 -87 -87zM455 591
c-33 -33 -88 -33 -123 0c-33 35 -33 90 0 123c35 33 90 33 123 0c35 -33 35 -88 0 -123z" />
    <glyph glyph-name="aring" unicode="&#xe5;" horiz-adv-x="611" 
d="M205 -13c-55 0 -100 16 -134 47s-51 72 -51 122c1 115 105 167 198 164c51 0 94 -9 129 -26v7c0 36 -15 60 -42 69c-25 9 -45 12 -76 12c-53 0 -103 -12 -148 -37v139c53 25 117 37 191 37c75 0 135 -19 181 -56s69 -86 69 -149v-154c0 -18 10 -27 30 -27c12 0 22 2 29 6
v-126c-22 -17 -52 -26 -90 -26c-59 0 -101 19 -124 58c-41 -40 -95 -60 -162 -60zM265 106c36 0 63 15 82 44v53c-20 15 -45 22 -74 22c-44 0 -79 -24 -79 -61c0 -36 31 -58 71 -58zM174 652c0 59 47 106 106 106c29 0 53 -10 74 -31s31 -46 31 -75
c0 -57 -48 -105 -105 -105s-106 48 -106 105zM324 652c3 58 -91 58 -89 0c0 -24 21 -44 45 -44s44 20 44 44z" />
    <glyph glyph-name="ae" unicode="&#xe6;" horiz-adv-x="887" 
d="M210 -13c-57 0 -103 16 -138 47s-52 72 -52 122c1 115 105 167 198 164c51 0 94 -9 129 -26v7c0 36 -15 60 -42 69c-25 9 -45 12 -76 12c-53 0 -103 -12 -148 -37v139c53 25 115 37 186 37c73 0 130 -21 173 -64c41 39 105 64 169 64c72 0 131 -25 176 -75
c46 -49 69 -113 69 -191v-44h-340c15 -53 75 -79 148 -79c55 0 110 15 163 44v-136c-48 -35 -115 -53 -202 -53s-158 27 -211 81c-53 -54 -120 -81 -202 -81zM265 106c39 0 70 16 93 49c-7 18 -11 35 -14 50c-20 13 -44 20 -71 20c-44 0 -79 -24 -79 -61
c0 -36 31 -58 71 -58zM513 305h168c-1 51 -37 86 -80 86c-47 0 -81 -33 -88 -86z" />
    <glyph glyph-name="ccedilla" unicode="&#xe7;" horiz-adv-x="514" 
d="M344 -152h-204l112 144c-63 11 -116 40 -159 86s-64 105 -64 177c0 83 28 148 84 195s122 71 197 71c56 0 106 -10 150 -31v-148c-41 17 -82 26 -122 26c-76 0 -135 -43 -135 -114s59 -115 134 -115c49 0 92 10 130 30v-147c-23 -11 -45 -19 -65 -24z" />
    <glyph glyph-name="egrave" unicode="&#xe8;" horiz-adv-x="576" 
d="M312 -13c-79 0 -146 24 -201 72c-55 49 -82 114 -82 195c0 75 25 139 74 190s114 77 195 77c72 0 131 -25 176 -75c46 -49 69 -113 69 -191v-44h-340c15 -53 75 -79 148 -79c55 0 110 15 163 44v-136c-48 -35 -115 -53 -202 -53zM202 305h168c-1 51 -37 86 -80 86
c-47 0 -81 -33 -88 -86zM404 576h-147l-157 152h209z" />
    <glyph glyph-name="eacute" unicode="&#xe9;" horiz-adv-x="576" 
d="M312 -13c-79 0 -146 24 -201 72c-55 49 -82 114 -82 195c0 75 25 139 74 190s114 77 195 77c72 0 131 -25 176 -75c46 -49 69 -113 69 -191v-44h-340c15 -53 75 -79 148 -79c55 0 110 15 163 44v-136c-48 -35 -115 -53 -202 -53zM202 305h168c-1 51 -37 86 -80 86
c-47 0 -81 -33 -88 -86zM328 576h-147l95 152h209z" />
    <glyph glyph-name="ecircumflex" unicode="&#xea;" horiz-adv-x="576" 
d="M312 -13c-79 0 -146 24 -201 72c-55 49 -82 114 -82 195c0 75 25 139 74 190s114 77 195 77c72 0 131 -25 176 -75c46 -49 69 -113 69 -191v-44h-340c15 -53 75 -79 148 -79c55 0 110 15 163 44v-136c-48 -35 -115 -53 -202 -53zM202 305h168c-1 51 -37 86 -80 86
c-47 0 -81 -33 -88 -86zM225 577h-147l127 151h167l124 -151h-150l-61 69z" />
    <glyph glyph-name="edieresis" unicode="&#xeb;" horiz-adv-x="576" 
d="M312 -13c-79 0 -146 24 -201 72c-55 49 -82 114 -82 195c0 75 25 139 74 190s114 77 195 77c72 0 131 -25 176 -75c46 -49 69 -113 69 -191v-44h-340c15 -53 75 -79 148 -79c55 0 110 15 163 44v-136c-48 -35 -115 -53 -202 -53zM202 305h168c-1 51 -37 86 -80 86
c-47 0 -81 -33 -88 -86zM176 566c-47 0 -87 39 -87 87s39 86 87 86c49 0 87 -38 87 -86s-38 -87 -87 -87zM464 591c-33 -33 -88 -33 -123 0c-33 35 -33 90 0 123c35 33 90 33 123 0c35 -33 35 -88 0 -123z" />
    <glyph glyph-name="igrave" unicode="&#xec;" horiz-adv-x="277" 
d="M227 0h-177v508h177v-508zM214 576h-147l-157 152h209z" />
    <glyph glyph-name="iacute" unicode="&#xed;" horiz-adv-x="277" 
d="M208 577h-146l95 151h207zM227 0h-177v508h177v-508z" />
    <glyph glyph-name="icircumflex" unicode="&#xee;" horiz-adv-x="277" 
d="M76 577h-147l127 151h167l124 -151h-150l-61 69zM227 0h-177v508h177v-508z" />
    <glyph glyph-name="idieresis" unicode="&#xef;" horiz-adv-x="281" 
d="M27 566c-47 0 -87 39 -87 87s39 86 87 86c49 0 87 -38 87 -86s-38 -87 -87 -87zM315 591c-33 -33 -88 -33 -123 0c-33 35 -33 90 0 123c35 33 90 33 123 0c35 -33 35 -88 0 -123zM227 0h-177v508h177v-508z" />
    <glyph glyph-name="eth" unicode="&#xf0;" horiz-adv-x="607" 
d="M29 233c0 68 21 122 62 163s94 62 158 62c33 0 62 -5 87 -15l-71 86l-114 -42l-63 81l111 41l-76 91h190l31 -38l95 35l63 -81l-95 -35l56 -70c43 -53 72 -99 89 -137c17 -37 26 -80 26 -127c0 -73 -26 -135 -78 -185s-118 -75 -197 -75s-145 24 -197 71
c-51 48 -77 106 -77 175zM231 166c19 -19 43 -28 72 -28s52 9 71 28s29 43 29 71s-10 51 -29 70s-42 29 -71 29s-53 -10 -72 -29s-28 -42 -28 -70s9 -52 28 -71z" />
    <glyph glyph-name="ntilde" unicode="&#xf1;" horiz-adv-x="625" 
d="M61 0v508h177v-57c44 47 95 70 154 70c113 0 181 -81 181 -209v-312h-177v279c0 60 -32 84 -73 84c-35 0 -63 -15 -85 -45v-318h-177zM387 573c-23 0 -47 7 -73 20c-25 13 -45 20 -58 20c-23 0 -38 -12 -44 -36h-89c0 43 12 79 35 109c23 31 54 46 91 46
c21 0 45 -7 70 -20c26 -13 46 -19 60 -19c23 0 38 12 44 35h89c0 -39 -12 -75 -36 -107c-23 -32 -53 -48 -89 -48z" />
    <glyph glyph-name="ograve" unicode="&#xf2;" horiz-adv-x="630" 
d="M427 254c0 65 -47 116 -112 116s-112 -51 -112 -116c0 -67 47 -116 112 -116s112 49 112 116zM520 63c-54 -51 -122 -76 -205 -76s-151 25 -205 76s-81 115 -81 191s27 139 81 190s122 77 205 77s151 -26 205 -77s81 -114 81 -190s-27 -140 -81 -191zM396 576h-147
l-157 152h209z" />
    <glyph glyph-name="oacute" unicode="&#xf3;" horiz-adv-x="630" 
d="M427 254c0 65 -47 116 -112 116s-112 -51 -112 -116c0 -67 47 -116 112 -116s112 49 112 116zM520 63c-54 -51 -122 -76 -205 -76s-151 25 -205 76s-81 115 -81 191s27 139 81 190s122 77 205 77s151 -26 205 -77s81 -114 81 -190s-27 -140 -81 -191zM379 576h-147
l95 152h209z" />
    <glyph glyph-name="ocircumflex" unicode="&#xf4;" horiz-adv-x="630" 
d="M427 254c0 65 -47 116 -112 116s-112 -51 -112 -116c0 -67 47 -116 112 -116s112 49 112 116zM520 63c-54 -51 -122 -76 -205 -76s-151 25 -205 76s-81 115 -81 191s27 139 81 190s122 77 205 77s151 -26 205 -77s81 -114 81 -190s-27 -140 -81 -191zM253 577h-147
l127 151h167l124 -151h-150l-61 69z" />
    <glyph glyph-name="otilde" unicode="&#xf5;" horiz-adv-x="630" 
d="M427 254c0 65 -47 116 -112 116s-112 -51 -112 -116c0 -67 47 -116 112 -116s112 49 112 116zM520 63c-54 -51 -122 -76 -205 -76s-151 25 -205 76s-81 115 -81 191s27 139 81 190s122 77 205 77s151 -26 205 -77s81 -114 81 -190s-27 -140 -81 -191zM385 573
c-23 0 -47 7 -73 20c-25 13 -45 20 -58 20c-23 0 -38 -12 -44 -36h-89c0 43 12 79 35 109c23 31 54 46 91 46c21 0 45 -7 70 -20c26 -13 46 -19 60 -19c23 0 38 12 44 35h89c0 -39 -12 -75 -36 -107c-23 -32 -53 -48 -89 -48z" />
    <glyph glyph-name="odieresis" unicode="&#xf6;" horiz-adv-x="630" 
d="M427 254c0 65 -47 116 -112 116s-112 -51 -112 -116c0 -67 47 -116 112 -116s112 49 112 116zM520 63c-54 -51 -122 -76 -205 -76s-151 25 -205 76s-81 115 -81 191s27 139 81 190s122 77 205 77s151 -26 205 -77s81 -114 81 -190s-27 -140 -81 -191zM202 566
c-47 0 -87 39 -87 87s39 86 87 86c49 0 87 -38 87 -86s-38 -87 -87 -87zM490 591c-33 -33 -88 -33 -123 0c-33 35 -33 90 0 123c35 33 90 33 123 0c35 -33 35 -88 0 -123z" />
    <glyph glyph-name="divide" unicode="&#xf7;" horiz-adv-x="654" 
d="M222 93c0 59 47 106 106 106s105 -47 105 -106c0 -29 -10 -53 -31 -74c-20 -21 -45 -31 -74 -31s-54 10 -75 31s-31 45 -31 74zM589 251h-524v156h524v-156zM222 564c0 59 47 106 106 106s105 -47 105 -106s-46 -105 -105 -105c-29 0 -54 10 -75 31s-31 45 -31 74z" />
    <glyph glyph-name="oslash" unicode="&#xf8;" horiz-adv-x="630" 
d="M315 -13c-51 0 -99 11 -143 32l-20 -23h-121l68 78c-47 50 -70 110 -70 180c0 76 27 139 81 190s122 77 205 77c52 0 99 -11 142 -33l21 24h121l-68 -79c47 -50 70 -110 70 -179c0 -76 -27 -140 -81 -191s-122 -76 -205 -76zM212 205l138 159c-11 4 -23 6 -35 6
c-65 0 -112 -51 -112 -116c0 -19 3 -35 9 -49zM315 138c65 0 112 49 112 116c0 17 -3 33 -10 48l-138 -159c9 -3 21 -5 36 -5z" />
    <glyph glyph-name="ugrave" unicode="&#xf9;" horiz-adv-x="625" 
d="M408 576h-147l-157 152h209zM233 -13c-113 0 -181 81 -181 209v312h177v-279c0 -60 32 -84 73 -84c35 0 63 15 85 45v318h177v-508h-177v57c-44 -47 -95 -70 -154 -70z" />
    <glyph glyph-name="uacute" unicode="&#xfa;" horiz-adv-x="625" 
d="M358 576h-147l95 152h209zM233 -13c-113 0 -181 81 -181 209v312h177v-279c0 -60 32 -84 73 -84c35 0 63 15 85 45v318h177v-508h-177v57c-44 -47 -95 -70 -154 -70z" />
    <glyph glyph-name="ucircumflex" unicode="&#xfb;" horiz-adv-x="625" 
d="M233 -13c-113 0 -181 81 -181 209v312h177v-279c0 -60 32 -84 73 -84c35 0 63 15 85 45v318h177v-508h-177v57c-44 -47 -95 -70 -154 -70zM246 577h-147l127 151h167l124 -151h-150l-61 69z" />
    <glyph glyph-name="udieresis" unicode="&#xfc;" horiz-adv-x="625" 
d="M233 -13c-113 0 -181 81 -181 209v312h177v-279c0 -60 32 -84 73 -84c35 0 63 15 85 45v318h177v-508h-177v57c-44 -47 -95 -70 -154 -70zM196 566c-47 0 -87 39 -87 87s39 86 87 86c49 0 87 -38 87 -86s-38 -87 -87 -87zM484 591c-33 -33 -88 -33 -123 0
c-33 35 -33 90 0 123c35 33 90 33 123 0c35 -33 35 -88 0 -123z" />
    <glyph glyph-name="yacute" unicode="&#xfd;" horiz-adv-x="609" 
d="M163 -206c-43 0 -81 8 -113 23v152c25 -16 53 -24 82 -24c45 0 73 20 94 72l-216 491h188l113 -306l106 306h184l-227 -559c-42 -103 -112 -155 -211 -155zM367 576h-147l95 152h209z" />
    <glyph glyph-name="thorn" unicode="&#xfe;" horiz-adv-x="651" 
d="M238 -200h-177v900h177v-249c35 47 85 70 152 70s122 -26 166 -77s66 -114 66 -190s-22 -140 -66 -191s-99 -76 -166 -76c-65 0 -116 23 -152 70v-257zM339 137c63 0 107 50 107 117s-44 117 -107 117c-45 0 -78 -18 -101 -54v-126c23 -36 56 -54 101 -54z" />
    <glyph glyph-name="ydieresis" unicode="&#xff;" horiz-adv-x="609" 
d="M163 -206c-43 0 -81 8 -113 23v152c25 -16 53 -24 82 -24c45 0 73 20 94 72l-216 491h188l113 -306l106 306h184l-227 -559c-42 -103 -112 -155 -211 -155zM193 566c-47 0 -87 39 -87 87s39 86 87 86c49 0 87 -38 87 -86s-38 -87 -87 -87zM481 591
c-33 -33 -88 -33 -123 0c-33 35 -33 90 0 123c35 33 90 33 123 0c35 -33 35 -88 0 -123z" />
    <glyph glyph-name="Amacron" unicode="&#x100;" horiz-adv-x="781" 
d="M200 0h-190l294 704h173l294 -704h-193l-59 148h-260zM389 479l-73 -187h146zM556 776h-334v116h334v-116z" />
    <glyph glyph-name="amacron" unicode="&#x101;" horiz-adv-x="611" 
d="M205 -13c-55 0 -100 16 -134 47s-51 72 -51 122c1 115 105 167 198 164c51 0 94 -9 129 -26v7c0 36 -15 60 -42 69c-25 9 -45 12 -76 12c-53 0 -103 -12 -148 -37v139c53 25 117 37 191 37c75 0 135 -19 181 -56s69 -86 69 -149v-154c0 -18 10 -27 30 -27c12 0 22 2 29 6
v-126c-22 -17 -52 -26 -90 -26c-59 0 -101 19 -124 58c-41 -40 -95 -60 -162 -60zM265 106c36 0 63 15 82 44v53c-20 15 -45 22 -74 22c-44 0 -79 -24 -79 -61c0 -36 31 -58 71 -58zM455 592h-334v116h334v-116z" />
    <glyph glyph-name="Abreve" unicode="&#x102;" horiz-adv-x="781" 
d="M200 0h-190l294 704h173l294 -704h-193l-59 148h-260zM389 479l-73 -187h146zM213 916h112c4 -40 29 -67 66 -67s62 27 65 67h112c-4 -107 -78 -171 -177 -171c-49 0 -91 15 -125 45c-33 31 -51 73 -53 126z" />
    <glyph glyph-name="abreve" unicode="&#x103;" horiz-adv-x="611" 
d="M205 -13c-55 0 -100 16 -134 47s-51 72 -51 122c1 115 105 167 198 164c51 0 94 -9 129 -26v7c0 36 -15 60 -42 69c-25 9 -45 12 -76 12c-53 0 -103 -12 -148 -37v139c53 25 117 37 191 37c75 0 135 -19 181 -56s69 -86 69 -149v-154c0 -18 10 -27 30 -27c12 0 22 2 29 6
v-126c-22 -17 -52 -26 -90 -26c-59 0 -101 19 -124 58c-41 -40 -95 -60 -162 -60zM265 106c36 0 63 15 82 44v53c-20 15 -45 22 -74 22c-44 0 -79 -24 -79 -61c0 -36 31 -58 71 -58zM104 732h112c4 -40 29 -67 66 -67s62 27 65 67h112c-4 -107 -78 -171 -177 -171
c-49 0 -91 15 -125 45c-33 31 -51 73 -53 126z" />
    <glyph glyph-name="Aogonek" unicode="&#x104;" horiz-adv-x="781" 
d="M753 -206c-85 0 -137 45 -137 106c0 37 16 71 48 100h-86l-59 148h-260l-59 -148h-190l294 700h173l294 -700c-22 -22 -33 -43 -33 -64c0 -25 15 -37 45 -37c14 0 26 2 35 7v-103c-16 -6 -38 -9 -65 -9zM389 475l-73 -183h146z" />
    <glyph glyph-name="aogonek" unicode="&#x105;" horiz-adv-x="598" 
d="M552 -206c-85 0 -137 45 -137 106c0 33 13 64 40 92c-41 7 -71 26 -88 55c-41 -40 -95 -60 -162 -60c-55 0 -100 16 -134 47s-51 72 -51 122c1 115 105 167 198 164c51 0 94 -9 129 -26v7c0 36 -15 60 -42 69c-25 9 -45 12 -76 12c-53 0 -103 -12 -148 -37v139
c53 25 117 37 191 37c75 0 135 -19 181 -56s69 -86 69 -149v-154c0 -18 10 -27 30 -27c12 0 22 2 29 6v-126c-29 -32 -44 -58 -44 -79c0 -25 15 -37 45 -37c14 0 26 2 35 7v-103c-16 -6 -38 -9 -65 -9zM265 106c36 0 63 15 82 44v53c-20 15 -45 22 -74 22
c-44 0 -79 -24 -79 -61c0 -36 31 -58 71 -58z" />
    <glyph glyph-name="Cacute" unicode="&#x106;" horiz-adv-x="672" 
d="M435 -14c-112 0 -205 34 -279 102s-111 155 -111 262s37 194 110 262c74 68 167 102 279 102c66 0 126 -13 181 -40v-177c-55 34 -114 51 -179 51c-59 0 -108 -19 -147 -56s-59 -85 -59 -142c0 -58 20 -106 60 -143c41 -37 92 -55 153 -55c74 0 135 19 184 56v-178
c-57 -29 -121 -44 -192 -44zM445 760h-147l95 152h209z" />
    <glyph glyph-name="cacute" unicode="&#x107;" horiz-adv-x="510" 
d="M308 -13c-75 0 -140 24 -196 72c-55 48 -83 113 -83 196s28 148 84 195s122 71 197 71c56 0 106 -10 150 -31v-148c-41 17 -82 26 -122 26c-76 0 -135 -43 -135 -114s59 -115 134 -115c49 0 92 10 130 30v-147c-49 -23 -102 -35 -159 -35zM318 576h-147l95 152h209z" />
    <glyph glyph-name="Ccircumflex" unicode="&#x108;" horiz-adv-x="672" 
d="M435 -14c-112 0 -205 34 -279 102s-111 155 -111 262s37 194 110 262c74 68 167 102 279 102c66 0 126 -13 181 -40v-177c-55 34 -114 51 -179 51c-59 0 -108 -19 -147 -56s-59 -85 -59 -142c0 -58 20 -106 60 -143c41 -37 92 -55 153 -55c74 0 135 19 184 56v-178
c-57 -29 -121 -44 -192 -44zM328 761h-147l127 151h167l124 -151h-150l-61 69z" />
    <glyph glyph-name="ccircumflex" unicode="&#x109;" horiz-adv-x="510" 
d="M308 -13c-75 0 -140 24 -196 72c-55 48 -83 113 -83 196s28 148 84 195s122 71 197 71c56 0 106 -10 150 -31v-148c-41 17 -82 26 -122 26c-76 0 -135 -43 -135 -114s59 -115 134 -115c49 0 92 10 130 30v-147c-49 -23 -102 -35 -159 -35zM223 577h-147l127 151h167
l124 -151h-150l-61 69z" />
    <glyph glyph-name="Cdotaccent" unicode="&#x10a;" horiz-adv-x="672" 
d="M435 -14c-112 0 -205 34 -279 102s-111 155 -111 262s37 194 110 262c74 68 167 102 279 102c66 0 126 -13 181 -40v-177c-55 34 -114 51 -179 51c-59 0 -108 -19 -147 -56s-59 -85 -59 -142c0 -58 20 -106 60 -143c41 -37 92 -55 153 -55c74 0 135 19 184 56v-178
c-57 -29 -121 -44 -192 -44zM406 750c-47 0 -87 39 -87 87s39 86 87 86c49 0 87 -38 87 -86s-38 -87 -87 -87z" />
    <glyph glyph-name="cdotaccent" unicode="&#x10b;" horiz-adv-x="514" 
d="M308 -13c-75 0 -140 24 -196 72c-55 48 -83 113 -83 196s28 148 84 195s122 71 197 71c56 0 106 -10 150 -31v-148c-41 17 -82 26 -122 26c-76 0 -135 -43 -135 -114s59 -115 134 -115c49 0 92 10 130 30v-147c-49 -23 -102 -35 -159 -35zM294 566c-47 0 -87 39 -87 87
s39 86 87 86c49 0 87 -38 87 -86s-38 -87 -87 -87z" />
    <glyph glyph-name="Ccaron" unicode="&#x10c;" horiz-adv-x="672" 
d="M435 -14c-112 0 -205 34 -279 102s-111 155 -111 262s37 194 110 262c74 68 167 102 279 102c66 0 126 -13 181 -40v-177c-55 34 -114 51 -179 51c-59 0 -108 -19 -147 -56s-59 -85 -59 -142c0 -58 20 -106 60 -143c41 -37 92 -55 153 -55c74 0 135 19 184 56v-178
c-57 -29 -121 -44 -192 -44zM476 761h-167l-124 151h150l61 -69l60 69h147z" />
    <glyph glyph-name="ccaron" unicode="&#x10d;" horiz-adv-x="510" 
d="M308 -13c-75 0 -140 24 -196 72c-55 48 -83 113 -83 196s28 148 84 195s122 71 197 71c56 0 106 -10 150 -31v-148c-41 17 -82 26 -122 26c-76 0 -135 -43 -135 -114s59 -115 134 -115c49 0 92 10 130 30v-147c-49 -23 -102 -35 -159 -35zM358 576h-167l-124 151h150
l61 -69l60 69h147z" />
    <glyph glyph-name="Dcaron" unicode="&#x10e;" horiz-adv-x="778" 
d="M346 0h-279v700h279c114 0 207 -33 279 -98s108 -149 108 -252s-36 -188 -108 -253s-165 -97 -279 -97zM247 542v-384h86c136 0 214 69 214 192s-78 192 -214 192h-86zM434 761h-167l-124 151h150l61 -69l60 69h147z" />
    <glyph glyph-name="dcaron" unicode="&#x10f;" horiz-adv-x="854" 
d="M261 -13c-67 0 -122 25 -166 76s-66 115 -66 191s22 139 66 190s99 77 166 77c65 0 116 -23 152 -70v249h177v-700h-177v57c-35 -47 -86 -70 -152 -70zM312 137c45 0 78 18 101 54v126c-23 36 -56 54 -101 54c-63 0 -107 -50 -107 -117s44 -117 107 -117zM775 482h-130
l60 218h154z" />
    <glyph glyph-name="Dcroat" unicode="&#x110;" horiz-adv-x="836" 
d="M125 296h-89v149h89v255h279c114 0 207 -33 279 -98s108 -149 108 -252s-36 -188 -108 -253s-165 -97 -279 -97h-279v296zM305 296v-138h86c136 0 214 69 214 192s-78 192 -214 192h-86v-97h126v-149h-126z" />
    <glyph glyph-name="dslash" unicode="&#x111;" horiz-adv-x="643" 
d="M260 -13c-67 0 -122 25 -166 76c-43 51 -65 114 -65 191s22 140 65 191c44 51 99 76 166 76c63 0 114 -23 155 -70v120h-121v75h121v54h177v-54h90v-75h-90v-571h-177v57c-41 -47 -92 -70 -155 -70zM314 137c45 0 78 18 101 55v124c-23 37 -56 55 -101 55
c-63 0 -108 -50 -108 -117s45 -117 108 -117z" />
    <glyph glyph-name="Emacron" unicode="&#x112;" horiz-adv-x="642" 
d="M607 0h-540v700h532v-158h-352v-95h280v-152h-280v-137h360v-158zM504 776h-334v116h334v-116z" />
    <glyph glyph-name="emacron" unicode="&#x113;" horiz-adv-x="576" 
d="M312 -13c-79 0 -146 24 -201 72c-55 49 -82 114 -82 195c0 75 25 139 74 190s114 77 195 77c72 0 131 -25 176 -75c46 -49 69 -113 69 -191v-44h-340c15 -53 75 -79 148 -79c55 0 110 15 163 44v-136c-48 -35 -115 -53 -202 -53zM202 305h168c-1 51 -37 86 -80 86
c-47 0 -81 -33 -88 -86zM454 592h-334v116h334v-116z" />
    <glyph glyph-name="Ebreve" unicode="&#x114;" horiz-adv-x="642" 
d="M607 0h-540v700h532v-158h-352v-95h280v-152h-280v-137h360v-158zM160 916h112c4 -40 29 -67 66 -67s62 27 65 67h112c-4 -107 -78 -171 -177 -171c-49 0 -91 15 -125 45c-33 31 -51 73 -53 126z" />
    <glyph glyph-name="ebreve" unicode="&#x115;" horiz-adv-x="576" 
d="M312 -13c-79 0 -146 24 -201 72c-55 49 -82 114 -82 195c0 75 25 139 74 190s114 77 195 77c72 0 131 -25 176 -75c46 -49 69 -113 69 -191v-44h-340c15 -53 75 -79 148 -79c55 0 110 15 163 44v-136c-48 -35 -115 -53 -202 -53zM202 305h168c-1 51 -37 86 -80 86
c-47 0 -81 -33 -88 -86zM110 732h112c4 -40 29 -67 66 -67s62 27 65 67h112c-4 -107 -78 -171 -177 -171c-49 0 -91 15 -125 45c-33 31 -51 73 -53 126z" />
    <glyph glyph-name="Edotaccent" unicode="&#x116;" horiz-adv-x="642" 
d="M607 0h-540v700h532v-158h-352v-95h280v-152h-280v-137h360v-158zM336 750c-47 0 -87 39 -87 87s39 86 87 86c49 0 87 -38 87 -86s-38 -87 -87 -87z" />
    <glyph glyph-name="edotaccent" unicode="&#x117;" horiz-adv-x="576" 
d="M312 -13c-79 0 -146 24 -201 72c-55 49 -82 114 -82 195c0 75 25 139 74 190s114 77 195 77c72 0 131 -25 176 -75c46 -49 69 -113 69 -191v-44h-340c15 -53 75 -79 148 -79c55 0 110 15 163 44v-136c-48 -35 -115 -53 -202 -53zM202 305h168c-1 51 -37 86 -80 86
c-47 0 -81 -33 -88 -86zM286 566c-47 0 -87 39 -87 87s39 86 87 86c49 0 87 -38 87 -86s-38 -87 -87 -87z" />
    <glyph glyph-name="Eogonek" unicode="&#x118;" horiz-adv-x="651" 
d="M500 0h-433v700h532v-158h-352v-95h280v-152h-280v-137h360v-158c-22 -22 -33 -43 -33 -64c0 -25 15 -37 45 -37c14 0 26 2 35 7v-103c-16 -6 -38 -9 -65 -9c-85 0 -137 45 -137 106c0 37 16 71 48 100z" />
    <glyph glyph-name="eogonek" unicode="&#x119;" horiz-adv-x="576" 
d="M434 -206c-85 0 -137 43 -137 104c0 35 15 65 44 90c-7 0 -22 -1 -29 -1c-79 0 -146 24 -201 72c-55 49 -82 114 -82 195c0 75 25 139 74 190s114 77 195 77c72 0 131 -25 176 -75c46 -49 69 -113 69 -191v-44h-340c15 -53 75 -79 152 -79c53 0 106 15 159 44v-136
c-3 -3 -31 -20 -52 -36c-21 -15 -43 -43 -43 -68s15 -37 45 -37c14 0 26 2 35 7v-103c-16 -6 -38 -9 -65 -9zM202 305h168c-1 51 -37 86 -80 86c-47 0 -81 -33 -88 -86z" />
    <glyph glyph-name="Ecaron" unicode="&#x11a;" horiz-adv-x="642" 
d="M607 0h-540v700h532v-158h-352v-95h280v-152h-280v-137h360v-158zM419 761h-167l-124 151h150l61 -69l60 69h147z" />
    <glyph glyph-name="ecaron" unicode="&#x11b;" horiz-adv-x="576" 
d="M312 -13c-79 0 -146 24 -201 72c-55 49 -82 114 -82 195c0 75 25 139 74 190s114 77 195 77c72 0 131 -25 176 -75c46 -49 69 -113 69 -191v-44h-340c15 -53 75 -79 148 -79c55 0 110 15 163 44v-136c-48 -35 -115 -53 -202 -53zM202 305h168c-1 51 -37 86 -80 86
c-47 0 -81 -33 -88 -86zM368 576h-167l-124 151h150l61 -69l60 69h147z" />
    <glyph glyph-name="Gcircumflex" unicode="&#x11c;" horiz-adv-x="763" 
d="M426 -14c-108 0 -199 34 -272 102c-73 69 -109 156 -109 262c0 107 37 194 110 262s166 102 278 102c73 0 141 -17 204 -50v-169c-64 35 -128 53 -191 53c-64 0 -116 -19 -156 -56s-60 -85 -60 -145c0 -62 19 -111 57 -147s84 -54 139 -54c47 0 84 11 111 33v229h181
v-311c-28 -31 -68 -57 -121 -79c-53 -21 -110 -32 -171 -32zM337 761h-147l127 151h167l124 -151h-150l-61 69z" />
    <glyph glyph-name="gcircumflex" unicode="&#x11d;" horiz-adv-x="640" 
d="M282 -206c-86 0 -153 14 -201 43v154c54 -33 115 -49 182 -49c24 0 46 3 65 8c40 11 80 49 80 110v26c-40 -43 -91 -65 -154 -65c-66 0 -120 24 -162 71s-63 107 -63 179s21 132 63 179s96 71 162 71c62 0 113 -22 154 -66v53h177v-437c0 -92 -39 -168 -99 -211
c-60 -44 -131 -66 -204 -66zM307 169c45 0 79 16 101 47v110c-23 31 -56 47 -101 47c-63 0 -102 -43 -102 -102s39 -102 102 -102zM250 577h-147l127 151h167l124 -151h-150l-61 69z" />
    <glyph glyph-name="Gbreve" unicode="&#x11e;" horiz-adv-x="763" 
d="M426 -14c-108 0 -199 34 -272 102c-73 69 -109 156 -109 262c0 107 37 194 110 262s166 102 278 102c73 0 141 -17 204 -50v-169c-64 35 -128 53 -191 53c-64 0 -116 -19 -156 -56s-60 -85 -60 -145c0 -62 19 -111 57 -147s84 -54 139 -54c47 0 84 11 111 33v229h181
v-311c-28 -31 -68 -57 -121 -79c-53 -21 -110 -32 -171 -32zM232 932h112c4 -40 29 -67 66 -67s62 27 65 67h112c-4 -107 -78 -171 -177 -171c-49 0 -91 15 -125 45c-33 31 -51 73 -53 126z" />
    <glyph glyph-name="gbreve" unicode="&#x11f;" horiz-adv-x="640" 
d="M282 -206c-86 0 -153 14 -201 43v154c54 -33 115 -49 182 -49c24 0 46 3 65 8c40 11 80 49 80 110v26c-40 -43 -91 -65 -154 -65c-66 0 -120 24 -162 71s-63 107 -63 179s21 132 63 179s96 71 162 71c62 0 113 -22 154 -66v53h177v-437c0 -92 -39 -168 -99 -211
c-60 -44 -131 -66 -204 -66zM307 169c45 0 79 16 101 47v110c-23 31 -56 47 -101 47c-63 0 -102 -43 -102 -102s39 -102 102 -102zM129 732h112c4 -40 29 -67 66 -67s62 27 65 67h112c-4 -107 -78 -171 -177 -171c-49 0 -91 15 -125 45c-33 31 -51 73 -53 126z" />
    <glyph glyph-name="Gdotaccent" unicode="&#x120;" horiz-adv-x="763" 
d="M426 -14c-108 0 -199 34 -272 102c-73 69 -109 156 -109 262c0 107 37 194 110 262s166 102 278 102c73 0 141 -17 204 -50v-169c-64 35 -128 53 -191 53c-64 0 -116 -19 -156 -56s-60 -85 -60 -145c0 -62 19 -111 57 -147s84 -54 139 -54c47 0 84 11 111 33v229h181
v-311c-28 -31 -68 -57 -121 -79c-53 -21 -110 -32 -171 -32zM411 750c-47 0 -87 39 -87 87s39 86 87 86c49 0 87 -38 87 -86s-38 -87 -87 -87z" />
    <glyph glyph-name="gdotaccent" unicode="&#x121;" horiz-adv-x="640" 
d="M282 -206c-86 0 -153 14 -201 43v154c54 -33 115 -49 182 -49c24 0 46 3 65 8c40 11 80 49 80 110v26c-40 -43 -91 -65 -154 -65c-66 0 -120 24 -162 71s-63 107 -63 179s21 132 63 179s96 71 162 71c62 0 113 -22 154 -66v53h177v-437c0 -92 -39 -168 -99 -211
c-60 -44 -131 -66 -204 -66zM307 169c45 0 79 16 101 47v110c-23 31 -56 47 -101 47c-63 0 -102 -43 -102 -102s39 -102 102 -102zM307 566c-47 0 -87 39 -87 87s39 86 87 86c49 0 87 -38 87 -86s-38 -87 -87 -87z" />
    <glyph glyph-name="uni0122" unicode="&#x122;" horiz-adv-x="763" 
d="M426 -14c-108 0 -199 34 -272 102c-73 69 -109 156 -109 262c0 107 37 194 110 262s166 102 278 102c73 0 141 -17 204 -50v-169c-64 35 -128 53 -191 53c-64 0 -116 -19 -156 -56s-60 -85 -60 -145c0 -62 19 -111 57 -147s84 -54 139 -54c47 0 84 11 111 33v229h181
v-311c-28 -31 -68 -57 -121 -79c-53 -21 -110 -32 -171 -32zM426 -290h-130l60 218h154z" />
    <glyph glyph-name="uni0123" unicode="&#x123;" horiz-adv-x="640" 
d="M282 -206c-86 0 -153 14 -201 43v154c54 -33 115 -49 182 -49c24 0 46 3 65 8c40 11 80 49 80 110v26c-40 -43 -91 -65 -154 -65c-66 0 -120 24 -162 71s-63 107 -63 179s21 132 63 179s96 71 162 71c62 0 113 -22 154 -66v53h177v-437c0 -92 -39 -168 -99 -211
c-60 -44 -131 -66 -204 -66zM307 169c45 0 79 16 101 47v110c-23 31 -56 47 -101 47c-63 0 -102 -43 -102 -102s39 -102 102 -102zM323 800h130l-60 -218h-154z" />
    <glyph glyph-name="Hcircumflex" unicode="&#x124;" horiz-adv-x="758" 
d="M247 0h-180v700h180v-249h264v249h180v-700h-180v291h-264v-291zM317 761h-147l127 151h167l124 -151h-150l-61 69z" />
    <glyph glyph-name="hcircumflex" unicode="&#x125;" horiz-adv-x="615" 
d="M51 0v700h177v-249c44 47 95 70 154 70c113 0 181 -81 181 -209v-312h-177v279c0 60 -32 84 -73 84c-35 0 -63 -15 -85 -45v-318h-177zM80 761h-147l127 151h167l124 -151h-150l-61 69z" />
    <glyph glyph-name="Hbar" unicode="&#x126;" horiz-adv-x="818" 
d="M277 0h-180v509h-62v116h62v75h180v-75h264v75h180v-75h62v-116h-62v-509h-180v291h-264v-291zM277 509v-58h264v58h-264z" />
    <glyph glyph-name="hbar" unicode="&#x127;" horiz-adv-x="678" 
d="M291 228v-228h-177v509h-101v116h101v75h177v-75h169v-116h-169v-150c45 47 99 70 161 70c112 0 174 -80 174 -209v-220h-177v187c0 60 -31 84 -71 84c-35 0 -64 -14 -87 -43z" />
    <glyph glyph-name="Itilde" unicode="&#x128;" horiz-adv-x="322" 
d="M230 757c-23 0 -47 7 -73 20c-25 13 -45 20 -58 20c-23 0 -38 -12 -44 -36h-89c0 43 12 79 35 109c23 31 54 46 91 46c21 0 45 -7 70 -20c26 -13 46 -19 60 -19c23 0 38 12 44 35h89c0 -39 -12 -75 -36 -107c-23 -32 -53 -48 -89 -48zM251 0h-180v700h180v-700z" />
    <glyph glyph-name="itilde" unicode="&#x129;" horiz-adv-x="277" 
d="M208 573c-23 0 -47 7 -73 20c-25 13 -45 20 -58 20c-23 0 -38 -12 -44 -36h-89c0 43 12 79 35 109c23 31 54 46 91 46c21 0 45 -7 70 -20c26 -13 46 -19 60 -19c23 0 38 12 44 35h89c0 -39 -12 -75 -36 -107c-23 -32 -53 -48 -89 -48zM227 0h-177v508h177v-508z" />
    <glyph glyph-name="Imacron" unicode="&#x12a;" horiz-adv-x="322" 
d="M251 0h-180v700h180v-700zM329 776h-334v116h334v-116z" />
    <glyph glyph-name="imacron" unicode="&#x12b;" horiz-adv-x="277" 
d="M305 592h-334v116h334v-116zM227 0h-177v508h177v-508z" />
    <glyph glyph-name="Ibreve" unicode="&#x12c;" horiz-adv-x="322" 
d="M-16 916h112c4 -40 29 -67 66 -67s62 27 65 67h112c-4 -107 -78 -171 -177 -171c-49 0 -91 15 -125 45c-33 31 -51 73 -53 126zM251 0h-180v700h180v-700z" />
    <glyph glyph-name="ibreve" unicode="&#x12d;" horiz-adv-x="277" 
d="M-40 732h112c4 -40 29 -67 66 -67s62 27 65 67h112c-4 -107 -78 -171 -177 -171c-49 0 -91 15 -125 45c-33 31 -51 73 -53 126zM227 0h-177v508h177v-508z" />
    <glyph glyph-name="Iogonek" unicode="&#x12e;" horiz-adv-x="322" 
d="M233 -206c-85 0 -137 45 -137 106c0 37 16 71 48 100h-73v700h180v-700c-22 -22 -33 -43 -33 -64c0 -25 15 -37 45 -37c14 0 26 2 35 7v-103c-16 -6 -38 -9 -65 -9z" />
    <glyph glyph-name="iogonek" unicode="&#x12f;" horiz-adv-x="310" 
d="M225 -206c-85 0 -137 45 -137 106c0 37 16 71 48 100h-70v508h177v-508c-22 -22 -33 -43 -33 -64c0 -25 15 -37 45 -37c14 0 26 2 35 7v-103c-16 -6 -38 -9 -65 -9zM154 554c-56 0 -101 45 -101 102s45 102 101 102c57 0 102 -45 102 -102s-45 -102 -102 -102z" />
    <glyph glyph-name="Idot" unicode="&#x130;" horiz-adv-x="322" 
d="M161 750c-47 0 -87 39 -87 87s39 86 87 86c49 0 87 -38 87 -86s-38 -87 -87 -87zM251 0h-180v700h180v-700z" />
    <glyph glyph-name="dotlessi" unicode="&#x131;" horiz-adv-x="277" 
d="M227 0h-177v508h177v-508z" />
    <glyph glyph-name="IJ" unicode="&#x132;" horiz-adv-x="650" 
d="M251 278h-180v422h180v-422zM276 -14c-35 0 -72 4 -111 12s-70 20 -94 35v169c55 -33 115 -50 178 -50c104 0 156 35 156 127v421h180v-437c0 -104 -36 -180 -96 -220s-129 -57 -213 -57z" />
    <glyph glyph-name="Jcircumflex" unicode="&#x134;" horiz-adv-x="514" 
d="M197 -14c-76 0 -133 13 -172 39v173c41 -31 85 -46 133 -46c79 0 118 32 118 116v432h180v-461c0 -95 -30 -165 -81 -202c-51 -36 -107 -51 -178 -51zM302 761h-147l127 151h167l124 -151h-150l-61 69z" />
    <glyph glyph-name="jcircumflex" unicode="&#x135;" horiz-adv-x="310" 
d="M43 -206c-55 0 -97 7 -124 22v147c27 -13 52 -19 77 -19c44 0 71 25 71 70v494h177v-507c0 -128 -74 -207 -201 -207zM95 577h-147l127 151h167l124 -151h-150l-61 69z" />
    <glyph glyph-name="uni0136" unicode="&#x136;" horiz-adv-x="735" 
d="M247 0h-180v700h180v-267l227 267h216l-271 -322l321 -378h-219l-274 311v-311zM379 -290h-130l60 218h154z" />
    <glyph glyph-name="uni0137" unicode="&#x137;" horiz-adv-x="622" 
d="M228 0h-177v700h177v-372l151 180h209l-201 -228l234 -280h-221l-172 210v-210zM324 -290h-130l60 218h154z" />
    <glyph glyph-name="kgreenlandic" unicode="&#x138;" horiz-adv-x="632" 
d="M238 0h-177v508h177v-180l151 180h209l-201 -228l234 -280h-221l-172 210v-210z" />
    <glyph glyph-name="Lacute" unicode="&#x139;" horiz-adv-x="609" 
d="M583 0h-516v700h180v-542h336v-158zM233 760h-147l95 152h209z" />
    <glyph glyph-name="lacute" unicode="&#x13a;" horiz-adv-x="324" 
d="M196 -13c-97 0 -145 49 -145 148v565h177v-523c0 -26 12 -39 36 -39c11 0 21 2 30 7v-139c-25 -13 -58 -19 -98 -19zM214 760h-147l95 152h209z" />
    <glyph glyph-name="uni013B" unicode="&#x13b;" horiz-adv-x="609" 
d="M583 0h-516v700h180v-542h336v-158zM345 -290h-130l60 218h154z" />
    <glyph glyph-name="lcommaaccent" unicode="&#x13c;" horiz-adv-x="324" 
d="M196 -13c-97 0 -145 49 -145 148v565h177v-523c0 -26 12 -39 36 -39c11 0 21 2 30 7v-139c-25 -13 -58 -19 -98 -19zM190 -290h-130l60 218h154z" />
    <glyph glyph-name="Lcaron" unicode="&#x13d;" horiz-adv-x="609" 
d="M583 0h-516v700h180v-542h336v-158zM482 482h-130l60 218h154z" />
    <glyph glyph-name="lcaron" unicode="&#x13e;" horiz-adv-x="475" 
d="M184 -13c-97 0 -145 49 -145 148v565h177v-523c0 -26 12 -39 36 -39c11 0 21 2 30 7v-139c-25 -13 -58 -19 -98 -19zM396 482h-130l60 218h154z" />
    <glyph glyph-name="Ldot" unicode="&#x13f;" horiz-adv-x="609" 
d="M552 313c-20 -21 -45 -31 -74 -31s-54 10 -75 31c-20 21 -30 46 -30 75s10 54 30 74c21 21 46 31 75 31s54 -10 74 -31c21 -20 31 -45 31 -74s-10 -54 -31 -75zM583 0h-516v700h180v-542h336v-158z" />
    <glyph glyph-name="ldot" unicode="&#x140;" horiz-adv-x="518" 
d="M196 -13c-97 0 -145 49 -145 148v565h177v-523c0 -26 12 -39 36 -39c11 0 21 2 30 7v-139c-25 -13 -58 -19 -98 -19zM452 313c-20 -21 -45 -31 -74 -31s-54 10 -75 31c-20 21 -30 46 -30 75s10 54 30 74c21 21 46 31 75 31s54 -10 74 -31c21 -20 31 -45 31 -74
s-10 -54 -31 -75z" />
    <glyph glyph-name="Lslash" unicode="&#x141;" horiz-adv-x="649" 
d="M623 0h-516v255l-98 -64v151l98 64v294h180v-176l142 94v-151l-142 -94v-215h336v-158z" />
    <glyph glyph-name="lslash" unicode="&#x142;" horiz-adv-x="413" 
d="M263 -13c-97 0 -145 49 -145 148v98l-102 -67v151l102 67v316h177v-200l104 69v-151l-104 -69v-172c0 -26 12 -39 36 -39c11 0 21 2 30 7v-139c-25 -13 -58 -19 -98 -19z" />
    <glyph glyph-name="Nacute" unicode="&#x143;" horiz-adv-x="770" 
d="M244 0h-177v700h154l306 -385v385h176v-700h-149l-310 387v-387zM451 760h-147l95 152h209z" />
    <glyph glyph-name="nacute" unicode="&#x144;" horiz-adv-x="625" 
d="M61 0v508h177v-57c44 47 95 70 154 70c113 0 181 -81 181 -209v-312h-177v279c0 60 -32 84 -73 84c-35 0 -63 -15 -85 -45v-318h-177zM360 576h-147l95 152h209z" />
    <glyph glyph-name="uni0145" unicode="&#x145;" horiz-adv-x="770" 
d="M244 0h-177v700h154l306 -385v385h176v-700h-149l-310 387v-387zM414 -290h-130l60 218h154z" />
    <glyph glyph-name="uni0146" unicode="&#x146;" horiz-adv-x="625" 
d="M238 318v-318h-177v508h177v-57c44 47 95 70 154 70c113 0 181 -81 181 -209v-312h-177v279c0 60 -32 84 -73 84c-35 0 -63 -15 -85 -45zM314 -290h-130l60 218h154z" />
    <glyph glyph-name="Ncaron" unicode="&#x147;" horiz-adv-x="770" 
d="M244 0h-177v700h154l306 -385v385h176v-700h-149l-310 387v-387zM467 761h-167l-124 151h150l61 -69l60 69h147z" />
    <glyph glyph-name="ncaron" unicode="&#x148;" horiz-adv-x="625" 
d="M61 0v508h177v-57c44 47 95 70 154 70c113 0 181 -81 181 -209v-312h-177v279c0 60 -32 84 -73 84c-35 0 -63 -15 -85 -45v-318h-177zM399 576h-167l-124 151h150l61 -69l60 69h147z" />
    <glyph glyph-name="napostrophe" unicode="&#x149;" horiz-adv-x="825" 
d="M261 0v508h177v-57c44 47 95 70 154 70c113 0 181 -81 181 -209v-312h-177v279c0 60 -32 84 -73 84c-35 0 -63 -15 -85 -45v-318h-177zM169 482h-130l60 218h154z" />
    <glyph glyph-name="Eng" unicode="&#x14a;" horiz-adv-x="770" 
d="M498 -206c-54 0 -94 7 -120 21v145c23 -11 47 -16 74 -16c47 0 71 23 72 70v26l-277 353v-393h-180v700h153l304 -391v391h179v-699c0 -128 -76 -207 -205 -207z" />
    <glyph glyph-name="eng" unicode="&#x14b;" horiz-adv-x="625" 
d="M368 -206c-54 0 -94 7 -120 21v145c23 -11 47 -16 74 -16c49 0 74 24 74 72v263c0 60 -31 84 -71 84c-35 0 -64 -14 -87 -43v-320h-177v508h177v-57c45 47 99 70 161 70c112 0 174 -80 174 -209v-311c0 -128 -76 -207 -205 -207z" />
    <glyph glyph-name="Omacron" unicode="&#x14c;" horiz-adv-x="828" 
d="M282 208c35 -37 79 -56 132 -56s96 19 131 56s53 85 53 142s-18 105 -53 142s-78 56 -131 56s-97 -19 -132 -56s-52 -85 -52 -142s17 -105 52 -142zM678 92c-70 -71 -158 -106 -264 -106s-194 35 -264 106s-105 157 -105 258s35 187 105 258s158 106 264 106
s194 -35 264 -106s105 -157 105 -258s-35 -187 -105 -258zM582 776h-334v116h334v-116z" />
    <glyph glyph-name="omacron" unicode="&#x14d;" horiz-adv-x="630" 
d="M427 254c0 65 -47 116 -112 116s-112 -51 -112 -116c0 -67 47 -116 112 -116s112 49 112 116zM520 63c-54 -51 -122 -76 -205 -76s-151 25 -205 76s-81 115 -81 191s27 139 81 190s122 77 205 77s151 -26 205 -77s81 -114 81 -190s-27 -140 -81 -191zM482 592h-334v116
h334v-116z" />
    <glyph glyph-name="Obreve" unicode="&#x14e;" horiz-adv-x="828" 
d="M282 208c35 -37 79 -56 132 -56s96 19 131 56s53 85 53 142s-18 105 -53 142s-78 56 -131 56s-97 -19 -132 -56s-52 -85 -52 -142s17 -105 52 -142zM678 92c-70 -71 -158 -106 -264 -106s-194 35 -264 106s-105 157 -105 258s35 187 105 258s158 106 264 106
s194 -35 264 -106s105 -157 105 -258s-35 -187 -105 -258zM236 931h112c4 -40 29 -67 66 -67s62 27 65 67h112c-4 -107 -78 -171 -177 -171c-49 0 -91 15 -125 45c-33 31 -51 73 -53 126z" />
    <glyph glyph-name="obreve" unicode="&#x14f;" horiz-adv-x="630" 
d="M427 254c0 65 -47 116 -112 116s-112 -51 -112 -116c0 -67 47 -116 112 -116s112 49 112 116zM520 63c-54 -51 -122 -76 -205 -76s-151 25 -205 76s-81 115 -81 191s27 139 81 190s122 77 205 77s151 -26 205 -77s81 -114 81 -190s-27 -140 -81 -191zM138 741h112
c4 -40 29 -67 66 -67s62 27 65 67h112c-4 -107 -78 -171 -177 -171c-49 0 -91 15 -125 45c-33 31 -51 73 -53 126z" />
    <glyph glyph-name="Ohungarumlaut" unicode="&#x150;" horiz-adv-x="828" 
d="M282 208c35 -37 79 -56 132 -56s96 19 131 56s53 85 53 142s-18 105 -53 142s-78 56 -131 56s-97 -19 -132 -56s-52 -85 -52 -142s17 -105 52 -142zM678 92c-70 -71 -158 -106 -264 -106s-194 35 -264 106s-105 157 -105 258s35 187 105 258s158 106 264 106
s194 -35 264 -106s105 -157 105 -258s-35 -187 -105 -258zM356 760h-150l95 152h212zM628 760h-150l95 152h212z" />
    <glyph glyph-name="ohungarumlaut" unicode="&#x151;" horiz-adv-x="630" 
d="M427 254c0 65 -47 116 -112 116s-112 -51 -112 -116c0 -67 47 -116 112 -116s112 49 112 116zM520 63c-54 -51 -122 -76 -205 -76s-151 25 -205 76s-81 115 -81 191s27 139 81 190s122 77 205 77s151 -26 205 -77s81 -114 81 -190s-27 -140 -81 -191zM244 576h-150
l95 152h212zM516 576h-150l95 152h212z" />
    <glyph glyph-name="OE" unicode="&#x152;" horiz-adv-x="1054" 
d="M1019 0h-587c-114 0 -207 32 -279 97s-108 150 -108 253s36 187 108 252s165 98 279 98h579v-158h-342v-95h270v-152h-270v-137h350v-158zM445 158h44v384h-44c-136 0 -214 -69 -214 -192s78 -192 214 -192z" />
    <glyph glyph-name="oe" unicode="&#x153;" horiz-adv-x="960" 
d="M927 255v-44h-340c15 -53 75 -79 148 -79c55 0 110 15 163 44v-136c-48 -35 -112 -53 -193 -53c-79 0 -154 30 -195 74c-56 -49 -121 -74 -195 -74c-83 0 -151 25 -205 76s-81 115 -81 191s27 139 81 190s122 77 205 77c75 0 139 -26 192 -77c47 51 106 77 179 77
c68 0 125 -25 171 -75c47 -50 70 -114 70 -191zM427 254c0 65 -47 116 -112 116s-112 -51 -112 -116c0 -67 47 -116 112 -116s112 49 112 116zM586 305h168c-1 51 -37 86 -80 86c-47 0 -81 -33 -88 -86z" />
    <glyph glyph-name="Racute" unicode="&#x154;" horiz-adv-x="729" 
d="M247 0h-180v700h329c77 0 138 -20 183 -61c46 -40 69 -92 69 -155c0 -91 -51 -164 -136 -197l212 -287h-207l-198 267h-72v-267zM247 548v-134h139c49 0 80 25 80 66s-31 68 -80 68h-139zM356 760h-147l95 152h209z" />
    <glyph glyph-name="racute" unicode="&#x155;" horiz-adv-x="462" 
d="M238 0h-177v508h177v-83c12 23 34 45 65 65c32 21 66 31 102 31c9 0 17 -1 22 -2v-171c-21 5 -41 8 -60 8c-60 0 -109 -25 -129 -61v-295zM279 576h-147l95 152h209z" />
    <glyph glyph-name="uni0156" unicode="&#x156;" horiz-adv-x="729" 
d="M247 0h-180v700h329c77 0 138 -20 183 -61c46 -40 69 -92 69 -155c0 -91 -51 -164 -136 -197l212 -287h-207l-198 267h-72v-267zM247 548v-134h139c49 0 80 25 80 66s-31 68 -80 68h-139zM381 -290h-130l60 218h154z" />
    <glyph glyph-name="uni0157" unicode="&#x157;" horiz-adv-x="453" 
d="M238 0h-177v508h177v-83c12 23 34 45 65 65c32 21 66 31 102 31c9 0 17 -1 22 -2v-171c-21 5 -41 8 -60 8c-60 0 -109 -25 -129 -61v-295zM141 -290h-130l60 218h154z" />
    <glyph glyph-name="Rcaron" unicode="&#x158;" horiz-adv-x="729" 
d="M247 0h-180v700h329c77 0 138 -20 183 -61c46 -40 69 -92 69 -155c0 -91 -51 -164 -136 -197l212 -287h-207l-198 267h-72v-267zM247 548v-134h139c49 0 80 25 80 66s-31 68 -80 68h-139zM417 761h-167l-124 151h150l61 -69l60 69h147z" />
    <glyph glyph-name="rcaron" unicode="&#x159;" horiz-adv-x="443" 
d="M228 0h-177v508h177v-83c12 23 34 45 65 65c32 21 66 31 102 31c9 0 17 -1 22 -2v-171c-21 5 -41 8 -60 8c-60 0 -109 -25 -129 -61v-295zM306 576h-167l-124 151h150l61 -69l60 69h147z" />
    <glyph glyph-name="Sacute" unicode="&#x15a;" horiz-adv-x="636" 
d="M314 -14c-108 0 -198 25 -271 75v184c29 -27 69 -49 120 -68s99 -28 144 -28c71 0 107 18 107 55c0 21 -11 30 -27 41c-8 7 -33 14 -45 18l-63 19l-51 15l-46 18c-20 8 -35 15 -46 22c-20 15 -53 39 -68 64c-13 25 -25 62 -25 103c0 135 107 210 275 210
c85 0 164 -19 237 -58v-173c-31 19 -68 35 -111 48s-84 20 -124 20c-61 0 -92 -15 -92 -46c0 -13 8 -23 29 -32l32 -11c21 -7 67 -19 96 -28c67 -22 120 -50 158 -83s57 -80 57 -140c0 -69 -27 -123 -80 -164s-122 -61 -206 -61zM343 760h-147l95 152h209z" />
    <glyph glyph-name="sacute" unicode="&#x15b;" horiz-adv-x="518" 
d="M257 -13c-94 0 -166 15 -215 45v149c21 -15 50 -28 88 -39s78 -16 119 -16s62 8 62 25c0 9 -5 16 -22 23l-23 8c-13 4 -52 14 -71 19c-58 17 -99 36 -123 57c-23 21 -35 55 -35 101c0 101 88 162 233 162c75 0 139 -16 192 -48v-144c-59 37 -120 55 -185 55
c-38 0 -57 -9 -57 -26c0 -9 7 -18 23 -23l24 -7c15 -4 49 -11 66 -15c108 -28 156 -73 156 -162c0 -49 -21 -88 -63 -119c-41 -30 -98 -45 -169 -45zM277 576h-147l95 152h209z" />
    <glyph glyph-name="Scircumflex" unicode="&#x15c;" horiz-adv-x="636" 
d="M314 -14c-108 0 -198 25 -271 75v184c29 -27 69 -49 120 -68s99 -28 144 -28c71 0 107 18 107 55c0 21 -11 30 -27 41c-8 7 -33 14 -45 18l-63 19l-51 15l-46 18c-20 8 -35 15 -46 22c-20 15 -53 39 -68 64c-13 25 -25 62 -25 103c0 135 107 210 275 210
c85 0 164 -19 237 -58v-173c-31 19 -68 35 -111 48s-84 20 -124 20c-61 0 -92 -15 -92 -46c0 -13 8 -23 29 -32l32 -11c21 -7 67 -19 96 -28c67 -22 120 -50 158 -83s57 -80 57 -140c0 -69 -27 -123 -80 -164s-122 -61 -206 -61zM250 761h-147l127 151h167l124 -151h-150
l-61 69z" />
    <glyph glyph-name="scircumflex" unicode="&#x15d;" horiz-adv-x="518" 
d="M257 -13c-94 0 -166 15 -215 45v149c21 -15 50 -28 88 -39s78 -16 119 -16s62 8 62 25c0 9 -5 16 -22 23l-23 8c-13 4 -52 14 -71 19c-58 17 -99 36 -123 57c-23 21 -35 55 -35 101c0 101 88 162 233 162c75 0 139 -16 192 -48v-144c-59 37 -120 55 -185 55
c-38 0 -57 -9 -57 -26c0 -9 7 -18 23 -23l24 -7c15 -4 49 -11 66 -15c108 -28 156 -73 156 -162c0 -49 -21 -88 -63 -119c-41 -30 -98 -45 -169 -45zM203 577h-147l127 151h167l124 -151h-150l-61 69z" />
    <glyph glyph-name="Scedilla" unicode="&#x15e;" horiz-adv-x="633" 
d="M349 -152h-204l109 141c-83 7 -153 31 -210 72v184c29 -27 69 -49 119 -68c51 -19 98 -28 143 -28c70 0 105 18 105 55c0 18 -9 34 -29 43c-11 5 -17 9 -33 14c-18 6 -45 13 -71 21l-51 15l-46 18c-20 8 -35 15 -46 22c-20 15 -52 39 -67 64c-13 25 -25 62 -25 103
c0 135 106 210 274 210c83 0 161 -19 233 -57v-173c-61 37 -151 67 -231 67c-61 0 -91 -15 -91 -46c0 -13 8 -23 29 -32c11 -4 21 -8 31 -11c21 -5 67 -19 96 -28c133 -44 213 -103 213 -223c0 -109 -74 -188 -191 -215z" />
    <glyph glyph-name="scedilla" unicode="&#x15f;" horiz-adv-x="518" 
d="M281 -152h-204l110 143c-63 7 -112 20 -145 41v149c21 -15 50 -28 88 -39s78 -16 119 -16s62 8 62 25c0 9 -5 16 -22 23l-23 8c-13 4 -52 14 -71 19c-58 17 -99 36 -123 57c-23 21 -35 55 -35 101c0 101 88 162 233 162c75 0 139 -16 192 -48v-144
c-59 37 -120 55 -185 55c-38 0 -57 -9 -57 -26c0 -9 7 -18 23 -23l24 -7c15 -4 49 -11 66 -15c108 -28 156 -73 156 -162c0 -76 -55 -135 -151 -156z" />
    <glyph glyph-name="Scaron" unicode="&#x160;" horiz-adv-x="636" 
d="M314 -14c-108 0 -198 25 -271 75v184c29 -27 69 -49 120 -68s99 -28 144 -28c71 0 107 18 107 55c0 21 -11 30 -27 41c-8 7 -33 14 -45 18l-63 19l-51 15l-46 18c-20 8 -35 15 -46 22c-20 15 -53 39 -68 64c-13 25 -25 62 -25 103c0 135 107 210 275 210
c85 0 164 -19 237 -58v-173c-31 19 -68 35 -111 48s-84 20 -124 20c-61 0 -92 -15 -92 -46c0 -13 8 -23 29 -32l32 -11c21 -7 67 -19 96 -28c67 -22 120 -50 158 -83s57 -80 57 -140c0 -69 -27 -123 -80 -164s-122 -61 -206 -61zM392 761h-167l-124 151h150l61 -69l60 69
h147z" />
    <glyph glyph-name="scaron" unicode="&#x161;" horiz-adv-x="518" 
d="M257 -13c-94 0 -166 15 -215 45v149c21 -15 50 -28 88 -39s78 -16 119 -16s62 8 62 25c0 9 -5 16 -22 23l-23 8c-13 4 -52 14 -71 19c-58 17 -99 36 -123 57c-23 21 -35 55 -35 101c0 101 88 162 233 162c75 0 139 -16 192 -48v-144c-59 37 -120 55 -185 55
c-38 0 -57 -9 -57 -26c0 -9 7 -18 23 -23l24 -7c15 -4 49 -11 66 -15c108 -28 156 -73 156 -162c0 -49 -21 -88 -63 -119c-41 -30 -98 -45 -169 -45zM347 576h-167l-124 151h150l61 -69l60 69h147z" />
    <glyph glyph-name="uni0162" unicode="&#x162;" horiz-adv-x="657" 
d="M342 -152h-204l118 152h-18v542h-210v158h601v-158h-211v-542h-17z" />
    <glyph glyph-name="uni0163" unicode="&#x163;" horiz-adv-x="449" 
d="M284 -152h-204l119 153c-63 25 -95 76 -95 152v213h-89v142h89v130h177v-130h129v-142h-129v-165c0 -44 16 -61 59 -61c24 0 47 6 70 18v-141c-18 -11 -41 -19 -70 -25z" />
    <glyph glyph-name="Tcaron" unicode="&#x164;" horiz-adv-x="657" 
d="M418 0h-180v542h-210v158h601v-158h-211v-542zM410 761h-167l-124 151h150l61 -69l60 69h147z" />
    <glyph glyph-name="tcaron" unicode="&#x165;" horiz-adv-x="651" 
d="M285 -13c-104 0 -176 58 -176 166v213h-89v142h89v130h177v-130h129v-142h-129v-165c0 -44 16 -61 59 -61c23 0 47 6 70 18v-141c-32 -20 -75 -30 -130 -30zM572 482h-130l60 218h154z" />
    <glyph glyph-name="Tbar" unicode="&#x166;" horiz-adv-x="657" 
d="M418 0h-180v302h-78v116h78v124h-210v158h601v-158h-211v-124h76v-116h-76v-302z" />
    <glyph glyph-name="tbar" unicode="&#x167;" horiz-adv-x="449" 
d="M280 -13c-104 0 -176 58 -176 166v55h-89v116h89v42h-89v142h89v130h177v-130h129v-142h-129v-42h129v-116h-129v-7c0 -44 16 -61 59 -61c24 0 47 6 70 18v-141c-32 -20 -75 -30 -130 -30z" />
    <glyph glyph-name="Utilde" unicode="&#x168;" horiz-adv-x="730" 
d="M58 293v407h180v-416c0 -89 54 -132 127 -132c75 0 127 43 127 132v416h180v-407c0 -97 -29 -173 -87 -227c-58 -53 -131 -80 -220 -80s-162 27 -220 80c-58 54 -87 130 -87 227zM434 757c-23 0 -47 7 -73 20c-25 13 -45 20 -58 20c-23 0 -38 -12 -44 -36h-89
c0 43 12 79 35 109c23 31 54 46 91 46c21 0 45 -7 70 -20c26 -13 46 -19 60 -19c23 0 38 12 44 35h89c0 -39 -12 -75 -36 -107c-23 -32 -53 -48 -89 -48z" />
    <glyph glyph-name="utilde" unicode="&#x169;" horiz-adv-x="625" 
d="M233 -13c-113 0 -181 81 -181 209v312h177v-279c0 -60 32 -84 73 -84c35 0 63 15 85 45v318h177v-508h-177v57c-44 -47 -95 -70 -154 -70zM378 573c-23 0 -47 7 -73 20c-25 13 -45 20 -58 20c-23 0 -38 -12 -44 -36h-89c0 43 12 79 35 109c23 31 54 46 91 46
c21 0 45 -7 70 -20c26 -13 46 -19 60 -19c23 0 38 12 44 35h89c0 -39 -12 -75 -36 -107c-23 -32 -53 -48 -89 -48z" />
    <glyph glyph-name="Umacron" unicode="&#x16a;" horiz-adv-x="730" 
d="M58 293v407h180v-416c0 -89 54 -132 127 -132c75 0 127 43 127 132v416h180v-407c0 -97 -29 -173 -87 -227c-58 -53 -131 -80 -220 -80s-162 27 -220 80c-58 54 -87 130 -87 227zM533 776h-334v116h334v-116z" />
    <glyph glyph-name="umacron" unicode="&#x16b;" horiz-adv-x="625" 
d="M233 -13c-113 0 -181 81 -181 209v312h177v-279c0 -60 32 -84 73 -84c35 0 63 15 85 45v318h177v-508h-177v57c-44 -47 -95 -70 -154 -70zM475 592h-334v116h334v-116z" />
    <glyph glyph-name="Ubreve" unicode="&#x16c;" horiz-adv-x="730" 
d="M58 293v407h180v-416c0 -89 54 -132 127 -132c75 0 127 43 127 132v416h180v-407c0 -97 -29 -173 -87 -227c-58 -53 -131 -80 -220 -80s-162 27 -220 80c-58 54 -87 130 -87 227zM187 916h112c4 -40 29 -67 66 -67s62 27 65 67h112c-4 -107 -78 -171 -177 -171
c-49 0 -91 15 -125 45c-33 31 -51 73 -53 126z" />
    <glyph glyph-name="ubreve" unicode="&#x16d;" horiz-adv-x="625" 
d="M233 -13c-113 0 -181 81 -181 209v312h177v-279c0 -60 32 -84 73 -84c35 0 63 15 85 45v318h177v-508h-177v57c-44 -47 -95 -70 -154 -70zM131 732h112c4 -40 29 -67 66 -67s62 27 65 67h112c-4 -107 -78 -171 -177 -171c-49 0 -91 15 -125 45c-33 31 -51 73 -53 126z
" />
    <glyph glyph-name="Uring" unicode="&#x16e;" horiz-adv-x="730" 
d="M58 293v407h180v-416c0 -89 54 -132 127 -132c75 0 127 43 127 132v416h180v-407c0 -97 -29 -173 -87 -227c-58 -53 -131 -80 -220 -80s-162 27 -220 80c-58 54 -87 130 -87 227zM366 943c29 0 53 -10 74 -31s31 -46 31 -75s-10 -53 -31 -74c-41 -41 -106 -41 -149 0
c-21 21 -31 45 -31 74s10 53 31 74s46 32 75 32zM410 837c3 58 -91 58 -89 0c0 -24 21 -44 45 -44s44 20 44 44z" />
    <glyph glyph-name="uring" unicode="&#x16f;" horiz-adv-x="625" 
d="M233 -13c-113 0 -181 81 -181 209v312h177v-279c0 -60 32 -84 73 -84c35 0 63 15 85 45v318h177v-508h-177v57c-44 -47 -95 -70 -154 -70zM203 652c0 29 10 54 31 75s46 31 75 31s53 -10 74 -31s31 -46 31 -75c0 -57 -48 -105 -105 -105s-106 48 -106 105zM353 652
c3 58 -91 58 -89 0c0 -24 21 -44 45 -44s44 20 44 44z" />
    <glyph glyph-name="Uhungarumlaut" unicode="&#x170;" horiz-adv-x="761" 
d="M58 293v407h180v-416c0 -89 54 -132 127 -132c75 0 127 43 127 132v416h180v-407c0 -97 -29 -173 -87 -227c-58 -53 -131 -80 -220 -80s-162 27 -220 80c-58 54 -87 130 -87 227zM274 760h-150l95 152h212zM546 760h-150l95 152h212z" />
    <glyph glyph-name="uhungarumlaut" unicode="&#x171;" horiz-adv-x="615" 
d="M233 -13c-113 0 -181 81 -181 209v312h177v-279c0 -60 32 -84 73 -84c35 0 63 15 85 45v318h177v-508h-177v57c-44 -47 -95 -70 -154 -70zM229 576h-150l95 152h212zM501 576h-150l95 152h212z" />
    <glyph glyph-name="Uogonek" unicode="&#x172;" horiz-adv-x="730" 
d="M451 -206c-85 0 -137 45 -137 106c0 32 12 61 35 87c-85 3 -155 31 -210 84c-54 53 -81 127 -81 222v407h180v-416c0 -89 54 -132 127 -132c75 0 127 43 127 132v416h180v-407c0 -133 -54 -225 -163 -278c-21 -11 -29 -15 -48 -28c-17 -13 -25 -30 -25 -51
c0 -25 15 -37 45 -37c14 0 26 2 35 7v-103c-16 -6 -38 -9 -65 -9z" />
    <glyph glyph-name="uogonek" unicode="&#x173;" horiz-adv-x="615" 
d="M546 -206c-85 0 -137 45 -137 106c0 37 16 71 48 100h-70v57c-44 -47 -95 -70 -154 -70c-113 0 -181 81 -181 209v312h177v-279c0 -60 32 -84 73 -84c35 0 63 15 85 45v318h177v-508c-22 -22 -33 -43 -33 -64c0 -25 15 -37 45 -37c14 0 26 2 35 7v-103
c-16 -6 -38 -9 -65 -9z" />
    <glyph glyph-name="Wcircumflex" unicode="&#x174;" horiz-adv-x="1088" 
d="M404 -4h-160l-232 704h201l118 -417l146 419h140l146 -419l118 417h197l-234 -704h-158l-140 410zM484 761h-147l127 151h167l124 -151h-150l-61 69z" />
    <glyph glyph-name="wcircumflex" unicode="&#x175;" horiz-adv-x="856" 
d="M327 -4h-151l-166 512h175l81 -259l81 261h140l83 -261l79 259h174l-169 -512h-152l-89 261zM360 577h-147l127 151h167l124 -151h-150l-61 69z" />
    <glyph glyph-name="Ycircumflex" unicode="&#x176;" horiz-adv-x="728" 
d="M454 0h-180v310l-269 390h205l156 -231l157 231h200l-269 -386v-314zM303 761h-147l127 151h167l124 -151h-150l-61 69z" />
    <glyph glyph-name="ycircumflex" unicode="&#x177;" horiz-adv-x="609" 
d="M163 -206c-43 0 -81 8 -113 23v152c25 -16 53 -24 82 -24c45 0 73 20 94 72l-216 491h188l113 -306l106 306h184l-227 -559c-42 -103 -112 -155 -211 -155zM243 577h-147l127 151h167l124 -151h-150l-61 69z" />
    <glyph glyph-name="Ydieresis" unicode="&#x178;" horiz-adv-x="728" 
d="M454 0h-180v310l-269 390h205l156 -231l157 231h200l-269 -386v-314zM253 750c-47 0 -87 39 -87 87s39 86 87 86c49 0 87 -38 87 -86s-38 -87 -87 -87zM541 775c-33 -33 -88 -33 -123 0c-33 35 -33 90 0 123c35 33 90 33 123 0c35 -33 35 -88 0 -123z" />
    <glyph glyph-name="Zacute" unicode="&#x179;" horiz-adv-x="642" 
d="M617 0h-592v128l334 414h-321v158h563v-127l-333 -415h349v-158zM360 760h-147l95 152h209z" />
    <glyph glyph-name="zacute" unicode="&#x17a;" horiz-adv-x="540" 
d="M508 0h-478v117l226 248h-213v143h449v-121l-230 -244h246v-143zM298 576h-147l95 152h209z" />
    <glyph glyph-name="Zdotaccent" unicode="&#x17b;" horiz-adv-x="642" 
d="M617 0h-592v128l334 414h-321v158h563v-127l-333 -415h349v-158zM321 750c-47 0 -87 39 -87 87s39 86 87 86c49 0 87 -38 87 -86s-38 -87 -87 -87z" />
    <glyph glyph-name="zdotaccent" unicode="&#x17c;" horiz-adv-x="540" 
d="M508 0h-478v117l226 248h-213v143h449v-121l-230 -244h246v-143zM269 566c-47 0 -87 39 -87 87s39 86 87 86c49 0 87 -38 87 -86s-38 -87 -87 -87z" />
    <glyph glyph-name="Zcaron" unicode="&#x17d;" horiz-adv-x="642" 
d="M617 0h-592v128l334 414h-321v158h563v-127l-333 -415h349v-158zM403 761h-167l-124 151h150l61 -69l60 69h147z" />
    <glyph glyph-name="zcaron" unicode="&#x17e;" horiz-adv-x="540" 
d="M508 0h-478v117l226 248h-213v143h449v-121l-230 -244h246v-143zM351 576h-167l-124 151h150l61 -69l60 69h147z" />
    <glyph glyph-name="longs" unicode="&#x17f;" horiz-adv-x="442" 
d="M277 517v-517h-177v366h-85v142h85v27c0 105 62 179 186 179c53 0 99 -7 139 -22v-136c-27 10 -56 15 -87 15c-41 0 -61 -18 -61 -54z" />
    <glyph glyph-name="florin" unicode="&#x192;" horiz-adv-x="521" 
d="M24 -206c-41 0 -75 7 -102 20v138c22 -8 44 -12 65 -12c56 0 93 39 104 107l41 251h-92v142h115l10 59c9 60 34 111 75 152c41 42 97 63 168 63c39 0 73 -7 103 -20v-138c-22 8 -44 12 -65 12c-57 0 -92 -36 -106 -107l-4 -21h121v-142h-143l-47 -289
c-9 -60 -34 -111 -75 -152c-41 -42 -97 -63 -168 -63z" />
    <glyph glyph-name="uni0218" unicode="&#x218;" horiz-adv-x="636" 
d="M314 -14c-108 0 -198 25 -271 75v184c29 -27 69 -49 120 -68s99 -28 144 -28c71 0 107 18 107 55c0 21 -11 30 -27 41c-8 7 -33 14 -45 18l-63 19l-51 15l-46 18c-20 8 -35 15 -46 22c-20 15 -53 39 -68 64c-13 25 -25 62 -25 103c0 135 107 210 275 210
c85 0 164 -19 237 -58v-173c-31 19 -68 35 -111 48s-84 20 -124 20c-61 0 -92 -15 -92 -46c0 -13 8 -23 29 -32l32 -11c21 -7 67 -19 96 -28c67 -22 120 -50 158 -83s57 -80 57 -140c0 -69 -27 -123 -80 -164s-122 -61 -206 -61zM324 -290h-130l60 218h154z" />
    <glyph glyph-name="uni0219" unicode="&#x219;" horiz-adv-x="518" 
d="M257 -13c-94 0 -166 15 -215 45v149c21 -15 50 -28 88 -39s78 -16 119 -16s62 8 62 25c0 9 -5 16 -22 23l-23 8c-13 4 -52 14 -71 19c-58 17 -99 36 -123 57c-23 21 -35 55 -35 101c0 101 88 162 233 162c75 0 139 -16 192 -48v-144c-59 37 -120 55 -185 55
c-38 0 -57 -9 -57 -26c0 -9 7 -18 23 -23l24 -7c15 -4 49 -11 66 -15c108 -28 156 -73 156 -162c0 -49 -21 -88 -63 -119c-41 -30 -98 -45 -169 -45zM280 -290h-130l60 218h154z" />
    <glyph glyph-name="uni021A" unicode="&#x21a;" horiz-adv-x="657" 
d="M418 0h-180v542h-210v158h601v-158h-211v-542zM319 -290h-130l60 218h154z" />
    <glyph glyph-name="uni021B" unicode="&#x21b;" horiz-adv-x="449" 
d="M280 -13c-104 0 -176 58 -176 166v213h-89v142h89v130h177v-130h129v-142h-129v-165c0 -44 16 -61 59 -61c24 0 47 6 70 18v-141c-32 -20 -75 -30 -130 -30zM264 -290h-130l60 218h154z" />
    <glyph glyph-name="circumflex" unicode="&#x2c6;" horiz-adv-x="546" 
d="M213 577h-147l127 151h167l124 -151h-150l-61 69z" />
    <glyph glyph-name="caron" unicode="&#x2c7;" horiz-adv-x="512" 
d="M306 576h-167l-124 151h150l61 -69l60 69h147z" />
    <glyph glyph-name="uni02C9" unicode="&#x2c9;" horiz-adv-x="498" 
d="M416 592h-334v116h334v-116z" />
    <glyph glyph-name="breve" unicode="&#x2d8;" horiz-adv-x="468" 
d="M56 732h112c4 -40 29 -67 66 -67s62 27 65 67h112c-4 -107 -78 -171 -177 -171c-49 0 -91 15 -125 45c-33 31 -51 73 -53 126z" />
    <glyph glyph-name="dotaccent" unicode="&#x2d9;" horiz-adv-x="584" 
d="M292 566c-47 0 -87 39 -87 87s39 86 87 86c49 0 87 -38 87 -86s-38 -87 -87 -87z" />
    <glyph glyph-name="ring" unicode="&#x2da;" horiz-adv-x="565" 
d="M158 652c0 59 47 106 106 106c29 0 53 -10 74 -31s31 -46 31 -75c0 -57 -48 -105 -105 -105s-106 48 -106 105zM308 652c3 58 -91 58 -89 0c0 -24 21 -44 45 -44s44 20 44 44z" />
    <glyph glyph-name="ogonek" unicode="&#x2db;" horiz-adv-x="489" 
d="M300 -206c-85 0 -137 45 -137 106c0 37 16 71 48 100h107c-22 -22 -33 -43 -33 -64c0 -25 15 -37 45 -37c14 0 26 2 35 7v-103c-16 -6 -38 -9 -65 -9z" />
    <glyph glyph-name="tilde" unicode="&#x2dc;" horiz-adv-x="506" 
d="M320 573c-23 0 -47 7 -73 20c-25 13 -45 20 -58 20c-23 0 -38 -12 -44 -36h-89c0 43 12 79 35 109c23 31 54 46 91 46c21 0 45 -7 70 -20c26 -13 46 -19 60 -19c23 0 38 12 44 35h89c0 -39 -12 -75 -36 -107c-23 -32 -53 -48 -89 -48z" />
    <glyph glyph-name="hungarumlaut" unicode="&#x2dd;" horiz-adv-x="669" 
d="M195 576h-150l95 152h212zM467 576h-150l95 152h212z" />
    <glyph glyph-name="acutecomb" unicode="&#x301;" horiz-adv-x="10" 
d="M-230 576h-147l95 152h209z" />
    <glyph glyph-name="uni037E" unicode="&#x37e;" horiz-adv-x="330" 
d="M162 -152h-141l90 328h180zM263 325c-20 -21 -45 -31 -74 -31s-54 10 -75 31c-20 21 -30 46 -30 75s10 54 31 74c41 41 107 41 148 0c21 -20 31 -45 31 -74s-10 -54 -31 -75z" />
    <glyph glyph-name="uni0394" unicode="&#x394;" horiz-adv-x="781" 
d="M771 0h-761l294 700h173zM389 475l-126 -317h252z" />
    <glyph glyph-name="uni03A9" unicode="&#x3a9;" horiz-adv-x="788" 
d="M352 0h-296v158h93c-25 24 -47 57 -66 100c-18 43 -27 87 -27 132c0 163 122 324 338 324c103 0 184 -32 245 -97s92 -140 92 -227c0 -45 -9 -89 -27 -132s-40 -76 -65 -100h92v-158h-296v133c61 41 111 126 111 227c0 55 -14 101 -41 138s-64 56 -111 56
s-85 -19 -112 -56s-41 -83 -41 -138c0 -101 50 -186 111 -227v-133z" />
    <glyph glyph-name="uni03BC" unicode="&#x3bc;" horiz-adv-x="634" 
d="M238 -200h-177v708h177v-279c0 -60 32 -84 73 -84c35 0 63 15 85 45v318h177v-508h-177v57c-44 -47 -95 -70 -154 -70h-4v-187z" />
    <glyph glyph-name="pi" unicode="&#x3c0;" horiz-adv-x="722" 
d="M568 -13c-92 0 -161 54 -161 166v213h-112v-366h-177v366h-99v142h664v-142h-99v-165c0 -44 11 -61 44 -61c19 0 37 7 55 21v-141c-29 -22 -68 -33 -115 -33z" />
    <glyph glyph-name="uni0401" unicode="&#x401;" horiz-adv-x="642" 
d="M607 0h-540v700h532v-158h-352v-95h280v-152h-280v-137h360v-158zM224 750c-47 0 -87 39 -87 87s39 86 87 86c49 0 87 -38 87 -86s-38 -87 -87 -87zM512 775c-33 -33 -88 -33 -123 0c-33 35 -33 90 0 123c35 33 90 33 123 0c35 -33 35 -88 0 -123z" />
    <glyph glyph-name="uni0402" unicode="&#x402;" horiz-adv-x="791" 
d="M531 -7c-30 0 -55 3 -75 8v138c12 -5 28 -7 48 -7c49 0 86 31 86 78c0 49 -42 85 -109 85c-45 0 -83 -8 -113 -24v-271h-180v560h-160v140h540v-140h-200v-121c40 13 85 19 134 19c81 0 145 -22 193 -67c49 -44 73 -102 73 -174c0 -63 -21 -117 -64 -160
s-100 -64 -173 -64z" />
    <glyph glyph-name="uni0403" unicode="&#x403;" horiz-adv-x="619" 
d="M247 0h-180v700h517v-158h-337v-542zM369 760h-147l95 152h209z" />
    <glyph glyph-name="uni0404" unicode="&#x404;" horiz-adv-x="672" 
d="M244 434h240v-145h-248c24 -88 102 -139 207 -139c74 0 135 19 184 56v-176c-57 -29 -121 -44 -192 -44c-112 0 -205 34 -279 102s-111 155 -111 262s37 194 110 262c74 68 167 102 279 102c66 0 126 -13 181 -40v-175c-55 34 -114 51 -179 51c-91 0 -161 -44 -192 -116z
" />
    <glyph glyph-name="uni0405" unicode="&#x405;" horiz-adv-x="632" 
d="M312 -14c-108 0 -198 25 -271 75v184c29 -27 69 -49 120 -68s99 -28 144 -28c71 0 107 18 107 55c0 21 -11 30 -27 41c-8 7 -33 14 -45 18l-63 19l-51 15l-46 18c-20 8 -35 15 -46 22c-20 15 -53 39 -68 64c-13 25 -25 62 -25 103c0 135 107 210 275 210
c85 0 164 -19 237 -58v-173c-31 19 -68 35 -111 48s-84 20 -124 20c-61 0 -92 -15 -92 -46c0 -13 8 -23 29 -32l32 -11c21 -7 67 -19 96 -28c67 -22 120 -50 158 -83s57 -80 57 -140c0 -69 -27 -123 -80 -164s-122 -61 -206 -61z" />
    <glyph glyph-name="uni0406" unicode="&#x406;" horiz-adv-x="322" 
d="M251 0h-180v700h180v-700z" />
    <glyph glyph-name="uni0407" unicode="&#x407;" horiz-adv-x="321" 
d="M47 750c-47 0 -87 39 -87 87s39 86 87 86c49 0 87 -38 87 -86s-38 -87 -87 -87zM335 775c-33 -33 -88 -33 -123 0c-33 35 -33 90 0 123c35 33 90 33 123 0c35 -33 35 -88 0 -123zM250 0h-180v700h180v-700z" />
    <glyph glyph-name="uni0408" unicode="&#x408;" horiz-adv-x="499" 
d="M182 -14c-76 0 -133 13 -172 39v173c41 -31 85 -46 133 -46c79 0 118 32 118 116v432h180v-461c0 -95 -30 -165 -81 -202c-51 -36 -107 -51 -178 -51z" />
    <glyph glyph-name="uni0409" unicode="&#x409;" horiz-adv-x="1100" 
d="M143 489l2 211h525v-216h126c85 0 153 -23 204 -68s77 -104 77 -175s-25 -129 -76 -174s-119 -67 -205 -67h-306v542h-170l-2 -77c-5 -187 -23 -309 -54 -366c-38 -70 -99 -105 -182 -105c-35 0 -60 5 -77 14v165c19 -9 36 -13 53 -13c35 0 57 21 67 64
c11 43 17 131 18 265zM670 338v-184h115c68 0 110 35 110 91c0 57 -42 93 -110 93h-115z" />
    <glyph glyph-name="uni040A" unicode="&#x40a;" horiz-adv-x="1111" 
d="M247 0h-180v700h180v-249h254v249h180v-216h126c85 0 153 -23 204 -68s77 -104 77 -175s-25 -129 -76 -174s-119 -67 -205 -67h-306v291h-254v-291zM681 338v-184h115c68 0 110 35 110 91c0 57 -42 93 -110 93h-115z" />
    <glyph glyph-name="uni040B" unicode="&#x40b;" horiz-adv-x="814" 
d="M368 0h-180v560h-160v140h540v-140h-200v-123c40 13 85 19 134 19c168 0 265 -85 265 -234v-222h-180v196c0 65 -35 97 -106 97c-45 0 -83 -8 -113 -24v-269z" />
    <glyph glyph-name="uni040C" unicode="&#x40c;" horiz-adv-x="735" 
d="M247 0h-180v700h180v-267l227 267h216l-271 -322l321 -378h-219l-274 311v-311zM409 760h-147l95 152h209z" />
    <glyph glyph-name="uni040E" unicode="&#x40e;" horiz-adv-x="687" 
d="M201 -14c-51 0 -92 9 -125 27v154c27 -15 58 -22 92 -22c51 0 77 18 106 74l-263 481h199l153 -304l134 304h191l-257 -546c-32 -69 -77 -119 -121 -140s-76 -28 -109 -28zM166 916h112c4 -40 29 -67 66 -67s62 27 65 67h112c-4 -107 -78 -171 -177 -171
c-49 0 -91 15 -125 45c-33 31 -51 73 -53 126z" />
    <glyph glyph-name="uni040F" unicode="&#x40f;" horiz-adv-x="734" 
d="M452 -136h-170v136h-215v700h180v-542h240v542h180v-700h-215v-136z" />
    <glyph glyph-name="uni0410" unicode="&#x410;" horiz-adv-x="781" 
d="M200 0h-190l294 704h173l294 -704h-193l-59 148h-260zM389 479l-73 -187h146z" />
    <glyph glyph-name="uni0411" unicode="&#x411;" horiz-adv-x="684" 
d="M378 0h-311v700h523v-154h-342v-76h130c83 0 150 -22 199 -66s74 -101 74 -170s-25 -126 -74 -169s-116 -65 -199 -65zM248 329v-175h116c64 0 105 33 105 86c0 55 -41 89 -105 89h-116z" />
    <glyph glyph-name="uni0412" unicode="&#x412;" horiz-adv-x="712" 
d="M427 0h-360v700h341c128 0 218 -62 218 -177c0 -68 -39 -116 -82 -136c34 -8 65 -28 92 -61s41 -74 41 -125c0 -60 -23 -109 -69 -146c-45 -37 -106 -55 -181 -55zM247 299v-149h145c55 0 88 27 88 74s-35 75 -88 75h-145zM247 554v-122h134c44 0 72 23 72 60
c0 39 -28 62 -72 62h-134z" />
    <glyph glyph-name="uni0413" unicode="&#x413;" horiz-adv-x="619" 
d="M247 0h-180v700h517v-158h-337v-542z" />
    <glyph glyph-name="uni0414" unicode="&#x414;" horiz-adv-x="792" 
d="M174 -136h-169v294h67c53 86 80 225 80 416v126h522v-542h92v-294h-170v136h-422v-136zM268 158h226v384h-163c-2 -147 -23 -275 -63 -384z" />
    <glyph glyph-name="uni0415" unicode="&#x415;" horiz-adv-x="642" 
d="M607 0h-540v700h532v-158h-352v-95h280v-152h-280v-137h360v-158z" />
    <glyph glyph-name="uni0416" unicode="&#x416;" horiz-adv-x="1084" 
d="M233 0h-234l280 360l-244 340h222l195 -281v281h180v-281l196 281h221l-244 -340l280 -360h-234l-219 286v-286h-180v286z" />
    <glyph glyph-name="uni0417" unicode="&#x417;" horiz-adv-x="633" 
d="M293 -14c-107 0 -195 23 -262 69v172c63 -48 157 -77 237 -77c91 0 144 30 144 81c0 42 -42 63 -125 63h-89v143h110c60 0 90 19 90 58c0 35 -39 57 -110 57c-84 0 -161 -19 -232 -56v155c77 42 158 63 241 63c86 0 154 -20 204 -59c51 -39 76 -88 76 -149
c0 -64 -40 -111 -85 -134c71 -34 106 -88 106 -162c0 -63 -28 -117 -83 -160s-129 -64 -222 -64z" />
    <glyph glyph-name="uni0418" unicode="&#x418;" horiz-adv-x="759" 
d="M218 0h-151v700h180v-395l289 395h156v-700h-180v399z" />
    <glyph glyph-name="uni0419" unicode="&#x419;" horiz-adv-x="759" 
d="M218 0h-151v700h180v-395l289 395h156v-700h-180v399zM190 912h121c1 -39 26 -63 67 -63s66 24 67 63h123c-1 -55 -19 -98 -55 -129c-35 -31 -80 -47 -134 -47s-99 16 -135 47c-35 31 -53 74 -54 129z" />
    <glyph glyph-name="uni041A" unicode="&#x41a;" horiz-adv-x="735" 
d="M247 0h-180v700h180v-267l227 267h216l-271 -322l321 -378h-219l-274 311v-311z" />
    <glyph glyph-name="uni041B" unicode="&#x41b;" horiz-adv-x="735" 
d="M82 -6c-35 0 -60 5 -77 14v165c19 -9 36 -13 53 -13c35 0 57 21 67 64c11 43 17 131 18 265l2 211h523v-700h-180v542h-168l-2 -77c-5 -187 -23 -309 -54 -366c-38 -70 -99 -105 -182 -105z" />
    <glyph glyph-name="uni041C" unicode="&#x41c;" horiz-adv-x="846" 
d="M247 0h-180v700h179l177 -269l178 269h178v-700h-179v427l-125 -188h-99l-129 188v-427z" />
    <glyph glyph-name="uni041D" unicode="&#x41d;" horiz-adv-x="758" 
d="M247 0h-180v700h180v-249h264v249h180v-700h-180v291h-264v-291z" />
    <glyph glyph-name="uni041E" unicode="&#x41e;" horiz-adv-x="828" 
d="M282 208c35 -37 79 -56 132 -56s96 19 131 56s53 85 53 142s-18 105 -53 142s-78 56 -131 56s-97 -19 -132 -56s-52 -85 -52 -142s17 -105 52 -142zM678 92c-70 -71 -158 -106 -264 -106s-194 35 -264 106s-105 157 -105 258s35 187 105 258s158 106 264 106
s194 -35 264 -106s105 -157 105 -258s-35 -187 -105 -258z" />
    <glyph glyph-name="uni041F" unicode="&#x41f;" horiz-adv-x="740" 
d="M247 0h-180v700h606v-700h-180v542h-246v-542z" />
    <glyph glyph-name="uni0420" unicode="&#x420;" horiz-adv-x="657" 
d="M247 0h-180v700h312c78 0 140 -20 186 -61s69 -93 69 -158s-23 -118 -69 -159s-108 -61 -186 -61h-132v-261zM247 548v-139h119c52 0 86 26 86 70s-33 69 -86 69h-119z" />
    <glyph glyph-name="uni0421" unicode="&#x421;" horiz-adv-x="672" 
d="M435 -14c-112 0 -205 34 -279 102s-111 155 -111 262s37 194 110 262c74 68 167 102 279 102c66 0 126 -13 181 -40v-177c-55 34 -114 51 -179 51c-59 0 -108 -19 -147 -56s-59 -85 -59 -142c0 -58 20 -106 60 -143c41 -37 92 -55 153 -55c74 0 135 19 184 56v-178
c-57 -29 -121 -44 -192 -44z" />
    <glyph glyph-name="uni0422" unicode="&#x422;" horiz-adv-x="657" 
d="M418 0h-180v542h-210v158h601v-158h-211v-542z" />
    <glyph glyph-name="uni0423" unicode="&#x423;" horiz-adv-x="687" 
d="M201 -14c-51 0 -92 9 -125 27v154c27 -15 58 -22 92 -22c51 0 77 18 106 74l-263 481h199l153 -304l134 304h191l-257 -546c-32 -69 -77 -119 -121 -140s-76 -28 -109 -28z" />
    <glyph glyph-name="uni0424" unicode="&#x424;" horiz-adv-x="937" 
d="M559 -30h-181v78c-105 5 -186 38 -245 98c-59 61 -88 131 -88 212s29 151 88 211c59 61 140 94 245 99v62h181v-62c105 -5 186 -38 245 -99c59 -60 88 -130 88 -211s-29 -151 -88 -212c-59 -60 -140 -93 -245 -98v-78zM378 208v300c-88 -3 -147 -58 -147 -150
s59 -146 147 -150zM559 508v-300c89 4 147 58 147 150s-59 147 -147 150z" />
    <glyph glyph-name="uni0425" unicode="&#x425;" horiz-adv-x="736" 
d="M203 0h-208l268 376l-228 324h210l124 -180l125 180h207l-228 -323l268 -377h-211l-164 233z" />
    <glyph glyph-name="uni0426" unicode="&#x426;" horiz-adv-x="785" 
d="M759 -136h-170v136h-522v700h180v-542h240v542h180v-542h92v-294z" />
    <glyph glyph-name="uni0427" unicode="&#x427;" horiz-adv-x="693" 
d="M626 0h-180v253c-40 -13 -85 -19 -134 -19c-168 0 -265 85 -265 234v232h180v-206c0 -65 35 -97 106 -97c45 0 83 8 113 24v279h180v-700z" />
    <glyph glyph-name="uni0428" unicode="&#x428;" horiz-adv-x="1040" 
d="M973 0h-906v700h180v-542h183v542h180v-542h183v542h180v-700z" />
    <glyph glyph-name="uni0429" unicode="&#x429;" horiz-adv-x="1091" 
d="M1065 -136h-170v136h-828v700h180v-542h184v542h180v-542h183v542h179v-542h92v-294z" />
    <glyph glyph-name="uni042A" unicode="&#x42a;" horiz-adv-x="805" 
d="M501 0h-306v542h-172v158h352v-216h126c85 0 153 -23 204 -68s77 -104 77 -175s-25 -129 -76 -174s-119 -67 -205 -67zM375 338v-184h115c68 0 110 35 110 91c0 57 -42 93 -110 93h-115z" />
    <glyph glyph-name="uni042B" unicode="&#x42b;" horiz-adv-x="950" 
d="M350 0h-283v700h180v-216h103c85 0 153 -23 204 -68s77 -104 77 -175s-25 -129 -76 -174s-119 -67 -205 -67zM247 338v-184h92c68 0 110 35 110 91c0 57 -42 93 -110 93h-92zM883 0h-180v700h180v-700z" />
    <glyph glyph-name="uni042C" unicode="&#x42c;" horiz-adv-x="677" 
d="M373 0h-306v700h180v-216h126c85 0 153 -23 204 -68s77 -104 77 -175s-25 -129 -76 -174s-119 -67 -205 -67zM247 338v-184h115c68 0 110 35 110 91c0 57 -42 93 -110 93h-115z" />
    <glyph glyph-name="uni042D" unicode="&#x42d;" horiz-adv-x="672" 
d="M436 289h-248v145h240c-31 72 -101 116 -192 116c-65 0 -124 -17 -179 -51v175c55 27 115 40 181 40c112 0 205 -34 278 -102c74 -68 111 -155 111 -262s-37 -194 -111 -262s-167 -102 -279 -102c-71 0 -135 15 -192 44v176c49 -37 110 -56 184 -56c105 0 183 51 207 139
z" />
    <glyph glyph-name="uni042E" unicode="&#x42e;" horiz-adv-x="1056" 
d="M667 -14c-85 0 -158 27 -220 80c-61 53 -100 121 -117 204h-80v-270h-183v700h183v-270h80c16 83 55 151 116 204c62 53 136 80 221 80c99 0 181 -35 246 -106s98 -157 98 -258s-33 -187 -98 -258s-147 -106 -246 -106zM827 350c0 121 -64 200 -160 200
s-161 -80 -161 -200s65 -201 161 -201s160 81 160 201z" />
    <glyph glyph-name="uni042F" unicode="&#x42f;" horiz-adv-x="732" 
d="M212 0h-207l215 287c-85 33 -136 106 -136 197c0 63 23 115 68 155c46 41 107 61 184 61h329v-700h-180v267h-74zM346 414h139v134h-139c-49 0 -80 -27 -80 -68s31 -66 80 -66z" />
    <glyph glyph-name="uni0430" unicode="&#x430;" horiz-adv-x="611" 
d="M205 -13c-55 0 -100 16 -134 47s-51 72 -51 122c1 115 105 167 198 164c51 0 94 -9 129 -26v7c0 36 -15 60 -42 69c-25 9 -45 12 -76 12c-53 0 -103 -12 -148 -37v139c53 25 117 37 191 37c75 0 135 -19 181 -56s69 -86 69 -149v-154c0 -18 10 -27 30 -27c12 0 22 2 29 6
v-126c-22 -17 -52 -26 -90 -26c-59 0 -101 19 -124 58c-41 -40 -95 -60 -162 -60zM265 106c36 0 63 15 82 44v53c-20 15 -45 22 -74 22c-44 0 -79 -24 -79 -61c0 -36 31 -58 71 -58z" />
    <glyph glyph-name="uni0431" unicode="&#x431;" horiz-adv-x="609" 
d="M310 -13c-91 0 -161 30 -209 90s-72 139 -72 237c0 197 91 315 274 356l217 48v-155l-124 -22c-52 -9 -79 -14 -119 -30c-53 -20 -87 -55 -93 -116c43 44 109 75 176 75c65 0 118 -20 159 -60s61 -94 61 -162c0 -77 -26 -139 -77 -188s-116 -73 -193 -73zM406 235
c0 57 -34 92 -91 92c-43 0 -81 -16 -113 -48v-17c0 -81 46 -129 106 -129s98 43 98 102z" />
    <glyph glyph-name="uni0432" unicode="&#x432;" horiz-adv-x="592" 
d="M367 0h-306v508h298c108 0 167 -59 167 -132c0 -49 -26 -88 -59 -105c62 -26 93 -70 93 -131c0 -87 -70 -140 -193 -140zM235 211v-95h88c76 -8 74 102 0 95h-88zM235 395v-87h66c68 -7 68 93 0 87h-66z" />
    <glyph glyph-name="uni0433" unicode="&#x433;" horiz-adv-x="486" 
d="M238 0h-177v508h415v-142h-238v-366z" />
    <glyph glyph-name="uni0434" unicode="&#x434;" horiz-adv-x="693" 
d="M189 -119h-169v261h64c31 51 47 135 50 252l3 114h452v-366h78v-261h-167v119h-311v-119zM260 142h155v226h-122c-3 -92 -14 -167 -33 -226z" />
    <glyph glyph-name="uni0435" unicode="&#x435;" horiz-adv-x="576" 
d="M312 -13c-79 0 -146 24 -201 72c-55 49 -82 114 -82 195c0 75 25 139 74 190s114 77 195 77c72 0 131 -25 176 -75c46 -49 69 -113 69 -191v-44h-340c15 -53 75 -79 148 -79c55 0 110 15 163 44v-136c-48 -35 -115 -53 -202 -53zM202 305h168c-1 51 -37 86 -80 86
c-47 0 -81 -33 -88 -86z" />
    <glyph glyph-name="uni0436" unicode="&#x436;" horiz-adv-x="900" 
d="M217 0h-207l202 270l-172 238h196l127 -182v182h174v-182l126 182h197l-172 -238l202 -270h-207l-146 203v-203h-174v203z" />
    <glyph glyph-name="uni0437" unicode="&#x437;" horiz-adv-x="540" 
d="M247 -13c-81 0 -149 13 -202 40v137c51 -27 110 -40 177 -40c66 0 99 14 99 42c0 22 -22 33 -65 33h-105v118h103c36 0 54 11 54 33c0 23 -29 35 -86 35c-61 0 -116 -11 -163 -34v128c55 28 122 42 202 42c65 0 119 -14 162 -41c44 -27 66 -61 66 -102
c0 -57 -32 -93 -76 -106c48 -12 94 -57 94 -116c0 -49 -24 -90 -72 -122c-47 -31 -110 -47 -188 -47z" />
    <glyph glyph-name="uni0438" unicode="&#x438;" horiz-adv-x="645" 
d="M227 0h-166v508h174v-252l183 252h166v-508h-174v251z" />
    <glyph glyph-name="uni0439" unicode="&#x439;" horiz-adv-x="645" 
d="M227 0h-166v508h174v-252l183 252h166v-508h-174v251zM133 727h121c1 -39 26 -63 67 -63s66 24 67 63h123c-1 -55 -19 -98 -55 -129c-35 -31 -80 -47 -134 -47s-99 16 -135 47c-35 31 -53 74 -54 129z" />
    <glyph glyph-name="uni043A" unicode="&#x43a;" horiz-adv-x="632" 
d="M238 0h-177v508h177v-180l151 180h209l-201 -228l234 -280h-221l-172 210v-210z" />
    <glyph glyph-name="uni043B" unicode="&#x43b;" horiz-adv-x="651" 
d="M95 -7c-34 0 -59 4 -75 13v146c10 -4 21 -6 33 -6c27 0 45 16 55 49s16 92 17 175l2 138h463v-508h-177v366h-120c-1 -63 -3 -112 -6 -145c-5 -66 -23 -121 -55 -164c-31 -43 -77 -64 -137 -64z" />
    <glyph glyph-name="uni043C" unicode="&#x43c;" horiz-adv-x="714" 
d="M228 0h-167v508h175l121 -167l121 167h175v-508h-167v272l-94 -130h-70l-94 130v-272z" />
    <glyph glyph-name="uni043D" unicode="&#x43d;" horiz-adv-x="634" 
d="M238 0h-177v508h177v-177h158v177h177v-508h-177v189h-158v-189z" />
    <glyph glyph-name="uni043E" unicode="&#x43e;" horiz-adv-x="630" 
d="M427 254c0 65 -47 116 -112 116s-112 -51 -112 -116c0 -67 47 -116 112 -116s112 49 112 116zM520 63c-54 -51 -122 -76 -205 -76s-151 25 -205 76s-81 115 -81 191s27 139 81 190s122 77 205 77s151 -26 205 -77s81 -114 81 -190s-27 -140 -81 -191z" />
    <glyph glyph-name="uni043F" unicode="&#x43f;" horiz-adv-x="629" 
d="M238 0h-177v508h507v-508h-177v366h-153v-366z" />
    <glyph glyph-name="uni0440" unicode="&#x440;" horiz-adv-x="651" 
d="M238 -200h-177v708h177v-57c35 47 85 70 152 70s122 -26 166 -77s66 -114 66 -190s-22 -140 -66 -191s-99 -76 -166 -76c-65 0 -116 23 -152 70v-257zM339 137c63 0 107 50 107 117s-44 117 -107 117c-45 0 -78 -18 -101 -54v-126c23 -36 56 -54 101 -54z" />
    <glyph glyph-name="uni0441" unicode="&#x441;" horiz-adv-x="514" 
d="M308 -13c-75 0 -140 24 -196 72c-55 48 -83 113 -83 196s28 148 84 195s122 71 197 71c56 0 106 -10 150 -31v-148c-41 17 -82 26 -122 26c-76 0 -135 -43 -135 -114s59 -115 134 -115c49 0 92 10 130 30v-147c-49 -23 -102 -35 -159 -35z" />
    <glyph glyph-name="uni0442" unicode="&#x442;" horiz-adv-x="492" 
d="M334 0h-177v366h-147v142h472v-142h-148v-366z" />
    <glyph glyph-name="uni0443" unicode="&#x443;" horiz-adv-x="609" 
d="M163 -206c-43 0 -81 8 -113 23v152c25 -16 53 -24 82 -24c45 0 73 20 94 72l-216 491h188l113 -306l106 306h184l-227 -559c-42 -103 -112 -155 -211 -155z" />
    <glyph glyph-name="uni0444" unicode="&#x444;" horiz-adv-x="778" 
d="M476 -200h-174v197c-175 13 -273 116 -273 257s98 244 273 257v189h174v-189c175 -13 273 -116 273 -257s-98 -244 -273 -257v-197zM302 140v228c-67 -9 -102 -51 -102 -114s35 -105 102 -114zM476 368v-228c67 9 102 51 102 114s-35 105 -102 114z" />
    <glyph glyph-name="uni0445" unicode="&#x445;" horiz-adv-x="613" 
d="M202 0h-192l183 262l-170 246h193l83 -126l83 126h192l-170 -245l182 -263h-195l-94 140z" />
    <glyph glyph-name="uni0446" unicode="&#x446;" horiz-adv-x="676" 
d="M650 -119h-171v119h-418v508h177v-366h157v366h177v-366h78v-261z" />
    <glyph glyph-name="uni0447" unicode="&#x447;" horiz-adv-x="586" 
d="M525 0h-177v151c-26 -8 -55 -12 -88 -12c-112 0 -222 45 -222 194v175h177v-155c0 -47 24 -70 71 -70c25 0 45 4 62 13v212h177v-508z" />
    <glyph glyph-name="uni0448" unicode="&#x448;" horiz-adv-x="879" 
d="M818 0h-757v508h174v-366h116v366h174v-366h119v366h174v-508z" />
    <glyph glyph-name="uni0449" unicode="&#x449;" horiz-adv-x="922" 
d="M896 -119h-159v119h-676v508h174v-366h116v366h174v-366h119v366h174v-366h78v-261z" />
    <glyph glyph-name="uni044A" unicode="&#x44a;" horiz-adv-x="667" 
d="M430 0h-280v366h-137v142h314v-139h94c65 0 118 -17 158 -50s60 -78 60 -134c0 -52 -18 -96 -55 -132c-36 -35 -87 -53 -154 -53zM327 245v-115h66c43 0 69 21 69 57s-26 58 -69 58h-66z" />
    <glyph glyph-name="uni044B" unicode="&#x44b;" horiz-adv-x="821" 
d="M327 0h-266v508h174v-139h83c65 0 118 -17 158 -50s60 -78 60 -134c0 -52 -18 -96 -55 -132c-36 -35 -87 -53 -154 -53zM235 245v-115h55c43 0 69 21 69 57s-26 58 -69 58h-55zM760 0h-174v508h174v-508z" />
    <glyph glyph-name="uni044C" unicode="&#x44c;" horiz-adv-x="578" 
d="M341 0h-280v508h177v-139h94c65 0 118 -17 158 -50s60 -78 60 -134c0 -52 -18 -96 -55 -132c-36 -35 -87 -53 -154 -53zM238 245v-115h66c43 0 69 21 69 57s-26 58 -69 58h-66z" />
    <glyph glyph-name="uni044D" unicode="&#x44d;" horiz-adv-x="512" 
d="M45 22v138c38 -20 81 -30 130 -30c69 0 113 23 133 69h-162v112h161c-23 45 -67 68 -133 68c-40 0 -81 -9 -122 -26v137c44 21 94 31 150 31c75 0 141 -24 197 -71s84 -112 84 -195s-28 -148 -84 -196c-55 -48 -120 -72 -195 -72c-57 0 -110 12 -159 35z" />
    <glyph glyph-name="uni044E" unicode="&#x44e;" horiz-adv-x="856" 
d="M559 -13c-67 0 -124 19 -171 57c-47 39 -77 88 -90 148h-60v-192h-177v508h177v-176h64c32 112 129 189 257 189c79 0 144 -26 193 -77c50 -51 75 -115 75 -190s-25 -139 -75 -190c-49 -51 -114 -77 -193 -77zM489 172c17 -22 41 -33 70 -33s52 11 69 33s25 49 25 82
s-8 60 -25 82s-40 33 -69 33s-53 -11 -70 -33s-26 -49 -26 -82s9 -60 26 -82z" />
    <glyph glyph-name="uni044F" unicode="&#x44f;" horiz-adv-x="604" 
d="M212 0h-197l129 190c-58 29 -87 78 -87 147c0 97 67 171 207 171h279v-508h-177v158h-48zM294 278h72v95h-72c-76 8 -74 -102 0 -95z" />
    <glyph glyph-name="uni0451" unicode="&#x451;" horiz-adv-x="576" 
d="M312 -13c-79 0 -146 24 -201 72c-55 49 -82 114 -82 195c0 75 25 139 74 190s114 77 195 77c72 0 131 -25 176 -75c46 -49 69 -113 69 -191v-44h-340c15 -53 75 -79 148 -79c55 0 110 15 163 44v-136c-48 -35 -115 -53 -202 -53zM202 305h168c-1 51 -37 86 -80 86
c-47 0 -81 -33 -88 -86zM174 566c-47 0 -87 39 -87 87s39 86 87 86c49 0 87 -38 87 -86s-38 -87 -87 -87zM462 591c-33 -33 -88 -33 -123 0c-33 35 -33 90 0 123c35 33 90 33 123 0c35 -33 35 -88 0 -123z" />
    <glyph glyph-name="uni0452" unicode="&#x452;" horiz-adv-x="678" 
d="M421 -206c-54 0 -94 7 -120 21v145c23 -11 47 -16 74 -16c49 0 74 24 74 72v171c0 60 -31 84 -71 84c-35 0 -64 -14 -87 -43v-228h-177v509h-101v115h101v76h177v-76h169v-115h-169v-150c45 47 99 70 161 70c112 0 174 -80 174 -209v-219c0 -128 -76 -207 -205 -207z" />
    <glyph glyph-name="uni0453" unicode="&#x453;" horiz-adv-x="486" 
d="M238 0h-177v508h415v-142h-238v-366zM296 576h-147l95 152h209z" />
    <glyph glyph-name="uni0454" unicode="&#x454;" horiz-adv-x="514" 
d="M467 160v-138c-49 -23 -102 -35 -159 -35c-75 0 -140 24 -196 72c-55 48 -83 113 -83 196s28 148 84 195s122 71 197 71c56 0 106 -10 150 -31v-137c-41 17 -82 26 -122 26c-66 0 -110 -23 -133 -68h161v-112h-162c20 -46 64 -69 133 -69c49 0 92 10 130 30z" />
    <glyph glyph-name="uni0455" unicode="&#x455;" horiz-adv-x="492" 
d="M251 -13c-94 0 -166 15 -215 45v149c21 -15 50 -28 88 -39s78 -16 119 -16s62 8 62 25c0 9 -5 16 -22 23l-23 8c-13 4 -52 14 -71 19c-58 17 -99 36 -123 57c-23 21 -35 55 -35 101c0 101 88 162 233 162c75 0 139 -16 192 -48v-144c-59 37 -120 55 -185 55
c-38 0 -57 -9 -57 -26c0 -9 7 -18 23 -23l24 -7c15 -4 49 -11 66 -15c108 -28 156 -73 156 -162c0 -49 -21 -88 -63 -119c-41 -30 -98 -45 -169 -45z" />
    <glyph glyph-name="uni0456" unicode="&#x456;" horiz-adv-x="310" 
d="M243 0h-177v508h177v-508zM154 554c-56 0 -101 45 -101 102s45 102 101 102c57 0 102 -45 102 -102s-45 -102 -102 -102z" />
    <glyph glyph-name="uni0457" unicode="&#x457;" horiz-adv-x="281" 
d="M27 566c-47 0 -87 39 -87 87s39 86 87 86c49 0 87 -38 87 -86s-38 -87 -87 -87zM315 591c-33 -33 -88 -33 -123 0c-33 35 -33 90 0 123c35 33 90 33 123 0c35 -33 35 -88 0 -123zM227 0h-177v508h177v-508z" />
    <glyph glyph-name="uni0458" unicode="&#x458;" horiz-adv-x="310" 
d="M154 554c-56 0 -101 45 -101 102s45 102 101 102c57 0 102 -45 102 -102s-45 -102 -102 -102zM39 -206c-54 0 -94 7 -120 21v145c23 -11 47 -16 74 -16c49 0 74 24 74 72v492h177v-507c0 -128 -76 -207 -205 -207z" />
    <glyph glyph-name="uni0459" unicode="&#x459;" horiz-adv-x="930" 
d="M413 0v366h-120c-1 -63 -3 -112 -6 -145c-5 -66 -23 -121 -55 -164c-31 -43 -77 -64 -137 -64c-34 0 -59 4 -75 13v146c10 -4 22 -6 36 -6c52 0 68 65 69 224l1 138h464v-139h94c65 0 118 -17 158 -50s60 -78 60 -134c0 -52 -18 -96 -55 -132c-36 -35 -87 -53 -154 -53
h-280zM590 245v-115h66c43 0 69 21 69 57s-26 58 -69 58h-66z" />
    <glyph glyph-name="uni045A" unicode="&#x45a;" horiz-adv-x="913" 
d="M238 0h-177v508h177v-177h158v177h177v-139h94c65 0 118 -17 158 -50s60 -78 60 -134c0 -52 -18 -96 -55 -132c-36 -35 -87 -53 -154 -53h-280v189h-158v-189zM573 245v-115h66c43 0 69 21 69 57s-26 58 -69 58h-66z" />
    <glyph glyph-name="uni045B" unicode="&#x45b;" horiz-adv-x="678" 
d="M291 228v-228h-177v509h-101v116h101v75h177v-75h169v-116h-169v-150c45 47 99 70 161 70c112 0 174 -80 174 -209v-220h-177v187c0 60 -31 84 -71 84c-35 0 -64 -14 -87 -43z" />
    <glyph glyph-name="uni045C" unicode="&#x45c;" horiz-adv-x="632" 
d="M238 0h-177v508h177v-180l151 180h209l-201 -228l234 -280h-221l-172 210v-210zM379 576h-147l95 152h209z" />
    <glyph glyph-name="uni045E" unicode="&#x45e;" horiz-adv-x="609" 
d="M163 -206c-43 0 -81 8 -113 23v152c25 -16 53 -24 82 -24c45 0 73 20 94 72l-216 491h188l113 -306l106 306h184l-227 -559c-42 -103 -112 -155 -211 -155zM119 727h121c1 -39 26 -63 67 -63s66 24 67 63h123c-1 -55 -19 -98 -55 -129c-35 -31 -80 -47 -134 -47
s-99 16 -135 47c-35 31 -53 74 -54 129z" />
    <glyph glyph-name="uni045F" unicode="&#x45f;" horiz-adv-x="633" 
d="M402 -119h-171v119h-170v508h177v-366h157v366h177v-508h-170v-119z" />
    <glyph glyph-name="uni0490" unicode="&#x490;" horiz-adv-x="619" 
d="M247 0h-180v700h355v136h162v-294h-337v-542z" />
    <glyph glyph-name="uni0491" unicode="&#x491;" horiz-adv-x="486" 
d="M238 0h-177v508h253v119h162v-261h-238v-366z" />
    <glyph glyph-name="uni1E02" unicode="&#x1e02;" horiz-adv-x="712" 
d="M427 0h-360v700h341c128 0 218 -62 218 -177c0 -68 -39 -116 -82 -136c34 -8 65 -28 92 -61s41 -74 41 -125c0 -60 -23 -109 -69 -146c-45 -37 -106 -55 -181 -55zM247 299v-149h145c55 0 88 27 88 74s-35 75 -88 75h-145zM247 554v-122h134c44 0 72 23 72 60
c0 39 -28 62 -72 62h-134zM332 750c-47 0 -87 39 -87 87s39 86 87 86c49 0 87 -38 87 -86s-38 -87 -87 -87z" />
    <glyph glyph-name="uni1E03" unicode="&#x1e03;" horiz-adv-x="651" 
d="M238 57v-57h-177v700h177v-249c36 47 87 70 152 70c67 0 122 -26 166 -77s66 -114 66 -190s-22 -140 -66 -191s-99 -76 -166 -76s-117 23 -152 70zM339 137c63 0 107 50 107 117s-44 117 -107 117c-45 0 -78 -18 -101 -54v-126c23 -36 56 -54 101 -54zM324 750
c-47 0 -87 39 -87 87s39 86 87 86c49 0 87 -38 87 -86s-38 -87 -87 -87z" />
    <glyph glyph-name="uni1E0A" unicode="&#x1e0a;" horiz-adv-x="778" 
d="M346 0h-279v700h279c114 0 207 -33 279 -98s108 -149 108 -252s-36 -188 -108 -253s-165 -97 -279 -97zM247 542v-384h86c136 0 214 69 214 192s-78 192 -214 192h-86zM362 750c-47 0 -87 39 -87 87s39 86 87 86c49 0 87 -38 87 -86s-38 -87 -87 -87z" />
    <glyph glyph-name="uni1E0B" unicode="&#x1e0b;" horiz-adv-x="651" 
d="M261 -13c-67 0 -122 25 -166 76s-66 115 -66 191s22 139 66 190s99 77 166 77c65 0 116 -23 152 -70v249h177v-700h-177v57c-35 -47 -86 -70 -152 -70zM312 137c45 0 78 18 101 54v126c-23 36 -56 54 -101 54c-63 0 -107 -50 -107 -117s44 -117 107 -117zM338 750
c-47 0 -87 39 -87 87s39 86 87 86c49 0 87 -38 87 -86s-38 -87 -87 -87z" />
    <glyph glyph-name="uni1E1E" unicode="&#x1e1e;" horiz-adv-x="634" 
d="M247 0h-180v700h532v-158h-352v-102h263v-152h-263v-288zM332 750c-47 0 -87 39 -87 87s39 86 87 86c49 0 87 -38 87 -86s-38 -87 -87 -87z" />
    <glyph glyph-name="uni1E1F" unicode="&#x1e1f;" horiz-adv-x="445" 
d="M100 0v366h-85v142h85v27c0 105 62 179 186 179c53 0 99 -7 139 -22v-136c-27 10 -56 15 -87 15c-41 0 -61 -18 -61 -54v-9h148v-142h-148v-366h-177zM263 750c-47 0 -87 39 -87 87s39 86 87 86c49 0 87 -38 87 -86s-38 -87 -87 -87z" />
    <glyph glyph-name="uni1E40" unicode="&#x1e40;" horiz-adv-x="846" 
d="M247 0h-180v700h179l177 -269l178 269h178v-700h-179v427l-125 -188h-99l-129 188v-427zM423 750c-47 0 -87 39 -87 87s39 86 87 86c49 0 87 -38 87 -86s-38 -87 -87 -87z" />
    <glyph glyph-name="uni1E41" unicode="&#x1e41;" horiz-adv-x="933" 
d="M238 0h-177v508h177v-60c37 49 89 73 156 73c65 0 117 -41 140 -84c33 48 98 84 166 84c107 0 181 -71 181 -204v-317h-177v282c0 55 -21 82 -64 82c-35 0 -62 -16 -80 -47v-317h-177v282c0 55 -21 82 -64 82c-35 0 -62 -16 -81 -47v-317zM471 566c-47 0 -87 39 -87 87
s39 86 87 86c49 0 87 -38 87 -86s-38 -87 -87 -87z" />
    <glyph glyph-name="uni1E56" unicode="&#x1e56;" horiz-adv-x="657" 
d="M247 0h-180v700h312c78 0 140 -20 186 -61s69 -93 69 -158s-23 -118 -69 -159s-108 -61 -186 -61h-132v-261zM247 548v-139h119c52 0 86 26 86 70s-33 69 -86 69h-119zM330 750c-47 0 -87 39 -87 87s39 86 87 86c49 0 87 -38 87 -86s-38 -87 -87 -87z" />
    <glyph glyph-name="uni1E57" unicode="&#x1e57;" horiz-adv-x="651" 
d="M238 -200h-177v708h177v-57c35 47 85 70 152 70s122 -26 166 -77s66 -114 66 -190s-22 -140 -66 -191s-99 -76 -166 -76c-65 0 -116 23 -152 70v-257zM339 137c63 0 107 50 107 117s-44 117 -107 117c-45 0 -78 -18 -101 -54v-126c23 -36 56 -54 101 -54zM340 566
c-47 0 -87 39 -87 87s39 86 87 86c49 0 87 -38 87 -86s-38 -87 -87 -87z" />
    <glyph glyph-name="uni1E60" unicode="&#x1e60;" horiz-adv-x="636" 
d="M314 -14c-108 0 -198 25 -271 75v184c29 -27 69 -49 120 -68s99 -28 144 -28c71 0 107 18 107 55c0 21 -11 30 -27 41c-8 7 -33 14 -45 18l-63 19l-51 15l-46 18c-20 8 -35 15 -46 22c-20 15 -53 39 -68 64c-13 25 -25 62 -25 103c0 135 107 210 275 210
c85 0 164 -19 237 -58v-173c-31 19 -68 35 -111 48s-84 20 -124 20c-61 0 -92 -15 -92 -46c0 -13 8 -23 29 -32l32 -11c21 -7 67 -19 96 -28c67 -22 120 -50 158 -83s57 -80 57 -140c0 -69 -27 -123 -80 -164s-122 -61 -206 -61zM313 750c-47 0 -87 39 -87 87s39 86 87 86
c49 0 87 -38 87 -86s-38 -87 -87 -87z" />
    <glyph glyph-name="uni1E61" unicode="&#x1e61;" horiz-adv-x="518" 
d="M257 -13c-94 0 -166 15 -215 45v149c21 -15 50 -28 88 -39s78 -16 119 -16s62 8 62 25c0 9 -5 16 -22 23l-23 8c-13 4 -52 14 -71 19c-58 17 -99 36 -123 57c-23 21 -35 55 -35 101c0 101 88 162 233 162c75 0 139 -16 192 -48v-144c-59 37 -120 55 -185 55
c-38 0 -57 -9 -57 -26c0 -9 7 -18 23 -23l24 -7c15 -4 49 -11 66 -15c108 -28 156 -73 156 -162c0 -49 -21 -88 -63 -119c-41 -30 -98 -45 -169 -45zM249 566c-47 0 -87 39 -87 87s39 86 87 86c49 0 87 -38 87 -86s-38 -87 -87 -87z" />
    <glyph glyph-name="uni1E6A" unicode="&#x1e6a;" horiz-adv-x="657" 
d="M418 0h-180v542h-210v158h601v-158h-211v-542zM328 750c-47 0 -87 39 -87 87s39 86 87 86c49 0 87 -38 87 -86s-38 -87 -87 -87z" />
    <glyph glyph-name="uni1E6B" unicode="&#x1e6b;" horiz-adv-x="449" 
d="M280 -13c-104 0 -176 58 -176 166v213h-89v142h89v130h177v-130h129v-142h-129v-165c0 -44 16 -61 59 -61c24 0 47 6 70 18v-141c-32 -20 -75 -30 -130 -30zM192 690c-47 0 -87 39 -87 87s39 86 87 86c49 0 87 -38 87 -86s-38 -87 -87 -87z" />
    <glyph glyph-name="Wgrave" unicode="&#x1e80;" horiz-adv-x="1088" 
d="M404 -4h-160l-232 704h201l118 -417l146 419h140l146 -419l118 417h197l-234 -704h-158l-140 410zM626 760h-147l-157 152h209z" />
    <glyph glyph-name="wgrave" unicode="&#x1e81;" horiz-adv-x="856" 
d="M327 -4h-151l-166 512h175l81 -259l81 261h140l83 -261l79 259h174l-169 -512h-152l-89 261zM505 576h-147l-157 152h209z" />
    <glyph glyph-name="Wacute" unicode="&#x1e82;" horiz-adv-x="1088" 
d="M404 -4h-160l-232 704h201l118 -417l146 419h140l146 -419l118 417h197l-234 -704h-158l-140 410zM618 760h-147l95 152h209z" />
    <glyph glyph-name="wacute" unicode="&#x1e83;" horiz-adv-x="856" 
d="M327 -4h-151l-166 512h175l81 -259l81 261h140l83 -261l79 259h174l-169 -512h-152l-89 261zM497 576h-147l95 152h209z" />
    <glyph glyph-name="Wdieresis" unicode="&#x1e84;" horiz-adv-x="1088" 
d="M404 -4h-160l-232 704h201l118 -417l146 419h140l146 -419l118 417h197l-234 -704h-158l-140 410zM436 750c-47 0 -87 39 -87 87s39 86 87 86c49 0 87 -38 87 -86s-38 -87 -87 -87zM724 775c-33 -33 -88 -33 -123 0c-33 35 -33 90 0 123c35 33 90 33 123 0
c35 -33 35 -88 0 -123z" />
    <glyph glyph-name="wdieresis" unicode="&#x1e85;" horiz-adv-x="856" 
d="M327 -4h-151l-166 512h175l81 -259l81 261h140l83 -261l79 259h174l-169 -512h-152l-89 261zM308 566c-47 0 -87 39 -87 87s39 86 87 86c49 0 87 -38 87 -86s-38 -87 -87 -87zM596 591c-33 -33 -88 -33 -123 0c-33 35 -33 90 0 123c35 33 90 33 123 0
c35 -33 35 -88 0 -123z" />
    <glyph glyph-name="Ygrave" unicode="&#x1ef2;" horiz-adv-x="728" 
d="M454 0h-180v310l-269 390h205l156 -231l157 231h200l-269 -386v-314zM451 760h-147l-157 152h209z" />
    <glyph glyph-name="ygrave" unicode="&#x1ef3;" horiz-adv-x="609" 
d="M163 -206c-43 0 -81 8 -113 23v152c25 -16 53 -24 82 -24c45 0 73 20 94 72l-216 491h188l113 -306l106 306h184l-227 -559c-42 -103 -112 -155 -211 -155zM403 576h-147l-157 152h209z" />
    <glyph glyph-name="endash" unicode="&#x2013;" horiz-adv-x="795" 
d="M700 202h-605v156h605v-156z" />
    <glyph glyph-name="emdash" unicode="&#x2014;" horiz-adv-x="925" 
d="M830 202h-735v156h735v-156z" />
    <glyph glyph-name="uni2015" unicode="&#x2015;" horiz-adv-x="795" 
d="M700 202h-605v156h605v-156z" />
    <glyph glyph-name="quoteleft" unicode="&#x2018;" horiz-adv-x="286" 
d="M134 700h141l-90 -328h-180z" />
    <glyph glyph-name="quoteright" unicode="&#x2019;" horiz-adv-x="286" 
d="M152 372h-141l90 328h180z" />
    <glyph glyph-name="quotesinglbase" unicode="&#x201a;" horiz-adv-x="327" 
d="M162 -152h-141l90 328h180z" />
    <glyph glyph-name="quotedblleft" unicode="&#x201c;" horiz-adv-x="537" 
d="M385 700h141l-90 -328h-180zM134 700h141l-90 -328h-180z" />
    <glyph glyph-name="quotedblright" unicode="&#x201d;" horiz-adv-x="537" 
d="M403 372h-141l90 328h180zM152 372h-141l90 328h180z" />
    <glyph glyph-name="quotedblbase" unicode="&#x201e;" horiz-adv-x="578" 
d="M413 -152h-141l90 328h180zM162 -152h-141l90 328h180z" />
    <glyph glyph-name="dagger" unicode="&#x2020;" horiz-adv-x="490" 
d="M309 0h-128v386h-164v122h164v192h128v-192h164v-122h-164v-386z" />
    <glyph glyph-name="daggerdbl" unicode="&#x2021;" horiz-adv-x="490" 
d="M309 0h-128v175h-164v122h164v89h-164v122h164v192h128v-192h164v-122h-164v-89h164v-122h-164v-175z" />
    <glyph glyph-name="bullet" unicode="&#x2022;" horiz-adv-x="419" 
d="M326 276c-32 -32 -71 -48 -116 -48s-84 16 -117 48c-32 32 -48 71 -48 116s16 84 48 116c33 33 72 49 117 49s84 -16 116 -49c32 -32 48 -71 48 -116s-16 -84 -48 -116z" />
    <glyph glyph-name="ellipsis" unicode="&#x2026;" horiz-adv-x="802" 
d="M736 17c-20 -21 -45 -31 -74 -31s-54 10 -75 31c-20 21 -30 46 -30 75s10 54 30 74c21 21 46 31 75 31s54 -10 74 -31c21 -20 31 -45 31 -74s-10 -54 -31 -75zM214 17c-20 -21 -45 -31 -74 -31s-54 10 -75 31c-20 21 -30 46 -30 75s10 54 30 74c21 21 46 31 75 31
s54 -10 74 -31c21 -20 31 -45 31 -74s-10 -54 -31 -75zM475 17c-20 -21 -45 -31 -74 -31s-54 10 -75 31c-20 21 -30 46 -30 75s10 54 31 74c41 41 107 41 148 0c21 -20 31 -45 31 -74s-10 -54 -31 -75z" />
    <glyph glyph-name="perthousand" unicode="&#x2030;" horiz-adv-x="1217" 
d="M258 0h-119l423 700h119zM493 291c34 33 77 50 130 50s96 -17 130 -50s51 -75 51 -124s-17 -91 -51 -124s-77 -50 -130 -50s-96 17 -130 50s-51 75 -51 124s17 91 51 124zM577 118c24 -25 68 -25 92 0c24 27 24 72 0 97c-24 27 -68 27 -92 0c-24 -25 -24 -70 0 -97z
M66 657c34 33 77 50 130 50s96 -17 130 -50s51 -75 51 -124s-17 -91 -51 -124s-77 -50 -130 -50s-96 17 -130 50s-51 75 -51 124s17 91 51 124zM150 484c24 -25 68 -25 92 0c24 27 24 72 0 97c-24 27 -68 27 -92 0c-24 -25 -24 -70 0 -97zM891 291c34 33 77 50 130 50
s96 -17 130 -50s51 -75 51 -124s-17 -91 -51 -124s-77 -50 -130 -50s-96 17 -130 50s-51 75 -51 124s17 91 51 124zM975 118c24 -25 68 -25 92 0c24 27 24 72 0 97c-24 27 -68 27 -92 0c-24 -25 -24 -70 0 -97z" />
    <glyph glyph-name="guilsinglleft" unicode="&#x2039;" horiz-adv-x="346" 
d="M327 32h-176l-130 178v87l130 179h176l-160 -222z" />
    <glyph glyph-name="guilsinglright" unicode="&#x203a;" horiz-adv-x="346" 
d="M195 32h-176l160 222l-160 222h176l130 -179v-87z" />
    <glyph glyph-name="fraction" unicode="&#x2044;" horiz-adv-x="237" 
d="M-35 0h-120l425 700h120z" />
    <glyph glyph-name="zerosuperior" unicode="&#x2070;" horiz-adv-x="377" 
d="M188 314c-54 0 -96 19 -127 58s-46 86 -46 139s15 99 46 138s73 59 127 59c55 0 97 -20 128 -59s46 -85 46 -138s-15 -100 -46 -139s-73 -58 -128 -58zM188 407c89 -5 89 213 0 208c-89 5 -89 -213 0 -208z" />
    <glyph glyph-name="foursuperior" unicode="&#x2074;" horiz-adv-x="366" 
d="M301 322h-103v87h-187v75l181 216h109v-209h52v-82h-52v-87zM198 584l-81 -93h81v93z" />
    <glyph glyph-name="fivesuperior" unicode="&#x2075;" horiz-adv-x="330" 
d="M136 314c-43 0 -81 9 -114 27v99c35 -21 71 -32 109 -32c45 0 67 15 67 45c0 27 -26 44 -69 44c-32 0 -64 -5 -96 -15l26 218h220v-89h-141l-3 -36c4 1 10 2 19 2c89 0 151 -47 151 -124c0 -45 -16 -79 -49 -103s-73 -36 -120 -36z" />
    <glyph glyph-name="sixsuperior" unicode="&#x2076;" horiz-adv-x="353" 
d="M184 314c-103 0 -161 70 -161 178c-4 107 57 215 185 216c39 0 69 -8 92 -23v-94c-23 16 -49 24 -79 24c-45 0 -82 -24 -87 -68c18 19 43 29 75 29c72 0 123 -48 123 -125c0 -81 -64 -137 -148 -137zM176 400c32 0 51 22 51 51c0 25 -19 47 -50 47c-25 0 -43 -11 -52 -32
c0 -43 23 -66 51 -66z" />
    <glyph glyph-name="sevensuperior" unicode="&#x2077;" horiz-adv-x="327" 
d="M155 322h-115l147 289h-168v89h288v-83z" />
    <glyph glyph-name="eightsuperior" unicode="&#x2078;" horiz-adv-x="358" 
d="M18 433c0 39 30 77 66 90c-28 13 -48 44 -48 76c0 64 60 109 143 109s143 -45 143 -109c0 -32 -20 -63 -48 -76c36 -13 66 -50 66 -90c0 -37 -16 -67 -47 -88s-69 -31 -114 -31s-83 10 -114 31s-47 51 -47 88zM233 442c0 25 -22 44 -54 44s-54 -19 -54 -44
c0 -24 22 -42 54 -42s54 18 54 42zM224 587c6 48 -96 48 -90 0c0 -20 20 -36 45 -36s45 16 45 36z" />
    <glyph glyph-name="ninesuperior" unicode="&#x2079;" horiz-adv-x="353" 
d="M171 708c103 0 161 -70 161 -178c4 -107 -57 -215 -185 -216c-38 0 -69 8 -92 23v94c23 -16 49 -24 79 -24c45 0 82 24 87 68c-18 -19 -43 -29 -75 -29c-72 0 -123 48 -123 125c0 81 64 137 148 137zM179 622c-32 0 -51 -22 -51 -51c0 -25 21 -47 50 -47
c25 0 43 11 52 32c0 43 -23 66 -51 66z" />
    <glyph glyph-name="zeroinferior" unicode="&#x2080;" horiz-adv-x="377" 
d="M188 -8c-54 0 -96 19 -127 58s-46 86 -46 139s15 99 46 138s73 59 127 59c55 0 97 -20 128 -59s46 -85 46 -138s-15 -100 -46 -139s-73 -58 -128 -58zM188 85c89 -5 89 213 0 208c-89 5 -89 -213 0 -208z" />
    <glyph glyph-name="oneinferior" unicode="&#x2081;" horiz-adv-x="256" 
d="M222 0h-106v270l-100 -49v103l104 54h102v-378z" />
    <glyph glyph-name="twoinferior" unicode="&#x2082;" horiz-adv-x="355" 
d="M322 0h-285v77l103 86c42 35 63 64 63 87s-19 38 -50 38c-35 0 -69 -13 -102 -38v106c31 20 68 30 111 30c39 0 74 -11 103 -33c30 -22 45 -52 45 -89c0 -55 -21 -91 -82 -143l-37 -32h131v-89z" />
    <glyph glyph-name="threeinferior" unicode="&#x2083;" horiz-adv-x="329" 
d="M144 -8c-47 0 -88 10 -123 31v97c39 -23 77 -34 114 -34c39 0 66 17 66 44c0 24 -21 42 -58 42c-27 0 -48 -4 -64 -12v65l81 64h-129v89h259v-79l-74 -61c61 -17 92 -54 92 -111c0 -41 -16 -73 -48 -98c-31 -25 -70 -37 -116 -37z" />
    <glyph glyph-name="fourinferior" unicode="&#x2084;" horiz-adv-x="366" 
d="M301 0h-103v87h-187v75l181 216h109v-209h52v-82h-52v-87zM198 262l-81 -93h81v93z" />
    <glyph glyph-name="fiveinferior" unicode="&#x2085;" horiz-adv-x="330" 
d="M136 -8c-43 0 -81 9 -114 27v99c35 -21 71 -32 109 -32c45 0 67 15 67 45c0 27 -26 44 -69 44c-32 0 -64 -5 -96 -15l26 218h220v-89h-141l-3 -36c4 1 10 2 19 2c89 0 151 -47 151 -124c0 -45 -16 -79 -49 -103s-73 -36 -120 -36z" />
    <glyph glyph-name="sixinferior" unicode="&#x2086;" horiz-adv-x="353" 
d="M184 -8c-103 0 -161 70 -161 178c-4 107 57 215 185 216c39 0 69 -8 92 -23v-94c-23 16 -49 24 -79 24c-45 0 -82 -24 -87 -68c18 19 43 29 75 29c72 0 123 -48 123 -125c0 -81 -64 -137 -148 -137zM176 78c32 0 51 22 51 51c0 25 -19 47 -50 47c-25 0 -43 -11 -52 -32
c0 -43 23 -66 51 -66z" />
    <glyph glyph-name="seveninferior" unicode="&#x2087;" horiz-adv-x="327" 
d="M155 0h-115l147 289h-168v89h288v-83z" />
    <glyph glyph-name="eightinferior" unicode="&#x2088;" horiz-adv-x="358" 
d="M18 111c0 39 30 77 66 90c-28 13 -48 44 -48 76c0 64 60 109 143 109s143 -45 143 -109c0 -32 -20 -63 -48 -76c36 -13 66 -50 66 -90c0 -37 -16 -67 -47 -88s-69 -31 -114 -31s-83 10 -114 31s-47 51 -47 88zM233 120c0 25 -22 44 -54 44s-54 -19 -54 -44
c0 -24 22 -42 54 -42s54 18 54 42zM224 265c6 48 -96 48 -90 0c0 -20 20 -36 45 -36s45 16 45 36z" />
    <glyph glyph-name="nineinferior" unicode="&#x2089;" horiz-adv-x="353" 
d="M171 385c103 0 161 -70 161 -178c4 -107 -57 -215 -185 -216c-38 0 -69 8 -92 23v94c23 -16 49 -24 79 -24c45 0 82 24 87 68c-18 -19 -43 -29 -75 -29c-72 0 -123 48 -123 125c0 81 64 137 148 137zM179 299c-32 0 -51 -22 -51 -51c0 -27 21 -47 50 -47
c25 0 43 11 52 32c0 43 -23 66 -51 66z" />
    <glyph glyph-name="franc" unicode="&#x20a3;" horiz-adv-x="683" 
d="M296 0h-180v85h-96v124h96v491h532v-158h-352v-102h263v-152h-263v-79h137v-124h-137v-85z" />
    <glyph glyph-name="lira" unicode="&#x20a4;" horiz-adv-x="612" 
d="M570 0h-531v158h30c38 0 57 21 57 64v5h-87v82h87v39h-87v82h87v39c0 76 24 136 71 179c48 44 113 66 194 66c61 0 114 -10 159 -31v-165c-47 20 -90 30 -129 30c-77 0 -115 -35 -115 -104v-14h190v-82h-190v-39h190v-82h-190v-6c0 -28 -13 -51 -24 -58l-7 -5h295v-158z
" />
    <glyph glyph-name="peseta" unicode="&#x20a7;" horiz-adv-x="744" 
d="M278 0h-180v413h-90v131h90v156h312c128 0 218 -61 246 -156h79v-131h-81c-29 -93 -119 -152 -244 -152h-132v-261zM278 548v-139h119c52 0 86 26 86 70s-33 69 -86 69h-119z" />
    <glyph glyph-name="Euro" unicode="&#x20ac;" horiz-adv-x="650" 
d="M437 -14c-85 0 -157 23 -216 68s-99 106 -120 181h-76v97h61c0 26 0 43 1 50h-62v97h80c23 71 64 128 122 171c59 43 129 64 210 64c59 0 110 -10 153 -30v-169c-43 23 -86 34 -131 34c-70 0 -121 -23 -154 -70h155v-97h-188c-1 -5 -2 -14 -2 -26c0 -9 1 -17 2 -24h188
v-97h-163c31 -56 85 -84 162 -84c56 0 105 14 146 42v-175c-43 -21 -99 -32 -168 -32z" />
    <glyph glyph-name="uni20B4" unicode="&#x20b4;" horiz-adv-x="602" 
d="M566 387h-524v85h280c13 7 19 20 19 37c0 32 -31 48 -94 48c-61 0 -115 -11 -163 -33v159c47 21 109 31 187 31c72 0 134 -16 185 -47c52 -31 78 -77 78 -138c0 -25 -5 -44 -15 -57h47v-85zM327 -14c-73 0 -136 16 -187 47s-76 78 -76 141c0 33 11 61 33 85h-55v85h524
v-85h-260c-33 -13 -50 -32 -50 -59c0 -36 34 -54 102 -54c27 0 59 4 94 11c35 8 63 18 84 30v-163c-58 -25 -128 -38 -209 -38z" />
    <glyph glyph-name="uni20B6" unicode="&#x20b6;" horiz-adv-x="742" 
d="M318 0h-180v85h-116v124h116v52h-116v124h116v315h312c78 0 140 -20 186 -61s69 -93 69 -158s-23 -118 -69 -159s-108 -61 -186 -61h-132v-52h234v-124h-234v-85zM318 548v-163h104c61 0 101 30 101 82c0 51 -40 81 -101 81h-104z" />
    <glyph glyph-name="uni20B6" unicode="&#x20cf;" horiz-adv-x="742" 
d="M318 0h-180v85h-116v124h116v52h-116v124h116v315h312c78 0 140 -20 186 -61s69 -93 69 -158s-23 -118 -69 -159s-108 -61 -186 -61h-132v-52h234v-124h-234v-85zM318 548v-163h104c61 0 101 30 101 82c0 51 -40 81 -101 81h-104z" />
    <glyph glyph-name="uni20B6" unicode="&#x20ce;" horiz-adv-x="742" 
d="M318 0h-180v85h-116v124h116v52h-116v124h116v315h312c78 0 140 -20 186 -61s69 -93 69 -158s-23 -118 -69 -159s-108 -61 -186 -61h-132v-52h234v-124h-234v-85zM318 548v-163h104c61 0 101 30 101 82c0 51 -40 81 -101 81h-104z" />
    <glyph glyph-name="uni20B6" unicode="&#x20cd;" horiz-adv-x="742" 
d="M318 0h-180v85h-116v124h116v52h-116v124h116v315h312c78 0 140 -20 186 -61s69 -93 69 -158s-23 -118 -69 -159s-108 -61 -186 -61h-132v-52h234v-124h-234v-85zM318 548v-163h104c61 0 101 30 101 82c0 51 -40 81 -101 81h-104z" />
    <glyph glyph-name="uni20B6" unicode="&#x20cc;" horiz-adv-x="742" 
d="M318 0h-180v85h-116v124h116v52h-116v124h116v315h312c78 0 140 -20 186 -61s69 -93 69 -158s-23 -118 -69 -159s-108 -61 -186 -61h-132v-52h234v-124h-234v-85zM318 548v-163h104c61 0 101 30 101 82c0 51 -40 81 -101 81h-104z" />
    <glyph glyph-name="uni20B6" unicode="&#x20cb;" horiz-adv-x="742" 
d="M318 0h-180v85h-116v124h116v52h-116v124h116v315h312c78 0 140 -20 186 -61s69 -93 69 -158s-23 -118 -69 -159s-108 -61 -186 -61h-132v-52h234v-124h-234v-85zM318 548v-163h104c61 0 101 30 101 82c0 51 -40 81 -101 81h-104z" />
    <glyph glyph-name="uni20B6" unicode="&#x20ca;" horiz-adv-x="742" 
d="M318 0h-180v85h-116v124h116v52h-116v124h116v315h312c78 0 140 -20 186 -61s69 -93 69 -158s-23 -118 -69 -159s-108 -61 -186 -61h-132v-52h234v-124h-234v-85zM318 548v-163h104c61 0 101 30 101 82c0 51 -40 81 -101 81h-104z" />
    <glyph glyph-name="uni20B6" unicode="&#x20c9;" horiz-adv-x="742" 
d="M318 0h-180v85h-116v124h116v52h-116v124h116v315h312c78 0 140 -20 186 -61s69 -93 69 -158s-23 -118 -69 -159s-108 -61 -186 -61h-132v-52h234v-124h-234v-85zM318 548v-163h104c61 0 101 30 101 82c0 51 -40 81 -101 81h-104z" />
    <glyph glyph-name="uni20B6" unicode="&#x20c8;" horiz-adv-x="742" 
d="M318 0h-180v85h-116v124h116v52h-116v124h116v315h312c78 0 140 -20 186 -61s69 -93 69 -158s-23 -118 -69 -159s-108 -61 -186 -61h-132v-52h234v-124h-234v-85zM318 548v-163h104c61 0 101 30 101 82c0 51 -40 81 -101 81h-104z" />
    <glyph glyph-name="uni20B6" unicode="&#x20c7;" horiz-adv-x="742" 
d="M318 0h-180v85h-116v124h116v52h-116v124h116v315h312c78 0 140 -20 186 -61s69 -93 69 -158s-23 -118 -69 -159s-108 -61 -186 -61h-132v-52h234v-124h-234v-85zM318 548v-163h104c61 0 101 30 101 82c0 51 -40 81 -101 81h-104z" />
    <glyph glyph-name="uni20B6" unicode="&#x20c6;" horiz-adv-x="742" 
d="M318 0h-180v85h-116v124h116v52h-116v124h116v315h312c78 0 140 -20 186 -61s69 -93 69 -158s-23 -118 -69 -159s-108 -61 -186 -61h-132v-52h234v-124h-234v-85zM318 548v-163h104c61 0 101 30 101 82c0 51 -40 81 -101 81h-104z" />
    <glyph glyph-name="uni20B6" unicode="&#x20c5;" horiz-adv-x="742" 
d="M318 0h-180v85h-116v124h116v52h-116v124h116v315h312c78 0 140 -20 186 -61s69 -93 69 -158s-23 -118 -69 -159s-108 -61 -186 -61h-132v-52h234v-124h-234v-85zM318 548v-163h104c61 0 101 30 101 82c0 51 -40 81 -101 81h-104z" />
    <glyph glyph-name="uni20B6" unicode="&#x20c4;" horiz-adv-x="742" 
d="M318 0h-180v85h-116v124h116v52h-116v124h116v315h312c78 0 140 -20 186 -61s69 -93 69 -158s-23 -118 -69 -159s-108 -61 -186 -61h-132v-52h234v-124h-234v-85zM318 548v-163h104c61 0 101 30 101 82c0 51 -40 81 -101 81h-104z" />
    <glyph glyph-name="uni20B6" unicode="&#x20c3;" horiz-adv-x="742" 
d="M318 0h-180v85h-116v124h116v52h-116v124h116v315h312c78 0 140 -20 186 -61s69 -93 69 -158s-23 -118 -69 -159s-108 -61 -186 -61h-132v-52h234v-124h-234v-85zM318 548v-163h104c61 0 101 30 101 82c0 51 -40 81 -101 81h-104z" />
    <glyph glyph-name="uni20B6" unicode="&#x20c2;" horiz-adv-x="742" 
d="M318 0h-180v85h-116v124h116v52h-116v124h116v315h312c78 0 140 -20 186 -61s69 -93 69 -158s-23 -118 -69 -159s-108 -61 -186 -61h-132v-52h234v-124h-234v-85zM318 548v-163h104c61 0 101 30 101 82c0 51 -40 81 -101 81h-104z" />
    <glyph glyph-name="uni20B6" unicode="&#x20c1;" horiz-adv-x="742" 
d="M318 0h-180v85h-116v124h116v52h-116v124h116v315h312c78 0 140 -20 186 -61s69 -93 69 -158s-23 -118 -69 -159s-108 -61 -186 -61h-132v-52h234v-124h-234v-85zM318 548v-163h104c61 0 101 30 101 82c0 51 -40 81 -101 81h-104z" />
    <glyph glyph-name="uni20B6" unicode="&#x20c0;" horiz-adv-x="742" 
d="M318 0h-180v85h-116v124h116v52h-116v124h116v315h312c78 0 140 -20 186 -61s69 -93 69 -158s-23 -118 -69 -159s-108 -61 -186 -61h-132v-52h234v-124h-234v-85zM318 548v-163h104c61 0 101 30 101 82c0 51 -40 81 -101 81h-104z" />
    <glyph glyph-name="uni20B6" unicode="&#x20bf;" horiz-adv-x="742" 
d="M318 0h-180v85h-116v124h116v52h-116v124h116v315h312c78 0 140 -20 186 -61s69 -93 69 -158s-23 -118 -69 -159s-108 -61 -186 -61h-132v-52h234v-124h-234v-85zM318 548v-163h104c61 0 101 30 101 82c0 51 -40 81 -101 81h-104z" />
    <glyph glyph-name="uni20B6" unicode="&#x20be;" horiz-adv-x="742" 
d="M318 0h-180v85h-116v124h116v52h-116v124h116v315h312c78 0 140 -20 186 -61s69 -93 69 -158s-23 -118 -69 -159s-108 -61 -186 -61h-132v-52h234v-124h-234v-85zM318 548v-163h104c61 0 101 30 101 82c0 51 -40 81 -101 81h-104z" />
    <glyph glyph-name="uni20B6" unicode="&#x20bd;" horiz-adv-x="742" 
d="M318 0h-180v85h-116v124h116v52h-116v124h116v315h312c78 0 140 -20 186 -61s69 -93 69 -158s-23 -118 -69 -159s-108 -61 -186 -61h-132v-52h234v-124h-234v-85zM318 548v-163h104c61 0 101 30 101 82c0 51 -40 81 -101 81h-104z" />
    <glyph glyph-name="uni20B6" unicode="&#x20bc;" horiz-adv-x="742" 
d="M318 0h-180v85h-116v124h116v52h-116v124h116v315h312c78 0 140 -20 186 -61s69 -93 69 -158s-23 -118 -69 -159s-108 -61 -186 -61h-132v-52h234v-124h-234v-85zM318 548v-163h104c61 0 101 30 101 82c0 51 -40 81 -101 81h-104z" />
    <glyph glyph-name="uni20B6" unicode="&#x20bb;" horiz-adv-x="742" 
d="M318 0h-180v85h-116v124h116v52h-116v124h116v315h312c78 0 140 -20 186 -61s69 -93 69 -158s-23 -118 -69 -159s-108 -61 -186 -61h-132v-52h234v-124h-234v-85zM318 548v-163h104c61 0 101 30 101 82c0 51 -40 81 -101 81h-104z" />
    <glyph glyph-name="uni20B6" unicode="&#x20ba;" horiz-adv-x="742" 
d="M318 0h-180v85h-116v124h116v52h-116v124h116v315h312c78 0 140 -20 186 -61s69 -93 69 -158s-23 -118 -69 -159s-108 -61 -186 -61h-132v-52h234v-124h-234v-85zM318 548v-163h104c61 0 101 30 101 82c0 51 -40 81 -101 81h-104z" />
    <glyph glyph-name="uni20B6" unicode="&#x20b9;" horiz-adv-x="742" 
d="M318 0h-180v85h-116v124h116v52h-116v124h116v315h312c78 0 140 -20 186 -61s69 -93 69 -158s-23 -118 -69 -159s-108 -61 -186 -61h-132v-52h234v-124h-234v-85zM318 548v-163h104c61 0 101 30 101 82c0 51 -40 81 -101 81h-104z" />
    <glyph glyph-name="uni20B6" unicode="&#x20b7;" horiz-adv-x="742" 
d="M318 0h-180v85h-116v124h116v52h-116v124h116v315h312c78 0 140 -20 186 -61s69 -93 69 -158s-23 -118 -69 -159s-108 -61 -186 -61h-132v-52h234v-124h-234v-85zM318 548v-163h104c61 0 101 30 101 82c0 51 -40 81 -101 81h-104z" />
    <glyph glyph-name="uni2113" unicode="&#x2113;" horiz-adv-x="426" 
d="M244 -13c-124 0 -192 73 -192 192v292c0 157 74 243 182 243c50 0 89 -17 116 -50s41 -75 41 -124c0 -112 -71 -230 -212 -355c0 -55 31 -82 93 -82c39 0 75 13 106 39v-110c-34 -30 -79 -45 -134 -45zM179 487v-146h3c59 61 99 138 99 194c0 32 -13 60 -44 60
c-32 0 -58 -32 -58 -108z" />
    <glyph glyph-name="uni2116" unicode="&#x2116;" horiz-adv-x="1166" 
d="M244 0h-177v700h154l306 -385v385h176v-700h-149l-310 387v-387zM1121 208h-342v105h342v-105zM820 657c34 33 77 50 130 50s96 -17 130 -50s51 -75 51 -124s-17 -91 -51 -124s-77 -50 -130 -50s-96 17 -130 50s-51 75 -51 124s17 91 51 124zM904 484c24 -25 68 -25 92 0
c24 27 24 72 0 97c-24 27 -68 27 -92 0c-24 -25 -24 -70 0 -97z" />
    <glyph glyph-name="trademark" unicode="&#x2122;" horiz-adv-x="681" 
d="M411 388h-80v312h77l78 -115l77 115h78v-312h-80v189l-54 -78h-42l-54 78v-189zM189 388h-81v242h-93v70h268v-70h-94v-242z" />
    <glyph glyph-name="Omega" unicode="&#x2126;" horiz-adv-x="788" 
d="M352 0h-296v158h93c-25 24 -47 57 -66 100c-18 43 -27 87 -27 132c0 163 122 324 338 324c103 0 184 -32 245 -97s92 -140 92 -227c0 -45 -9 -89 -27 -132s-40 -76 -65 -100h92v-158h-296v133c61 41 111 126 111 227c0 55 -14 101 -41 138s-64 56 -111 56
s-85 -19 -112 -56s-41 -83 -41 -138c0 -101 50 -186 111 -227v-133z" />
    <glyph glyph-name="estimated" unicode="&#x212e;" horiz-adv-x="778" 
d="M390 -14c-97 0 -178 32 -245 97s-100 147 -100 246c0 93 32 173 95 241s147 102 250 102c107 0 200 -46 255 -111c56 -64 88 -144 88 -217c0 -8 0 -15 -1 -21h-562v-208c59 -61 133 -91 220 -91c121 0 221 60 273 167h44c-23 -57 -62 -106 -117 -146
c-55 -39 -121 -59 -200 -59zM170 544v-183h439v183c-61 61 -134 91 -219 91c-87 0 -161 -30 -220 -91z" />
    <glyph glyph-name="onethird" unicode="&#x2153;" horiz-adv-x="797" 
d="M216 0h-120l425 700h120zM222 322h-106v270l-100 -49v103l104 54h102v-378zM612 -8c-47 0 -88 10 -123 31v97c39 -23 77 -34 114 -34c39 0 66 17 66 44c0 24 -21 42 -58 42c-27 0 -48 -4 -64 -12v65l81 64h-129v89h259v-79l-74 -61c61 -17 92 -54 92 -111
c0 -41 -16 -73 -48 -98c-31 -25 -70 -37 -116 -37z" />
    <glyph glyph-name="twothirds" unicode="&#x2154;" horiz-adv-x="887" 
d="M322 322h-285v77l103 86c42 35 63 64 63 87s-19 38 -50 38c-35 0 -69 -13 -102 -38v106c31 20 68 30 111 30c39 0 74 -11 103 -33c30 -22 45 -52 45 -89c0 -55 -21 -91 -82 -143l-37 -32h131v-89zM702 -8c-47 0 -88 10 -123 31v97c39 -23 77 -34 114 -34
c39 0 66 17 66 44c0 24 -21 42 -58 42c-27 0 -48 -4 -64 -12v65l81 64h-129v89h259v-79l-74 -61c61 -17 92 -54 92 -111c0 -41 -16 -73 -48 -98c-31 -25 -70 -37 -116 -37zM306 0h-120l425 700h120z" />
    <glyph glyph-name="uni2155" unicode="&#x2155;" horiz-adv-x="779" 
d="M216 0h-120l425 700h120zM222 322h-106v270l-100 -49v103l104 54h102v-378zM585 -8c-43 0 -81 9 -114 27v99c35 -21 71 -32 109 -32c45 0 67 15 67 45c0 27 -26 44 -69 44c-32 0 -64 -5 -96 -15l26 218h220v-89h-141l-3 -36c4 1 10 2 19 2c89 0 151 -47 151 -124
c0 -45 -16 -79 -49 -103s-73 -36 -120 -36z" />
    <glyph glyph-name="uni2156" unicode="&#x2156;" horiz-adv-x="869" 
d="M675 -8c-43 0 -81 9 -114 27v99c35 -21 71 -32 109 -32c45 0 67 15 67 45c0 27 -26 44 -69 44c-32 0 -64 -5 -96 -15l26 218h220v-89h-141l-3 -36c4 1 10 2 19 2c89 0 151 -47 151 -124c0 -45 -16 -79 -49 -103s-73 -36 -120 -36zM322 322h-285v77l103 86
c42 35 63 64 63 87s-19 38 -50 38c-35 0 -69 -13 -102 -38v106c31 20 68 30 111 30c39 0 74 -11 103 -33c30 -22 45 -52 45 -89c0 -55 -21 -91 -82 -143l-37 -32h131v-89zM306 0h-120l425 700h120z" />
    <glyph glyph-name="uni2157" unicode="&#x2157;" horiz-adv-x="820" 
d="M257 0h-120l425 700h120zM626 -8c-43 0 -81 9 -114 27v99c35 -21 71 -32 109 -32c45 0 67 15 67 45c0 27 -26 44 -69 44c-32 0 -64 -5 -96 -15l26 218h220v-89h-141l-3 -36c4 1 10 2 19 2c89 0 151 -47 151 -124c0 -45 -16 -79 -49 -103s-73 -36 -120 -36zM144 314
c-47 0 -88 10 -123 31v97c39 -23 77 -34 114 -34c39 0 66 17 66 44c0 24 -21 42 -58 42c-27 0 -48 -4 -64 -12v65l81 64h-129v89h259v-79l-74 -61c61 -17 92 -54 92 -111c0 -41 -16 -73 -48 -98c-31 -25 -70 -37 -116 -37z" />
    <glyph glyph-name="uni2158" unicode="&#x2158;" horiz-adv-x="862" 
d="M301 322h-103v87h-187v75l181 216h109v-209h52v-82h-52v-87zM198 584l-81 -93h81v93zM668 -8c-43 0 -81 9 -114 27v99c35 -21 71 -32 109 -32c45 0 67 15 67 45c0 27 -26 44 -69 44c-32 0 -64 -5 -96 -15l26 218h220v-89h-141l-3 -36c4 1 10 2 19 2
c89 0 151 -47 151 -124c0 -45 -16 -79 -49 -103s-73 -36 -120 -36zM299 0h-120l425 700h120z" />
    <glyph glyph-name="uni2159" unicode="&#x2159;" horiz-adv-x="781" 
d="M216 0h-120l425 700h120zM222 322h-106v270l-100 -49v103l104 54h102v-378zM612 -8c-103 0 -161 70 -161 178c-4 107 57 215 185 216c39 0 69 -8 92 -23v-94c-23 16 -49 24 -79 24c-45 0 -82 -24 -87 -68c18 19 43 29 75 29c72 0 123 -48 123 -125
c0 -81 -64 -137 -148 -137zM604 78c32 0 51 22 51 51c0 25 -19 47 -50 47c-25 0 -43 -11 -52 -32c0 -43 23 -66 51 -66z" />
    <glyph glyph-name="uni215A" unicode="&#x215a;" horiz-adv-x="819" 
d="M650 -8c-103 0 -161 70 -161 178c-4 107 57 215 185 216c39 0 69 -8 92 -23v-94c-23 16 -49 24 -79 24c-45 0 -82 -24 -87 -68c18 19 43 29 75 29c72 0 123 -48 123 -125c0 -81 -64 -137 -148 -137zM642 78c32 0 51 22 51 51c0 25 -19 47 -50 47c-25 0 -43 -11 -52 -32
c0 -43 23 -66 51 -66zM136 314c-43 0 -81 9 -114 27v99c35 -21 71 -32 109 -32c45 0 67 15 67 45c0 27 -26 44 -69 44c-32 0 -64 -5 -96 -15l26 218h220v-89h-141l-3 -36c4 1 10 2 19 2c89 0 151 -47 151 -124c0 -45 -16 -79 -49 -103s-73 -36 -120 -36zM254 0h-120l425 700
h120z" />
    <glyph glyph-name="oneeighth" unicode="&#x215b;" horiz-adv-x="805" 
d="M216 0h-120l425 700h120zM222 322h-106v270l-100 -49v103l104 54h102v-378zM465 111c0 39 30 77 66 90c-28 13 -48 44 -48 76c0 64 60 109 143 109s143 -45 143 -109c0 -32 -20 -63 -48 -76c36 -13 66 -50 66 -90c0 -37 -16 -67 -47 -88s-69 -31 -114 -31s-83 10 -114 31
s-47 51 -47 88zM680 120c0 25 -22 44 -54 44s-54 -19 -54 -44c0 -24 22 -42 54 -42s54 18 54 42zM671 265c6 48 -96 48 -90 0c0 -20 20 -36 45 -36s45 16 45 36z" />
    <glyph glyph-name="threeeighths" unicode="&#x215c;" horiz-adv-x="846" 
d="M257 0h-120l425 700h120zM506 111c0 39 30 77 66 90c-28 13 -48 44 -48 76c0 64 60 109 143 109s143 -45 143 -109c0 -32 -20 -63 -48 -76c36 -13 66 -50 66 -90c0 -37 -16 -67 -47 -88s-69 -31 -114 -31s-83 10 -114 31s-47 51 -47 88zM721 120c0 25 -22 44 -54 44
s-54 -19 -54 -44c0 -24 22 -42 54 -42s54 18 54 42zM712 265c6 48 -96 48 -90 0c0 -20 20 -36 45 -36s45 16 45 36zM144 314c-47 0 -88 10 -123 31v97c39 -23 77 -34 114 -34c39 0 66 17 66 44c0 24 -21 42 -58 42c-27 0 -48 -4 -64 -12v65l81 64h-129v89h259v-79l-74 -61
c61 -17 92 -54 92 -111c0 -41 -16 -73 -48 -98c-31 -25 -70 -37 -116 -37z" />
    <glyph glyph-name="fiveeighths" unicode="&#x215d;" horiz-adv-x="843" 
d="M503 111c0 39 30 77 66 90c-28 13 -48 44 -48 76c0 64 60 109 143 109s143 -45 143 -109c0 -32 -20 -63 -48 -76c36 -13 66 -50 66 -90c0 -37 -16 -67 -47 -88s-69 -31 -114 -31s-83 10 -114 31s-47 51 -47 88zM718 120c0 25 -22 44 -54 44s-54 -19 -54 -44
c0 -24 22 -42 54 -42s54 18 54 42zM709 265c6 48 -96 48 -90 0c0 -20 20 -36 45 -36s45 16 45 36zM136 314c-43 0 -81 9 -114 27v99c35 -21 71 -32 109 -32c45 0 67 15 67 45c0 27 -26 44 -69 44c-32 0 -64 -5 -96 -15l26 218h220v-89h-141l-3 -36c4 1 10 2 19 2
c89 0 151 -47 151 -124c0 -45 -16 -79 -49 -103s-73 -36 -120 -36zM254 0h-120l425 700h120z" />
    <glyph glyph-name="seveneighths" unicode="&#x215e;" horiz-adv-x="791" 
d="M202 0h-120l425 700h120zM451 111c0 39 30 77 66 90c-28 13 -48 44 -48 76c0 64 60 109 143 109s143 -45 143 -109c0 -32 -20 -63 -48 -76c36 -13 66 -50 66 -90c0 -37 -16 -67 -47 -88s-69 -31 -114 -31s-83 10 -114 31s-47 51 -47 88zM666 120c0 25 -22 44 -54 44
s-54 -19 -54 -44c0 -24 22 -42 54 -42s54 18 54 42zM657 265c6 48 -96 48 -90 0c0 -20 20 -36 45 -36s45 16 45 36zM155 322h-115l147 289h-168v89h288v-83z" />
    <glyph glyph-name="uni215F" unicode="&#x215f;" horiz-adv-x="464" 
d="M222 322h-106v270l-100 -49v103l104 54h102v-378zM216 0h-120l425 700h120z" />
    <glyph glyph-name="arrowleft" unicode="&#x2190;" horiz-adv-x="700" 
d="M226 496h167l-140 -160h392v-138h-392l140 -161h-167l-193 230z" />
    <glyph glyph-name="arrowup" unicode="&#x2191;" horiz-adv-x="569" 
d="M215 0v392l-160 -140v167l229 193l230 -193v-167l-161 140v-392h-138z" />
    <glyph glyph-name="arrowright" unicode="&#x2192;" horiz-adv-x="700" 
d="M55 336h392l-140 160h167l193 -229l-193 -230h-167l140 161h-392v138z" />
    <glyph glyph-name="arrowdown" unicode="&#x2193;" horiz-adv-x="569" 
d="M354 594v-392l160 140v-167l-229 -193l-230 193v167l161 -140v392h138z" />
    <glyph glyph-name="partialdiff" unicode="&#x2202;" horiz-adv-x="612" 
d="M268 -13c-70 0 -127 21 -172 63c-45 43 -67 98 -67 166c0 69 22 126 66 173c45 47 102 71 172 71c67 0 119 -26 156 -79c0 57 -15 106 -44 147s-72 61 -128 61c-49 0 -94 -13 -137 -39v121c44 29 97 43 159 43c89 0 160 -32 213 -96c53 -63 80 -149 80 -257
c1 -186 -83 -375 -298 -374zM281 106c73 0 128 59 136 155c-20 52 -65 85 -118 85c-34 0 -64 -12 -90 -35c-25 -23 -38 -54 -38 -92c0 -67 43 -113 110 -113z" />
    <glyph glyph-name="increment" unicode="&#x2206;" horiz-adv-x="781" 
d="M771 0h-761l294 700h173zM389 475l-126 -317h252z" />
    <glyph glyph-name="product" unicode="&#x220f;" horiz-adv-x="785" 
d="M293 -137h-143v713h-125v124h735v-124h-125v-713h-143v713h-199v-713z" />
    <glyph glyph-name="summation" unicode="&#x2211;" horiz-adv-x="634" 
d="M599 0h-564v128l212 222l-202 223v127h545v-158h-293l138 -157v-69l-148 -158h312v-158z" />
    <glyph glyph-name="minus" unicode="&#x2212;" horiz-adv-x="763" 
d="M698 251h-633v156h633v-156z" />
    <glyph glyph-name="uni2215" unicode="&#x2215;" horiz-adv-x="556" 
d="M125 0h-120l425 700h120z" />
    <glyph glyph-name="uni2219" unicode="&#x2219;" horiz-adv-x="260" 
d="M25 281c0 29 10 53 30 74c21 21 46 31 75 31s54 -10 74 -31c21 -21 31 -45 31 -74c0 -59 -46 -106 -105 -106s-105 47 -105 106z" />
    <glyph glyph-name="radical" unicode="&#x221a;" horiz-adv-x="760" 
d="M457 0h-131l-172 384h-139v124h232l146 -334l216 526h139z" />
    <glyph glyph-name="infinity" unicode="&#x221e;" horiz-adv-x="807" 
d="M223 94c-50 0 -96 17 -137 52s-61 86 -61 152c0 62 21 110 62 145c42 35 88 53 137 53c74 0 134 -32 180 -97c32 51 98 97 181 97c55 0 102 -19 140 -58c38 -38 57 -85 57 -140c0 -60 -19 -109 -58 -147c-38 -38 -84 -57 -139 -57c-68 0 -137 32 -182 96
c-47 -64 -107 -96 -180 -96zM239 219c39 0 74 33 97 77c-32 50 -65 75 -99 75c-40 0 -72 -35 -72 -74c0 -41 31 -78 74 -78zM571 219c43 0 71 36 71 79c0 40 -29 72 -73 72c-37 0 -70 -25 -98 -74c25 -51 59 -77 100 -77z" />
    <glyph glyph-name="integral" unicode="&#x222b;" horiz-adv-x="521" 
d="M24 -206c-41 0 -75 7 -102 20v138c22 -8 44 -12 65 -12c56 0 93 39 104 107l74 452c9 60 34 111 75 152c41 42 97 63 168 63c39 0 73 -7 103 -20v-138c-22 8 -44 12 -65 12c-59 0 -94 -36 -106 -107l-73 -452c-9 -60 -34 -111 -75 -152c-41 -42 -97 -63 -168 -63z" />
    <glyph glyph-name="approxequal" unicode="&#x2248;" horiz-adv-x="654" 
d="M464 326c-35 0 -80 9 -137 27c-57 19 -103 28 -138 28c-53 0 -94 -16 -124 -47v157c20 25 72 44 124 44c35 0 81 -9 138 -28s102 -28 137 -28c53 0 94 16 125 48v-158c-21 -25 -72 -43 -125 -43zM464 96c-35 0 -80 9 -137 27c-57 19 -103 28 -138 28
c-53 0 -94 -16 -124 -47v157c20 25 72 44 124 44c35 0 81 -9 138 -28s102 -28 137 -28c53 0 94 16 125 48v-158c-21 -25 -72 -43 -125 -43z" />
    <glyph glyph-name="notequal" unicode="&#x2260;" horiz-adv-x="654" 
d="M254 37h-155l52 100h-86v158h169l37 69h-206v158h289l46 88h155l-46 -88h80v-158h-163l-37 -69h200v-158h-283z" />
    <glyph glyph-name="lessequal" unicode="&#x2264;" horiz-adv-x="654" 
d="M589 356v-177l-524 185v151l524 185v-176l-347 -84zM589 0h-524v158h524v-158z" />
    <glyph glyph-name="greaterequal" unicode="&#x2265;" horiz-adv-x="654" 
d="M589 364l-524 -185v177l347 84l-347 84v176l524 -185v-151zM589 0h-524v158h524v-158z" />
    <glyph glyph-name="dotmath" unicode="&#x22c5;" horiz-adv-x="280" 
d="M214 317c-20 -21 -45 -31 -74 -31s-54 10 -75 31c-20 21 -30 46 -30 75s10 54 30 74c21 21 46 31 75 31s54 -10 74 -31c21 -20 31 -45 31 -74s-10 -54 -31 -75z" />
    <glyph glyph-name="lozenge" unicode="&#x25ca;" horiz-adv-x="568" 
d="M358 0h-148l-185 350l185 350h148l185 -350zM171 350l115 -229l114 229l-114 229z" />
    <glyph glyph-name="uniF401" unicode="&#xf401;" horiz-adv-x="10" 
d="M-351 760h-147l95 152h209z" />
    <glyph glyph-name="uniF639" unicode="&#xf639;" 
d="M330 -14c-62 0 -116 18 -161 53c-91 71 -132 183 -132 311c0 64 11 123 32 177s55 99 100 134s99 53 161 53c390 5 390 -733 0 -728zM245 209c19 -39 47 -58 85 -58s66 19 85 57c19 39 28 86 28 142s-9 103 -28 141c-19 39 -47 58 -85 58s-66 -19 -85 -58
s-28 -86 -28 -141s9 -102 28 -141z" />
    <glyph glyph-name="uniF63A" unicode="&#xf63a;" 
d="M582 0h-508v130l189 168c88 79 117 121 117 172c0 48 -40 79 -99 79c-63 0 -124 -25 -183 -74v180c56 39 123 59 202 59c69 0 130 -20 182 -61c52 -40 78 -94 78 -161c0 -49 -11 -93 -33 -132c-21 -38 -60 -82 -115 -131l-85 -76h255v-153z" />
    <glyph glyph-name="uniF63B" unicode="&#xf63b;" 
d="M81 44v167c69 -45 139 -67 209 -67c68 0 119 35 119 94c0 52 -43 90 -112 90c-41 0 -78 -8 -110 -24v117l148 128h-235v151h457v-135l-136 -120c36 -9 70 -27 107 -59s62 -85 62 -148c0 -77 -28 -139 -84 -184c-55 -45 -124 -68 -207 -68s-155 19 -218 58z" />
    <glyph glyph-name="uniF63C" unicode="&#xf63c;" 
d="M530 0h-175v166h-337v126l334 408h178v-394h97v-140h-97v-166zM355 482l-147 -176h147v176z" />
    <glyph glyph-name="uniF63D" unicode="&#xf63d;" 
d="M284 -14c-77 0 -145 17 -203 50v167c63 -39 128 -59 194 -59c73 0 129 29 129 94c0 57 -49 94 -133 94c-50 0 -106 -11 -168 -32l46 400h388v-153h-255l-9 -77c16 3 30 4 43 4c79 0 143 -22 193 -65c51 -43 76 -100 76 -171c0 -81 -29 -143 -87 -187
c-58 -43 -129 -65 -214 -65z" />
    <glyph glyph-name="uniF63E" unicode="&#xf63e;" 
d="M342 -14c-91 0 -161 29 -211 88s-75 139 -75 240c0 103 26 198 77 274c52 77 141 126 252 126c62 0 116 -15 163 -45v-159c-43 31 -91 46 -142 46c-92 0 -157 -60 -165 -144c38 37 85 55 141 55c64 0 117 -21 159 -62s63 -97 63 -168c0 -75 -25 -135 -75 -182
c-49 -46 -112 -69 -187 -69zM331 136c56 0 94 39 94 96c0 55 -38 98 -93 98c-43 0 -76 -20 -99 -61c0 -85 39 -133 98 -133z" />
    <glyph glyph-name="uniF63F" unicode="&#xf63f;" 
d="M304 0h-191l270 543h-309v157h511v-140z" />
    <glyph glyph-name="uniF640" unicode="&#xf640;" 
d="M488 372c71 -25 125 -94 125 -170c0 -68 -28 -121 -83 -159s-122 -57 -202 -57s-148 19 -203 57s-82 91 -82 159c0 76 54 145 125 170c-55 24 -95 82 -95 143c0 59 24 107 72 144c49 37 110 55 183 55s134 -18 182 -55c49 -37 73 -85 73 -144c0 -61 -40 -119 -95 -143z
M388 546c-32 27 -88 27 -121 0c-32 -27 -32 -73 0 -100c33 -25 89 -25 121 0c33 27 33 73 0 100zM430 217c0 47 -43 82 -102 82s-102 -35 -102 -82c0 -45 43 -81 102 -81s102 36 102 81z" />
    <glyph glyph-name="uniF641" unicode="&#xf641;" 
d="M275 -14c-62 0 -116 15 -163 45v159c43 -31 91 -46 142 -46c92 0 157 60 165 144c-38 -37 -85 -55 -141 -55c-64 0 -117 21 -159 62s-63 97 -63 168c0 75 25 135 74 181c50 47 113 70 188 70c91 0 161 -30 211 -89s75 -138 75 -239c0 -103 -26 -198 -78 -275
c-51 -76 -140 -125 -251 -125zM328 370c43 0 76 20 99 61c0 85 -39 133 -98 133c-56 0 -94 -39 -94 -96c0 -55 38 -98 93 -98z" />
    <glyph glyph-name="uniF643" unicode="&#xf643;" 
d="M442 254c0 65 -47 116 -112 116s-112 -51 -112 -116c0 -67 47 -116 112 -116s112 49 112 116zM535 63c-54 -51 -122 -76 -205 -76s-151 25 -205 76s-81 115 -81 191s27 139 81 190s122 77 205 77s151 -26 205 -77s81 -114 81 -190s-27 -140 -81 -191z" />
    <glyph glyph-name="uniF644" unicode="&#xf644;" 
d="M611 0h-503v152h170v166l-143 -66v173l164 83h156v-356h156v-152z" />
    <glyph glyph-name="uniF645" unicode="&#xf645;" 
d="M576 0h-494v131c93 47 161 83 206 109c42 25 67 44 76 55c7 9 10 17 10 26c0 27 -22 40 -67 40c-61 0 -128 -22 -203 -67v164c68 42 141 63 220 63c67 0 122 -16 165 -47s65 -74 65 -131c0 -48 -18 -88 -54 -121s-78 -56 -127 -70h203v-152z" />
    <glyph glyph-name="uniF646" unicode="&#xf646;" 
d="M69 -148v167c69 -45 139 -67 209 -67c68 0 119 35 119 94c0 52 -43 90 -112 90c-41 0 -78 -8 -110 -24v117l148 128h-235v151h457v-135l-136 -120c36 -9 70 -27 107 -59s62 -85 62 -148c0 -77 -28 -139 -84 -184c-55 -45 -124 -68 -207 -68s-155 19 -218 58z" />
    <glyph glyph-name="uniF647" unicode="&#xf647;" 
d="M530 -200h-180v200h-332v126l334 382h178v-368h97v-140h-97v-200zM350 301l-143 -161h143v161z" />
    <glyph glyph-name="uniF648" unicode="&#xf648;" 
d="M279 -206c-77 0 -144 17 -203 50v167c63 -39 128 -59 194 -59c73 0 129 29 129 94c0 57 -49 94 -133 94c-50 0 -106 -11 -168 -32l46 400h388v-153h-255l-9 -77c16 3 30 4 43 4c79 0 143 -22 193 -65c51 -43 76 -100 76 -171c0 -81 -29 -143 -87 -186
c-58 -44 -129 -66 -214 -66z" />
    <glyph glyph-name="uniF649" unicode="&#xf649;" 
d="M342 -14c-91 0 -161 29 -211 88s-75 139 -75 240c0 103 26 198 77 274c52 77 141 126 252 126c62 0 116 -15 163 -45v-159c-43 31 -91 46 -142 46c-92 0 -157 -60 -165 -144c38 37 85 55 141 55c64 0 117 -21 159 -62s63 -97 63 -168c0 -75 -25 -135 -75 -182
c-49 -46 -112 -69 -187 -69zM331 136c56 0 94 39 94 96c0 55 -38 98 -93 98c-43 0 -76 -20 -99 -61c0 -85 39 -133 98 -133z" />
    <glyph glyph-name="uniF64A" unicode="&#xf64a;" 
d="M304 -200h-191l270 551h-309v157h511v-140z" />
    <glyph glyph-name="uniF64B" unicode="&#xf64b;" 
d="M488 372c71 -25 125 -94 125 -170c0 -68 -28 -121 -83 -159s-122 -57 -202 -57s-148 19 -203 57s-82 91 -82 159c0 76 54 145 125 170c-55 24 -95 82 -95 143c0 59 24 107 72 144c49 37 110 55 183 55s134 -18 182 -55c49 -37 73 -85 73 -144c0 -61 -40 -119 -95 -143z
M388 546c-32 27 -88 27 -121 0c-32 -27 -32 -73 0 -100c33 -25 89 -25 121 0c33 27 33 73 0 100zM430 217c0 47 -43 82 -102 82s-102 -35 -102 -82c0 -45 43 -81 102 -81s102 36 102 81z" />
    <glyph glyph-name="uniF64C" unicode="&#xf64c;" 
d="M275 -207c-62 0 -116 15 -163 45v159c43 -31 91 -46 142 -46c92 0 157 60 165 144c-38 -37 -85 -55 -141 -55c-64 0 -117 21 -159 62s-63 97 -63 168c0 75 25 135 74 181c50 47 113 70 188 70c91 0 161 -30 211 -89s75 -138 75 -239c0 -103 -26 -198 -78 -274
c-51 -77 -140 -126 -251 -126zM328 177c43 0 76 20 99 61c0 85 -39 133 -98 133c-56 0 -94 -39 -94 -96c0 -55 38 -98 93 -98z" />
    <glyph glyph-name="uniF64E" unicode="&#xf64e;" horiz-adv-x="576" 
d="M353 -13c-61 0 -117 17 -168 50c-50 33 -83 80 -100 140h-76v62h66v34h-66v62h77c17 59 50 104 100 137c51 33 106 49 167 49c55 0 104 -11 149 -32v-132c-37 17 -76 26 -118 26c-49 0 -87 -16 -114 -48h133v-62h-159c-1 -4 -1 -10 -1 -19v-15h160v-62h-136
c27 -35 66 -52 117 -52c44 0 86 10 127 31v-133c-49 -24 -101 -36 -158 -36z" />
    <glyph glyph-name="uniF653" unicode="&#xf653;" horiz-adv-x="513" 
d="M319 -117h-120v106c-71 5 -125 20 -162 43v149c21 -15 50 -28 88 -39s78 -16 119 -16s62 8 62 25c0 16 -16 22 -55 33c-37 10 -64 18 -82 24c-103 31 -137 68 -137 151c0 84 60 141 167 157v108h120v-107c55 -7 101 -22 138 -44v-144c-59 37 -120 55 -185 55
c-38 0 -57 -9 -57 -26c0 -11 17 -22 50 -31l39 -10l44 -10c96 -28 136 -75 136 -156s-61 -141 -165 -158v-110z" />
    <glyph glyph-name="commaaccent" unicode="&#xf6c3;" horiz-adv-x="243" 
d="M149 -290h-130l60 218h154z" />
    <glyph glyph-name="cyrbreve" unicode="&#xf6d4;" horiz-adv-x="418" 
d="M45 727h121c1 -39 26 -63 67 -63s66 24 67 63h123c-1 -55 -19 -98 -55 -129c-35 -31 -80 -47 -134 -47s-99 16 -135 47c-35 31 -53 74 -54 129z" />
    <glyph glyph-name="uniF6DC" unicode="&#xf6dc;" 
d="M596 0h-508v153h170v357l-143 -66v173l164 83h156v-547h161v-153z" />
    <glyph glyph-name="uniF721" unicode="&#xf721;" horiz-adv-x="579" 
d="M468 336h44v-62h-458v62h246c18 5 27 15 27 30c0 21 -26 31 -77 31c-53 0 -104 -9 -152 -26v123c48 19 104 29 167 29c48 0 92 -6 140 -25c49 -17 81 -58 81 -113c0 -21 -6 -37 -18 -49zM100 178h-46v62h458v-62h-243c-19 -5 -28 -16 -28 -33c0 -22 28 -33 83 -33
c53 0 106 9 157 28v-124c-49 -19 -106 -29 -172 -29c-49 0 -93 7 -144 24c-49 19 -83 59 -83 114c0 22 6 40 18 53z" />
    <glyph glyph-name="uniF722" unicode="&#xf722;" horiz-adv-x="629" 
d="M281 0h-169v58h-91v50h91v38h-91v106h91v256h270c65 0 116 -18 151 -53c36 -35 54 -78 54 -129c0 -111 -85 -180 -214 -180h-92v-38h148v-50h-148v-58zM281 384v-132h68c51 0 82 26 82 67s-31 65 -82 65h-68z" />
    <glyph glyph-name="uniF725" unicode="&#xf725;" horiz-adv-x="574" 
d="M523 0h-464v123h26c33 0 50 16 50 47v34h-76v90h76v45c0 112 90 182 231 182c54 0 100 -7 139 -22v-139c-42 15 -78 22 -107 22c-65 0 -94 -22 -94 -74v-14h163v-90h-163v-34c0 -33 -23 -46 -27 -47h246v-123z" />
    <glyph glyph-name="uniF727" unicode="&#xf727;" horiz-adv-x="667" 
d="M418 0h-169v116h-143v62h143v34h-143v62h106l-171 234h182l112 -172l114 172h178l-175 -234h109v-62h-143v-34h143v-62h-143v-116z" />
    <glyph glyph-name="uniF730" unicode="&#xf730;" horiz-adv-x="630" 
d="M427 254c0 65 -47 116 -112 116s-112 -51 -112 -116c0 -67 47 -116 112 -116s112 49 112 116zM520 63c-54 -51 -122 -76 -205 -76s-151 25 -205 76s-81 115 -81 191s27 139 81 190s122 77 205 77s151 -26 205 -77s81 -114 81 -190s-27 -140 -81 -191z" />
    <glyph glyph-name="uniF731" unicode="&#xf731;" horiz-adv-x="405" 
d="M344 0h-177v318l-143 -66v173l164 83h156v-508z" />
    <glyph glyph-name="uniF732" unicode="&#xf732;" horiz-adv-x="580" 
d="M532 0h-494v131c93 47 161 83 206 109c42 25 67 44 76 55c7 9 10 17 10 26c0 27 -22 40 -67 40c-61 0 -128 -22 -203 -67v164c68 42 141 63 220 63c67 0 122 -16 165 -47s65 -74 65 -131c0 -48 -18 -88 -54 -121s-78 -56 -127 -70h203v-152z" />
    <glyph glyph-name="uniF733" unicode="&#xf733;" horiz-adv-x="576" 
d="M28 -148v167c69 -45 139 -67 209 -67c68 0 119 35 119 94c0 52 -43 90 -112 90c-41 0 -78 -8 -110 -24v117l148 128h-235v151h457v-135l-136 -120c36 -9 70 -27 107 -59s62 -85 62 -148c0 -77 -28 -139 -84 -184c-55 -45 -124 -68 -207 -68s-155 19 -218 58z" />
    <glyph glyph-name="uniF734" unicode="&#xf734;" horiz-adv-x="647" 
d="M530 -200h-180v200h-332v126l334 382h178v-368h97v-140h-97v-200zM350 301l-143 -161h143v161z" />
    <glyph glyph-name="uniF735" unicode="&#xf735;" horiz-adv-x="563" 
d="M231 -206c-77 0 -144 17 -203 50v167c63 -39 128 -59 194 -59c73 0 129 29 129 94c0 57 -49 94 -133 94c-50 0 -106 -11 -168 -32l46 400h388v-153h-255l-9 -77c16 3 30 4 43 4c79 0 143 -22 193 -65c51 -43 76 -100 76 -171c0 -81 -29 -143 -87 -186
c-58 -44 -129 -66 -214 -66z" />
    <glyph glyph-name="uniF736" unicode="&#xf736;" horiz-adv-x="639" 
d="M333 -14c-91 0 -161 29 -211 88s-75 139 -75 240c0 103 26 198 77 274c52 77 141 126 252 126c62 0 116 -15 163 -45v-159c-43 31 -91 46 -142 46c-92 0 -157 -60 -165 -144c38 37 85 55 141 55c64 0 117 -21 159 -62s63 -97 63 -168c0 -75 -25 -135 -75 -182
c-49 -46 -112 -69 -187 -69zM322 136c56 0 94 39 94 96c0 55 -38 98 -93 98c-43 0 -76 -20 -99 -61c0 -85 39 -133 98 -133z" />
    <glyph glyph-name="uniF737" unicode="&#xf737;" horiz-adv-x="577" 
d="M261 -200h-191l270 551h-309v157h511v-140z" />
    <glyph glyph-name="uniF738" unicode="&#xf738;" horiz-adv-x="636" 
d="M476 372c71 -25 125 -94 125 -170c0 -68 -28 -121 -83 -159s-122 -57 -202 -57s-148 19 -203 57s-82 91 -82 159c0 76 54 145 125 170c-55 24 -95 82 -95 143c0 59 24 107 72 144c49 37 110 55 183 55s134 -18 182 -55c49 -37 73 -85 73 -144c0 -61 -40 -119 -95 -143z
M376 546c-32 27 -88 27 -121 0c-32 -27 -32 -73 0 -100c33 -25 89 -25 121 0c33 27 33 73 0 100zM418 217c0 47 -43 82 -102 82s-102 -35 -102 -82c0 -45 43 -81 102 -81s102 36 102 81z" />
    <glyph glyph-name="uniF739" unicode="&#xf739;" horiz-adv-x="639" 
d="M263 -207c-62 0 -116 15 -163 45v159c43 -31 91 -46 142 -46c92 0 157 60 165 144c-38 -37 -85 -55 -141 -55c-64 0 -117 21 -159 62s-63 97 -63 168c0 75 25 135 74 181c50 47 113 70 188 70c91 0 161 -30 211 -89s75 -138 75 -239c0 -103 -26 -198 -78 -274
c-51 -77 -140 -126 -251 -126zM316 177c43 0 76 20 99 61c0 85 -39 133 -98 133c-56 0 -94 -39 -94 -96c0 -55 38 -98 93 -98z" />
    <glyph glyph-name="adieresis.alt" horiz-adv-x="651" 
d="M261 -13c-67 0 -122 25 -166 76s-66 115 -66 191s22 139 66 190s99 77 166 77c65 0 116 -23 152 -70v57h177v-508h-177v57c-35 -47 -86 -70 -152 -70zM312 137c45 0 78 18 101 54v126c-23 36 -56 54 -101 54c-63 0 -107 -50 -107 -117s44 -117 107 -117zM208 566
c-47 0 -87 39 -87 87s39 86 87 86c49 0 87 -38 87 -86s-38 -87 -87 -87zM496 591c-33 -33 -88 -33 -123 0c-33 35 -33 90 0 123c35 33 90 33 123 0c35 -33 35 -88 0 -123z" />
    <glyph glyph-name="cyrbreve.cap" horiz-adv-x="630" 
d="M63 912h121c1 -39 26 -63 67 -63s66 24 67 63h123c-1 -55 -19 -98 -55 -129c-35 -31 -80 -47 -134 -47s-99 16 -135 47c-35 31 -53 74 -54 129z" />
    <glyph glyph-name="idieresis_idieresis" horiz-adv-x="556" 
d="M27 566c-47 0 -87 39 -87 87s39 86 87 86c49 0 87 -38 87 -86s-38 -87 -87 -87zM590 591c-33 -33 -88 -33 -123 0c-33 35 -33 90 0 123c35 33 90 33 123 0c35 -33 35 -88 0 -123zM339 591c-33 -33 -88 -33 -123 0c-33 35 -33 90 0 123c35 33 90 33 123 0
c35 -33 35 -88 0 -123zM502 0h-177v508h177v-508zM227 0h-177v508h177v-508z" />
    <glyph glyph-name="peseta.mono" 
d="M234 0h-180v413h-90v131h90v156h312c128 0 218 -61 246 -156h79v-131h-81c-29 -93 -119 -152 -244 -152h-132v-261zM234 548v-139h119c52 0 86 26 86 70s-33 69 -86 69h-119z" />
    <glyph glyph-name="lira.mono" 
d="M596 0h-531v158h30c38 0 57 21 57 64v5h-87v82h87v39h-87v82h87v39c0 76 24 136 71 179c48 44 113 66 194 66c61 0 114 -10 159 -31v-165c-47 20 -90 30 -129 30c-77 0 -115 -35 -115 -104v-14h190v-82h-190v-39h190v-82h-190v-6c0 -28 -13 -51 -24 -58l-7 -5h295v-158z
" />
    <glyph glyph-name="pesolow" horiz-adv-x="665" 
d="M649 365v-90h-81c-21 -85 -101 -136 -212 -136h-94v-139h-177v275h-80v90h80v143h280c113 0 185 -59 204 -143h80zM328 378h-66v-115h66c43 0 69 22 69 58s-26 57 -69 57z" />
    <glyph glyph-name="franclow" horiz-adv-x="538" 
d="M244 0h-169v58h-64v50h64v400h436v-138h-267v-79h195v-129h-195v-54h104v-50h-104v-58z" />
    <glyph glyph-name="liralow" horiz-adv-x="574" 
d="M523 0h-464v123h26c33 0 50 16 50 47v2h-76v62h76v34h-76v62h76v9c0 112 90 182 231 182c54 0 100 -7 139 -22v-139c-42 15 -78 22 -107 22c-55 0 -85 -17 -92 -52h146v-62h-148v-34h148v-62h-148v-2c0 -33 -22 -46 -27 -47h246v-123z" />
    <glyph glyph-name="uni20B6.mono" 
d="M287 0h-180v85h-116v124h116v52h-116v124h116v315h312c78 0 140 -20 186 -61s69 -93 69 -158s-23 -118 -69 -159s-108 -61 -186 -61h-132v-52h234v-124h-234v-85zM287 548v-163h104c61 0 101 30 101 82c0 51 -40 81 -101 81h-104z" />
    <glyph glyph-name="liralow.mono" 
d="M553 0h-464v123h26c33 0 50 16 50 47v2h-76v62h76v34h-76v62h76v9c0 112 90 182 231 182c54 0 100 -7 139 -22v-139c-42 15 -78 22 -107 22c-55 0 -85 -17 -92 -52h146v-62h-148v-34h148v-62h-148v-2c0 -33 -22 -46 -27 -47h246v-123z" />
    <glyph glyph-name="franclow.mono" 
d="M294 0h-169v58h-64v50h64v400h436v-138h-267v-79h195v-129h-195v-54h104v-50h-104v-58z" />
    <glyph glyph-name="aacute.alt" horiz-adv-x="651" 
d="M261 -13c-67 0 -122 25 -166 76s-66 115 -66 191s22 139 66 190s99 77 166 77c65 0 116 -23 152 -70v57h177v-508h-177v57c-35 -47 -86 -70 -152 -70zM312 137c45 0 78 18 101 54v126c-23 36 -56 54 -101 54c-63 0 -107 -50 -107 -117s44 -117 107 -117zM348 576h-147
l95 152h209z" />
    <glyph glyph-name="pesolow.mono" 
d="M644 365v-90h-81c-21 -85 -101 -136 -212 -136h-94v-139h-177v275h-80v90h80v143h280c113 0 185 -59 204 -143h80zM323 378h-66v-115h66c43 0 69 22 69 58s-26 57 -69 57z" />
    <glyph glyph-name="uniF722.mono" 
d="M306 0h-169v58h-91v50h91v38h-91v106h91v256h270c65 0 116 -18 151 -53c36 -35 54 -78 54 -129c0 -111 -85 -180 -214 -180h-92v-38h148v-50h-148v-58zM306 384v-132h68c51 0 82 26 82 67s-31 65 -82 65h-68z" />
    <glyph glyph-name="threequarters.mono" horiz-adv-x="855" 
d="M272 0h-120l425 700h120zM763 0h-103v87h-187v75l181 216h109v-209h52v-82h-52v-87zM660 262l-81 -93h81v93zM159 314c-47 0 -88 10 -123 31v97c39 -23 77 -34 114 -34c39 0 66 17 66 44c0 24 -21 42 -58 42c-27 0 -48 -4 -64 -12v65l81 64h-129v89h259v-79l-74 -61
c61 -17 92 -54 92 -111c0 -41 -16 -73 -48 -98c-31 -25 -70 -37 -116 -37z" />
    <glyph glyph-name="franc.mono" 
d="M276 0h-180v85h-96v124h96v491h532v-158h-352v-102h263v-152h-263v-79h137v-124h-137v-85z" />
    <glyph glyph-name="uniF727.mono" 
d="M414 0h-169v116h-143v62h143v34h-143v62h106l-171 234h182l112 -172l114 172h178l-175 -234h109v-62h-143v-34h143v-62h-143v-116z" />
    <glyph glyph-name="circumflex.cap" horiz-adv-x="512" 
d="M190 761h-147l127 151h167l124 -151h-150l-61 69z" />
    <glyph glyph-name="dieresis.cap" horiz-adv-x="491" 
d="M132 750c-47 0 -87 39 -87 87s39 86 87 86c49 0 87 -38 87 -86s-38 -87 -87 -87zM420 775c-33 -33 -88 -33 -123 0c-33 35 -33 90 0 123c35 33 90 33 123 0c35 -33 35 -88 0 -123z" />
    <glyph glyph-name="macron.cap" horiz-adv-x="548" 
d="M434 776h-334v116h334v-116z" />
    <glyph glyph-name="acute.cap" horiz-adv-x="428" 
d="M226 760h-147l95 152h209z" />
    <glyph glyph-name="grave.cap" horiz-adv-x="500" 
d="M380 760h-147l-157 152h209z" />
    <glyph glyph-name="g.alt" horiz-adv-x="607" 
d="M10 31c0 11 0 18 1 23h180c-2 -7 -3 -15 -3 -23c0 -49 40 -88 96 -88c55 0 95 39 95 88c0 31 -12 54 -36 71c-21 -3 -41 -5 -59 -5c-70 0 -128 20 -173 60c-45 41 -68 91 -68 152s23 111 68 151c45 41 103 61 173 61c60 0 112 -16 156 -48l142 48v-139l-64 -23
c5 -19 7 -35 7 -50c0 -41 -12 -80 -37 -117c47 -43 70 -97 70 -161c0 -67 -26 -124 -78 -169c-51 -45 -117 -68 -196 -68s-145 23 -197 68c-51 45 -77 102 -77 169zM228 256c29 -28 83 -28 111 0c29 28 29 78 0 105c-28 28 -82 28 -111 0c-28 -27 -28 -77 0 -105z" />
    <glyph glyph-name="onehalf.mono" horiz-adv-x="855" 
d="M807 0h-285v77l103 86c42 35 63 64 63 87s-19 38 -50 38c-35 0 -69 -13 -102 -38v106c31 20 68 30 111 30c39 0 74 -11 103 -33c30 -22 45 -52 45 -89c0 -55 -21 -91 -82 -143l-37 -32h131v-89zM255 322h-106v270l-100 -49v103l104 54h102v-378zM248 0h-120l425 700h120z
" />
    <glyph glyph-name="agrave.alt" horiz-adv-x="651" 
d="M261 -13c-67 0 -122 25 -166 76s-66 115 -66 191s22 139 66 190s99 77 166 77c65 0 116 -23 152 -70v57h177v-508h-177v57c-35 -47 -86 -70 -152 -70zM312 137c45 0 78 18 101 54v126c-23 36 -56 54 -101 54c-63 0 -107 -50 -107 -117s44 -117 107 -117zM429 576h-147
l-157 152h209z" />
    <glyph glyph-name="uniF64E.mono" 
d="M403 -13c-61 0 -117 17 -168 50c-50 33 -83 80 -100 140h-76v62h66v34h-66v62h77c17 59 50 104 100 137c51 33 106 49 167 49c55 0 104 -11 149 -32v-132c-37 17 -76 26 -118 26c-49 0 -87 -16 -114 -48h133v-62h-159c-1 -4 -1 -10 -1 -19v-15h160v-62h-136
c27 -35 66 -52 117 -52c44 0 86 10 127 31v-133c-49 -24 -101 -36 -158 -36z" />
    <glyph glyph-name="threeeighths.mono" horiz-adv-x="898" 
d="M279 0h-120l425 700h120zM528 111c0 39 30 77 66 90c-28 13 -48 44 -48 76c0 64 60 109 143 109s143 -45 143 -109c0 -32 -20 -63 -48 -76c36 -13 66 -50 66 -90c0 -37 -16 -67 -47 -88s-69 -31 -114 -31s-83 10 -114 31s-47 51 -47 88zM743 120c0 25 -22 44 -54 44
s-54 -19 -54 -44c0 -24 22 -42 54 -42s54 18 54 42zM734 265c6 48 -96 48 -90 0c0 -20 20 -36 45 -36s45 16 45 36zM166 314c-47 0 -88 10 -123 31v97c39 -23 77 -34 114 -34c39 0 66 17 66 44c0 24 -21 42 -58 42c-27 0 -48 -4 -64 -12v65l81 64h-129v89h259v-79l-74 -61
c61 -17 92 -54 92 -111c0 -41 -16 -73 -48 -98c-31 -25 -70 -37 -116 -37z" />
    <glyph glyph-name="uniF653.mono" 
d="M399 -117h-120v106c-71 5 -125 20 -162 43v149c21 -15 50 -28 88 -39s78 -16 119 -16s62 8 62 25c0 16 -16 22 -55 33c-37 10 -64 18 -82 24c-103 31 -137 68 -137 151c0 84 60 141 167 157v108h120v-107c55 -7 101 -22 138 -44v-144c-59 37 -120 55 -185 55
c-38 0 -57 -9 -57 -26c0 -11 17 -22 50 -31l39 -10l44 -10c96 -28 136 -75 136 -156s-61 -141 -165 -158v-110z" />
    <glyph glyph-name="seveneighths.mono" horiz-adv-x="898" 
d="M259 0h-120l425 700h120zM508 111c0 39 30 77 66 90c-28 13 -48 44 -48 76c0 64 60 109 143 109s143 -45 143 -109c0 -32 -20 -63 -48 -76c36 -13 66 -50 66 -90c0 -37 -16 -67 -47 -88s-69 -31 -114 -31s-83 10 -114 31s-47 51 -47 88zM723 120c0 25 -22 44 -54 44
s-54 -19 -54 -44c0 -24 22 -42 54 -42s54 18 54 42zM714 265c6 48 -96 48 -90 0c0 -20 20 -36 45 -36s45 16 45 36zM212 322h-115l147 289h-168v89h288v-83z" />
    <glyph glyph-name="ring.cap" horiz-adv-x="517" 
d="M354 837c0 -57 -48 -105 -105 -105s-106 48 -106 105c0 29 10 53 31 74s46 32 75 32s53 -10 74 -31s31 -46 31 -75zM293 837c3 58 -91 58 -89 0c0 -24 21 -44 45 -44s44 20 44 44z" />
    <glyph glyph-name="caron.cap" horiz-adv-x="544" 
d="M354 761h-167l-124 151h150l61 -69l60 69h147z" />
    <glyph glyph-name="dotaccent.cap" horiz-adv-x="385" 
d="M184 750c-47 0 -87 39 -87 87s39 86 87 86c49 0 87 -38 87 -86s-38 -87 -87 -87z" />
    <glyph glyph-name="breve.cap" horiz-adv-x="510" 
d="M74 916h112c4 -40 29 -67 66 -67s62 27 65 67h112c-4 -107 -78 -171 -177 -171c-49 0 -91 15 -125 45c-33 31 -51 73 -53 126z" />
    <glyph glyph-name="hungarumlaut.cap" horiz-adv-x="669" 
d="M195 760h-150l95 152h212zM467 760h-150l95 152h212z" />
    <glyph glyph-name="dollar.mono" 
d="M405 -107h-154v97c-79 9 -147 32 -203 71v184c29 -27 69 -49 120 -68s99 -28 144 -28c71 0 107 18 107 55c0 21 -11 30 -27 41c-8 7 -33 14 -45 18l-63 19l-51 15l-46 18c-20 8 -35 15 -46 22c-20 15 -53 39 -68 64c-13 25 -25 62 -25 103c0 113 76 185 203 204v99h154
v-100c54 -9 106 -26 155 -51v-173c-31 19 -68 35 -111 48s-84 20 -124 20c-61 0 -92 -15 -92 -46c0 -13 8 -23 29 -32l32 -11c21 -7 67 -19 96 -28c67 -22 120 -50 158 -83s57 -80 57 -140c0 -112 -79 -192 -200 -216v-102z" />
    <glyph glyph-name="yen.mono" 
d="M420 0h-180v123h-189v110h189v60h-189v110h145l-210 297h190l156 -236l157 236h185l-212 -297h147v-110h-189v-60h189v-110h-189v-123z" />
    <glyph glyph-name="sterling.mono" 
d="M596 0h-531v158h30c38 0 57 21 57 64v54h-87v131h87v62c0 76 24 136 71 179c48 44 113 66 194 66c61 0 114 -10 159 -31v-165c-47 20 -90 30 -129 30c-77 0 -115 -35 -115 -104v-37h200v-131h-200v-55c0 -28 -13 -51 -24 -58l-7 -5h295v-158z" />
    <glyph glyph-name="onethird.mono" horiz-adv-x="855" 
d="M246 0h-120l425 700h120zM253 322h-106v270l-100 -49v103l104 54h102v-378zM643 -8c-47 0 -88 10 -123 31v97c40 -23 78 -34 114 -34c39 0 66 17 66 44c0 24 -21 42 -58 42c-27 0 -48 -4 -64 -12v65l81 64h-129v89h259v-79l-74 -61c61 -17 92 -54 92 -111
c0 -41 -16 -73 -48 -98c-31 -25 -70 -37 -116 -37z" />
    <glyph glyph-name="twothirds.mono" horiz-adv-x="855" 
d="M282 0h-120l425 700h120zM316 322h-285v77l103 86c42 35 63 64 63 87s-19 38 -50 38c-35 0 -69 -13 -102 -38v106c31 20 68 30 111 30c39 0 74 -11 103 -33c30 -22 45 -52 45 -89c0 -55 -21 -91 -82 -143l-37 -32h131v-89zM661 -8c-47 0 -88 10 -123 31v97
c40 -23 78 -34 114 -34c39 0 66 17 66 44c0 24 -21 42 -58 42c-27 0 -48 -4 -64 -12v65l81 64h-129v89h259v-79l-74 -61c61 -17 92 -54 92 -111c0 -41 -16 -73 -48 -98c-31 -25 -70 -37 -116 -37z" />
    <glyph glyph-name="Euro.mono" 
d="M437 -14c-85 0 -157 23 -216 68s-99 106 -120 181h-76v97h61c0 26 0 43 1 50h-62v97h80c23 71 64 128 122 171c59 43 129 64 210 64c59 0 110 -10 153 -30v-169c-43 23 -86 34 -131 34c-70 0 -121 -23 -154 -70h155v-97h-188c-1 -5 -2 -14 -2 -26c0 -9 1 -17 2 -24h188
v-97h-163c31 -56 85 -84 162 -84c56 0 105 14 146 42v-175c-43 -21 -99 -32 -168 -32z" />
    <glyph glyph-name="tilde.cap" horiz-adv-x="507" 
d="M335 757c-23 0 -47 7 -73 20c-25 13 -45 20 -58 20c-23 0 -38 -12 -44 -36h-89c0 43 12 79 35 109c23 31 54 46 91 46c21 0 45 -7 70 -20c26 -13 46 -19 60 -19c23 0 38 12 44 35h89c0 -39 -12 -75 -36 -107c-23 -32 -53 -48 -89 -48z" />
    <glyph glyph-name="uniF725.mono" 
d="M553 0h-464v123h26c33 0 50 16 50 47v34h-76v90h76v45c0 112 90 182 231 182c54 0 100 -7 139 -22v-139c-42 15 -78 22 -107 22c-65 0 -94 -22 -94 -74v-14h163v-90h-163v-34c0 -33 -23 -46 -27 -47h246v-123z" />
    <glyph glyph-name="oneeighth.mono" horiz-adv-x="898" 
d="M510 111c0 39 30 77 66 90c-28 13 -48 44 -48 76c0 64 60 109 143 109s143 -45 143 -109c0 -32 -20 -63 -48 -76c36 -13 66 -50 66 -90c0 -37 -16 -67 -47 -88s-69 -31 -114 -31s-83 10 -114 31s-47 51 -47 88zM725 120c0 25 -22 44 -54 44s-54 -19 -54 -44
c0 -24 22 -42 54 -42s54 18 54 42zM716 265c6 48 -96 48 -90 0c0 -20 20 -36 45 -36s45 16 45 36zM267 322h-106v270l-100 -49v103l104 54h102v-378zM260 0h-120l425 700h120z" />
    <glyph glyph-name="onequarter.mono" horiz-adv-x="855" 
d="M256 0h-120l425 700h120zM262 322h-106v270l-100 -49v103l104 54h102v-378zM747 0h-103v87h-187v75l181 216h109v-209h52v-82h-52v-87zM644 262l-81 -93h81v93z" />
    <glyph glyph-name="t_t" horiz-adv-x="829" 
d="M660 -13c-104 0 -176 58 -176 166v213h-203v-165c0 -44 16 -61 59 -61c24 0 47 6 70 18v-141c-32 -20 -75 -30 -130 -30c-104 0 -176 58 -176 166v213h-89v142h89v130h177v-130h203v130h177v-130h129v-142h-129v-165c0 -44 16 -61 59 -61c24 0 47 6 70 18v-141
c-32 -20 -75 -30 -130 -30z" />
    <glyph glyph-name="uniF721.mono" 
d="M502 336h44v-62h-458v62h246c18 5 27 15 27 30c0 21 -26 31 -77 31c-53 0 -104 -9 -152 -26v123c48 19 104 29 167 29c48 0 92 -6 140 -25c49 -17 81 -58 81 -113c0 -21 -6 -37 -18 -49zM134 178h-46v62h458v-62h-243c-19 -5 -28 -16 -28 -33c0 -22 28 -33 83 -33
c53 0 106 9 157 28v-124c-49 -19 -106 -29 -172 -29c-49 0 -93 7 -144 24c-49 19 -83 59 -83 114c0 22 6 40 18 53z" />
    <glyph glyph-name="uni20B4.mono" 
d="M588 387h-524v85h280c13 7 19 20 19 37c0 32 -31 48 -94 48c-61 0 -115 -11 -163 -33v159c47 21 109 31 187 31c72 0 134 -16 185 -47c52 -31 78 -77 78 -138c0 -25 -5 -44 -15 -57h47v-85zM349 -14c-73 0 -136 16 -187 47s-76 78 -76 141c0 33 11 61 33 85h-55v85h524
v-85h-260c-33 -13 -50 -32 -50 -59c0 -36 34 -54 102 -54c27 0 59 4 94 11c35 8 63 18 84 30v-163c-58 -25 -128 -38 -209 -38z" />
    <glyph glyph-name="atilde.alt" horiz-adv-x="651" 
d="M261 -13c-67 0 -122 25 -166 76s-66 115 -66 191s22 139 66 190s99 77 166 77c65 0 116 -23 152 -70v57h177v-508h-177v57c-35 -47 -86 -70 -152 -70zM312 137c45 0 78 18 101 54v126c-23 36 -56 54 -101 54c-63 0 -107 -50 -107 -117s44 -117 107 -117zM396 573
c-23 0 -47 7 -73 20c-25 13 -45 20 -58 20c-23 0 -38 -12 -44 -36h-89c0 43 12 79 35 109c23 31 54 46 91 46c21 0 45 -7 70 -20c26 -13 46 -19 60 -19c23 0 38 12 44 35h89c0 -39 -12 -75 -36 -107c-23 -32 -53 -48 -89 -48z" />
    <glyph glyph-name="aring.alt" horiz-adv-x="651" 
d="M261 -13c-67 0 -122 25 -166 76s-66 115 -66 191s22 139 66 190s99 77 166 77c65 0 116 -23 152 -70v57h177v-508h-177v57c-35 -47 -86 -70 -152 -70zM312 137c45 0 78 18 101 54v126c-23 36 -56 54 -101 54c-63 0 -107 -50 -107 -117s44 -117 107 -117zM205 652
c0 29 10 54 31 75s46 31 75 31s53 -10 74 -31s31 -46 31 -75c0 -57 -48 -105 -105 -105s-106 48 -106 105zM355 652c3 58 -91 58 -89 0c0 -24 21 -44 45 -44s44 20 44 44z" />
    <glyph glyph-name="acircumflex.alt" horiz-adv-x="651" 
d="M261 -13c-67 0 -122 25 -166 76s-66 115 -66 191s22 139 66 190s99 77 166 77c65 0 116 -23 152 -70v57h177v-508h-177v57c-35 -47 -86 -70 -152 -70zM312 137c45 0 78 18 101 54v126c-23 36 -56 54 -101 54c-63 0 -107 -50 -107 -117s44 -117 107 -117zM269 577h-147
l127 151h167l124 -151h-150l-61 69z" />
    <glyph glyph-name="uni2156.mono" horiz-adv-x="855" 
d="M292 0h-120l425 700h120zM325 322h-285v77l103 86c42 35 63 64 63 87s-19 38 -50 38c-35 0 -69 -13 -102 -38v106c31 20 68 30 111 30c39 0 74 -11 103 -33c30 -22 45 -52 45 -89c0 -55 -21 -91 -82 -143l-37 -32h131v-89zM644 -8c-43 0 -81 9 -114 27v99
c35 -21 71 -32 109 -32c45 0 67 15 67 45c0 27 -26 44 -69 44c-32 0 -64 -5 -96 -15l26 218h220v-89h-141l-3 -36c4 1 10 2 19 2c89 0 151 -47 151 -124c0 -45 -16 -79 -49 -103s-73 -36 -120 -36z" />
    <glyph glyph-name="uni2157.mono" horiz-adv-x="855" 
d="M276 0h-120l425 700h120zM645 -8c-43 0 -81 9 -114 27v99c35 -21 71 -32 109 -32c45 0 67 15 67 45c0 27 -26 44 -69 44c-32 0 -64 -5 -96 -15l26 218h220v-89h-141l-3 -36c4 1 10 2 19 2c89 0 151 -47 151 -124c0 -45 -16 -79 -49 -103s-73 -36 -120 -36zM163 314
c-47 0 -88 10 -123 31v97c39 -23 77 -34 114 -34c39 0 66 17 66 44c0 24 -21 42 -58 42c-27 0 -48 -4 -64 -12v65l81 64h-129v89h259v-79l-74 -61c61 -17 92 -54 92 -111c0 -41 -16 -73 -48 -98c-31 -25 -70 -37 -116 -37z" />
    <glyph glyph-name="uni2158.mono" horiz-adv-x="855" 
d="M321 322h-103v87h-187v75l181 216h109v-209h52v-82h-52v-87zM218 584l-81 -93h81v93zM654 -8c-43 0 -81 9 -114 27v99c35 -21 71 -32 109 -32c45 0 67 15 67 45c0 27 -26 44 -69 44c-32 0 -64 -5 -96 -15l26 218h220v-89h-141l-3 -36c4 1 10 2 19 2
c89 0 151 -47 151 -124c0 -45 -16 -79 -49 -103s-73 -36 -120 -36zM302 0h-120l425 700h120z" />
    <glyph glyph-name="uni2159.mono" horiz-adv-x="855" 
d="M652 -8c-103 0 -161 70 -161 178c-4 107 57 215 185 216c39 0 69 -8 92 -23v-94c-23 16 -49 24 -79 24c-45 0 -82 -24 -87 -68c18 19 43 29 75 29c72 0 123 -48 123 -125c0 -81 -64 -137 -148 -137zM644 78c32 0 51 22 51 51c0 25 -19 47 -50 47c-25 0 -43 -11 -52 -32
c0 -43 23 -66 51 -66zM263 322h-106v270l-100 -49v103l104 54h102v-378zM256 0h-120l425 700h120z" />
    <glyph glyph-name="uni215A.mono" horiz-adv-x="855" 
d="M668 -8c-103 0 -161 70 -161 178c-4 107 57 215 185 216c39 0 69 -8 92 -23v-94c-23 16 -49 24 -79 24c-45 0 -82 -24 -87 -68c18 19 43 29 75 29c72 0 123 -48 123 -125c0 -81 -64 -137 -148 -137zM660 78c32 0 51 22 51 51c0 25 -19 47 -50 47c-25 0 -43 -11 -52 -32
c0 -43 23 -66 51 -66zM153 314c-43 0 -81 9 -114 27v99c35 -21 71 -32 109 -32c45 0 67 15 67 45c0 27 -26 44 -69 44c-32 0 -64 -5 -96 -15l26 218h220v-89h-141l-3 -36c4 1 10 2 19 2c89 0 151 -47 151 -124c0 -45 -16 -79 -49 -103s-73 -36 -120 -36zM271 0h-120l425 700
h120z" />
    <glyph glyph-name="Q.alt02" horiz-adv-x="838" 
d="M745 -233c-43 0 -102 13 -179 40s-134 40 -172 40c-60 0 -109 -14 -147 -41v153c31 16 66 27 103 32c-90 15 -163 56 -220 123c-57 68 -85 147 -85 236c0 101 35 187 105 258s158 106 264 106s194 -35 264 -106c71 -71 106 -157 106 -258c0 -94 -31 -175 -92 -244
s-140 -108 -235 -118c26 -4 73 -18 142 -41s121 -35 156 -35c19 0 35 3 48 10v-147c-12 -5 -31 -8 -58 -8zM282 208c35 -37 79 -56 132 -56s96 19 131 56s53 85 53 142s-18 105 -53 142s-78 56 -131 56s-97 -19 -132 -56s-52 -85 -52 -142s17 -105 52 -142z" />
    <glyph glyph-name="amacron.alt" horiz-adv-x="651" 
d="M261 -13c-67 0 -122 25 -166 76s-66 115 -66 191s22 139 66 190s99 77 166 77c65 0 116 -23 152 -70v57h177v-508h-177v57c-35 -47 -86 -70 -152 -70zM312 137c45 0 78 18 101 54v126c-23 36 -56 54 -101 54c-63 0 -107 -50 -107 -117s44 -117 107 -117zM487 592h-334
v116h334v-116z" />
    <glyph glyph-name="Q.alt01" horiz-adv-x="845" 
d="M414 152c29 0 56 6 83 19l-136 179h187l43 -57c5 21 7 40 7 57c0 57 -18 105 -53 142s-78 56 -131 56s-97 -19 -132 -56s-52 -85 -52 -142s17 -105 52 -142s79 -56 132 -56zM414 -14c-106 0 -194 35 -264 106s-105 157 -105 258s35 187 105 258s158 106 264 106
s194 -35 264 -106s105 -157 105 -258c0 -80 -23 -152 -70 -217l102 -133h-187l-27 34c-57 -32 -120 -48 -187 -48z" />
    <glyph glyph-name="aogonek.alt" horiz-adv-x="653" 
d="M572 -206c-85 0 -137 45 -137 106c0 37 16 71 48 100h-70v57c-35 -47 -86 -70 -152 -70c-67 0 -122 25 -166 76s-66 115 -66 191s22 139 66 190s99 77 166 77c65 0 116 -23 152 -70v57h177v-508c-22 -22 -33 -43 -33 -64c0 -25 15 -37 45 -37c14 0 26 2 35 7v-103
c-16 -6 -38 -9 -65 -9zM312 137c45 0 78 18 101 54v126c-23 36 -56 54 -101 54c-63 0 -107 -50 -107 -117s44 -117 107 -117z" />
    <glyph glyph-name="abreve.alt" horiz-adv-x="651" 
d="M261 -13c-67 0 -122 25 -166 76s-66 115 -66 191s22 139 66 190s99 77 166 77c65 0 116 -23 152 -70v57h177v-508h-177v57c-35 -47 -86 -70 -152 -70zM312 137c45 0 78 18 101 54v126c-23 36 -56 54 -101 54c-63 0 -107 -50 -107 -117s44 -117 107 -117zM139 732h112
c4 -40 29 -67 66 -67s62 27 65 67h112c-4 -107 -78 -171 -177 -171c-49 0 -91 15 -125 45c-33 31 -51 73 -53 126z" />
    <glyph glyph-name="gcircumflex.alt" horiz-adv-x="607" 
d="M10 31c0 11 0 18 1 23h180c-2 -7 -3 -15 -3 -23c0 -49 40 -88 96 -88c55 0 95 39 95 88c0 31 -12 54 -36 71c-21 -3 -41 -5 -59 -5c-70 0 -128 20 -173 60c-45 41 -68 91 -68 152s23 111 68 151c45 41 103 61 173 61c60 0 112 -16 156 -48l142 48v-139l-64 -23
c5 -19 7 -35 7 -50c0 -41 -12 -80 -37 -117c47 -43 70 -97 70 -161c0 -67 -26 -124 -78 -169c-51 -45 -117 -68 -196 -68s-145 23 -197 68c-51 45 -77 102 -77 169zM228 256c29 -28 83 -28 111 0c29 28 29 78 0 105c-28 28 -82 28 -111 0c-28 -27 -28 -77 0 -105zM228 577
h-147l127 151h167l124 -151h-150l-61 69z" />
    <glyph glyph-name="f_f_t" horiz-adv-x="1219" 
d="M1050 -13c-104 0 -176 58 -176 166v213h-210v-366h-177v366h-210v-366h-177v366h-85v142h85v27c0 105 62 179 186 179c53 0 99 -7 139 -22v-136c-27 10 -56 15 -87 15c-41 0 -61 -18 -61 -54v-9h210v27c0 105 62 179 186 179c53 0 99 -7 139 -22v-136
c-27 10 -56 15 -87 15c-41 0 -61 -18 -61 -54v-9h210v130h177v-130h129v-142h-129v-165c0 -44 16 -61 59 -61c24 0 47 6 70 18v-141c-32 -20 -75 -30 -130 -30z" />
    <glyph glyph-name="t.alt" horiz-adv-x="397" 
d="M228 -13c-104 0 -176 58 -176 166v485h177v-130h129v-142h-129v-165c0 -44 16 -61 59 -61c24 0 47 6 70 18v-141c-32 -20 -75 -30 -130 -30z" />
    <glyph glyph-name="f.alt01" horiz-adv-x="406" 
d="M238 366v-366h-177v535c0 105 62 179 186 179c53 0 99 -7 139 -22v-136c-27 10 -56 15 -87 15c-41 0 -61 -18 -61 -54v-9h148v-142h-148z" />
    <glyph glyph-name="f_j" horiz-adv-x="730" 
d="M459 -206c-54 0 -94 7 -120 21v145c23 -11 47 -16 74 -16c49 0 74 24 74 72v350h-210v-366h-177v366h-85v142h85v27c0 105 62 179 186 179c53 0 99 -7 139 -22v-136c-27 10 -56 15 -87 15c-41 0 -61 -18 -61 -54v-9h387v-507c0 -128 -76 -207 -205 -207zM574 554
c-56 0 -101 45 -101 102s45 102 101 102c57 0 102 -45 102 -102s-45 -102 -102 -102z" />
    <glyph glyph-name="T_h" horiz-adv-x="1140" 
d="M418 0h-180v542h-210v158h725v-249c44 47 95 70 154 70c113 0 181 -81 181 -209v-312h-177v279c0 60 -32 84 -73 84c-35 0 -63 -15 -85 -45v-318h-177v542h-158v-542z" />
    <glyph glyph-name="uni043F_uni0438" horiz-adv-x="975" 
d="M238 0h-177v508h504v-252l183 252h166v-508h-174v248l-183 -248h-166v366h-153v-366z" />
    <glyph glyph-name="uni041F_uni0418" horiz-adv-x="1185" 
d="M247 0h-180v700h606v-395l289 395h156v-700h-180v399l-294 -399h-151v542h-246v-542z" />
    <glyph glyph-name="uni041D_uni0418" horiz-adv-x="1203" 
d="M247 0h-180v700h180v-249h264v249h180v-395l289 395h156v-700h-180v399l-294 -399h-151v291h-264v-291z" />
    <glyph glyph-name="uni043D_uni0438" horiz-adv-x="980" 
d="M238 0h-177v508h177v-177h158v177h174v-252l183 252h166v-508h-174v248l-183 -248h-166v189h-158v-189z" />
    <glyph glyph-name="uni0418_uni041D" horiz-adv-x="1203" 
d="M218 0h-151v700h180v-395l289 395h156v-249h264v249h180v-700h-180v291h-264v-291h-180v399z" />
    <glyph glyph-name="uni0438_uni043D" horiz-adv-x="980" 
d="M227 0h-166v508h174v-252l183 252h166v-177h158v177h177v-508h-177v189h-158v-189h-174v251z" />
    <glyph glyph-name="f_t" horiz-adv-x="832" 
d="M663 -13c-104 0 -176 58 -176 166v213h-210v-366h-177v366h-85v142h85v27c0 105 62 179 186 179c53 0 99 -7 139 -22v-136c-27 10 -56 15 -87 15c-41 0 -61 -18 -61 -54v-9h210v130h177v-130h129v-142h-129v-165c0 -44 16 -61 59 -61c23 0 47 6 70 18v-141
c-32 -20 -75 -30 -130 -30z" />
    <glyph glyph-name="uni0438_uni0439" horiz-adv-x="994" 
d="M227 0h-166v508h174v-252l183 252h166v-252l183 252h166v-508h-174v251l-186 -251h-163v251zM481 727h121c1 -39 26 -63 67 -63s66 24 67 63h123c-1 -55 -19 -98 -55 -129c-35 -31 -80 -47 -134 -47s-99 16 -135 47c-35 31 -53 74 -54 129z" />
    <glyph glyph-name="gcommaaccent.alt" horiz-adv-x="607" 
d="M10 31c0 11 0 18 1 23h180c-2 -7 -3 -15 -3 -23c0 -49 40 -88 96 -88c55 0 95 39 95 88c0 31 -12 54 -36 71c-21 -3 -41 -5 -59 -5c-70 0 -128 20 -173 60c-45 41 -68 91 -68 152s23 111 68 151c45 41 103 61 173 61c60 0 112 -16 156 -48l142 48v-139l-64 -23
c5 -19 7 -35 7 -50c0 -41 -12 -80 -37 -117c47 -43 70 -97 70 -161c0 -67 -26 -124 -78 -169c-51 -45 -117 -68 -196 -68s-145 23 -197 68c-51 45 -77 102 -77 169zM228 256c29 -28 83 -28 111 0c29 28 29 78 0 105c-28 28 -82 28 -111 0c-28 -27 -28 -77 0 -105zM286 800
h130l-60 -218h-154z" />
    <glyph glyph-name="H_B" horiz-adv-x="1156" 
d="M247 0h-180v700h180v-249h264v249h341c128 0 218 -62 218 -177c0 -68 -39 -116 -82 -136c34 -8 65 -28 92 -61s41 -74 41 -125c0 -60 -23 -109 -69 -146c-45 -37 -106 -55 -181 -55h-360v291h-264v-291zM691 299v-149h145c55 0 88 27 88 74s-35 75 -88 75h-145zM691 554
v-122h134c44 0 72 23 72 60c0 39 -28 62 -72 62h-134z" />
    <glyph glyph-name="H_D" horiz-adv-x="1222" 
d="M247 0h-180v700h180v-249h264v249h279c114 0 207 -33 279 -98s108 -149 108 -252s-36 -188 -108 -253s-165 -97 -279 -97h-279v291h-264v-291zM691 542v-384h86c136 0 214 69 214 192s-78 192 -214 192h-86z" />
    <glyph glyph-name="H_E" horiz-adv-x="1086" 
d="M1051 0h-540v291h-264v-291h-180v700h180v-249h264v249h532v-158h-352v-95h280v-152h-280v-137h360v-158z" />
    <glyph glyph-name="H_F" horiz-adv-x="1078" 
d="M247 0h-180v700h180v-249h264v249h532v-158h-352v-102h263v-152h-263v-288h-180v291h-264v-291z" />
    <glyph glyph-name="H_K" horiz-adv-x="1179" 
d="M691 0h-180v291h-264v-291h-180v700h180v-249h264v249h180v-267l227 267h216l-271 -322l321 -378h-219l-274 311v-311z" />
    <glyph glyph-name="H_M" horiz-adv-x="1290" 
d="M247 0h-180v700h180v-249h264v249h179l177 -269l178 269h178v-700h-179v427l-125 -188h-99l-129 188v-427h-180v291h-264v-291z" />
    <glyph glyph-name="H_N" horiz-adv-x="1217" 
d="M247 0h-180v700h180v-249h264v249h157l306 -385v385h176v-700h-149l-310 387v-387h-180v291h-264v-291z" />
    <glyph glyph-name="H_U" horiz-adv-x="1183" 
d="M511 291h-264v-291h-180v700h180v-249h264v249h180v-416c0 -89 54 -132 127 -132c75 0 127 43 127 132v416h180v-407c0 -97 -29 -173 -87 -227c-58 -53 -131 -80 -220 -80s-162 27 -220 80c-57 53 -86 128 -87 225z" />
    <glyph glyph-name="H_P" horiz-adv-x="1101" 
d="M691 0h-180v291h-264v-291h-180v700h180v-249h264v249h312c78 0 140 -20 186 -61s69 -93 69 -158s-23 -118 -69 -159s-108 -61 -186 -61h-132v-261zM691 548v-139h119c52 0 86 26 86 70s-33 69 -86 69h-119z" />
    <glyph glyph-name="H_R" horiz-adv-x="1173" 
d="M691 0h-180v291h-264v-291h-180v700h180v-249h264v249h329c77 0 138 -20 183 -61c46 -40 69 -92 69 -155c0 -91 -51 -164 -136 -197l212 -287h-207l-198 267h-72v-267zM691 548v-134h139c49 0 80 25 80 66s-31 68 -80 68h-139z" />
    <glyph glyph-name="N_D" horiz-adv-x="1238" 
d="M244 0h-177v700h154l306 -385v385h279c114 0 207 -33 279 -98s108 -149 108 -252s-36 -188 -108 -253s-165 -97 -279 -97h-252l-310 387v-387zM707 542v-384h86c136 0 214 69 214 192s-78 192 -214 192h-86z" />
    <glyph glyph-name="N_B" horiz-adv-x="1172" 
d="M244 0h-177v700h154l306 -385v385h341c128 0 218 -62 218 -177c0 -68 -39 -116 -82 -136c34 -8 65 -28 92 -61s41 -74 41 -125c0 -60 -23 -109 -69 -146c-45 -37 -106 -55 -181 -55h-333l-310 387v-387zM707 299v-149h145c55 0 88 27 88 74s-35 75 -88 75h-145zM707 554
v-122h134c44 0 72 23 72 60c0 39 -28 62 -72 62h-134z" />
    <glyph glyph-name="M_P" horiz-adv-x="1190" 
d="M247 0h-180v700h179l177 -269l178 269h311c78 0 140 -20 186 -61s69 -93 69 -158s-23 -118 -69 -159s-108 -61 -186 -61h-132v-261h-180v427l-125 -188h-99l-129 188v-427zM780 548v-139h119c52 0 86 26 86 70s-33 69 -86 69h-119z" />
    <glyph glyph-name="M_R" horiz-adv-x="1262" 
d="M247 0h-180v700h179l177 -269l178 269h328c77 0 138 -20 183 -61c46 -40 69 -92 69 -155c0 -91 -51 -164 -136 -197l212 -287h-207l-198 267h-72v-267h-180v427l-125 -188h-99l-129 188v-427zM780 548v-134h139c49 0 80 25 80 66s-31 68 -80 68h-139z" />
    <glyph glyph-name="M_H" horiz-adv-x="1291" 
d="M247 0h-180v700h179l177 -269l178 269h179v-249h264v249h180v-700h-180v291h-264v-291h-180v427l-125 -188h-99l-129 188v-427z" />
    <glyph glyph-name="M_U" horiz-adv-x="1272" 
d="M247 0h-180v700h179l177 -269l178 269h179v-416c0 -89 54 -132 127 -132c75 0 127 43 127 132v416h180v-407c0 -97 -29 -173 -87 -227c-58 -53 -131 -80 -220 -80s-162 27 -220 80c-58 54 -87 130 -87 227v134l-125 -188h-99l-129 188v-427z" />
    <glyph glyph-name="N_P" horiz-adv-x="1117" 
d="M244 0h-177v700h154l306 -385v385h312c78 0 140 -20 186 -61s69 -93 69 -158s-23 -118 -69 -159s-108 -61 -186 -61h-132v-261h-153l-310 387v-387zM707 548v-139h119c52 0 86 26 86 70s-33 69 -86 69h-119z" />
    <glyph glyph-name="N_R" horiz-adv-x="1189" 
d="M244 0h-177v700h154l306 -385v385h329c77 0 138 -20 183 -61c46 -40 69 -92 69 -155c0 -91 -51 -164 -136 -197l212 -287h-207l-198 267h-72v-267h-153l-310 387v-387zM707 548v-134h139c49 0 80 25 80 66s-31 68 -80 68h-139z" />
    <glyph glyph-name="N_N" horiz-adv-x="1230" 
d="M244 0h-177v700h154l306 -385v385h154l306 -385v385h176v-700h-149l-310 387v-387h-150l-310 387v-387z" />
    <glyph glyph-name="U_P" horiz-adv-x="1082" 
d="M365 -14c-89 0 -162 27 -220 80c-58 54 -87 130 -87 227v407h180v-416c0 -89 54 -132 127 -132c75 0 127 43 127 132v416h312c78 0 140 -20 186 -61s69 -93 69 -158s-23 -118 -69 -159s-108 -61 -186 -61h-134c-7 -87 -38 -155 -95 -203c-56 -48 -126 -72 -210 -72z
M672 548v-139h119c52 0 86 26 86 70s-33 69 -86 69h-119z" />
    <glyph glyph-name="U_R" horiz-adv-x="1154" 
d="M365 -14c-89 0 -162 27 -220 80c-58 54 -87 130 -87 227v407h180v-416c0 -89 54 -132 127 -132c75 0 127 43 127 132v416h329c77 0 138 -20 183 -61c46 -40 69 -92 69 -155c0 -91 -51 -164 -136 -197l212 -287h-207l-198 267h-73c-6 -89 -37 -159 -94 -208
s-127 -73 -212 -73zM672 548v-134h139c49 0 80 25 80 66s-31 68 -80 68h-139z" />
    <glyph glyph-name="gdotaccent.alt" horiz-adv-x="607" 
d="M10 31c0 11 0 18 1 23h180c-2 -7 -3 -15 -3 -23c0 -49 40 -88 96 -88c55 0 95 39 95 88c0 31 -12 54 -36 71c-21 -3 -41 -5 -59 -5c-70 0 -128 20 -173 60c-45 41 -68 91 -68 152s23 111 68 151c45 41 103 61 173 61c60 0 112 -16 156 -48l142 48v-139l-64 -23
c5 -19 7 -35 7 -50c0 -41 -12 -80 -37 -117c47 -43 70 -97 70 -161c0 -67 -26 -124 -78 -169c-51 -45 -117 -68 -196 -68s-145 23 -197 68c-51 45 -77 102 -77 169zM228 256c29 -28 83 -28 111 0c29 28 29 78 0 105c-28 28 -82 28 -111 0c-28 -27 -28 -77 0 -105zM283 566
c-47 0 -87 39 -87 87s39 86 87 86c49 0 87 -38 87 -86s-38 -87 -87 -87z" />
    <glyph glyph-name="uni2155.mono" horiz-adv-x="855" 
d="M626 -8c-43 0 -81 9 -114 27v99c35 -21 71 -32 109 -32c45 0 67 15 67 45c0 27 -26 44 -69 44c-32 0 -64 -5 -96 -15l26 218h220v-89h-141l-3 -36c4 1 10 2 19 2c89 0 151 -47 151 -124c0 -45 -16 -79 -49 -103s-73 -36 -120 -36zM263 322h-106v270l-100 -49v103l104 54
h102v-378zM256 0h-120l425 700h120z" />
    <glyph glyph-name="fiveeighths.mono" horiz-adv-x="898" 
d="M528 111c0 39 30 77 66 90c-28 13 -48 44 -48 76c0 64 60 109 143 109s143 -45 143 -109c0 -32 -20 -63 -48 -76c36 -13 66 -50 66 -90c0 -37 -16 -67 -47 -88s-69 -31 -114 -31s-83 10 -114 31s-47 51 -47 88zM743 120c0 25 -22 44 -54 44s-54 -19 -54 -44
c0 -24 22 -42 54 -42s54 18 54 42zM734 265c6 48 -96 48 -90 0c0 -20 20 -36 45 -36s45 16 45 36zM162 314c-43 0 -81 9 -114 27v99c35 -21 71 -32 109 -32c45 0 67 15 67 45c0 27 -26 44 -69 44c-32 0 -64 -5 -96 -15l26 218h220v-89h-141l-3 -36c4 1 10 2 19 2
c89 0 151 -47 151 -124c0 -45 -16 -79 -49 -103s-73 -36 -120 -36zM279 0h-120l425 700h120z" />
    <glyph glyph-name="U_M" horiz-adv-x="1271" 
d="M58 293v407h180v-416c0 -89 54 -132 127 -132c75 0 127 43 127 132v416h179l177 -269l178 269h178v-700h-179v427l-125 -188h-99l-129 188v-134c0 -97 -29 -173 -87 -227c-58 -53 -131 -80 -220 -80s-162 27 -220 80c-58 54 -87 130 -87 227z" />
    <glyph glyph-name="M_B" horiz-adv-x="1245" 
d="M960 0h-360v427l-125 -188h-99l-129 188v-427h-180v700h179l177 -269l178 269h340c128 0 218 -62 218 -177c0 -68 -39 -116 -82 -136c34 -8 65 -28 92 -61s41 -74 41 -125c0 -60 -23 -109 -69 -146c-45 -37 -106 -55 -181 -55zM780 299v-149h145c55 0 88 27 88 74
s-35 75 -88 75h-145zM780 554v-122h134c44 0 72 23 72 60c0 39 -28 62 -72 62h-134z" />
    </font>
</defs>
</svg>
