<?xml version="1.0" standalone="no"?>
<!DOCTYPE svg PUBLIC "-//W3C//DTD SVG 1.1//EN" "http://www.w3.org/Graphics/SVG/1.1/DTD/svg11.dtd" >
<svg xmlns="http://www.w3.org/2000/svg" xmlns:xlink="http://www.w3.org/1999/xlink" version="1.1">
<metadata>
Created by FontForge 20170910 at Wed Dec 11 00:49:55 2013
 By Jimmy Wärting
Copyright (c) 2012 by Vyacheslav Kirilenko, Gayane Bagdasaryan. All rights reserved.
</metadata>
<defs>
<font id="Geometria-ExtraLight" horiz-adv-x="624" >
  <font-face 
    font-family="Geometria"
    font-weight="200"
    font-stretch="normal"
    units-per-em="1000"
    panose-1="2 11 3 3 2 2 4 2 2 4"
    ascent="777"
    descent="-223"
    x-height="473"
    cap-height="700"
    bbox="-401 -208 1439 918"
    underline-thickness="50"
    underline-position="-100"
    unicode-range="U+0020-FB04"
  />
<missing-glyph horiz-adv-x="639" 
d="M510 0h-406v700h406v-700zM133 673v-646h347v646h-347z" />
    <glyph glyph-name="ij" unicode="ij" horiz-adv-x="470" 
d="M244 -203c-26 0 -50 5 -71 16v32c22 -13 44 -19 67 -19c61 0 92 36 92 107v540h31v-547c0 -93 -51 -129 -119 -129zM326 623c-11 12 -11 32 0 43c12 12 32 12 43 0c12 -11 12 -31 0 -43c-11 -11 -31 -11 -43 0zM137 0h-31v473h31v-473zM100 623c-11 12 -11 32 0 43
c12 12 32 12 43 0c12 -11 12 -31 0 -43c-11 -11 -31 -11 -43 0z" />
    <glyph glyph-name="f_f" unicode="ff" horiz-adv-x="643" 
d="M161 444v-444h-31v444h-101v29h101v77c0 103 32 156 119 156c32 0 61 -7 87 -20v-30c-27 14 -54 21 -83 21c-60 0 -92 -39 -92 -107v-97h246v77c0 103 32 156 119 156c32 0 61 -7 87 -20v-30c-27 14 -54 21 -83 21c-60 0 -92 -39 -92 -107v-97h175v-29h-175v-444h-31v444
h-246z" />
    <glyph glyph-name="fi" unicode="fi" horiz-adv-x="546" 
d="M161 445v-445h-31v445h-101v28h101v104c0 81 43 129 119 129c32 0 61 -7 87 -20v-30c-27 14 -54 21 -83 21c-60 0 -92 -39 -92 -107v-97h278v-473h-31v445h-247zM402 623c-11 12 -11 32 0 43c12 12 32 12 43 0c12 -11 12 -31 0 -43c-11 -11 -31 -11 -43 0z" />
    <glyph glyph-name="fl" unicode="fl" horiz-adv-x="587" 
d="M506 -12c-55 0 -98 28 -98 107v350h-247v-445h-31v445h-101v28h101v104c0 81 43 129 119 129c32 0 61 -7 87 -20v-30c-27 14 -54 21 -83 21c-60 0 -92 -39 -92 -107v-97h247v227h31v-601c0 -55 24 -82 73 -82c19 0 37 5 54 16v-31c-17 -9 -37 -14 -60 -14z" />
    <glyph glyph-name="f_f_i" unicode="ffi" horiz-adv-x="823" 
d="M716 0h-31v444h-247v-444h-31v444h-246v-444h-31v444h-101v29h101v104c0 81 43 129 119 129c32 0 61 -7 87 -20v-30c-27 14 -54 21 -83 21c-60 0 -92 -39 -92 -107v-97h246v104c0 81 43 129 119 129c32 0 61 -7 87 -20v-30c-27 14 -54 21 -83 21c-60 0 -92 -39 -92 -107
v-97h278v-473zM679 623c-11 12 -11 32 0 43c12 12 32 12 43 0c12 -11 12 -31 0 -43c-11 -11 -31 -11 -43 0z" />
    <glyph glyph-name="f_f_l" unicode="ffl" horiz-adv-x="864" 
d="M783 -12c-55 0 -98 28 -98 107v349h-247v-444h-31v444h-246v-444h-31v444h-101v29h101v104c0 81 43 129 119 129c32 0 61 -7 87 -20v-30c-27 14 -54 21 -83 21c-60 0 -92 -39 -92 -107v-97h246v104c0 81 43 129 119 129c32 0 61 -7 87 -20v-30c-27 14 -54 21 -83 21
c-60 0 -92 -39 -92 -107v-97h247v227h31v-601c0 -55 24 -82 73 -82c19 0 37 5 54 16v-31c-16 -9 -36 -14 -60 -14z" />
    <glyph glyph-name=".notdef" horiz-adv-x="639" 
d="M510 0h-406v700h406v-700zM133 673v-646h347v646h-347z" />
    <glyph glyph-name="NULL" horiz-adv-x="0" 
 />
    <glyph glyph-name="CR" horiz-adv-x="333" 
 />
    <glyph glyph-name="space" unicode=" " horiz-adv-x="272" 
 />
    <glyph glyph-name="exclam" unicode="!" horiz-adv-x="253" 
d="M142 205h-30l-4 495h36zM148 6c-28 -27 -71 16 -44 44c28 28 72 -16 44 -44z" />
    <glyph glyph-name="quotedbl" unicode="&#x22;" horiz-adv-x="330" 
d="M94 473h-29v227h29v-227zM269 473h-30v227h30v-227z" />
    <glyph glyph-name="numbersign" unicode="#" horiz-adv-x="691" 
d="M179 0h-30l33 204h-149l5 29h148l37 233h-148l5 29h147l33 205h30l-34 -205h225l33 205h29l-32 -205h149l-5 -29h-148l-37 -233h148l-4 -29h-149l-33 -204h-29l32 204h-224zM253 466l-38 -233h225l37 233h-224z" />
    <glyph glyph-name="dollar" unicode="$" horiz-adv-x="620" 
d="M286 815h31v-103c75 -3 140 -23 194 -59v-33c-63 42 -133 63 -208 63c-129 0 -198 -64 -198 -141c0 -215 445 -100 445 -362c0 -58 -23 -104 -68 -138c-45 -33 -100 -51 -165 -54v-103h-31v103c-99 3 -191 36 -238 75v36c53 -44 146 -82 250 -82c65 0 117 15 158 45
s61 69 61 118c0 43 -18 78 -41 99c-11 11 -28 22 -49 32s-41 18 -58 23c-17 6 -39 13 -68 21c-64 17 -93 27 -137 47c-62 30 -86 69 -91 140c0 92 76 165 213 170v103z" />
    <glyph glyph-name="percent" unicode="%" horiz-adv-x="818" 
d="M224 0h-32l403 700h32zM220 380c-47 0 -85 16 -116 48c-31 33 -46 72 -46 119c0 46 15 85 46 117s69 48 116 48c46 0 84 -16 115 -49c31 -32 47 -71 47 -116c0 -47 -16 -86 -47 -119c-31 -32 -69 -48 -115 -48zM597 -12c-46 0 -84 16 -115 48s-46 71 -46 118
c0 46 15 85 46 117c31 33 69 49 115 49c47 0 85 -16 116 -49c31 -32 47 -71 47 -117c0 -47 -16 -86 -47 -118s-69 -48 -116 -48zM220 408c76 0 132 59 132 139c0 39 -13 71 -38 97c-25 27 -56 40 -94 40c-77 0 -132 -60 -132 -137c0 -80 55 -139 132 -139zM597 16
c76 0 132 59 132 139c0 39 -13 71 -38 97c-25 27 -56 40 -94 40c-77 0 -132 -60 -132 -137c0 -80 55 -139 132 -139z" />
    <glyph glyph-name="ampersand" unicode="&#x26;" horiz-adv-x="698" 
d="M606 369h31c-2 -103 -30 -189 -84 -260l115 -109h-45l-90 85c-60 -65 -137 -97 -230 -97c-69 0 -127 20 -175 59c-47 39 -71 93 -71 160c0 51 15 95 45 130s62 59 97 72c-38 45 -57 91 -57 137c0 51 17 91 52 121s80 45 133 45c65 0 120 -19 167 -56v-38
c-49 43 -103 65 -162 65c-95 0 -157 -51 -157 -136c0 -50 26 -100 77 -149l280 -268c47 64 72 144 74 239zM303 17c83 0 152 30 208 90l-290 279c-35 -10 -65 -31 -92 -63c-27 -31 -40 -70 -40 -116c0 -59 20 -105 61 -139s92 -51 153 -51z" />
    <glyph glyph-name="quotesingle" unicode="'" horiz-adv-x="155" 
d="M94 473h-29v227h29v-227z" />
    <glyph glyph-name="parenleft" unicode="(" horiz-adv-x="349" 
d="M290 -206h-34c-101 127 -151 280 -151 457s50 329 151 455h34c-103 -133 -155 -284 -155 -455s52 -323 155 -457z" />
    <glyph glyph-name="parenright" unicode=")" horiz-adv-x="349" 
d="M93 -206h-34c103 134 155 286 155 457s-52 322 -155 455h34c101 -126 151 -278 151 -455s-50 -330 -151 -457z" />
    <glyph glyph-name="asterisk" unicode="*" horiz-adv-x="426" 
d="M227 352h-27v152l-130 -77l-14 24l131 75l-131 75l14 24l130 -77v152h27l-1 -152l131 77l13 -24l-132 -75l132 -75l-13 -24l-131 77z" />
    <glyph glyph-name="plus" unicode="+" horiz-adv-x="600" 
d="M315 93h-29v215h-216v29h216v216h29v-216h215v-29h-215v-215z" />
    <glyph glyph-name="comma" unicode="," horiz-adv-x="208" 
d="M58 -152h-29l75 228h39z" />
    <glyph glyph-name="hyphen" unicode="-" horiz-adv-x="478" 
d="M371 254h-264v29h264v-29z" />
    <glyph glyph-name="period" unicode="." horiz-adv-x="215" 
d="M129 6c-25 -27 -73 16 -43 44c12 12 32 12 43 0c12 -12 12 -32 0 -44z" />
    <glyph glyph-name="slash" unicode="/" horiz-adv-x="492" 
d="M53 -140h-34l421 932h34z" />
    <glyph glyph-name="zero" unicode="0" horiz-adv-x="705" 
d="M352 -12c-81 0 -147 34 -199 103s-78 155 -78 259s26 190 78 259s118 103 199 103s147 -34 199 -103c53 -69 79 -155 79 -259s-26 -190 -78 -259s-119 -103 -200 -103zM352 683c-71 0 -129 -32 -176 -95s-70 -142 -70 -238c0 -97 23 -176 69 -239c47 -63 106 -94 177 -94
s130 31 177 94s70 143 70 239s-23 175 -70 238s-106 95 -177 95z" />
    <glyph glyph-name="one" unicode="1" horiz-adv-x="359" 
d="M234 0h-31v665l-163 -103v33l165 105h29v-700z" />
    <glyph glyph-name="two" unicode="2" horiz-adv-x="568" 
d="M511 0h-465l1 25l254 247c55 53 93 96 116 131s35 74 35 117c0 48 -17 87 -51 117c-33 31 -77 46 -132 46c-89 0 -150 -38 -209 -101v41c57 59 127 89 211 89c63 0 115 -18 154 -53s59 -80 59 -137c0 -47 -12 -89 -36 -127s-65 -84 -122 -139l-233 -227h419z" />
    <glyph glyph-name="three" unicode="3" horiz-adv-x="563" 
d="M239 -12c-79 0 -146 16 -199 49v34c52 -36 118 -54 197 -54c61 0 114 18 159 54s68 84 68 143c0 56 -20 101 -60 135c-40 35 -94 52 -161 52c-20 0 -42 -2 -65 -7v24l251 253h-355v29h399v-23l-244 -249c3 1 9 1 17 1c70 0 129 -19 177 -56s72 -90 72 -159
c0 -66 -25 -120 -74 -163c-49 -42 -109 -63 -182 -63z" />
    <glyph glyph-name="four" unicode="4" 
d="M463 0h-30v209h-391v25l393 466h28v-462h124v-29h-124v-209zM433 653l-352 -415h352v415z" />
    <glyph glyph-name="five" unicode="5" horiz-adv-x="598" 
d="M258 -12c-75 0 -138 15 -189 45v33c52 -33 115 -49 190 -49c68 0 124 19 168 56c44 38 66 85 66 140c0 53 -21 98 -62 134c-41 37 -95 55 -162 55c-59 0 -115 -9 -169 -28l47 326h329v-29h-303l-38 -258c39 12 86 18 139 18c71 0 131 -21 179 -62c49 -41 73 -93 73 -156
c0 -65 -25 -118 -76 -161s-115 -64 -192 -64z" />
    <glyph glyph-name="six" unicode="6" horiz-adv-x="637" 
d="M334 -12c-156 0 -256 120 -256 328c0 115 27 210 81 284c54 75 125 112 214 112c55 0 102 -14 143 -42v-31c-43 29 -91 44 -142 44c-57 0 -106 -18 -147 -54c-81 -72 -114 -180 -117 -303v-31c36 80 120 142 227 142c63 0 116 -21 160 -62c45 -41 67 -93 67 -156
c0 -66 -22 -121 -66 -165s-99 -66 -164 -66zM335 17c55 0 102 19 140 57c38 39 57 87 57 144s-19 103 -58 138s-86 53 -142 53c-50 0 -95 -15 -135 -46c-39 -30 -67 -69 -84 -116c17 -141 93 -230 222 -230z" />
    <glyph glyph-name="seven" unicode="7" horiz-adv-x="539" 
d="M147 0h-35l341 671h-404v29h441v-23z" />
    <glyph glyph-name="eight" unicode="8" horiz-adv-x="647" 
d="M323 -12c-73 0 -135 18 -185 55c-49 37 -74 84 -74 141c0 96 67 163 176 188c-84 23 -137 83 -137 164c0 52 21 94 62 127c42 33 95 49 158 49c64 0 117 -16 158 -49c42 -33 63 -75 63 -127c0 -81 -54 -141 -138 -164c109 -25 176 -92 176 -188c0 -57 -25 -104 -74 -141
s-111 -55 -185 -55zM323 16c65 0 119 16 162 49c44 33 66 73 66 122s-22 90 -65 121c-43 32 -98 48 -163 48s-119 -16 -162 -48c-43 -31 -65 -72 -65 -121s22 -89 65 -122c44 -33 98 -49 162 -49zM323 384c55 0 100 14 136 42s54 64 54 108s-18 80 -54 108s-81 42 -136 42
c-54 0 -99 -14 -136 -42c-36 -28 -54 -64 -54 -108c0 -43 18 -79 54 -108c37 -28 82 -42 136 -42z" />
    <glyph glyph-name="nine" unicode="9" horiz-adv-x="637" 
d="M304 712c157 0 257 -120 257 -328c0 -115 -27 -209 -82 -284c-54 -75 -125 -112 -214 -112c-55 0 -103 14 -142 42v31c43 -29 91 -44 142 -44c57 0 106 18 147 54c81 72 115 180 116 303c1 7 1 17 1 31c-36 -80 -121 -142 -228 -142c-63 0 -116 20 -161 61
c-44 41 -66 93 -66 156c0 66 22 121 66 165c44 45 99 67 164 67zM304 683c-55 0 -102 -19 -141 -58c-38 -38 -57 -86 -57 -143s19 -103 58 -138s87 -53 143 -53c49 0 94 15 134 45c40 31 68 70 85 117c-17 141 -93 230 -222 230z" />
    <glyph glyph-name="colon" unicode=":" horiz-adv-x="215" 
d="M129 403c-25 -27 -73 16 -43 44c12 12 32 12 43 0c12 -12 12 -32 0 -44zM129 6c-25 -27 -73 16 -43 44c12 12 32 12 43 0c12 -12 12 -32 0 -44z" />
    <glyph glyph-name="semicolon" unicode=";" horiz-adv-x="208" 
d="M58 -152h-29l75 228h39zM130 403c-25 -27 -73 16 -43 44c12 12 32 12 43 0c12 -12 12 -32 0 -44z" />
    <glyph glyph-name="less" unicode="&#x3c;" horiz-adv-x="600" 
d="M530 134v-32l-460 202v30l460 203v-33l-421 -185z" />
    <glyph glyph-name="equal" unicode="=" horiz-adv-x="600" 
d="M530 193h-460v29h460v-29zM530 421h-460v29h460v-29z" />
    <glyph glyph-name="greater" unicode="&#x3e;" horiz-adv-x="600" 
d="M530 304l-460 -202v32l422 185l-422 185v33l460 -203v-30z" />
    <glyph glyph-name="question" unicode="?" horiz-adv-x="462" 
d="M219 205h-30v142c48 10 91 31 128 62c38 31 57 70 57 115s-16 81 -49 110s-74 43 -124 43c-64 0 -120 -20 -169 -59v32c47 37 104 56 172 56c57 0 104 -17 143 -51c39 -33 59 -77 59 -130c0 -48 -18 -89 -54 -123c-35 -33 -80 -58 -133 -75v-122zM226 6
c-25 -27 -73 16 -43 44c12 12 32 12 43 0c12 -12 12 -32 0 -44z" />
    <glyph glyph-name="at" unicode="@" horiz-adv-x="972" 
d="M487 -164c-119 0 -221 42 -305 127c-83 84 -125 188 -125 311s42 227 125 311c84 85 186 127 305 127c122 0 224 -40 305 -120c82 -79 123 -177 123 -292c0 -65 -15 -119 -44 -163s-68 -66 -117 -66c-58 0 -95 28 -111 85c-32 -44 -93 -85 -165 -85
c-58 0 -106 20 -143 60s-55 88 -55 143s18 103 55 143s85 60 143 60c64 0 117 -27 160 -80v64h30v-263c0 -69 36 -106 89 -106c41 0 74 20 99 59c25 40 38 90 38 150c0 107 -38 198 -114 275s-174 116 -293 116c-116 0 -213 -41 -292 -123c-78 -81 -117 -180 -117 -295
s39 -214 117 -295c78 -82 175 -123 292 -123c71 0 138 16 201 49v-22c-61 -31 -128 -47 -201 -47zM483 100c63 0 123 37 155 92v164c-32 55 -94 92 -155 92c-49 0 -89 -17 -122 -50s-49 -75 -49 -124s16 -90 49 -124c33 -33 73 -50 122 -50z" />
    <glyph glyph-name="A" unicode="A" horiz-adv-x="739" 
d="M68 0h-32l319 705h29l319 -705h-33l-97 213h-408zM369 662l-192 -421h385z" />
    <glyph glyph-name="B" unicode="B" horiz-adv-x="726" 
d="M433 0h-324v700h288c124 0 195 -64 195 -168c0 -77 -35 -127 -104 -152c105 -15 167 -86 167 -187c0 -117 -82 -193 -222 -193zM140 360v-331h289c123 0 193 61 193 166c0 104 -70 165 -193 165h-289zM140 671v-283h254c107 0 167 52 167 141c0 91 -62 142 -167 142h-254
z" />
    <glyph glyph-name="C" unicode="C" horiz-adv-x="694" 
d="M425 -12c-99 0 -181 34 -248 102c-66 69 -99 155 -99 260c0 104 33 190 99 259c67 69 149 103 248 103c78 0 145 -19 202 -57v-34c-62 41 -129 62 -201 62c-89 0 -164 -32 -225 -96c-61 -63 -91 -142 -91 -237s30 -175 91 -238s137 -95 226 -95c83 0 156 25 217 75v-36
c-59 -45 -132 -68 -219 -68z" />
    <glyph glyph-name="D" unicode="D" horiz-adv-x="774" 
d="M319 0h-210v700h210c112 0 203 -32 272 -97c69 -64 104 -148 104 -253s-35 -189 -104 -254c-69 -64 -160 -96 -272 -96zM140 671v-642h171c108 0 194 29 257 88s95 136 95 233s-32 174 -95 233s-149 88 -257 88h-171z" />
    <glyph glyph-name="E" unicode="E" horiz-adv-x="635" 
d="M586 0h-477v700h460v-29h-429v-280h356v-29h-356v-333h446v-29z" />
    <glyph glyph-name="F" unicode="F" horiz-adv-x="614" 
d="M140 0h-31v700h456v-29h-425v-289h354v-29h-354v-353z" />
    <glyph glyph-name="G" unicode="G" horiz-adv-x="783" 
d="M425 -12c-98 0 -180 34 -247 103s-100 155 -100 259s33 190 99 259c67 69 149 103 248 103c93 0 169 -25 230 -75v-35c-65 54 -142 81 -229 81c-89 0 -164 -32 -225 -95s-91 -143 -91 -238s30 -175 91 -238s135 -95 224 -95c93 0 180 31 233 90v293h32v-306
c-65 -71 -154 -106 -265 -106z" />
    <glyph glyph-name="H" unicode="H" horiz-adv-x="759" 
d="M140 0h-31v700h31v-309h479v309h31v-700h-31v362h-479v-362z" />
    <glyph glyph-name="I" unicode="I" horiz-adv-x="262" 
d="M147 0h-32v700h32v-700z" />
    <glyph glyph-name="J" unicode="J" horiz-adv-x="500" 
d="M194 -12c-63 0 -115 16 -156 48v37c41 -37 92 -56 153 -56c119 0 178 63 178 189v494h31v-498c0 -141 -73 -214 -206 -214z" />
    <glyph glyph-name="K" unicode="K" horiz-adv-x="634" 
d="M632 0h-47l-408 365v26l353 309h46l-367 -321zM109 700h31v-700h-31v700z" />
    <glyph glyph-name="L" unicode="L" horiz-adv-x="589" 
d="M555 0h-446v700h31v-671h415v-29z" />
    <glyph glyph-name="M" unicode="M" horiz-adv-x="846" 
d="M140 0h-31v700h32l282 -368l283 368h31v-700h-31v650l-271 -351h-23l-272 351v-650z" />
    <glyph glyph-name="N" unicode="N" horiz-adv-x="774" 
d="M140 0h-31v700h29l496 -645v645h31v-700h-29l-496 646v-646z" />
    <glyph glyph-name="O" unicode="O" horiz-adv-x="847" 
d="M424 17c88 0 162 32 222 95s90 143 90 238s-30 174 -90 237c-60 64 -134 96 -222 96c-89 0 -163 -32 -224 -96c-60 -63 -90 -142 -90 -237s30 -174 90 -238c61 -63 135 -95 224 -95zM424 -12c-99 0 -181 34 -247 103s-99 155 -99 259c0 103 33 189 99 258
c67 69 149 104 247 104s180 -34 245 -103c66 -69 99 -155 99 -259s-33 -190 -99 -259c-65 -69 -147 -103 -245 -103z" />
    <glyph glyph-name="P" unicode="P" horiz-adv-x="664" 
d="M140 0h-31v700h288c135 0 212 -72 212 -184s-77 -185 -212 -185h-257v-331zM140 671v-311h255c115 0 182 56 182 155s-67 156 -182 156h-255z" />
    <glyph glyph-name="Q" unicode="Q" horiz-adv-x="847" 
d="M664 -108c-57 0 -118 34 -183 101c-20 -3 -39 -5 -57 -5c-99 0 -181 34 -247 103s-99 155 -99 259c0 103 33 189 99 258c67 69 149 104 247 104s180 -34 245 -103c66 -69 99 -155 99 -259c0 -87 -23 -162 -70 -225c-46 -63 -106 -105 -181 -125c49 -53 98 -79 148 -79
c33 0 61 8 83 24v-33c-23 -13 -51 -20 -84 -20zM424 17c88 0 162 32 222 95c61 64 91 143 91 238s-30 174 -91 237c-60 64 -134 96 -222 96c-89 0 -163 -32 -224 -96c-60 -63 -90 -142 -90 -237s30 -174 90 -238c61 -63 135 -95 224 -95z" />
    <glyph glyph-name="R" unicode="R" horiz-adv-x="735" 
d="M140 0h-31v700h308c131 0 208 -71 208 -180c0 -100 -65 -169 -178 -180l233 -340h-38l-232 338h-270v-338zM140 671v-304h274c113 0 179 55 179 152s-66 152 -179 152h-274z" />
    <glyph glyph-name="S" unicode="S" horiz-adv-x="620" 
d="M301 -12c-52 0 -101 7 -147 22c-45 15 -81 33 -106 53v36c53 -44 146 -82 250 -82c65 0 117 15 158 45s62 69 62 118c0 43 -19 78 -42 99c-11 11 -28 22 -49 32s-41 18 -58 23c-17 6 -39 13 -68 21c-64 17 -93 27 -137 47c-62 30 -86 69 -91 140c0 48 20 88 59 121
s96 49 169 49c81 0 151 -20 210 -59v-33c-63 42 -133 63 -208 63c-129 0 -198 -64 -198 -141c0 -39 17 -70 38 -90c38 -31 91 -48 151 -64c8 -2 14 -3 22 -6l69 -21c15 -5 35 -14 60 -26c25 -11 44 -23 56 -36c25 -24 49 -67 49 -119c0 -61 -24 -108 -73 -142
c-49 -33 -107 -50 -176 -50z" />
    <glyph glyph-name="T" unicode="T" horiz-adv-x="616" 
d="M323 0h-31v671h-255v29h542v-29h-256v-671z" />
    <glyph glyph-name="U" unicode="U" horiz-adv-x="746" 
d="M98 299v401h31v-401c0 -177 92 -282 244 -282s245 105 245 282v401h31v-401c0 -99 -25 -176 -76 -230c-50 -54 -117 -81 -200 -81s-150 27 -200 81s-75 131 -75 230z" />
    <glyph glyph-name="V" unicode="V" horiz-adv-x="745" 
d="M387 -4h-29l-316 704h33l298 -660l297 660h33z" />
    <glyph glyph-name="W" unicode="W" horiz-adv-x="1034" 
d="M321 -4h-28l-245 704h35l225 -652l196 653h26l197 -653l225 652h34l-245 -704h-28l-196 646z" />
    <glyph glyph-name="X" unicode="X" horiz-adv-x="694" 
d="M79 0h-39l287 381l-239 319h39l220 -293l221 293h38l-239 -318l288 -382h-41l-268 356z" />
    <glyph glyph-name="Y" unicode="Y" horiz-adv-x="635" 
d="M334 0h-32v326l-273 374h38l251 -343l251 343h38l-273 -374v-326z" />
    <glyph glyph-name="Z" unicode="Z" horiz-adv-x="638" 
d="M581 0h-524v22l467 649h-439v29h481v-22l-465 -649h480v-29z" />
    <glyph glyph-name="bracketleft" unicode="[" horiz-adv-x="359" 
d="M319 -206h-216v912h216v-27h-186v-858h186v-27z" />
    <glyph glyph-name="backslash" unicode="\" horiz-adv-x="491" 
d="M475 -140h-34l-421 932h34z" />
    <glyph glyph-name="bracketright" unicode="]" horiz-adv-x="359" 
d="M40 706h216v-912h-216v27h186v858h-186v27z" />
    <glyph glyph-name="asciicircum" unicode="^" horiz-adv-x="494" 
d="M96 350h-32l168 354h29l169 -354h-32l-151 320z" />
    <glyph glyph-name="underscore" unicode="_" horiz-adv-x="601" 
d="M593 -116h-585v29h585v-29z" />
    <glyph glyph-name="grave" unicode="`" horiz-adv-x="521" 
d="M183 700h42l97 -126h-36z" />
    <glyph glyph-name="a" unicode="a" horiz-adv-x="586" 
d="M245 17c84 0 158 46 199 102v89c-60 40 -122 60 -186 60c-107 0 -174 -50 -174 -126c0 -42 16 -73 47 -94s69 -31 114 -31zM236 -12c-50 0 -93 13 -130 40c-36 27 -54 65 -54 114c0 45 19 82 56 110c37 29 85 43 142 43c67 0 132 -18 194 -55v74c0 93 -64 142 -177 142
c-60 0 -114 -17 -162 -51v33c45 31 100 47 167 47c120 0 203 -55 203 -171v-218c0 -45 21 -72 54 -72c10 0 19 2 27 6v-27c-7 -4 -17 -6 -32 -6c-43 0 -76 30 -79 86c-53 -63 -123 -95 -209 -95z" />
    <glyph glyph-name="b" unicode="b" horiz-adv-x="628" 
d="M325 -12c-85 0 -152 34 -201 102v-90h-31v700h31v-317c49 68 116 102 201 102c73 0 132 -25 177 -74c46 -49 69 -107 69 -175c0 -67 -23 -126 -69 -175c-45 -49 -104 -73 -177 -73zM321 17c62 0 114 21 155 63c42 42 63 94 63 156s-21 114 -63 156c-41 43 -93 64 -155 64
c-85 0 -164 -50 -197 -121v-197c33 -71 112 -121 197 -121z" />
    <glyph glyph-name="c" unicode="c" horiz-adv-x="525" 
d="M306 -12c-73 0 -133 24 -180 73c-46 49 -69 107 -69 175s23 126 70 175s107 74 180 74c54 0 102 -12 143 -37v-33c-43 27 -90 41 -141 41c-62 0 -114 -21 -157 -63c-42 -42 -63 -94 -63 -157c0 -62 21 -114 63 -156c43 -42 95 -63 157 -63c59 0 109 15 151 46v-32
c-43 -29 -95 -43 -154 -43z" />
    <glyph glyph-name="d" unicode="d" horiz-adv-x="629" 
d="M304 -12c-73 0 -132 24 -178 73s-69 108 -69 175c0 68 23 126 69 175s105 74 178 74c85 0 157 -41 200 -102v317h31v-700h-31v90c-43 -61 -115 -102 -200 -102zM308 17c42 0 81 11 117 34c37 23 63 52 79 87v197c-16 35 -42 64 -79 87c-36 23 -75 34 -117 34
c-62 0 -114 -21 -156 -64c-42 -42 -63 -94 -63 -156c0 -61 21 -113 63 -156c42 -42 94 -63 156 -63z" />
    <glyph glyph-name="e" unicode="e" horiz-adv-x="566" 
d="M316 -12c-74 0 -136 23 -185 70s-74 107 -74 178s22 131 66 178c45 47 101 71 170 71c80 0 142 -36 173 -87s44 -102 44 -150v-10h-421c1 -65 23 -118 65 -159c43 -41 98 -62 165 -62c61 0 112 15 153 44v-31c-39 -28 -91 -42 -156 -42zM90 264h389
c-3 73 -46 192 -187 192c-60 0 -108 -20 -144 -59c-35 -39 -55 -83 -58 -133z" />
    <glyph glyph-name="f" unicode="f" horiz-adv-x="366" 
d="M161 444v-444h-31v444h-101v29h101v104c0 81 43 129 119 129c32 0 61 -7 87 -20v-30c-27 14 -54 21 -83 21c-60 0 -92 -39 -92 -107v-97h175v-29h-175z" />
    <glyph glyph-name="g" unicode="g" horiz-adv-x="628" 
d="M289 -203c-67 0 -128 15 -183 45v32c53 -32 113 -48 180 -48c132 0 218 66 218 191v72c-43 -61 -115 -101 -200 -101c-73 0 -132 25 -178 74s-69 108 -69 176c0 67 23 125 69 174s105 73 178 73c87 0 154 -34 200 -101v89h31v-456c0 -71 -23 -126 -68 -163
c-45 -38 -105 -57 -178 -57zM308 17c84 0 164 49 196 120v199c-32 71 -112 120 -196 120c-62 0 -114 -21 -156 -63s-63 -94 -63 -155c0 -62 21 -114 63 -157s94 -64 156 -64z" />
    <glyph glyph-name="h" unicode="h" horiz-adv-x="600" 
d="M124 342v-342h-31v700h31v-315c43 53 120 100 207 100c123 0 185 -71 185 -198v-287h-31v281c0 117 -54 175 -161 175c-39 0 -77 -12 -115 -35s-66 -49 -85 -79z" />
    <glyph glyph-name="i" unicode="i" horiz-adv-x="244" 
d="M137 0h-31v473h31v-473zM100 623c-11 12 -11 32 0 43c12 12 32 12 43 0c12 -11 12 -31 0 -43c-11 -11 -31 -11 -43 0z" />
    <glyph glyph-name="j" unicode="j" horiz-adv-x="244" 
d="M18 -203c-26 0 -50 5 -71 16v32c22 -13 44 -19 67 -19c61 0 92 36 92 107v540h31v-547c0 -93 -51 -129 -119 -129zM100 623c-11 12 -11 32 0 43c12 12 32 12 43 0c12 -11 12 -31 0 -43c-11 -11 -31 -11 -43 0z" />
    <glyph glyph-name="k" unicode="k" horiz-adv-x="505" 
d="M486 0h-47l-281 246v25l245 202h47l-262 -214zM93 700h31v-700h-31v700z" />
    <glyph glyph-name="l" unicode="l" horiz-adv-x="272" 
d="M191 -12c-55 0 -98 28 -98 107v605h31v-601c0 -55 25 -82 74 -82c18 0 36 5 53 16v-31c-16 -9 -36 -14 -60 -14z" />
    <glyph glyph-name="m" unicode="m" horiz-adv-x="910" 
d="M124 0h-31v473h31v-83c37 55 102 95 185 95c81 0 133 -36 155 -107c40 61 107 107 195 107c108 0 167 -67 167 -190v-295h-31v290c0 69 -21 118 -53 139s-57 27 -89 27c-75 0 -146 -49 -179 -116c1 -11 2 -29 2 -52v-288h-31v290c0 69 -21 119 -54 139
c-32 21 -57 27 -89 27c-71 0 -142 -46 -178 -110v-346z" />
    <glyph glyph-name="n" unicode="n" horiz-adv-x="600" 
d="M124 342v-342h-31v473h31v-88c43 53 120 100 207 100c123 0 185 -71 185 -198v-287h-31v281c0 117 -54 175 -161 175c-39 0 -77 -12 -115 -35s-66 -49 -85 -79z" />
    <glyph glyph-name="o" unicode="o" horiz-adv-x="613" 
d="M307 17c61 0 113 21 154 63c42 43 63 95 63 156c0 62 -21 114 -63 156c-41 43 -93 64 -154 64c-62 0 -114 -21 -156 -64c-41 -42 -62 -94 -62 -156s21 -114 62 -156c42 -42 94 -63 156 -63zM57 236c0 68 23 126 69 175c47 49 107 74 181 74c73 0 133 -25 179 -74
c47 -49 70 -107 70 -175c0 -67 -23 -126 -70 -175c-46 -49 -106 -73 -179 -73s-133 24 -180 73s-70 108 -70 175z" />
    <glyph glyph-name="p" unicode="p" horiz-adv-x="628" 
d="M124 -200h-31v673h31v-90c49 68 116 102 201 102c73 0 132 -25 177 -74c46 -49 69 -107 69 -175c0 -67 -23 -126 -69 -175c-45 -49 -104 -73 -177 -73c-85 0 -152 34 -201 102v-290zM321 17c62 0 114 21 155 63c42 42 63 94 63 156s-21 114 -63 156
c-41 43 -93 64 -155 64c-85 0 -164 -49 -197 -121v-197c33 -71 112 -121 197 -121z" />
    <glyph glyph-name="q" unicode="q" horiz-adv-x="629" 
d="M535 -200h-31v290c-43 -61 -115 -102 -200 -102c-73 0 -132 24 -178 73s-69 108 -69 175c0 68 23 126 69 175s105 74 178 74c85 0 157 -41 200 -102v90h31v-673zM308 17c42 0 81 11 117 34c37 23 63 52 79 87v197c-32 72 -112 121 -196 121c-62 0 -114 -21 -156 -64
c-41 -42 -62 -94 -62 -156s21 -114 62 -156c42 -42 94 -63 156 -63z" />
    <glyph glyph-name="r" unicode="r" horiz-adv-x="333" 
d="M124 0h-31v473h31v-103c15 29 40 56 75 79c35 24 74 36 118 36v-31c-43 0 -83 -13 -118 -39s-60 -56 -75 -91v-324z" />
    <glyph glyph-name="s" unicode="s" horiz-adv-x="497" 
d="M241 -12c-79 0 -158 26 -195 53v34c43 -29 116 -58 195 -58c99 0 164 40 164 103c0 36 -25 63 -76 82c-13 5 -46 14 -97 27c-43 11 -61 16 -96 31c-44 20 -73 51 -73 102c0 75 65 123 180 123c69 0 126 -15 169 -44v-33c-50 32 -106 48 -167 48c-100 0 -151 -39 -151 -95
c0 -32 14 -54 47 -71c17 -8 32 -14 44 -18l58 -16l30 -8l32 -8c11 -3 46 -13 57 -20c11 -5 36 -16 45 -28c17 -19 29 -39 29 -72c0 -41 -19 -74 -56 -97s-84 -35 -139 -35z" />
    <glyph glyph-name="t" unicode="t" horiz-adv-x="419" 
d="M154 114v330h-125v29h125v157h31v-157h184v-29h-184v-322c0 -73 32 -105 93 -105c27 0 55 8 84 24v-30c-22 -15 -52 -23 -89 -23c-75 0 -119 45 -119 126z" />
    <glyph glyph-name="u" unicode="u" horiz-adv-x="603" 
d="M271 -12c-123 0 -185 71 -185 198v287h31v-281c0 -117 54 -175 161 -175c39 0 78 11 116 34s66 50 84 80v342h31v-473h-31v88c-43 -55 -119 -100 -207 -100z" />
    <glyph glyph-name="v" unicode="v" horiz-adv-x="548" 
d="M289 -4h-29l-225 477h35l205 -435l205 435h34z" />
    <glyph glyph-name="w" unicode="w" horiz-adv-x="809" 
d="M251 -4h-28l-176 477h33l157 -428l154 430h27l154 -430l157 428h32l-175 -477h-27l-155 431z" />
    <glyph glyph-name="x" unicode="x" horiz-adv-x="533" 
d="M77 0h-38l211 253l-182 220h40l162 -195l163 195h38l-182 -219l211 -254h-39l-192 231z" />
    <glyph glyph-name="y" unicode="y" horiz-adv-x="534" 
d="M95 -203c-27 0 -49 5 -64 15v30c19 -11 40 -16 61 -16c33 0 60 14 81 41s47 74 76 141l-220 465h35l202 -428l196 428h34l-243 -528c-45 -99 -89 -148 -158 -148z" />
    <glyph glyph-name="z" unicode="z" horiz-adv-x="485" 
d="M446 0h-407v21l347 423h-322v29h366v-21l-345 -423h361v-29z" />
    <glyph glyph-name="braceleft" unicode="{" horiz-adv-x="336" 
d="M296 -206h-44c-75 0 -119 43 -119 122v177c0 33 0 47 -5 75c-7 36 -27 63 -72 67v29c39 4 56 28 67 58c3 9 6 20 7 34c3 28 3 40 3 68v160c0 79 44 122 119 122h44v-28h-40c-62 0 -93 -32 -93 -97v-161c0 -89 -12 -149 -63 -170c52 -21 63 -69 63 -152v-179
c0 -65 31 -97 93 -97h40v-28z" />
    <glyph glyph-name="bar" unicode="|" horiz-adv-x="280" 
d="M155 -111h-30v871h30v-871z" />
    <glyph glyph-name="braceright" unicode="}" horiz-adv-x="336" 
d="M84 -206h-44v28h40c62 0 93 32 93 97v179c0 83 11 131 63 152c-51 21 -63 81 -63 170v161c0 65 -31 97 -93 97h-40v28h44c75 0 119 -43 119 -122v-160v-34c1 -17 3 -51 10 -68c11 -30 28 -54 67 -58v-29c-29 -3 -49 -18 -60 -34c-5 -8 -9 -19 -12 -33
c-5 -28 -5 -42 -5 -75v-177c0 -79 -44 -122 -119 -122z" />
    <glyph glyph-name="asciitilde" unicode="~" horiz-adv-x="554" 
d="M386 219c-25 0 -62 8 -109 24c-47 17 -84 25 -109 25c-42 0 -75 -14 -98 -43v32c16 23 55 38 98 38c25 0 62 -8 109 -24s84 -24 109 -24c41 0 74 14 98 41v-32c-19 -25 -52 -37 -98 -37z" />
    <glyph glyph-name="nbspace" unicode="&#xa0;" horiz-adv-x="272" 
 />
    <glyph glyph-name="exclamdown" unicode="&#xa1;" horiz-adv-x="253" 
d="M142 275l2 -475h-36l4 475h30zM126 416c-17 0 -30 12 -30 31c0 25 33 43 52 21c19 -17 6 -52 -22 -52z" />
    <glyph glyph-name="cent" unicode="&#xa2;" horiz-adv-x="524" 
d="M321 -12v-104h-28v104c-70 3 -127 29 -171 77c-43 48 -65 105 -65 171s22 123 65 171c44 49 101 75 171 78v105h28v-105c47 -2 90 -14 129 -37v-33c-43 27 -91 41 -142 41c-62 0 -114 -21 -156 -63s-63 -94 -63 -157c0 -62 21 -114 63 -156s94 -63 156 -63
c59 0 109 15 151 46v-32c-41 -27 -87 -41 -138 -43z" />
    <glyph glyph-name="sterling" unicode="&#xa3;" horiz-adv-x="575" 
d="M516 0h-446v29h25c27 0 41 22 41 65v216h-66v29h66v156c0 139 79 217 215 217c65 0 119 -16 164 -48v-34c-41 35 -96 53 -163 53c-119 0 -185 -68 -185 -192v-152h305v-29h-305v-229c0 -23 -7 -40 -21 -52h370v-29z" />
    <glyph glyph-name="currency" unicode="&#xa4;" horiz-adv-x="554" 
d="M149 204l-64 -64l-20 19l64 64c-31 37 -46 80 -46 128c0 47 15 90 46 127l-64 64l20 20l64 -64c35 31 78 47 128 47s92 -16 127 -47l64 64l21 -20l-66 -64c31 -36 46 -78 46 -127s-15 -91 -44 -128l64 -64l-21 -19l-64 63c-35 -31 -78 -46 -127 -46c-50 0 -93 16 -128 47
zM277 185c46 0 85 16 116 48c32 32 48 71 48 118s-16 86 -48 118c-31 32 -70 48 -116 48c-47 0 -86 -16 -117 -48s-47 -71 -47 -118s16 -86 47 -118s70 -48 117 -48z" />
    <glyph glyph-name="yen" unicode="&#xa5;" horiz-adv-x="598" 
d="M315 0h-31v160h-219v29h219v125h-219v29h206l-242 357h36l234 -344l234 344h37l-242 -357h205v-29h-218v-125h218v-29h-218v-160z" />
    <glyph glyph-name="brokenbar" unicode="&#xa6;" horiz-adv-x="280" 
d="M155 -111h-30v353h30v-353zM155 407h-30v353h30v-353z" />
    <glyph glyph-name="section" unicode="&#xa7;" horiz-adv-x="640" 
d="M323 -151c-75 0 -147 19 -214 57v33c69 -41 142 -61 217 -61c107 0 176 44 176 111c0 29 -19 56 -40 72c-10 8 -26 17 -48 26c-21 10 -39 17 -54 22l-65 21c-145 47 -219 95 -219 180c0 69 48 119 124 143c-62 31 -93 71 -93 120c0 79 75 139 210 139
c77 0 148 -19 214 -57v-34c-69 41 -141 62 -216 62c-107 0 -177 -44 -177 -111c0 -29 19 -56 39 -73c11 -8 27 -17 48 -26s39 -17 54 -22l66 -20c145 -47 219 -96 219 -180c0 -69 -48 -119 -124 -143c63 -31 94 -71 94 -120c0 -79 -76 -139 -211 -139zM406 123
c77 17 128 64 128 127c0 59 -46 93 -109 121c-23 11 -44 19 -63 25l-68 21l-60 21c-77 -17 -128 -66 -128 -127c0 -44 26 -80 75 -105c25 -13 48 -23 70 -32c22 -8 49 -17 82 -27s58 -18 73 -24z" />
    <glyph glyph-name="dieresis" unicode="&#xa8;" horiz-adv-x="521" 
d="M169 613c-17 0 -30 13 -30 30c0 16 13 29 30 29c16 0 29 -13 29 -29c0 -17 -13 -30 -29 -30zM354 613c-17 0 -30 13 -30 30c0 16 13 29 30 29c16 0 29 -13 29 -29c0 -17 -13 -30 -29 -30z" />
    <glyph glyph-name="copyright" unicode="&#xa9;" horiz-adv-x="881" 
d="M78 351c0 99 35 184 106 255s156 106 256 106c101 0 186 -35 256 -106c71 -71 106 -156 106 -257c0 -99 -35 -184 -106 -255s-156 -106 -256 -106s-185 35 -256 106s-106 156 -106 257zM782 349c0 95 -33 176 -100 243s-147 100 -242 100s-175 -33 -242 -100
c-66 -67 -99 -148 -99 -243s33 -175 99 -242c67 -66 147 -99 242 -99s175 33 242 99c67 67 100 147 100 242zM460 160c-52 0 -96 18 -131 54c-35 37 -53 82 -53 136s18 99 53 135c35 37 79 55 131 55c38 0 72 -9 101 -27v-31c-29 19 -62 29 -101 29c-44 0 -81 -15 -110 -45
s-44 -69 -44 -116s15 -86 44 -116s66 -45 111 -45c44 0 81 13 112 38v-31c-30 -24 -68 -36 -113 -36z" />
    <glyph glyph-name="ordfeminine" unicode="&#xaa;" horiz-adv-x="522" 
d="M220 346c61 0 119 35 148 76v64c-44 29 -90 44 -139 44c-79 0 -129 -37 -129 -92c0 -61 53 -92 120 -92zM211 318c-38 0 -71 11 -99 32s-42 51 -42 88c0 73 65 120 152 120c51 0 99 -14 146 -42v52c0 72 -44 108 -133 108c-47 0 -88 -13 -125 -39v31c33 24 76 36 130 36
c95 0 158 -42 158 -133v-166c0 -35 14 -53 41 -53c8 0 15 1 20 4v-25c-5 -4 -14 -6 -27 -6c-33 0 -61 22 -62 65c-42 -48 -95 -72 -159 -72z" />
    <glyph glyph-name="guillemotleft" unicode="&#xab;" horiz-adv-x="526" 
d="M252 42h-38l-159 185v19l159 185h38l-166 -195zM471 42h-38l-159 185v19l159 185h38l-166 -195z" />
    <glyph glyph-name="logicalnot" unicode="&#xac;" horiz-adv-x="547" 
d="M477 160h-30v178h-377v29h407v-207z" />
    <glyph glyph-name="uni00AD" unicode="&#xad;" horiz-adv-x="469" 
d="M362 253h-255v29h255v-29z" />
    <glyph glyph-name="registered" unicode="&#xae;" horiz-adv-x="881" 
d="M344 168h-29v367h166c71 0 113 -39 113 -98c0 -52 -32 -88 -89 -96l122 -173h-34l-121 171h-128v-171zM344 509v-145h136c55 0 85 26 85 73c0 45 -30 72 -85 72h-136zM782 349c0 95 -33 176 -100 243s-147 100 -242 100s-175 -33 -242 -100c-66 -67 -99 -148 -99 -243
s33 -175 99 -242c67 -66 147 -99 242 -99s175 33 242 99c67 67 100 147 100 242zM78 351c0 99 35 184 106 255s156 106 256 106c101 0 186 -35 256 -106c71 -71 106 -156 106 -257c0 -99 -35 -184 -106 -255s-156 -106 -256 -106s-185 35 -256 106s-106 156 -106 257z" />
    <glyph glyph-name="overscore" unicode="&#xaf;" horiz-adv-x="520" 
d="M370 629h-219v28h219v-28z" />
    <glyph glyph-name="degree" unicode="&#xb0;" horiz-adv-x="445" 
d="M222 447c33 0 61 11 84 34s35 52 35 85s-12 62 -35 85s-51 35 -84 35s-61 -12 -84 -35s-34 -52 -34 -85s11 -62 34 -85s51 -34 84 -34zM119 669c29 29 63 43 103 43s74 -14 103 -43s44 -63 44 -103s-15 -74 -44 -103s-63 -43 -103 -43s-74 14 -103 43s-43 63 -43 103
s14 74 43 103z" />
    <glyph glyph-name="plusminus" unicode="&#xb1;" horiz-adv-x="600" 
d="M315 185h-29v174h-216v29h216v173h29v-173h215v-29h-215v-174zM530 75h-460v29h460v-29z" />
    <glyph glyph-name="twosuperior" unicode="&#xb2;" horiz-adv-x="355" 
d="M301 322h-255v23l134 127c53 52 77 83 77 126c0 45 -35 78 -90 78c-41 0 -79 -16 -114 -49v33c32 29 71 44 116 44c68 0 118 -43 118 -104c0 -49 -25 -88 -84 -145l-110 -106h208v-27z" />
    <glyph glyph-name="threesuperior" unicode="&#xb3;" horiz-adv-x="319" 
d="M136 318c-44 0 -81 9 -110 28v30c33 -21 70 -31 109 -31c60 0 112 39 112 95s-41 91 -109 91c-14 0 -27 -2 -39 -6v23l123 125h-179v27h222v-21l-121 -123c73 -1 133 -40 133 -116c0 -72 -60 -122 -141 -122z" />
    <glyph glyph-name="acute" unicode="&#xb4;" horiz-adv-x="515" 
d="M236 574h-36l97 126h42z" />
    <glyph glyph-name="mu" unicode="&#xb5;" horiz-adv-x="610" 
d="M125 -200h-32v673h32v-282c0 -116 54 -174 161 -174c39 0 78 11 116 34s66 50 83 80v342h31v-473h-31v88c-43 -55 -119 -100 -207 -100c-74 0 -125 26 -153 79v-267z" />
    <glyph glyph-name="paragraph" unicode="&#xb6;" horiz-adv-x="493" 
d="M383 0h-31v333h-87c-133 0 -211 72 -211 183c0 112 78 184 211 184h118v-700z" />
    <glyph glyph-name="middot" unicode="&#xb7;" horiz-adv-x="215" 
d="M129 352c-25 -27 -73 16 -43 44c12 12 32 12 43 0c12 -12 12 -32 0 -44z" />
    <glyph glyph-name="cedilla" unicode="&#xb8;" horiz-adv-x="464" 
d="M193 -124h-39l85 128h29z" />
    <glyph glyph-name="onesuperior" unicode="&#xb9;" horiz-adv-x="248" 
d="M161 322h-30v344l-106 -65v32l108 67h28v-378z" />
    <glyph glyph-name="ordmasculine" unicode="&#xba;" horiz-adv-x="473" 
d="M238 346c46 0 85 16 116 47s47 70 47 117s-16 86 -47 118s-70 48 -116 48c-47 0 -86 -16 -118 -48c-31 -31 -47 -71 -47 -118s16 -86 47 -117c32 -31 71 -47 118 -47zM41 510c0 53 18 98 55 136c37 39 84 58 142 58c57 0 104 -19 140 -57s54 -84 54 -137
s-18 -99 -54 -136c-35 -37 -82 -56 -140 -56s-105 19 -142 56s-55 83 -55 136z" />
    <glyph glyph-name="guillemotright" unicode="&#xbb;" horiz-adv-x="526" 
d="M471 246v-19l-159 -185h-38l166 194l-166 195h38zM252 246v-19l-159 -185h-38l166 194l-166 195h38z" />
    <glyph glyph-name="onequarter" unicode="&#xbc;" horiz-adv-x="720" 
d="M155 0h-35l404 700h34zM161 322h-30v344l-106 -65v32l108 67h28v-378zM632 0h-30v106h-205v23l208 249h27v-245h63v-27h-63v-106zM602 332l-167 -199h167v199z" />
    <glyph glyph-name="onehalf" unicode="&#xbd;" horiz-adv-x="793" 
d="M155 0h-35l404 700h34zM161 322h-30v344l-106 -65v32l108 67h28v-378zM739 0h-255v23l134 127c53 52 77 83 77 126c0 45 -35 78 -90 78c-41 0 -79 -16 -114 -49v33c32 29 71 44 116 44c68 0 118 -43 118 -104c0 -49 -25 -88 -84 -145l-110 -106h208v-27z" />
    <glyph glyph-name="threequarters" unicode="&#xbe;" horiz-adv-x="775" 
d="M210 0h-35l404 700h34zM687 0h-30v106h-205v23l208 249h27v-245h63v-27h-63v-106zM657 332l-167 -199h167v199zM136 318c-44 0 -81 9 -110 28v30c33 -21 70 -31 109 -31c60 0 112 39 112 95s-41 91 -109 91c-14 0 -27 -2 -39 -6v23l123 125h-179v27h222v-21l-121 -123
c73 -1 133 -40 133 -116c0 -72 -60 -122 -141 -122z" />
    <glyph glyph-name="questiondown" unicode="&#xbf;" horiz-adv-x="462" 
d="M243 275h30v-123c-49 -11 -92 -31 -129 -62s-56 -69 -56 -114c0 -44 16 -80 49 -108c33 -29 74 -43 124 -43c64 0 120 20 169 59v-32c-47 -37 -104 -56 -172 -56c-57 0 -105 17 -144 50s-58 77 -58 130c0 47 18 88 53 121c36 34 81 59 134 76v102zM257 416
c-16 0 -30 14 -30 31s14 30 30 30c40 0 40 -61 0 -61z" />
    <glyph glyph-name="Agrave" unicode="&#xc0;" horiz-adv-x="739" 
d="M68 0h-32l319 705h29l319 -705h-33l-97 213h-408zM369 662l-192 -421h385zM247 891h42l97 -126h-36z" />
    <glyph glyph-name="Aacute" unicode="&#xc1;" horiz-adv-x="739" 
d="M68 0h-32l319 705h29l319 -705h-33l-97 213h-408zM369 662l-192 -421h385zM384 765h-37l97 126h42z" />
    <glyph glyph-name="Acircumflex" unicode="&#xc2;" horiz-adv-x="739" 
d="M68 0h-32l319 705h29l319 -705h-33l-97 213h-408zM369 662l-192 -421h385zM249 765l103 126h36l104 -126h-38l-84 103l-84 -103h-37z" />
    <glyph glyph-name="Atilde" unicode="&#xc3;" horiz-adv-x="739" 
d="M68 0h-32l319 705h29l319 -705h-33l-97 213h-408zM369 662l-192 -421h385zM442 780c-19 0 -44 11 -76 32c-31 22 -54 33 -68 33c-27 0 -41 -20 -44 -60h-26c1 56 28 88 68 88c19 0 44 -11 76 -33c33 -21 56 -32 69 -32c25 0 40 20 44 60h26c-1 -55 -28 -88 -69 -88z" />
    <glyph glyph-name="Adieresis" unicode="&#xc4;" horiz-adv-x="739" 
d="M68 0h-32l319 705h29l319 -705h-33l-97 213h-408zM369 662l-192 -421h385zM247 823c0 39 59 39 59 0c4 -37 -62 -37 -59 0zM432 823c0 39 60 39 60 0c0 -37 -60 -37 -60 0z" />
    <glyph glyph-name="Aring" unicode="&#xc5;" horiz-adv-x="739" 
d="M68 0h-32l319 705h29l319 -705h-33l-97 213h-408zM369 662l-192 -421h385zM434 764c-35 -35 -91 -35 -127 0c-36 36 -36 92 0 127c36 36 92 36 127 0c35 -35 35 -91 0 -127zM371 762c37 0 66 29 66 66s-29 67 -66 67c-39 0 -67 -30 -67 -67s28 -66 67 -66z" />
    <glyph glyph-name="AE" unicode="&#xc6;" horiz-adv-x="1014" 
d="M43 0h-35l451 700h488v-29h-426v-280h353v-29h-353v-333h444v-29h-475v213h-309zM478 676l-280 -435h292v435h-12z" />
    <glyph glyph-name="Ccedilla" unicode="&#xc7;" horiz-adv-x="694" 
d="M374 -124h-39l74 113c-95 4 -174 40 -237 107c-63 68 -94 153 -94 254c0 104 33 190 99 259c67 69 149 103 248 103c78 0 145 -19 202 -57v-34c-62 41 -129 62 -201 62c-89 0 -163 -32 -224 -95s-91 -143 -91 -238s30 -175 91 -238s136 -95 225 -95c83 0 156 25 217 75
v-36c-54 -42 -122 -65 -205 -68z" />
    <glyph glyph-name="Egrave" unicode="&#xc8;" horiz-adv-x="635" 
d="M586 0h-477v700h460v-29h-429v-280h356v-29h-356v-333h446v-29zM225 891h42l97 -126h-36z" />
    <glyph glyph-name="Eacute" unicode="&#xc9;" horiz-adv-x="635" 
d="M586 0h-477v700h460v-29h-429v-280h356v-29h-356v-333h446v-29zM333 765h-37l97 126h42z" />
    <glyph glyph-name="Ecircumflex" unicode="&#xca;" horiz-adv-x="635" 
d="M227 765l103 126h36l104 -126h-38l-84 103l-84 -103h-37zM586 0h-477v700h460v-29h-429v-280h356v-29h-356v-333h446v-29z" />
    <glyph glyph-name="Edieresis" unicode="&#xcb;" horiz-adv-x="635" 
d="M586 0h-477v700h460v-29h-429v-280h356v-29h-356v-333h446v-29zM225 823c0 39 59 39 59 0c4 -37 -62 -37 -59 0zM410 823c0 39 60 39 60 0c0 -37 -60 -37 -60 0z" />
    <glyph glyph-name="Igrave" unicode="&#xcc;" horiz-adv-x="262" 
d="M7 891h42l97 -126h-36zM147 0h-32v700h32v-700z" />
    <glyph glyph-name="Iacute" unicode="&#xcd;" horiz-adv-x="262" 
d="M146 765h-37l97 126h42zM147 0h-32v700h32v-700z" />
    <glyph glyph-name="Icircumflex" unicode="&#xce;" horiz-adv-x="262" 
d="M11 765l103 126h36l104 -126h-38l-84 103l-84 -103h-37zM147 0h-32v700h32v-700z" />
    <glyph glyph-name="Idieresis" unicode="&#xcf;" horiz-adv-x="261" 
d="M146 0h-32v700h32v-700zM8 823c0 39 59 39 59 0c4 -37 -62 -37 -59 0zM193 823c0 39 60 39 60 0c0 -37 -60 -37 -60 0z" />
    <glyph glyph-name="Eth" unicode="&#xd0;" horiz-adv-x="817" 
d="M362 0h-210v338h-121v29h121v333h210c113 0 203 -32 272 -97c69 -64 104 -148 104 -253s-35 -189 -104 -254c-69 -64 -159 -96 -272 -96zM184 338v-309h170c108 0 194 29 257 88s95 136 95 233s-32 174 -95 233s-149 88 -257 88h-170v-304h175v-29h-175z" />
    <glyph glyph-name="Ntilde" unicode="&#xd1;" horiz-adv-x="774" 
d="M140 0h-31v700h29l496 -645v645h31v-700h-29l-496 646v-646zM460 780c-19 0 -44 11 -76 32c-31 22 -54 33 -68 33c-27 0 -41 -20 -44 -60h-26c1 56 28 88 68 88c19 0 44 -11 76 -33c33 -21 56 -32 69 -32c25 0 40 20 44 60h26c-1 -55 -28 -88 -69 -88z" />
    <glyph glyph-name="Ograve" unicode="&#xd2;" horiz-adv-x="847" 
d="M424 17c88 0 162 32 222 95s90 143 90 238s-30 174 -90 237c-60 64 -134 96 -222 96c-89 0 -163 -32 -224 -96c-60 -63 -90 -142 -90 -237s30 -174 90 -238c61 -63 135 -95 224 -95zM424 -12c-99 0 -181 34 -247 103s-99 155 -99 259c0 103 33 189 99 258
c67 69 149 104 247 104s180 -34 245 -103c66 -69 99 -155 99 -259s-33 -190 -99 -259c-65 -69 -147 -103 -245 -103zM302 891h42l97 -126h-36z" />
    <glyph glyph-name="Oacute" unicode="&#xd3;" horiz-adv-x="847" 
d="M424 17c88 0 162 32 222 95s90 143 90 238s-30 174 -90 237c-60 64 -134 96 -222 96c-89 0 -163 -32 -224 -96c-60 -63 -90 -142 -90 -237s30 -174 90 -238c61 -63 135 -95 224 -95zM424 -12c-99 0 -181 34 -247 103s-99 155 -99 259c0 103 33 189 99 258
c67 69 149 104 247 104s180 -34 245 -103c66 -69 99 -155 99 -259s-33 -190 -99 -259c-65 -69 -147 -103 -245 -103zM428 765h-37l97 126h42z" />
    <glyph glyph-name="Ocircumflex" unicode="&#xd4;" horiz-adv-x="847" 
d="M303 765l103 126h36l104 -126h-38l-84 103l-84 -103h-37zM424 17c88 0 162 32 222 95s90 143 90 238s-30 174 -90 237c-60 64 -134 96 -222 96c-89 0 -163 -32 -224 -96c-60 -63 -90 -142 -90 -237s30 -174 90 -238c61 -63 135 -95 224 -95zM424 -12
c-99 0 -181 34 -247 103s-99 155 -99 259c0 103 33 189 99 258c67 69 149 104 247 104s180 -34 245 -103c66 -69 99 -155 99 -259s-33 -190 -99 -259c-65 -69 -147 -103 -245 -103z" />
    <glyph glyph-name="Otilde" unicode="&#xd5;" horiz-adv-x="847" 
d="M424 17c88 0 162 32 222 95s90 143 90 238s-30 174 -90 237c-60 64 -134 96 -222 96c-89 0 -163 -32 -224 -96c-60 -63 -90 -142 -90 -237s30 -174 90 -238c61 -63 135 -95 224 -95zM424 -12c-99 0 -181 34 -247 103s-99 155 -99 259c0 103 33 189 99 258
c67 69 149 104 247 104s180 -34 245 -103c66 -69 99 -155 99 -259s-33 -190 -99 -259c-65 -69 -147 -103 -245 -103zM497 780c-19 0 -44 11 -76 32c-31 22 -54 33 -68 33c-27 0 -41 -20 -44 -60h-26c1 56 28 88 68 88c19 0 44 -11 76 -33c33 -21 56 -32 69 -32
c25 0 40 20 44 60h26c-1 -55 -28 -88 -69 -88z" />
    <glyph glyph-name="Odieresis" unicode="&#xd6;" horiz-adv-x="847" 
d="M424 17c88 0 162 32 222 95s90 143 90 238s-30 174 -90 237c-60 64 -134 96 -222 96c-89 0 -163 -32 -224 -96c-60 -63 -90 -142 -90 -237s30 -174 90 -238c61 -63 135 -95 224 -95zM424 -12c-99 0 -181 34 -247 103s-99 155 -99 259c0 103 33 189 99 258
c67 69 149 104 247 104s180 -34 245 -103c66 -69 99 -155 99 -259s-33 -190 -99 -259c-65 -69 -147 -103 -245 -103zM302 823c0 39 59 39 59 0c4 -37 -62 -37 -59 0zM487 823c0 39 60 39 60 0c0 -37 -60 -37 -60 0z" />
    <glyph glyph-name="multiply" unicode="&#xd7;" horiz-adv-x="506" 
d="M254 301l-164 -161l-20 19l163 163l-163 163l20 20l163 -163l163 163l20 -20l-163 -163l162 -162l-19 -20z" />
    <glyph glyph-name="Oslash" unicode="&#xd8;" horiz-adv-x="847" 
d="M424 -12c-84 0 -157 25 -219 76l-53 -64h-37l69 83c-71 69 -106 158 -106 267c0 103 33 189 99 258c67 69 149 104 247 104c82 0 154 -26 216 -77l54 65h37l-69 -84c71 -71 106 -159 106 -266c0 -104 -33 -190 -99 -259c-65 -69 -147 -103 -245 -103zM424 17
c88 0 162 32 222 95c61 64 91 143 91 238c0 96 -32 177 -95 242l-417 -503c57 -48 123 -72 199 -72zM110 350c0 -98 32 -179 95 -242l416 503c-57 48 -123 72 -197 72c-89 0 -163 -32 -224 -96c-60 -63 -90 -142 -90 -237z" />
    <glyph glyph-name="Ugrave" unicode="&#xd9;" horiz-adv-x="746" 
d="M98 299v401h31v-401c0 -177 92 -282 244 -282s245 105 245 282v401h31v-401c0 -99 -25 -176 -76 -230c-50 -54 -117 -81 -200 -81s-150 27 -200 81s-75 131 -75 230zM266 891h42l97 -126h-36z" />
    <glyph glyph-name="Uacute" unicode="&#xda;" horiz-adv-x="746" 
d="M98 299v401h31v-401c0 -177 92 -282 244 -282s245 105 245 282v401h31v-401c0 -99 -25 -176 -76 -230c-50 -54 -117 -81 -200 -81s-150 27 -200 81s-75 131 -75 230zM385 765h-37l97 126h42z" />
    <glyph glyph-name="Ucircumflex" unicode="&#xdb;" horiz-adv-x="746" 
d="M253 765l103 126h36l104 -126h-38l-84 103l-84 -103h-37zM98 299v401h31v-401c0 -177 92 -282 244 -282s245 105 245 282v401h31v-401c0 -99 -25 -176 -76 -230c-50 -54 -117 -81 -200 -81s-150 27 -200 81s-75 131 -75 230z" />
    <glyph glyph-name="Udieresis" unicode="&#xdc;" horiz-adv-x="746" 
d="M98 299v401h31v-401c0 -177 92 -282 244 -282s245 105 245 282v401h31v-401c0 -99 -25 -176 -76 -230c-50 -54 -117 -81 -200 -81s-150 27 -200 81s-75 131 -75 230zM251 823c0 39 59 39 59 0c4 -37 -62 -37 -59 0zM436 823c0 39 60 39 60 0c0 -37 -60 -37 -60 0z" />
    <glyph glyph-name="Yacute" unicode="&#xdd;" horiz-adv-x="635" 
d="M334 0h-32v326l-273 374h38l251 -343l251 343h38l-273 -374v-326zM324 765h-37l97 126h42z" />
    <glyph glyph-name="Thorn" unicode="&#xde;" horiz-adv-x="664" 
d="M140 0h-31v700h31v-166h257c135 0 212 -72 212 -184s-77 -185 -212 -185h-257v-165zM140 505v-311h255c116 0 182 57 182 156s-67 155 -182 155h-255z" />
    <glyph glyph-name="germandbls" unicode="&#xdf;" horiz-adv-x="608" 
d="M333 -12c-37 0 -68 6 -95 17v32c28 -13 59 -20 92 -20c55 0 101 16 136 47s53 73 53 125c0 56 -20 101 -61 136c-40 35 -94 53 -161 53h-23v29h23c97 0 158 47 158 131c0 40 -15 73 -45 99c-30 27 -69 40 -116 40c-50 0 -91 -16 -123 -49c-31 -32 -47 -74 -47 -127v-501
h-31v501c0 61 18 111 55 148c37 38 85 57 146 57c56 0 102 -16 137 -48c36 -31 54 -71 54 -118c0 -79 -38 -127 -115 -145c104 -20 181 -93 181 -209c0 -60 -21 -108 -62 -144s-93 -54 -156 -54z" />
    <glyph glyph-name="agrave" unicode="&#xe0;" horiz-adv-x="586" 
d="M245 17c84 0 158 46 199 102v89c-60 40 -122 60 -186 60c-107 0 -174 -50 -174 -126c0 -42 16 -73 47 -94s69 -31 114 -31zM236 -12c-50 0 -93 13 -130 40c-36 27 -54 65 -54 114c0 45 19 82 56 110c37 29 85 43 142 43c67 0 132 -18 194 -55v74c0 93 -64 142 -177 142
c-60 0 -114 -17 -162 -51v33c45 31 100 47 167 47c120 0 203 -55 203 -171v-218c0 -45 21 -72 54 -72c10 0 19 2 27 6v-27c-7 -4 -17 -6 -32 -6c-43 0 -76 30 -79 86c-53 -63 -123 -95 -209 -95zM196 700h42l97 -126h-36z" />
    <glyph glyph-name="aacute" unicode="&#xe1;" horiz-adv-x="586" 
d="M245 17c84 0 158 46 199 102v89c-60 40 -122 60 -186 60c-107 0 -174 -50 -174 -126c0 -42 16 -73 47 -94s69 -31 114 -31zM236 -12c-50 0 -93 13 -130 40c-36 27 -54 65 -54 114c0 45 19 82 56 110c37 29 85 43 142 43c67 0 132 -18 194 -55v74c0 93 -64 142 -177 142
c-60 0 -114 -17 -162 -51v33c45 31 100 47 167 47c120 0 203 -55 203 -171v-218c0 -45 21 -72 54 -72c10 0 19 2 27 6v-27c-7 -4 -17 -6 -32 -6c-43 0 -76 30 -79 86c-53 -63 -123 -95 -209 -95zM279 574h-36l97 126h42z" />
    <glyph glyph-name="acircumflex" unicode="&#xe2;" horiz-adv-x="586" 
d="M245 17c84 0 158 46 199 102v89c-60 40 -122 60 -186 60c-107 0 -174 -50 -174 -126c0 -42 16 -73 47 -94s69 -31 114 -31zM236 -12c-50 0 -93 13 -130 40c-36 27 -54 65 -54 114c0 45 19 82 56 110c37 29 85 43 142 43c67 0 132 -18 194 -55v74c0 93 -64 142 -177 142
c-60 0 -114 -17 -162 -51v33c45 31 100 47 167 47c120 0 203 -55 203 -171v-218c0 -45 21 -72 54 -72c10 0 19 2 27 6v-27c-7 -4 -17 -6 -32 -6c-43 0 -76 30 -79 86c-53 -63 -123 -95 -209 -95zM156 574l103 126h36l104 -126h-38l-84 103l-84 -103h-37z" />
    <glyph glyph-name="atilde" unicode="&#xe3;" horiz-adv-x="586" 
d="M245 17c84 0 158 46 199 102v89c-60 40 -122 60 -186 60c-107 0 -174 -50 -174 -126c0 -42 16 -73 47 -94s69 -31 114 -31zM236 -12c-50 0 -93 13 -130 40c-36 27 -54 65 -54 114c0 45 19 82 56 110c37 29 85 43 142 43c67 0 132 -18 194 -55v74c0 93 -64 142 -177 142
c-60 0 -114 -17 -162 -51v33c45 31 100 47 167 47c120 0 203 -55 203 -171v-218c0 -45 21 -72 54 -72c10 0 19 2 27 6v-27c-7 -4 -17 -6 -32 -6c-43 0 -76 30 -79 86c-53 -63 -123 -95 -209 -95zM354 596c-19 0 -44 11 -76 33s-55 33 -69 33c-27 0 -41 -20 -44 -60h-26
c1 55 29 88 69 88c19 0 44 -11 76 -33s55 -33 68 -33c27 0 41 20 44 61h26c-1 -55 -28 -89 -68 -89z" />
    <glyph glyph-name="adieresis" unicode="&#xe4;" horiz-adv-x="586" 
d="M245 17c84 0 158 46 199 102v89c-60 40 -122 60 -186 60c-107 0 -174 -50 -174 -126c0 -42 16 -73 47 -94s69 -31 114 -31zM236 -12c-50 0 -93 13 -130 40c-36 27 -54 65 -54 114c0 45 19 82 56 110c37 29 85 43 142 43c67 0 132 -18 194 -55v74c0 93 -64 142 -177 142
c-60 0 -114 -17 -162 -51v33c45 31 100 47 167 47c120 0 203 -55 203 -171v-218c0 -45 21 -72 54 -72c10 0 19 2 27 6v-27c-7 -4 -17 -6 -32 -6c-43 0 -76 30 -79 86c-53 -63 -123 -95 -209 -95zM188 613c-17 0 -30 13 -30 30c0 16 13 29 30 29c16 0 29 -13 29 -29
c0 -17 -13 -30 -29 -30zM373 613c-17 0 -30 13 -30 30c0 16 13 29 30 29c16 0 29 -13 29 -29c0 -17 -13 -30 -29 -30z" />
    <glyph glyph-name="aring" unicode="&#xe5;" horiz-adv-x="586" 
d="M245 17c84 0 158 46 199 102v89c-60 40 -122 60 -186 60c-107 0 -174 -50 -174 -126c0 -42 16 -73 47 -94s69 -31 114 -31zM236 -12c-50 0 -93 13 -130 40c-36 27 -54 65 -54 114c0 45 19 82 56 110c37 29 85 43 142 43c67 0 132 -18 194 -55v74c0 93 -64 142 -177 142
c-60 0 -114 -17 -162 -51v33c45 31 100 47 167 47c120 0 203 -55 203 -171v-218c0 -45 21 -72 54 -72c10 0 19 2 27 6v-27c-7 -4 -17 -6 -32 -6c-43 0 -76 30 -79 86c-53 -63 -123 -95 -209 -95zM222 706c36 36 92 36 127 0c36 -35 36 -91 0 -127c-35 -36 -91 -36 -127 0
s-36 92 0 127zM286 578c37 0 66 28 66 65s-29 66 -66 66c-36 0 -65 -29 -65 -66s29 -65 65 -65z" />
    <glyph glyph-name="ae" unicode="&#xe6;" horiz-adv-x="952" 
d="M239 -12c-51 0 -95 13 -132 40s-55 64 -55 113c0 46 19 83 56 111c37 29 85 43 142 43c66 0 131 -18 195 -55v73c0 93 -65 143 -178 143c-60 0 -114 -17 -162 -51v33c47 31 104 47 169 47c105 0 182 -45 194 -140c35 85 114 140 211 140c80 0 142 -36 173 -87
s44 -102 44 -150v-10h-421c1 -65 23 -118 65 -159c43 -41 98 -62 165 -62c61 0 112 15 153 44v-31c-39 -28 -91 -42 -156 -42c-100 0 -184 48 -227 127c-49 -71 -131 -127 -236 -127zM245 17c93 0 171 52 218 124c-8 18 -14 40 -18 67c-60 40 -122 60 -187 60
c-107 0 -174 -50 -174 -126c0 -41 16 -73 47 -94s69 -31 114 -31zM476 264h388c0 72 -45 192 -186 192c-60 0 -108 -20 -144 -59c-35 -39 -55 -83 -58 -133z" />
    <glyph glyph-name="ccedilla" unicode="&#xe7;" horiz-adv-x="525" 
d="M334 -10l-65 -116h-51l76 114c-70 3 -127 28 -171 76c-44 49 -66 106 -66 172c0 68 23 126 70 175s107 74 180 74c54 0 102 -12 143 -37v-33c-43 27 -90 41 -141 41c-62 0 -114 -21 -156 -63s-63 -94 -63 -157c0 -62 21 -114 63 -156s94 -63 156 -63c59 0 109 15 151 46
v-32c-33 -23 -75 -36 -126 -41z" />
    <glyph glyph-name="egrave" unicode="&#xe8;" horiz-adv-x="566" 
d="M316 -12c-74 0 -136 23 -185 70s-74 107 -74 178s22 131 66 178c45 47 101 71 170 71c80 0 142 -36 173 -87s44 -102 44 -150v-10h-421c1 -65 23 -118 65 -159c43 -41 98 -62 165 -62c61 0 112 15 153 44v-31c-39 -28 -91 -42 -156 -42zM90 264h389
c-3 73 -46 192 -187 192c-60 0 -108 -20 -144 -59c-35 -39 -55 -83 -58 -133zM200 700h42l97 -126h-36z" />
    <glyph glyph-name="eacute" unicode="&#xe9;" horiz-adv-x="566" 
d="M316 -12c-74 0 -136 23 -185 70s-74 107 -74 178s22 131 66 178c45 47 101 71 170 71c80 0 142 -36 173 -87s44 -102 44 -150v-10h-421c1 -65 23 -118 65 -159c43 -41 98 -62 165 -62c61 0 112 15 153 44v-31c-39 -28 -91 -42 -156 -42zM90 264h389
c-3 73 -46 192 -187 192c-60 0 -108 -20 -144 -59c-35 -39 -55 -83 -58 -133zM293 574h-36l97 126h42z" />
    <glyph glyph-name="ecircumflex" unicode="&#xea;" horiz-adv-x="566" 
d="M316 -12c-74 0 -136 23 -185 70s-74 107 -74 178s22 131 66 178c45 47 101 71 170 71c80 0 142 -36 173 -87s44 -102 44 -150v-10h-421c1 -65 23 -118 65 -159c43 -41 98 -62 165 -62c61 0 112 15 153 44v-31c-39 -28 -91 -42 -156 -42zM90 264h389
c-3 73 -46 192 -187 192c-60 0 -108 -20 -144 -59c-35 -39 -55 -83 -58 -133zM168 574l103 126h36l104 -126h-38l-84 103l-84 -103h-37z" />
    <glyph glyph-name="edieresis" unicode="&#xeb;" horiz-adv-x="566" 
d="M316 -12c-74 0 -136 23 -185 70s-74 107 -74 178s22 131 66 178c45 47 101 71 170 71c80 0 142 -36 173 -87s44 -102 44 -150v-10h-421c1 -65 23 -118 65 -159c43 -41 98 -62 165 -62c61 0 112 15 153 44v-31c-39 -28 -91 -42 -156 -42zM90 264h389
c-3 73 -46 192 -187 192c-60 0 -108 -20 -144 -59c-35 -39 -55 -83 -58 -133zM197 613c-17 0 -30 13 -30 30c0 16 13 29 30 29c16 0 29 -13 29 -29c0 -17 -13 -30 -29 -30zM382 613c-17 0 -30 13 -30 30c0 16 13 29 30 29c16 0 29 -13 29 -29c0 -17 -13 -30 -29 -30z" />
    <glyph glyph-name="igrave" unicode="&#xec;" horiz-adv-x="239" 
d="M4 700h42l97 -126h-36zM136 0h-31v473h31v-473z" />
    <glyph glyph-name="iacute" unicode="&#xed;" horiz-adv-x="239" 
d="M135 574h-36l97 126h42zM136 0h-31v473h31v-473z" />
    <glyph glyph-name="icircumflex" unicode="&#xee;" horiz-adv-x="239" 
d="M-3 574l103 126h36l104 -126h-38l-84 103l-84 -103h-37zM136 0h-31v473h31v-473z" />
    <glyph glyph-name="idieresis" unicode="&#xef;" horiz-adv-x="240" 
d="M28 613c-17 0 -30 13 -30 30c0 16 13 29 30 29c16 0 29 -13 29 -29c0 -17 -13 -30 -29 -30zM213 613c-17 0 -30 13 -30 30c0 16 13 29 30 29c16 0 29 -13 29 -29c0 -17 -13 -30 -29 -30zM136 0h-31v473h31v-473z" />
    <glyph glyph-name="eth" unicode="&#xf0;" horiz-adv-x="591" 
d="M57 225c0 64 22 119 65 165c44 47 100 70 169 70c47 0 89 -11 126 -32l-125 182l-139 -58l-15 22l138 58l-47 68h36l39 -56l126 53l15 -23l-125 -53l149 -220c13 -20 24 -36 31 -49c16 -25 34 -77 34 -126c0 -65 -22 -121 -67 -168c-44 -47 -101 -70 -171 -70
s-127 23 -172 70s-67 102 -67 167zM504 225c0 58 -20 107 -60 146c-40 40 -89 60 -148 60s-108 -20 -148 -60c-39 -39 -59 -88 -59 -146c0 -59 20 -109 59 -149c40 -39 89 -59 148 -59s108 20 148 59c40 40 60 90 60 149z" />
    <glyph glyph-name="ntilde" unicode="&#xf1;" horiz-adv-x="600" 
d="M124 342v-342h-31v473h31v-88c43 53 120 100 207 100c123 0 185 -71 185 -198v-287h-31v281c0 117 -54 175 -161 175c-39 0 -77 -12 -115 -35s-66 -49 -85 -79zM379 596c-19 0 -44 11 -76 33s-55 33 -69 33c-27 0 -41 -20 -44 -60h-26c1 55 29 88 69 88
c19 0 45 -11 77 -33s54 -33 67 -33c27 0 41 20 44 61h26c-1 -55 -28 -89 -68 -89z" />
    <glyph glyph-name="ograve" unicode="&#xf2;" horiz-adv-x="613" 
d="M307 17c61 0 113 21 154 63c42 43 63 95 63 156c0 62 -21 114 -63 156c-41 43 -93 64 -154 64c-62 0 -114 -21 -156 -64c-41 -42 -62 -94 -62 -156s21 -114 62 -156c42 -42 94 -63 156 -63zM57 236c0 68 23 126 69 175c47 49 107 74 181 74c73 0 133 -25 179 -74
c47 -49 70 -107 70 -175c0 -67 -23 -126 -70 -175c-46 -49 -106 -73 -179 -73s-133 24 -180 73s-70 108 -70 175zM206 700h42l97 -126h-36z" />
    <glyph glyph-name="oacute" unicode="&#xf3;" horiz-adv-x="613" 
d="M307 17c61 0 113 21 154 63c42 43 63 95 63 156c0 62 -21 114 -63 156c-41 43 -93 64 -154 64c-62 0 -114 -21 -156 -64c-41 -42 -62 -94 -62 -156s21 -114 62 -156c42 -42 94 -63 156 -63zM57 236c0 68 23 126 69 175c47 49 107 74 181 74c73 0 133 -25 179 -74
c47 -49 70 -107 70 -175c0 -67 -23 -126 -70 -175c-46 -49 -106 -73 -179 -73s-133 24 -180 73s-70 108 -70 175zM315 574h-36l97 126h42z" />
    <glyph glyph-name="ocircumflex" unicode="&#xf4;" horiz-adv-x="613" 
d="M184 574l103 126h36l104 -126h-38l-84 103l-84 -103h-37zM307 17c61 0 113 21 154 63c42 43 63 95 63 156c0 62 -21 114 -63 156c-41 43 -93 64 -154 64c-62 0 -114 -21 -156 -64c-41 -42 -62 -94 -62 -156s21 -114 62 -156c42 -42 94 -63 156 -63zM57 236
c0 68 23 126 69 175c47 49 107 74 181 74c73 0 133 -25 179 -74c47 -49 70 -107 70 -175c0 -67 -23 -126 -70 -175c-46 -49 -106 -73 -179 -73s-133 24 -180 73s-70 108 -70 175z" />
    <glyph glyph-name="otilde" unicode="&#xf5;" horiz-adv-x="613" 
d="M307 17c61 0 113 21 154 63c42 43 63 95 63 156c0 62 -21 114 -63 156c-41 43 -93 64 -154 64c-62 0 -114 -21 -156 -64c-41 -42 -62 -94 -62 -156s21 -114 62 -156c42 -42 94 -63 156 -63zM57 236c0 68 23 126 69 175c47 49 107 74 181 74c73 0 133 -25 179 -74
c47 -49 70 -107 70 -175c0 -67 -23 -126 -70 -175c-46 -49 -106 -73 -179 -73s-133 24 -180 73s-70 108 -70 175zM381 596c-19 0 -44 11 -76 33s-55 33 -69 33c-27 0 -41 -20 -44 -60h-26c1 55 29 88 69 88c19 0 45 -11 77 -33s54 -33 67 -33c27 0 41 20 44 61h26
c-1 -55 -28 -89 -68 -89z" />
    <glyph glyph-name="odieresis" unicode="&#xf6;" horiz-adv-x="613" 
d="M307 17c61 0 113 21 154 63c42 43 63 95 63 156c0 62 -21 114 -63 156c-41 43 -93 64 -154 64c-62 0 -114 -21 -156 -64c-41 -42 -62 -94 -62 -156s21 -114 62 -156c42 -42 94 -63 156 -63zM57 236c0 68 23 126 69 175c47 49 107 74 181 74c73 0 133 -25 179 -74
c47 -49 70 -107 70 -175c0 -67 -23 -126 -70 -175c-46 -49 -106 -73 -179 -73s-133 24 -180 73s-70 108 -70 175zM214 613c-17 0 -30 13 -30 30c0 16 13 29 30 29c16 0 29 -13 29 -29c0 -17 -13 -30 -29 -30zM399 613c-17 0 -30 13 -30 30c0 16 13 29 30 29
c16 0 29 -13 29 -29c0 -17 -13 -30 -29 -30z" />
    <glyph glyph-name="divide" unicode="&#xf7;" horiz-adv-x="568" 
d="M284 97c-20 0 -35 15 -35 35c0 21 15 36 35 36c21 0 36 -15 36 -36c0 -20 -15 -35 -36 -35zM498 308h-428v29h428v-29zM284 478c-20 0 -35 15 -35 34c0 21 15 36 35 36c21 0 36 -15 36 -36c0 -19 -15 -34 -36 -34z" />
    <glyph glyph-name="oslash" unicode="&#xf8;" horiz-adv-x="613" 
d="M307 -12c-58 0 -108 16 -150 47l-29 -35h-36l43 52c-52 49 -78 110 -78 184c0 68 23 126 69 175c47 49 107 74 181 74c56 0 106 -16 149 -47l28 34h36l-43 -51c53 -49 79 -111 79 -185c0 -67 -23 -126 -70 -175c-46 -49 -106 -73 -179 -73zM307 17c61 0 113 21 155 63
c42 43 63 95 63 156c0 64 -23 118 -68 161l-281 -339c38 -27 82 -41 131 -41zM89 236c0 -64 22 -117 66 -160l281 339c-38 27 -81 41 -129 41c-62 0 -114 -21 -156 -64c-41 -42 -62 -94 -62 -156z" />
    <glyph glyph-name="ugrave" unicode="&#xf9;" horiz-adv-x="603" 
d="M271 -12c-123 0 -185 71 -185 198v287h31v-281c0 -117 54 -175 161 -175c39 0 78 11 116 34s66 50 84 80v342h31v-473h-31v88c-43 -55 -119 -100 -207 -100zM199 700h42l97 -126h-36z" />
    <glyph glyph-name="uacute" unicode="&#xfa;" horiz-adv-x="603" 
d="M271 -12c-123 0 -185 71 -185 198v287h31v-281c0 -117 54 -175 161 -175c39 0 78 11 116 34s66 50 84 80v342h31v-473h-31v88c-43 -55 -119 -100 -207 -100zM296 574h-36l97 126h42z" />
    <glyph glyph-name="ucircumflex" unicode="&#xfb;" horiz-adv-x="603" 
d="M175 574l103 126h36l104 -126h-38l-84 103l-84 -103h-37zM271 -12c-123 0 -185 71 -185 198v287h31v-281c0 -117 54 -175 161 -175c39 0 78 11 116 34s66 50 84 80v342h31v-473h-31v88c-43 -55 -119 -100 -207 -100z" />
    <glyph glyph-name="udieresis" unicode="&#xfc;" horiz-adv-x="603" 
d="M271 -12c-123 0 -185 71 -185 198v287h31v-281c0 -117 54 -175 161 -175c39 0 78 11 116 34s66 50 84 80v342h31v-473h-31v88c-43 -55 -119 -100 -207 -100zM206 613c-17 0 -30 13 -30 30c0 16 13 29 30 29c16 0 29 -13 29 -29c0 -17 -13 -30 -29 -30zM391 613
c-17 0 -30 13 -30 30c0 16 13 29 30 29c16 0 29 -13 29 -29c0 -17 -13 -30 -29 -30z" />
    <glyph glyph-name="yacute" unicode="&#xfd;" horiz-adv-x="534" 
d="M95 -203c-27 0 -49 5 -64 15v30c19 -11 40 -16 61 -16c33 0 60 14 81 41s47 74 76 141l-220 465h35l202 -428l196 428h34l-243 -528c-45 -99 -89 -148 -158 -148zM269 574h-36l97 126h42z" />
    <glyph glyph-name="thorn" unicode="&#xfe;" horiz-adv-x="627" 
d="M124 -200h-31v900h31v-319c40 57 114 104 201 104c73 0 132 -25 177 -74s68 -107 68 -175c0 -67 -23 -126 -68 -175s-104 -73 -177 -73c-87 0 -161 47 -201 104v-292zM321 17c62 0 114 21 155 63c42 42 63 94 63 156s-21 114 -63 156c-41 43 -93 64 -155 64
c-80 0 -158 -49 -197 -120v-199c39 -71 117 -120 197 -120z" />
    <glyph glyph-name="ydieresis" unicode="&#xff;" horiz-adv-x="534" 
d="M95 -203c-27 0 -49 5 -64 15v30c19 -11 40 -16 61 -16c33 0 60 14 81 41s47 74 76 141l-220 465h35l202 -428l196 428h34l-243 -528c-45 -99 -89 -148 -158 -148zM171 613c-17 0 -30 13 -30 30c0 16 13 29 30 29c16 0 29 -13 29 -29c0 -17 -13 -30 -29 -30zM356 613
c-17 0 -30 13 -30 30c0 16 13 29 30 29c16 0 29 -13 29 -29c0 -17 -13 -30 -29 -30z" />
    <glyph glyph-name="Amacron" unicode="&#x100;" horiz-adv-x="739" 
d="M68 0h-32l319 705h29l319 -705h-33l-97 213h-408zM369 662l-192 -421h385zM480 814h-220v28h220v-28z" />
    <glyph glyph-name="amacron" unicode="&#x101;" horiz-adv-x="586" 
d="M245 17c84 0 158 46 199 102v89c-60 40 -122 60 -186 60c-107 0 -174 -50 -174 -126c0 -42 16 -73 47 -94s69 -31 114 -31zM236 -12c-50 0 -93 13 -130 40c-36 27 -54 65 -54 114c0 45 19 82 56 110c37 29 85 43 142 43c67 0 132 -18 194 -55v74c0 93 -64 142 -177 142
c-60 0 -114 -17 -162 -51v33c45 31 100 47 167 47c120 0 203 -55 203 -171v-218c0 -45 21 -72 54 -72c10 0 19 2 27 6v-27c-7 -4 -17 -6 -32 -6c-43 0 -76 30 -79 86c-53 -63 -123 -95 -209 -95zM396 629h-219v28h219v-28z" />
    <glyph glyph-name="Abreve" unicode="&#x102;" horiz-adv-x="739" 
d="M68 0h-32l319 705h29l319 -705h-33l-97 213h-408zM369 662l-192 -421h385zM248 887h29c0 -53 40 -95 93 -95c52 0 93 42 93 95h28c-1 -34 -13 -63 -36 -87c-23 -23 -52 -35 -85 -35s-62 12 -86 35c-23 24 -35 53 -36 87z" />
    <glyph glyph-name="abreve" unicode="&#x103;" horiz-adv-x="586" 
d="M245 17c84 0 158 46 199 102v89c-60 40 -122 60 -186 60c-107 0 -174 -50 -174 -126c0 -42 16 -73 47 -94s69 -31 114 -31zM236 -12c-50 0 -93 13 -130 40c-36 27 -54 65 -54 114c0 45 19 82 56 110c37 29 85 43 142 43c67 0 132 -18 194 -55v74c0 93 -64 142 -177 142
c-60 0 -114 -17 -162 -51v33c45 31 100 47 167 47c120 0 203 -55 203 -171v-218c0 -45 21 -72 54 -72c10 0 19 2 27 6v-27c-7 -4 -17 -6 -32 -6c-43 0 -76 30 -79 86c-53 -63 -123 -95 -209 -95zM283 575c-33 0 -62 12 -86 35c-23 24 -35 53 -35 86h28c0 -52 41 -94 93 -94
s92 42 93 94h28c-1 -33 -13 -62 -37 -86c-23 -23 -51 -35 -84 -35z" />
    <glyph glyph-name="Aogonek" unicode="&#x104;" horiz-adv-x="739" 
d="M739 -191c-63 0 -103 41 -103 97c0 33 11 65 34 94l-97 213h-408l-97 -213h-32l319 705h29l319 -705c-26 -29 -39 -59 -39 -90c0 -45 33 -76 80 -76c12 0 25 2 40 6v-25c-13 -4 -28 -6 -45 -6zM369 662l-192 -421h385z" />
    <glyph glyph-name="aogonek" unicode="&#x105;" horiz-adv-x="584" 
d="M593 -188c-63 0 -103 42 -103 97c0 33 11 63 32 88c-43 0 -75 29 -76 86c-55 -63 -125 -95 -210 -95c-50 0 -93 13 -130 40c-36 27 -54 65 -54 114c0 45 19 82 56 110c37 29 85 43 143 43c67 0 131 -18 193 -55v74c0 93 -64 142 -176 142c-61 0 -115 -17 -163 -51v33
c45 31 100 47 167 47c120 0 203 -55 203 -171v-218c0 -45 20 -72 55 -72c10 0 19 2 27 6v-27c-26 -29 -39 -59 -39 -90c0 -45 33 -76 80 -76c12 0 26 2 41 6v-25c-15 -4 -30 -6 -46 -6zM245 17c84 0 158 46 199 102v89c-60 40 -122 60 -186 60c-107 0 -174 -50 -174 -126
c0 -42 16 -73 47 -94s69 -31 114 -31z" />
    <glyph glyph-name="Cacute" unicode="&#x106;" horiz-adv-x="694" 
d="M425 -12c-99 0 -181 34 -248 102c-66 69 -99 155 -99 260c0 104 33 190 99 259c67 69 149 103 248 103c78 0 145 -19 202 -57v-34c-62 41 -129 62 -201 62c-89 0 -164 -32 -225 -96c-61 -63 -91 -142 -91 -237s30 -175 91 -238s137 -95 226 -95c83 0 156 25 217 75v-36
c-59 -45 -132 -68 -219 -68zM414 765h-37l97 126h42z" />
    <glyph glyph-name="cacute" unicode="&#x107;" horiz-adv-x="524" 
d="M305 -12c-73 0 -132 24 -179 73c-46 49 -69 107 -69 175s23 126 69 175c47 49 107 74 180 74c54 0 102 -12 143 -37v-32c-43 27 -90 41 -141 41c-62 0 -114 -21 -157 -64c-42 -42 -63 -94 -63 -157c0 -62 21 -114 63 -156c43 -42 95 -63 157 -63c59 0 109 15 151 46v-32
c-43 -29 -95 -43 -154 -43zM295 576h-34l97 126h39z" />
    <glyph glyph-name="Ccircumflex" unicode="&#x108;" horiz-adv-x="694" 
d="M287 765l103 126h36l104 -126h-38l-84 103l-84 -103h-37zM425 -12c-99 0 -181 34 -248 102c-66 69 -99 155 -99 260c0 104 33 190 99 259c67 69 149 103 248 103c78 0 145 -19 202 -57v-34c-62 41 -129 62 -201 62c-89 0 -164 -32 -225 -96c-61 -63 -91 -142 -91 -237
s30 -175 91 -238s137 -95 226 -95c83 0 156 25 217 75v-36c-59 -45 -132 -68 -219 -68z" />
    <glyph glyph-name="ccircumflex" unicode="&#x109;" horiz-adv-x="524" 
d="M305 -12c-73 0 -132 24 -179 73c-46 49 -69 107 -69 175s23 126 69 175c47 49 107 74 180 74c54 0 102 -12 143 -37v-32c-43 27 -90 41 -141 41c-62 0 -114 -21 -156 -64c-42 -42 -63 -94 -63 -157c0 -62 21 -114 63 -156s94 -63 156 -63c59 0 109 15 151 46v-32
c-43 -29 -95 -43 -154 -43zM201 576h-34l105 127h33l104 -127h-34l-87 104z" />
    <glyph glyph-name="Cdotaccent" unicode="&#x10a;" horiz-adv-x="694" 
d="M425 -12c-99 0 -181 34 -248 102c-66 69 -99 155 -99 260c0 104 33 190 99 259c67 69 149 103 248 103c78 0 145 -19 202 -57v-34c-62 41 -129 62 -201 62c-89 0 -164 -32 -225 -96c-61 -63 -91 -142 -91 -237s30 -175 91 -238s137 -95 226 -95c83 0 156 25 217 75v-36
c-59 -45 -132 -68 -219 -68zM444 801c-11 -11 -31 -11 -43 0c-11 12 -11 32 0 43c28 28 71 -15 43 -43z" />
    <glyph glyph-name="cdotaccent" unicode="&#x10b;" horiz-adv-x="524" 
d="M305 -12c-73 0 -132 24 -179 73c-46 49 -69 107 -69 175s23 126 69 175c47 49 107 74 180 74c54 0 102 -12 143 -37v-32c-43 27 -90 41 -141 41c-62 0 -114 -21 -157 -64c-42 -42 -63 -94 -63 -157c0 -62 21 -114 63 -156c43 -42 95 -63 157 -63c59 0 109 15 151 46v-32
c-43 -29 -95 -43 -154 -43zM276 644c0 39 60 39 60 0c0 -37 -60 -37 -60 0z" />
    <glyph glyph-name="Ccaron" unicode="&#x10c;" horiz-adv-x="694" 
d="M542 891l-104 -126h-36l-103 126h37l84 -103l84 103h38zM425 -12c-99 0 -181 34 -248 102c-66 69 -99 155 -99 260c0 104 33 190 99 259c67 69 149 103 248 103c78 0 145 -19 202 -57v-34c-62 41 -129 62 -201 62c-89 0 -164 -32 -225 -96c-61 -63 -91 -142 -91 -237
s30 -175 91 -238s137 -95 226 -95c83 0 156 25 217 75v-36c-59 -45 -132 -68 -219 -68z" />
    <glyph glyph-name="ccaron" unicode="&#x10d;" horiz-adv-x="524" 
d="M305 -12c-73 0 -132 24 -179 73c-46 49 -69 107 -69 175s23 126 69 175c47 49 107 74 180 74c54 0 102 -12 143 -37v-32c-43 27 -90 41 -141 41c-62 0 -114 -21 -157 -64c-42 -42 -63 -94 -63 -157c0 -62 21 -114 63 -156c43 -42 95 -63 157 -63c59 0 109 15 151 46v-32
c-43 -29 -95 -43 -154 -43zM318 576h-31l-105 126h34l86 -103l88 103h33z" />
    <glyph glyph-name="Dcaron" unicode="&#x10e;" horiz-adv-x="774" 
d="M459 891l-104 -126h-36l-103 126h37l84 -103l84 103h38zM319 0h-210v700h210c112 0 203 -32 272 -97c69 -64 104 -148 104 -253s-35 -189 -104 -254c-69 -64 -160 -96 -272 -96zM140 671v-642h171c108 0 194 29 257 88s95 136 95 233s-32 174 -95 233s-149 88 -257 88
h-171z" />
    <glyph glyph-name="dcaron" unicode="&#x10f;" horiz-adv-x="707" 
d="M304 -12c-73 0 -132 24 -178 73s-69 108 -69 175c0 68 23 126 69 175s105 74 178 74c85 0 157 -41 200 -102v317h31v-700h-31v90c-43 -61 -115 -102 -200 -102zM308 17c42 0 81 11 117 34c37 23 63 52 79 87v197c-16 35 -42 64 -79 87c-36 23 -75 34 -117 34
c-62 0 -114 -21 -156 -64c-42 -42 -63 -94 -63 -156c0 -61 21 -113 63 -156c42 -42 94 -63 156 -63zM652 538h-28l54 161h33z" />
    <glyph glyph-name="Dcroat" unicode="&#x110;" horiz-adv-x="817" 
d="M362 0h-210v338h-121v29h121v333h210c113 0 203 -32 272 -97c69 -64 104 -148 104 -253s-35 -189 -104 -254c-69 -64 -159 -96 -272 -96zM184 338v-309h170c108 0 194 29 257 88s95 136 95 233s-32 174 -95 233s-149 88 -257 88h-170v-304h175v-29h-175z" />
    <glyph glyph-name="dslash" unicode="&#x111;" horiz-adv-x="642" 
d="M504 559h-133v29h133v112h31v-112h105v-29h-105v-559h-31v90c-43 -61 -115 -102 -200 -102c-73 0 -132 24 -178 73s-69 108 -69 175c0 68 23 126 69 175s105 74 178 74c85 0 157 -41 200 -102v176zM308 17c42 0 81 11 117 34c37 23 63 52 79 87v197c-16 35 -42 64 -79 87
c-36 23 -75 34 -117 34c-62 0 -114 -21 -156 -64c-41 -42 -62 -94 -62 -156s21 -114 62 -156c42 -42 94 -63 156 -63z" />
    <glyph glyph-name="Emacron" unicode="&#x112;" horiz-adv-x="635" 
d="M586 0h-477v700h460v-29h-429v-280h356v-29h-356v-333h446v-29zM459 814h-220v28h220v-28z" />
    <glyph glyph-name="emacron" unicode="&#x113;" horiz-adv-x="566" 
d="M316 -12c-74 0 -136 23 -185 70s-74 107 -74 178s22 131 66 178c45 47 101 71 170 71c80 0 142 -36 173 -87s44 -102 44 -150v-10h-421c1 -65 23 -118 65 -159c43 -41 98 -62 165 -62c61 0 112 15 153 44v-31c-39 -28 -91 -42 -156 -42zM90 264h389
c-3 73 -46 192 -187 192c-60 0 -108 -20 -144 -59c-35 -39 -55 -83 -58 -133zM403 629h-219v28h219v-28z" />
    <glyph glyph-name="Ebreve" unicode="&#x114;" horiz-adv-x="635" 
d="M586 0h-477v700h460v-29h-429v-280h356v-29h-356v-333h446v-29zM226 887h29c0 -53 40 -95 93 -95c52 0 93 42 93 95h28c-1 -34 -13 -63 -36 -87c-23 -23 -52 -35 -85 -35s-62 12 -86 35c-23 24 -35 53 -36 87z" />
    <glyph glyph-name="ebreve" unicode="&#x115;" horiz-adv-x="566" 
d="M316 -12c-74 0 -136 23 -185 70s-74 107 -74 178s22 131 66 178c45 47 101 71 170 71c80 0 142 -36 173 -87s44 -102 44 -150v-10h-421c1 -65 23 -118 65 -159c43 -41 98 -62 165 -62c61 0 112 15 153 44v-31c-39 -28 -91 -42 -156 -42zM90 264h389
c-3 73 -46 192 -187 192c-60 0 -108 -20 -144 -59c-35 -39 -55 -83 -58 -133zM292 575c-33 0 -62 12 -86 35c-23 24 -35 53 -35 86h28c0 -52 41 -94 93 -94s92 42 93 94h28c-1 -33 -13 -62 -37 -86c-23 -23 -51 -35 -84 -35z" />
    <glyph glyph-name="Edotaccent" unicode="&#x116;" horiz-adv-x="635" 
d="M586 0h-477v700h460v-29h-429v-280h356v-29h-356v-333h446v-29zM369 801c-11 -11 -31 -11 -43 0c-11 12 -11 32 0 43c28 28 71 -15 43 -43z" />
    <glyph glyph-name="edotaccent" unicode="&#x117;" horiz-adv-x="566" 
d="M316 -12c-74 0 -136 23 -185 70s-74 107 -74 178s22 131 66 178c45 47 101 71 170 71c80 0 142 -36 173 -87s44 -102 44 -150v-10h-421c1 -65 23 -118 65 -159c43 -41 98 -62 165 -62c61 0 112 15 153 44v-31c-39 -28 -91 -42 -156 -42zM90 264h389
c-3 73 -46 192 -187 192c-60 0 -108 -20 -144 -59c-35 -39 -55 -83 -58 -133zM313 623c-28 -28 -72 16 -44 44s72 -16 44 -44z" />
    <glyph glyph-name="Eogonek" unicode="&#x118;" horiz-adv-x="636" 
d="M557 0h-448v700h460v-29h-429v-280h356v-29h-356v-333h446v-29c-26 -29 -39 -59 -39 -90c0 -45 33 -76 80 -76c11 0 25 2 40 6v-25c-13 -4 -28 -6 -45 -6c-63 0 -103 41 -103 97c0 37 13 69 38 94z" />
    <glyph glyph-name="eogonek" unicode="&#x119;" horiz-adv-x="565" 
d="M508 -161c-63 0 -103 41 -103 97c0 26 7 49 20 70c-37 -12 -74 -18 -109 -18c-74 0 -136 23 -185 70s-74 107 -74 178s22 131 66 178c45 47 101 71 170 71c80 0 142 -36 173 -87s44 -102 44 -150v-10h-421c1 -65 23 -118 65 -159c43 -41 98 -62 165 -62
c61 0 112 15 153 44v-31c-26 -29 -39 -59 -39 -90c0 -45 33 -76 80 -76c11 0 25 2 40 6v-25c-13 -4 -28 -6 -45 -6zM90 264h389c-3 73 -46 192 -187 192c-60 0 -108 -20 -144 -59c-35 -39 -55 -83 -58 -133z" />
    <glyph glyph-name="Ecaron" unicode="&#x11a;" horiz-adv-x="635" 
d="M470 891l-104 -126h-36l-103 126h37l84 -103l84 103h38zM586 0h-477v700h460v-29h-429v-280h356v-29h-356v-333h446v-29z" />
    <glyph glyph-name="ecaron" unicode="&#x11b;" horiz-adv-x="566" 
d="M316 -12c-74 0 -136 23 -185 70s-74 107 -74 178s22 131 66 178c45 47 101 71 170 71c80 0 142 -36 173 -87s44 -102 44 -150v-10h-421c1 -65 23 -118 65 -159c43 -41 98 -62 165 -62c61 0 112 15 153 44v-31c-39 -28 -91 -42 -156 -42zM90 264h389
c-3 73 -46 192 -187 192c-60 0 -108 -20 -144 -59c-35 -39 -55 -83 -58 -133zM412 700l-104 -126h-36l-103 126h37l84 -103l84 103h38z" />
    <glyph glyph-name="Gcircumflex" unicode="&#x11c;" horiz-adv-x="783" 
d="M425 -12c-98 0 -180 34 -247 103s-100 155 -100 259s33 190 99 259c67 69 149 103 248 103c93 0 169 -25 230 -75v-35c-65 54 -142 81 -229 81c-89 0 -164 -32 -225 -95s-91 -143 -91 -238s30 -175 91 -238s135 -95 224 -95c93 0 180 31 233 90v293h32v-306
c-65 -71 -154 -106 -265 -106zM287 765l103 126h36l104 -126h-38l-84 103l-84 -103h-37z" />
    <glyph glyph-name="gcircumflex" unicode="&#x11d;" horiz-adv-x="628" 
d="M289 -203c-67 0 -128 15 -183 45v32c53 -32 113 -48 180 -48c132 0 218 66 218 191v72c-43 -61 -115 -101 -200 -101c-73 0 -132 25 -178 74s-69 108 -69 176c0 67 23 125 69 174s105 73 178 73c87 0 154 -34 200 -101v89h31v-456c0 -71 -23 -126 -68 -163
c-45 -38 -105 -57 -178 -57zM308 17c84 0 164 49 196 120v199c-32 71 -112 120 -196 120c-62 0 -114 -21 -156 -63s-63 -94 -63 -155c0 -62 21 -114 63 -157s94 -64 156 -64zM185 574l103 126h36l104 -126h-38l-84 103l-84 -103h-37z" />
    <glyph glyph-name="Gbreve" unicode="&#x11e;" horiz-adv-x="783" 
d="M425 -12c-98 0 -180 34 -247 103s-100 155 -100 259s33 190 99 259c67 69 149 103 248 103c93 0 169 -25 230 -75v-35c-65 54 -142 81 -229 81c-89 0 -164 -32 -225 -95s-91 -143 -91 -238s30 -175 91 -238s135 -95 224 -95c93 0 180 31 233 90v293h32v-306
c-65 -71 -154 -106 -265 -106zM300 888h29c0 -53 40 -95 93 -95c52 0 93 42 93 95h28c-1 -34 -13 -63 -36 -87c-23 -23 -52 -35 -85 -35s-62 12 -86 35c-23 24 -35 53 -36 87z" />
    <glyph glyph-name="gbreve" unicode="&#x11f;" horiz-adv-x="628" 
d="M289 -203c-67 0 -128 15 -183 45v32c53 -32 113 -48 180 -48c132 0 218 66 218 191v72c-43 -61 -115 -101 -200 -101c-73 0 -132 25 -178 74s-69 108 -69 176c0 67 23 125 69 174s105 73 178 73c87 0 154 -34 200 -101v89h31v-456c0 -71 -23 -126 -68 -163
c-45 -38 -105 -57 -178 -57zM308 17c84 0 164 49 196 120v199c-32 71 -112 120 -196 120c-62 0 -114 -21 -156 -63s-63 -94 -63 -155c0 -62 21 -114 63 -157s94 -64 156 -64zM305 575c-33 0 -62 12 -86 35c-23 24 -35 53 -35 86h28c0 -52 41 -94 93 -94s92 42 93 94h28
c-1 -33 -13 -62 -37 -86c-23 -23 -51 -35 -84 -35z" />
    <glyph glyph-name="Gdotaccent" unicode="&#x120;" horiz-adv-x="783" 
d="M425 -12c-98 0 -180 34 -247 103s-100 155 -100 259s33 190 99 259c67 69 149 103 248 103c93 0 169 -25 230 -75v-35c-65 54 -142 81 -229 81c-89 0 -164 -32 -225 -95s-91 -143 -91 -238s30 -175 91 -238s135 -95 224 -95c93 0 180 31 233 90v293h32v-306
c-65 -71 -154 -106 -265 -106zM445 801c-11 -11 -31 -11 -43 0c-11 12 -11 32 0 43c28 28 71 -15 43 -43z" />
    <glyph glyph-name="gdotaccent" unicode="&#x121;" horiz-adv-x="628" 
d="M289 -203c-67 0 -128 15 -183 45v32c53 -32 113 -48 180 -48c132 0 218 66 218 191v72c-43 -61 -115 -101 -200 -101c-73 0 -132 25 -178 74s-69 108 -69 176c0 67 23 125 69 174s105 73 178 73c87 0 154 -34 200 -101v89h31v-456c0 -71 -23 -126 -68 -163
c-45 -38 -105 -57 -178 -57zM308 17c84 0 164 49 196 120v199c-32 71 -112 120 -196 120c-62 0 -114 -21 -156 -63s-63 -94 -63 -155c0 -62 21 -114 63 -157s94 -64 156 -64zM329 623c-28 -28 -72 16 -44 44s72 -16 44 -44z" />
    <glyph glyph-name="uni0122" unicode="&#x122;" horiz-adv-x="783" 
d="M425 -12c-98 0 -180 34 -247 103s-100 155 -100 259s33 190 99 259c67 69 149 103 248 103c93 0 169 -25 230 -75v-35c-65 54 -142 81 -229 81c-89 0 -164 -32 -225 -95s-91 -143 -91 -238s30 -175 91 -238s135 -95 224 -95c93 0 180 31 233 90v293h32v-306
c-65 -71 -154 -106 -265 -106zM391 -208h-28l54 161h33z" />
    <glyph glyph-name="uni0123" unicode="&#x123;" horiz-adv-x="628" 
d="M289 -203c-67 0 -128 15 -183 45v32c53 -32 113 -48 180 -48c132 0 218 66 218 191v72c-43 -61 -115 -101 -200 -101c-73 0 -132 25 -178 74s-69 108 -69 176c0 67 23 125 69 174s105 73 178 73c87 0 154 -34 200 -101v89h31v-456c0 -71 -23 -126 -68 -163
c-45 -38 -105 -57 -178 -57zM308 17c84 0 164 49 196 120v199c-32 71 -112 120 -196 120c-62 0 -114 -21 -156 -63s-63 -94 -63 -155c0 -62 21 -114 63 -157s94 -64 156 -64zM331 709h28l-54 -161h-33z" />
    <glyph glyph-name="Hcircumflex" unicode="&#x124;" horiz-adv-x="759" 
d="M258 765l103 126h36l104 -126h-38l-84 103l-84 -103h-37zM140 0h-31v700h31v-309h479v309h31v-700h-31v362h-479v-362z" />
    <glyph glyph-name="hcircumflex" unicode="&#x125;" horiz-adv-x="599" 
d="M-12 765l103 126h36l104 -126h-38l-84 103l-84 -103h-37zM123 342v-342h-31v700h31v-315c43 53 120 100 207 100c123 0 185 -71 185 -198v-287h-31v281c0 117 -54 175 -161 175c-39 0 -77 -12 -115 -35s-66 -49 -85 -79z" />
    <glyph glyph-name="Hbar" unicode="&#x126;" horiz-adv-x="858" 
d="M190 0h-32v553h-98v28h98v119h32v-119h479v119h31v-119h98v-28h-98v-553h-31v362h-479v-362zM190 553v-162h479v162h-479z" />
    <glyph glyph-name="hbar" unicode="&#x127;" horiz-adv-x="621" 
d="M145 0h-31v552h-103v29h103v119h31v-119h132v-29h-132v-223c43 53 121 99 208 99c121 0 184 -71 184 -198v-230h-31v224c0 117 -54 175 -161 175c-39 0 -77 -12 -115 -35s-66 -49 -85 -79v-285z" />
    <glyph glyph-name="Itilde" unicode="&#x128;" horiz-adv-x="262" 
d="M204 780c-19 0 -44 11 -76 32c-31 22 -54 33 -68 33c-27 0 -41 -20 -44 -60h-26c1 56 28 88 68 88c19 0 44 -11 76 -33c33 -21 56 -32 69 -32c25 0 40 20 44 60h26c-1 -55 -28 -88 -69 -88zM147 0h-32v700h32v-700z" />
    <glyph glyph-name="itilde" unicode="&#x129;" horiz-adv-x="242" 
d="M195 596c-19 0 -44 11 -76 33s-55 33 -69 33c-27 0 -41 -20 -44 -60h-26c1 55 29 88 69 88c19 0 45 -11 77 -33s54 -33 67 -33c27 0 41 20 44 61h26c-1 -55 -28 -89 -68 -89zM136 0h-31v473h31v-473z" />
    <glyph glyph-name="Imacron" unicode="&#x12a;" horiz-adv-x="262" 
d="M147 0h-32v700h32v-700zM242 814h-220v28h220v-28z" />
    <glyph glyph-name="imacron" unicode="&#x12b;" horiz-adv-x="242" 
d="M136 0h-31v473h31v-473zM231 629h-219v28h219v-28z" />
    <glyph glyph-name="Ibreve" unicode="&#x12c;" horiz-adv-x="262" 
d="M10 887h29c0 -53 40 -95 93 -95c52 0 93 42 93 95h28c-1 -34 -13 -63 -36 -87c-23 -23 -52 -35 -85 -35s-62 12 -86 35c-23 24 -35 53 -36 87zM147 0h-32v700h32v-700z" />
    <glyph glyph-name="ibreve" unicode="&#x12d;" horiz-adv-x="242" 
d="M121 575c-33 0 -62 12 -86 35c-23 24 -35 53 -35 86h28c0 -52 41 -94 93 -94s92 42 93 94h28c-1 -33 -13 -62 -37 -86c-23 -23 -51 -35 -84 -35zM136 0h-31v473h31v-473z" />
    <glyph glyph-name="Iogonek" unicode="&#x12e;" horiz-adv-x="262" 
d="M182 -191c-61 0 -102 42 -102 97c0 38 12 69 35 94v700h32v-700c-27 -29 -40 -59 -40 -90c0 -45 33 -76 80 -76c13 0 26 2 41 6v-25c-15 -4 -30 -6 -46 -6z" />
    <glyph glyph-name="iogonek" unicode="&#x12f;" horiz-adv-x="242" 
d="M171 -191c-61 0 -102 42 -102 97c0 38 12 69 37 94v473h31v-473c-27 -30 -41 -60 -41 -90c0 -45 33 -76 80 -76c12 0 26 2 41 6v-25c-15 -4 -30 -6 -46 -6zM91 645c0 41 61 40 61 0c0 -39 -61 -39 -61 0z" />
    <glyph glyph-name="Idot" unicode="&#x130;" horiz-adv-x="262" 
d="M153 801c-11 -11 -31 -11 -43 0c-11 12 -11 32 0 43c28 28 71 -15 43 -43zM147 0h-32v700h32v-700z" />
    <glyph glyph-name="dotlessi" unicode="&#x131;" horiz-adv-x="242" 
d="M136 0h-31v473h31v-473z" />
    <glyph glyph-name="IJ" unicode="&#x132;" horiz-adv-x="590" 
d="M147 238h-32v462h32v-462zM277 -12c-65 0 -119 16 -162 48v38c41 -38 94 -57 159 -57c123 0 185 64 185 191v492h31v-496c0 -141 -76 -216 -213 -216z" />
    <glyph glyph-name="Jcircumflex" unicode="&#x134;" horiz-adv-x="500" 
d="M263 765l103 126h36l104 -126h-38l-84 103l-84 -103h-37zM193 -12c-63 0 -115 16 -156 48v37c41 -37 92 -56 153 -56c119 0 178 63 178 189v494h31v-498c0 -141 -73 -214 -206 -214z" />
    <glyph glyph-name="jcircumflex" unicode="&#x135;" horiz-adv-x="244" 
d="M18 -203c-26 0 -50 5 -71 16v32c20 -13 42 -19 67 -19c61 0 92 36 92 107v540h31v-547c0 -93 -52 -129 -119 -129zM1 574l103 126h36l104 -126h-38l-84 103l-84 -103h-37z" />
    <glyph glyph-name="uni0136" unicode="&#x136;" horiz-adv-x="634" 
d="M632 0h-47l-408 365v26l353 309h46l-367 -321zM109 700h31v-700h-31v700zM317 -208h-28l54 161h33z" />
    <glyph glyph-name="uni0137" unicode="&#x137;" horiz-adv-x="505" 
d="M486 0h-47l-281 246v25l245 202h47l-262 -214zM93 700h31v-700h-31v700zM235 -208h-28l54 161h33z" />
    <glyph glyph-name="kgreenlandic" unicode="&#x138;" horiz-adv-x="505" 
d="M93 473h31v-473h-31v473zM486 0h-47l-281 243v25l245 205h47l-261 -217z" />
    <glyph glyph-name="Lacute" unicode="&#x139;" horiz-adv-x="595" 
d="M146 765h-37l97 126h42zM561 0h-446v700h31v-671h415v-29z" />
    <glyph glyph-name="lacute" unicode="&#x13a;" horiz-adv-x="272" 
d="M131 765h-37l97 126h42zM191 -12c-55 0 -98 28 -98 107v605h31v-601c0 -55 25 -82 74 -82c18 0 36 5 53 16v-31c-16 -9 -36 -14 -60 -14z" />
    <glyph glyph-name="uni013B" unicode="&#x13b;" horiz-adv-x="589" 
d="M303 -208h-28l54 161h33zM555 0h-446v700h31v-671h415v-29z" />
    <glyph glyph-name="lcommaaccent" unicode="&#x13c;" horiz-adv-x="272" 
d="M191 -12c-55 0 -98 28 -98 107v605h31v-601c0 -55 25 -82 74 -82c18 0 36 5 53 16v-31c-16 -9 -36 -14 -60 -14zM140 -208h-28l54 161h33z" />
    <glyph glyph-name="Lcaron" unicode="&#x13d;" horiz-adv-x="619" 
d="M495 538h-28l54 161h33zM555 0h-446v700h31v-671h415v-29z" />
    <glyph glyph-name="lcaron" unicode="&#x13e;" horiz-adv-x="326" 
d="M195 -12c-55 0 -98 28 -98 107v605h31v-601c0 -55 25 -82 74 -82c18 0 36 5 53 16v-31c-16 -9 -36 -14 -60 -14zM270 538h-28l54 161h33z" />
    <glyph glyph-name="Ldot" unicode="&#x13f;" horiz-adv-x="589" 
d="M545 355c-25 -27 -73 16 -43 44c12 12 32 12 43 0c12 -12 12 -32 0 -44zM555 0h-446v700h31v-671h415v-29z" />
    <glyph glyph-name="ldot" unicode="&#x140;" horiz-adv-x="349" 
d="M196 -12c-55 0 -98 28 -98 107v605h31v-601c0 -55 25 -82 74 -82c18 0 36 5 53 16v-31c-16 -9 -36 -14 -60 -14zM291 354c-25 -27 -73 16 -43 44c12 12 32 12 43 0c12 -12 12 -32 0 -44z" />
    <glyph glyph-name="Lslash" unicode="&#x141;" horiz-adv-x="592" 
d="M558 0h-446v355l-94 -56v33l94 57v311h31v-293l163 96v-33l-163 -96v-345h415v-29z" />
    <glyph glyph-name="lslash" unicode="&#x142;" horiz-adv-x="351" 
d="M239 -12c-55 0 -98 28 -98 107v268l-101 -60v33l101 60v304h31v-286l101 60v-33l-101 -60v-277c0 -58 25 -87 74 -87c19 0 37 5 53 16v-31c-16 -9 -36 -14 -60 -14z" />
    <glyph glyph-name="Nacute" unicode="&#x143;" horiz-adv-x="774" 
d="M140 0h-31v700h29l496 -645v645h31v-700h-29l-496 646v-646zM398 765h-37l97 126h42z" />
    <glyph glyph-name="nacute" unicode="&#x144;" horiz-adv-x="600" 
d="M124 342v-342h-31v473h31v-88c43 53 120 100 207 100c123 0 185 -71 185 -198v-287h-31v281c0 117 -54 175 -161 175c-39 0 -77 -12 -115 -35s-66 -49 -85 -79zM297 574h-36l97 126h42z" />
    <glyph glyph-name="uni0145" unicode="&#x145;" horiz-adv-x="774" 
d="M140 0h-31v700h29l496 -645v645h31v-700h-29l-496 646v-646zM361 -208h-28l54 161h33z" />
    <glyph glyph-name="uni0146" unicode="&#x146;" horiz-adv-x="600" 
d="M124 342v-342h-31v473h31v-88c43 53 120 100 207 100c123 0 185 -71 185 -198v-287h-31v281c0 117 -54 175 -161 175c-39 0 -77 -12 -115 -35s-66 -49 -85 -79zM273 -208h-28l54 161h33z" />
    <glyph glyph-name="Ncaron" unicode="&#x147;" horiz-adv-x="774" 
d="M508 891l-104 -126h-36l-103 126h37l84 -103l84 103h38zM140 0h-31v700h29l496 -645v645h31v-700h-29l-496 646v-646z" />
    <glyph glyph-name="ncaron" unicode="&#x148;" horiz-adv-x="600" 
d="M426 700l-104 -126h-36l-103 126h37l84 -103l84 103h38zM124 342v-342h-31v473h31v-88c43 53 120 100 207 100c123 0 185 -71 185 -198v-287h-31v281c0 117 -54 175 -161 175c-39 0 -77 -12 -115 -35s-66 -49 -85 -79z" />
    <glyph glyph-name="napostrophe" unicode="&#x149;" horiz-adv-x="648" 
d="M172 342v-342h-31v473h31v-88c43 53 120 100 207 100c123 0 185 -71 185 -198v-287h-31v281c0 117 -54 175 -161 175c-39 0 -77 -12 -115 -35s-66 -49 -85 -79zM49 538h-28l54 161h33z" />
    <glyph glyph-name="Eng" unicode="&#x14a;" horiz-adv-x="774" 
d="M495 -203c-41 0 -77 8 -108 24v36c30 -21 65 -31 104 -31c95 0 143 56 143 168v9l-494 644v-647h-31v700h29l496 -646v646h31v-713c0 -127 -57 -190 -170 -190z" />
    <glyph glyph-name="eng" unicode="&#x14b;" horiz-adv-x="600" 
d="M516 287v-361c0 -95 -51 -129 -118 -129c-26 0 -50 5 -71 16v32c20 -13 42 -19 67 -19c61 0 91 36 91 107v348c0 117 -54 175 -161 175c-39 0 -77 -12 -115 -35s-66 -49 -85 -79v-342h-31v473h31v-88c43 53 120 100 207 100c123 0 185 -71 185 -198z" />
    <glyph glyph-name="Omacron" unicode="&#x14c;" horiz-adv-x="847" 
d="M424 17c88 0 162 32 222 95s90 143 90 238s-30 174 -90 237c-60 64 -134 96 -222 96c-89 0 -163 -32 -224 -96c-60 -63 -90 -142 -90 -237s30 -174 90 -238c61 -63 135 -95 224 -95zM424 -12c-99 0 -181 34 -247 103s-99 155 -99 259c0 103 33 189 99 258
c67 69 149 104 247 104s180 -34 245 -103c66 -69 99 -155 99 -259s-33 -190 -99 -259c-65 -69 -147 -103 -245 -103zM534 814h-220v28h220v-28z" />
    <glyph glyph-name="omacron" unicode="&#x14d;" horiz-adv-x="613" 
d="M307 17c61 0 113 21 154 63c42 43 63 95 63 156c0 62 -21 114 -63 156c-41 43 -93 64 -154 64c-62 0 -114 -21 -156 -64c-41 -42 -62 -94 -62 -156s21 -114 62 -156c42 -42 94 -63 156 -63zM57 236c0 68 23 126 69 175c47 49 107 74 181 74c73 0 133 -25 179 -74
c47 -49 70 -107 70 -175c0 -67 -23 -126 -70 -175c-46 -49 -106 -73 -179 -73s-133 24 -180 73s-70 108 -70 175zM417 629h-219v28h219v-28z" />
    <glyph glyph-name="Obreve" unicode="&#x14e;" horiz-adv-x="847" 
d="M424 17c88 0 162 32 222 95s90 143 90 238s-30 174 -90 237c-60 64 -134 96 -222 96c-89 0 -163 -32 -224 -96c-60 -63 -90 -142 -90 -237s30 -174 90 -238c61 -63 135 -95 224 -95zM424 -12c-99 0 -181 34 -247 103s-99 155 -99 259c0 103 33 189 99 258
c67 69 149 104 247 104s180 -34 245 -103c66 -69 99 -155 99 -259s-33 -190 -99 -259c-65 -69 -147 -103 -245 -103zM302 888h29c0 -53 40 -95 93 -95c52 0 93 42 93 95h28c-1 -34 -13 -63 -36 -87c-23 -23 -52 -35 -85 -35s-62 12 -86 35c-23 24 -35 53 -36 87z" />
    <glyph glyph-name="obreve" unicode="&#x14f;" horiz-adv-x="613" 
d="M307 17c61 0 113 21 154 63c42 43 63 95 63 156c0 62 -21 114 -63 156c-41 43 -93 64 -154 64c-62 0 -114 -21 -156 -64c-41 -42 -62 -94 -62 -156s21 -114 62 -156c42 -42 94 -63 156 -63zM57 236c0 68 23 126 69 175c47 49 107 74 181 74c73 0 133 -25 179 -74
c47 -49 70 -107 70 -175c0 -67 -23 -126 -70 -175c-46 -49 -106 -73 -179 -73s-133 24 -180 73s-70 108 -70 175zM307 576c-33 0 -62 12 -86 35c-23 24 -35 53 -35 86h28c0 -52 41 -94 93 -94s92 42 93 94h28c-1 -33 -13 -62 -37 -86c-23 -23 -51 -35 -84 -35z" />
    <glyph glyph-name="Ohungarumlaut" unicode="&#x150;" horiz-adv-x="847" 
d="M368 765h-36l97 126h41zM498 765h-35l96 126h41zM424 17c88 0 162 32 222 95s90 143 90 238s-30 174 -90 237c-60 64 -134 96 -222 96c-89 0 -163 -32 -224 -96c-60 -63 -90 -142 -90 -237s30 -174 90 -238c61 -63 135 -95 224 -95zM424 -12c-99 0 -181 34 -247 103
s-99 155 -99 259c0 103 33 189 99 258c67 69 149 104 247 104s180 -34 245 -103c66 -69 99 -155 99 -259s-33 -190 -99 -259c-65 -69 -147 -103 -245 -103z" />
    <glyph glyph-name="ohungarumlaut" unicode="&#x151;" horiz-adv-x="613" 
d="M307 17c61 0 113 21 154 63c42 43 63 95 63 156c0 62 -21 114 -63 156c-41 43 -93 64 -154 64c-62 0 -114 -21 -156 -64c-41 -42 -62 -94 -62 -156s21 -114 62 -156c42 -42 94 -63 156 -63zM57 236c0 68 23 126 69 175c47 49 107 74 181 74c73 0 133 -25 179 -74
c47 -49 70 -107 70 -175c0 -67 -23 -126 -70 -175c-46 -49 -106 -73 -179 -73s-133 24 -180 73s-70 108 -70 175zM257 574h-35l97 126h41zM388 574h-35l96 126h41z" />
    <glyph glyph-name="OE" unicode="&#x152;" horiz-adv-x="1152" 
d="M1103 0h-648c-112 0 -203 32 -273 96c-69 65 -104 149 -104 254s35 189 104 253c70 65 161 97 273 97h631v-29h-427v-280h354v-29h-354v-333h444v-29zM463 29h165v642h-165c-109 0 -195 -29 -258 -88s-94 -136 -94 -233s31 -174 94 -233s149 -88 258 -88z" />
    <glyph glyph-name="oe" unicode="&#x153;" horiz-adv-x="1033" 
d="M308 -12c-77 0 -138 25 -183 75s-68 108 -68 173c0 66 23 124 68 174s106 75 183 75c116 0 199 -69 232 -162c29 97 114 162 219 162c80 0 143 -36 174 -87s44 -102 44 -150v-10h-421c1 -65 23 -118 65 -159c43 -41 98 -62 165 -62c61 0 112 15 153 44v-31
c-39 -28 -92 -42 -157 -42c-113 0 -207 65 -240 162c-31 -93 -118 -162 -234 -162zM308 17c62 0 114 21 155 63s62 94 62 156s-21 114 -62 156c-41 43 -93 64 -155 64c-63 0 -115 -21 -157 -64c-41 -42 -62 -94 -62 -156s21 -114 62 -156s94 -63 157 -63zM557 264h389
c0 72 -47 192 -188 192c-59 0 -107 -20 -143 -59s-55 -83 -58 -133z" />
    <glyph glyph-name="Racute" unicode="&#x154;" horiz-adv-x="735" 
d="M140 0h-31v700h308c131 0 208 -71 208 -180c0 -100 -65 -169 -178 -180l233 -340h-38l-232 338h-270v-338zM140 671v-304h274c113 0 179 55 179 152s-66 152 -179 152h-274zM334 765h-37l97 126h42z" />
    <glyph glyph-name="racute" unicode="&#x155;" horiz-adv-x="333" 
d="M124 0h-31v473h31v-103c15 29 40 56 75 79c35 24 74 36 118 36v-31c-43 0 -83 -13 -118 -39s-60 -56 -75 -91v-324zM172 574h-36l97 126h42z" />
    <glyph glyph-name="uni0156" unicode="&#x156;" horiz-adv-x="735" 
d="M140 0h-31v700h308c131 0 208 -71 208 -180c0 -100 -65 -169 -178 -180l233 -340h-38l-232 338h-270v-338zM140 671v-304h274c113 0 179 55 179 152s-66 152 -179 152h-274zM326 -208h-28l54 161h33z" />
    <glyph glyph-name="uni0157" unicode="&#x157;" horiz-adv-x="333" 
d="M124 0h-31v473h31v-103c15 29 40 56 75 79c35 24 74 36 118 36v-31c-43 0 -83 -13 -118 -39s-60 -56 -75 -91v-324zM65 -208h-28l54 161h33z" />
    <glyph glyph-name="Rcaron" unicode="&#x158;" horiz-adv-x="735" 
d="M140 0h-31v700h308c131 0 208 -71 208 -180c0 -100 -65 -169 -178 -180l233 -340h-38l-232 338h-270v-338zM140 671v-304h274c113 0 179 55 179 152s-66 152 -179 152h-274zM460 891l-104 -126h-36l-103 126h37l84 -103l84 103h38z" />
    <glyph glyph-name="rcaron" unicode="&#x159;" horiz-adv-x="332" 
d="M321 700l-104 -126h-36l-103 126h37l84 -103l84 103h38zM123 0h-31v473h31v-103c15 29 40 56 75 79c35 24 74 36 118 36v-31c-43 0 -83 -13 -118 -39s-60 -56 -75 -91v-324z" />
    <glyph glyph-name="Sacute" unicode="&#x15a;" horiz-adv-x="620" 
d="M301 -12c-52 0 -101 7 -147 22c-45 15 -81 33 -106 53v36c53 -44 146 -82 250 -82c65 0 117 15 158 45s62 69 62 118c0 43 -19 78 -42 99c-11 11 -28 22 -49 32s-41 18 -58 23c-17 6 -39 13 -68 21c-64 17 -93 27 -137 47c-62 30 -86 69 -91 140c0 48 20 88 59 121
s96 49 169 49c81 0 151 -20 210 -59v-33c-63 42 -133 63 -208 63c-129 0 -198 -64 -198 -141c0 -39 17 -70 38 -90c38 -31 91 -48 151 -64c8 -2 14 -3 22 -6l69 -21c15 -5 35 -14 60 -26c25 -11 44 -23 56 -36c25 -24 49 -67 49 -119c0 -61 -24 -108 -73 -142
c-49 -33 -107 -50 -176 -50zM297 765h-37l97 126h42z" />
    <glyph glyph-name="sacute" unicode="&#x15b;" horiz-adv-x="497" 
d="M241 -12c-79 0 -158 26 -195 53v34c43 -29 116 -58 195 -58c99 0 164 40 164 103c0 36 -25 63 -76 82c-13 5 -46 14 -97 27c-43 11 -61 16 -96 31c-44 20 -73 51 -73 102c0 75 65 123 180 123c69 0 126 -15 169 -44v-33c-50 32 -106 48 -167 48c-100 0 -151 -39 -151 -95
c0 -32 14 -54 47 -71c17 -8 32 -14 44 -18l58 -16l30 -8l32 -8c11 -3 46 -13 57 -20c11 -5 36 -16 45 -28c17 -19 29 -39 29 -72c0 -41 -19 -74 -56 -97s-84 -35 -139 -35zM237 574h-36l97 126h42z" />
    <glyph glyph-name="Scircumflex" unicode="&#x15c;" horiz-adv-x="620" 
d="M301 -12c-52 0 -101 7 -147 22c-45 15 -81 33 -106 53v36c53 -44 146 -82 250 -82c65 0 117 15 158 45s62 69 62 118c0 43 -19 78 -42 99c-11 11 -28 22 -49 32s-41 18 -58 23c-17 6 -39 13 -68 21c-64 17 -93 27 -137 47c-62 30 -86 69 -91 140c0 48 20 88 59 121
s96 49 169 49c81 0 151 -20 210 -59v-33c-63 42 -133 63 -208 63c-129 0 -198 -64 -198 -141c0 -39 17 -70 38 -90c38 -31 91 -48 151 -64c8 -2 14 -3 22 -6l69 -21c15 -5 35 -14 60 -26c25 -11 44 -23 56 -36c25 -24 49 -67 49 -119c0 -61 -24 -108 -73 -142
c-49 -33 -107 -50 -176 -50zM190 765l103 126h36l104 -126h-38l-84 103l-84 -103h-37z" />
    <glyph glyph-name="scircumflex" unicode="&#x15d;" horiz-adv-x="497" 
d="M241 -12c-79 0 -158 26 -195 53v34c43 -29 116 -58 195 -58c99 0 164 40 164 103c0 36 -25 63 -76 82c-13 5 -46 14 -97 27c-43 11 -61 16 -96 31c-44 20 -73 51 -73 102c0 75 65 123 180 123c69 0 126 -15 169 -44v-33c-50 32 -106 48 -167 48c-100 0 -151 -39 -151 -95
c0 -32 14 -54 47 -71c17 -8 32 -14 44 -18l58 -16l30 -8l32 -8c11 -3 46 -13 57 -20c11 -5 36 -16 45 -28c17 -19 29 -39 29 -72c0 -41 -19 -74 -56 -97s-84 -35 -139 -35zM126 574l103 126h36l104 -126h-38l-84 103l-84 -103h-37z" />
    <glyph glyph-name="Scedilla" unicode="&#x15e;" horiz-adv-x="620" 
d="M262 -124h-38l74 112c-51 1 -100 8 -146 23c-45 15 -80 32 -104 52v36c53 -44 146 -82 250 -82c65 0 117 15 158 45s62 69 62 118c0 43 -19 78 -42 99c-11 11 -28 22 -49 32s-41 18 -58 23c-17 6 -39 13 -68 21c-64 17 -93 27 -137 47c-62 30 -86 69 -91 140
c0 48 20 88 59 121s96 49 169 49c81 0 151 -20 210 -59v-33c-63 42 -133 63 -208 63c-129 0 -198 -64 -198 -141c0 -39 17 -70 38 -90c38 -31 91 -48 151 -64c8 -2 14 -3 22 -6l69 -21c15 -5 35 -14 60 -26c25 -11 44 -23 56 -36c25 -24 49 -67 49 -119
c0 -56 -21 -101 -64 -134c-42 -33 -95 -52 -158 -57z" />
    <glyph glyph-name="scedilla" unicode="&#x15f;" horiz-adv-x="497" 
d="M202 -124h-38l74 112c-79 1 -156 26 -192 53v34c43 -29 116 -58 195 -58c99 0 164 40 164 103c0 36 -25 63 -76 82c-13 5 -46 14 -97 27c-43 11 -61 16 -96 31c-44 20 -73 51 -73 102c0 75 65 123 180 123c69 0 126 -15 169 -44v-33c-50 32 -106 48 -167 48
c-100 0 -151 -39 -151 -95c0 -32 14 -54 47 -71c17 -8 32 -14 44 -18l58 -16l30 -8l32 -8c11 -3 46 -13 57 -20c11 -5 36 -16 45 -28c17 -19 29 -39 29 -72c0 -76 -69 -122 -168 -130z" />
    <glyph glyph-name="Scaron" unicode="&#x160;" horiz-adv-x="620" 
d="M301 -12c-52 0 -101 7 -147 22c-45 15 -81 33 -106 53v36c53 -44 146 -82 250 -82c65 0 117 15 158 45s62 69 62 118c0 43 -19 78 -42 99c-11 11 -28 22 -49 32s-41 18 -58 23c-17 6 -39 13 -68 21c-64 17 -93 27 -137 47c-62 30 -86 69 -91 140c0 48 20 88 59 121
s96 49 169 49c81 0 151 -20 210 -59v-33c-63 42 -133 63 -208 63c-129 0 -198 -64 -198 -141c0 -39 17 -70 38 -90c38 -31 91 -48 151 -64c8 -2 14 -3 22 -6l69 -21c15 -5 35 -14 60 -26c25 -11 44 -23 56 -36c25 -24 49 -67 49 -119c0 -61 -24 -108 -73 -142
c-49 -33 -107 -50 -176 -50zM421 891l-104 -126h-36l-103 126h37l84 -103l84 103h38z" />
    <glyph glyph-name="scaron" unicode="&#x161;" horiz-adv-x="497" 
d="M241 -12c-79 0 -158 26 -195 53v34c43 -29 116 -58 195 -58c99 0 164 40 164 103c0 36 -25 63 -76 82c-13 5 -46 14 -97 27c-43 11 -61 16 -96 31c-44 20 -73 51 -73 102c0 75 65 123 180 123c69 0 126 -15 169 -44v-33c-50 32 -106 48 -167 48c-100 0 -151 -39 -151 -95
c0 -32 14 -54 47 -71c17 -8 32 -14 44 -18l58 -16l30 -8l32 -8c11 -3 46 -13 57 -20c11 -5 36 -16 45 -28c17 -19 29 -39 29 -72c0 -41 -19 -74 -56 -97s-84 -35 -139 -35zM366 700l-104 -126h-36l-103 126h37l84 -103l84 103h38z" />
    <glyph glyph-name="uni0162" unicode="&#x162;" horiz-adv-x="616" 
d="M248 -127h-39l83 127v671h-255v29h542v-29h-256v-671z" />
    <glyph glyph-name="uni0163" unicode="&#x163;" horiz-adv-x="419" 
d="M210 -124h-39l75 114c-61 11 -92 52 -92 124v330h-125v29h125v157h31v-157h184v-29h-184v-322c0 -73 32 -105 93 -105c27 0 55 8 84 24v-30c-21 -14 -50 -22 -87 -23z" />
    <glyph glyph-name="Tcaron" unicode="&#x164;" horiz-adv-x="616" 
d="M430 891l-104 -126h-36l-103 126h37l84 -103l84 103h38zM323 0h-31v671h-255v29h542v-29h-256v-671z" />
    <glyph glyph-name="tcaron" unicode="&#x165;" horiz-adv-x="508" 
d="M375 11c-22 -15 -52 -23 -89 -23s-67 11 -88 32c-21 22 -31 53 -31 94v330h-125v29h125v157h31v-157h184v-29h-184v-322c0 -73 32 -105 93 -105c27 0 55 8 84 24v-30zM453 538h-28l54 161h33z" />
    <glyph glyph-name="Tbar" unicode="&#x166;" horiz-adv-x="616" 
d="M323 0h-31v362h-158v29h158v280h-255v29h542v-29h-256v-280h158v-29h-158v-362z" />
    <glyph glyph-name="tbar" unicode="&#x167;" horiz-adv-x="419" 
d="M273 -12c-87 0 -119 49 -119 156v100h-125v28h125v172h-125v29h125v157h31v-157h184v-29h-184v-172h184v-28h-184v-94c0 -99 22 -133 93 -133c27 0 55 8 84 24v-30c-22 -15 -52 -23 -89 -23z" />
    <glyph glyph-name="Utilde" unicode="&#x168;" horiz-adv-x="746" 
d="M447 780c-19 0 -44 11 -76 32c-31 22 -54 33 -68 33c-27 0 -41 -20 -44 -60h-26c1 56 28 88 68 88c19 0 44 -11 76 -33c33 -21 56 -32 69 -32c25 0 40 20 44 60h26c-1 -55 -28 -88 -69 -88zM98 299v401h31v-401c0 -177 92 -282 244 -282s245 105 245 282v401h31v-401
c0 -99 -25 -176 -76 -230c-50 -54 -117 -81 -200 -81s-150 27 -200 81s-75 131 -75 230z" />
    <glyph glyph-name="utilde" unicode="&#x169;" horiz-adv-x="603" 
d="M372 596c-19 0 -44 11 -76 33s-55 33 -69 33c-27 0 -41 -20 -44 -60h-26c1 55 29 88 69 88c19 0 44 -11 76 -33s55 -33 68 -33c27 0 41 20 44 61h26c-1 -55 -28 -89 -68 -89zM271 -12c-123 0 -185 71 -185 198v287h31v-281c0 -117 54 -175 161 -175c39 0 78 11 116 34
s66 50 84 80v342h31v-473h-31v88c-43 -55 -119 -100 -207 -100z" />
    <glyph glyph-name="Umacron" unicode="&#x16a;" horiz-adv-x="746" 
d="M98 299v401h31v-401c0 -177 92 -282 244 -282s245 105 245 282v401h31v-401c0 -99 -25 -176 -76 -230c-50 -54 -117 -81 -200 -81s-150 27 -200 81s-75 131 -75 230zM485 814h-220v28h220v-28z" />
    <glyph glyph-name="umacron" unicode="&#x16b;" horiz-adv-x="603" 
d="M271 -12c-123 0 -185 71 -185 198v287h31v-281c0 -117 54 -175 161 -175c39 0 78 11 116 34s66 50 84 80v342h31v-473h-31v88c-43 -55 -119 -100 -207 -100zM408 629h-219v28h219v-28z" />
    <glyph glyph-name="Ubreve" unicode="&#x16c;" horiz-adv-x="746" 
d="M98 299v401h31v-401c0 -177 92 -282 244 -282s245 105 245 282v401h31v-401c0 -99 -25 -176 -76 -230c-50 -54 -117 -81 -200 -81s-150 27 -200 81s-75 131 -75 230zM252 887h29c0 -53 40 -95 93 -95c52 0 93 42 93 95h28c-1 -34 -13 -63 -36 -87
c-23 -23 -52 -35 -85 -35s-62 12 -86 35c-23 24 -35 53 -36 87z" />
    <glyph glyph-name="ubreve" unicode="&#x16d;" horiz-adv-x="603" 
d="M271 -12c-123 0 -185 71 -185 198v287h31v-281c0 -117 54 -175 161 -175c39 0 78 11 116 34s66 50 84 80v342h31v-473h-31v88c-43 -55 -119 -100 -207 -100zM298 575c-33 0 -62 12 -86 35c-23 24 -35 53 -35 86h28c0 -52 41 -94 93 -94s92 42 93 94h28
c-1 -33 -13 -62 -37 -86c-23 -23 -51 -35 -84 -35z" />
    <glyph glyph-name="Uring" unicode="&#x16e;" horiz-adv-x="746" 
d="M98 299v401h31v-401c0 -177 92 -282 244 -282s245 105 245 282v401h31v-401c0 -99 -25 -176 -76 -230c-50 -54 -117 -81 -200 -81s-150 27 -200 81s-75 131 -75 230zM438 764c-35 -35 -91 -35 -127 0c-36 36 -36 92 0 127c36 36 92 36 127 0c35 -35 35 -91 0 -127z
M375 762c37 0 66 29 66 66s-29 67 -66 67c-39 0 -67 -30 -67 -67s28 -66 67 -66z" />
    <glyph glyph-name="uring" unicode="&#x16f;" horiz-adv-x="603" 
d="M234 706c36 36 92 36 127 0c36 -35 36 -91 0 -127c-35 -36 -91 -36 -127 0s-36 92 0 127zM298 578c37 0 66 28 66 65s-29 66 -66 66c-36 0 -65 -29 -65 -66s29 -65 65 -65zM271 -12c-123 0 -185 71 -185 198v287h31v-281c0 -117 54 -175 161 -175c39 0 78 11 116 34
s66 50 84 80v342h31v-473h-31v88c-43 -55 -119 -100 -207 -100z" />
    <glyph glyph-name="Uhungarumlaut" unicode="&#x170;" horiz-adv-x="746" 
d="M311 765h-36l97 126h41zM441 765h-35l96 126h41zM98 299v401h31v-401c0 -177 92 -282 244 -282s245 105 245 282v401h31v-401c0 -99 -25 -176 -76 -230c-50 -54 -117 -81 -200 -81s-150 27 -200 81s-75 131 -75 230z" />
    <glyph glyph-name="uhungarumlaut" unicode="&#x171;" horiz-adv-x="603" 
d="M245 574h-35l97 126h41zM376 574h-35l96 126h41zM271 -12c-123 0 -185 71 -185 198v287h31v-281c0 -117 54 -175 161 -175c39 0 78 11 116 34s66 50 84 80v342h31v-473h-31v88c-43 -55 -119 -100 -207 -100z" />
    <glyph glyph-name="Uogonek" unicode="&#x172;" horiz-adv-x="745" 
d="M501 -188c-61 0 -102 41 -102 97c0 33 10 61 29 84c-20 -3 -39 -5 -56 -5c-83 0 -150 27 -200 81c-49 55 -74 131 -74 230v401h31v-401c0 -177 92 -282 244 -282c151 0 243 105 243 282v401h32v-401c0 -149 -57 -247 -170 -293c-28 -12 -53 -53 -53 -93
c0 -45 34 -77 82 -77c11 0 25 2 40 6v-24c-13 -4 -29 -6 -46 -6z" />
    <glyph glyph-name="uogonek" unicode="&#x173;" horiz-adv-x="603" 
d="M545 -191c-63 0 -103 42 -103 97c0 37 12 69 36 94v88c-43 -55 -119 -100 -207 -100c-123 0 -185 71 -185 198v287h31v-281c0 -117 54 -175 161 -175c39 0 78 11 116 34s66 50 84 80v342h31v-473c-26 -29 -39 -59 -39 -90c0 -45 33 -76 80 -76c12 0 26 2 41 6v-25
c-15 -4 -30 -6 -46 -6z" />
    <glyph glyph-name="Wcircumflex" unicode="&#x174;" horiz-adv-x="1034" 
d="M321 -4h-28l-245 704h35l225 -652l196 653h26l197 -653l225 652h34l-245 -704h-28l-196 646zM396 765l103 126h36l104 -126h-38l-84 103l-84 -103h-37z" />
    <glyph glyph-name="wcircumflex" unicode="&#x175;" horiz-adv-x="811" 
d="M251 -4h-28l-176 477h33l157 -428l154 430h27l154 -430l157 428h32l-175 -477h-27l-155 431zM282 574l103 126h36l104 -126h-38l-84 103l-84 -103h-37z" />
    <glyph glyph-name="Ycircumflex" unicode="&#x176;" horiz-adv-x="635" 
d="M334 0h-32v326l-273 374h38l251 -343l251 343h38l-273 -374v-326zM197 765l103 126h36l104 -126h-38l-84 103l-84 -103h-37z" />
    <glyph glyph-name="ycircumflex" unicode="&#x177;" horiz-adv-x="534" 
d="M95 -203c-27 0 -49 5 -64 15v30c19 -11 40 -16 61 -16c33 0 60 14 81 41s47 74 76 141l-220 465h35l202 -428l196 428h34l-243 -528c-45 -99 -89 -148 -158 -148zM151 574l103 126h36l104 -126h-38l-84 103l-84 -103h-37z" />
    <glyph glyph-name="Ydieresis" unicode="&#x178;" horiz-adv-x="635" 
d="M334 0h-32v326l-273 374h38l251 -343l251 343h38l-273 -374v-326zM196 823c0 39 59 39 59 0c4 -37 -62 -37 -59 0zM381 823c0 39 60 39 60 0c0 -37 -60 -37 -60 0z" />
    <glyph glyph-name="Zacute" unicode="&#x179;" horiz-adv-x="638" 
d="M581 0h-524v22l467 649h-439v29h481v-22l-465 -649h480v-29zM327 765h-37l97 126h42z" />
    <glyph glyph-name="zacute" unicode="&#x17a;" horiz-adv-x="485" 
d="M446 0h-407v21l347 423h-322v29h366v-21l-345 -423h361v-29zM241 574h-36l97 126h42z" />
    <glyph glyph-name="Zdotaccent" unicode="&#x17b;" horiz-adv-x="638" 
d="M581 0h-524v22l467 649h-439v29h481v-22l-465 -649h480v-29zM341 801c-11 -11 -31 -11 -43 0c-11 12 -11 32 0 43c28 28 71 -15 43 -43z" />
    <glyph glyph-name="zdotaccent" unicode="&#x17c;" horiz-adv-x="485" 
d="M446 0h-407v21l347 423h-322v29h366v-21l-345 -423h361v-29zM265 623c-28 -28 -72 16 -44 44s72 -16 44 -44z" />
    <glyph glyph-name="Zcaron" unicode="&#x17d;" horiz-adv-x="638" 
d="M442 891l-104 -126h-36l-103 126h37l84 -103l84 103h38zM581 0h-524v22l467 649h-439v29h481v-22l-465 -649h480v-29z" />
    <glyph glyph-name="zcaron" unicode="&#x17e;" horiz-adv-x="485" 
d="M364 700l-104 -126h-36l-103 126h37l84 -103l84 103h38zM446 0h-407v21l347 423h-322v29h366v-21l-345 -423h361v-29z" />
    <glyph glyph-name="longs" unicode="&#x17f;" horiz-adv-x="301" 
d="M161 570v-570h-31v444h-101v29h101v77c0 103 32 156 119 156c31 0 60 -7 87 -20v-30c-28 14 -56 21 -83 21c-60 0 -92 -39 -92 -107z" />
    <glyph glyph-name="florin" unicode="&#x192;" horiz-adv-x="483" 
d="M16 -203c-27 0 -53 5 -78 16v30c25 -11 50 -17 75 -17c81 0 129 54 146 161l56 372h-143v29h148l21 140c20 124 72 184 171 184c29 0 56 -5 81 -16v-31c-24 12 -50 18 -77 18c-80 0 -129 -46 -145 -161l-19 -134h174v-29h-180l-57 -378c-17 -112 -76 -184 -173 -184z" />
    <glyph glyph-name="uni0218" unicode="&#x218;" horiz-adv-x="620" 
d="M301 -12c-52 0 -101 7 -147 22c-45 15 -81 33 -106 53v36c53 -44 146 -82 250 -82c65 0 117 15 158 45s62 69 62 118c0 43 -19 78 -42 99c-11 11 -28 22 -49 32s-41 18 -58 23c-17 6 -39 13 -68 21c-64 17 -93 27 -137 47c-62 30 -86 69 -91 140c0 48 20 88 59 121
s96 49 169 49c81 0 151 -20 210 -59v-33c-63 42 -133 63 -208 63c-129 0 -198 -64 -198 -141c0 -39 17 -70 38 -90c38 -31 91 -48 151 -64c8 -2 14 -3 22 -6l69 -21c15 -5 35 -14 60 -26c25 -11 44 -23 56 -36c25 -24 49 -67 49 -119c0 -61 -24 -108 -73 -142
c-49 -33 -107 -50 -176 -50zM269 -208h-28l54 161h33z" />
    <glyph glyph-name="uni0219" unicode="&#x219;" horiz-adv-x="497" 
d="M241 -12c-79 0 -158 26 -195 53v34c43 -29 116 -58 195 -58c99 0 164 40 164 103c0 36 -25 63 -76 82c-13 5 -46 14 -97 27c-43 11 -61 16 -96 31c-44 20 -73 51 -73 102c0 75 65 123 180 123c69 0 126 -15 169 -44v-33c-50 32 -106 48 -167 48c-100 0 -151 -39 -151 -95
c0 -32 14 -54 47 -71c17 -8 32 -14 44 -18l58 -16l30 -8l32 -8c11 -3 46 -13 57 -20c11 -5 36 -16 45 -28c17 -19 29 -39 29 -72c0 -41 -19 -74 -56 -97s-84 -35 -139 -35zM204 -208h-28l54 161h33z" />
    <glyph glyph-name="uni021A" unicode="&#x21a;" horiz-adv-x="616" 
d="M323 0h-31v671h-255v29h542v-29h-256v-671zM261 -208h-28l54 161h33z" />
    <glyph glyph-name="uni021B" unicode="&#x21b;" horiz-adv-x="419" 
d="M154 114v330h-125v29h125v157h31v-157h184v-29h-184v-322c0 -73 32 -105 93 -105c27 0 55 8 84 24v-30c-22 -15 -52 -23 -89 -23c-75 0 -119 45 -119 126zM230 -208h-28l54 161h33z" />
    <glyph glyph-name="circumflex" unicode="&#x2c6;" horiz-adv-x="523" 
d="M139 574l103 126h36l104 -126h-38l-84 103l-84 -103h-37z" />
    <glyph glyph-name="caron" unicode="&#x2c7;" horiz-adv-x="520" 
d="M379 700l-104 -126h-36l-103 126h37l84 -103l84 103h38z" />
    <glyph glyph-name="uni02C9" unicode="&#x2c9;" horiz-adv-x="519" 
d="M425 631h-330v26h330v-26z" />
    <glyph glyph-name="breve" unicode="&#x2d8;" horiz-adv-x="516" 
d="M258 575c-33 0 -62 12 -86 35c-23 24 -35 53 -35 86h28c0 -52 41 -94 93 -94s92 42 93 94h28c-1 -33 -13 -62 -37 -86c-23 -23 -51 -35 -84 -35z" />
    <glyph glyph-name="dotaccent" unicode="&#x2d9;" horiz-adv-x="527" 
d="M285 623c-28 -28 -72 16 -44 44s72 -16 44 -44z" />
    <glyph glyph-name="ring" unicode="&#x2da;" horiz-adv-x="524" 
d="M197 706c36 36 92 36 127 0c36 -35 36 -91 0 -127c-35 -36 -91 -36 -127 0s-36 92 0 127zM261 578c37 0 66 28 66 65s-29 66 -66 66c-36 0 -65 -29 -65 -66s29 -65 65 -65z" />
    <glyph glyph-name="ogonek" unicode="&#x2db;" horiz-adv-x="518" 
d="M309 -183c-63 0 -103 41 -103 97c0 37 13 69 38 94h29c-26 -29 -39 -59 -39 -90c0 -45 33 -76 80 -76c12 0 25 2 40 6v-25c-13 -4 -28 -6 -45 -6z" />
    <glyph glyph-name="tilde" unicode="&#x2dc;" horiz-adv-x="520" 
d="M334 596c-19 0 -44 11 -76 33s-55 33 -69 33c-27 0 -41 -20 -44 -60h-26c1 55 29 88 69 88c19 0 44 -11 76 -33s55 -33 68 -33c27 0 41 20 44 61h26c-1 -55 -28 -89 -68 -89z" />
    <glyph glyph-name="hungarumlaut" unicode="&#x2dd;" horiz-adv-x="534" 
d="M181 574h-35l97 126h41zM312 574h-35l96 126h41z" />
    <glyph glyph-name="acutecomb" unicode="&#x301;" horiz-adv-x="20" 
d="M-263 574h-36l97 126h42z" />
    <glyph glyph-name="uni037E" unicode="&#x37e;" horiz-adv-x="208" 
d="M58 -152h-29l75 228h39zM130 403c-25 -27 -73 16 -43 44c12 12 32 12 43 0c12 -12 12 -32 0 -44z" />
    <glyph glyph-name="uni0394" unicode="&#x394;" horiz-adv-x="739" 
d="M703 0h-667l319 700h29zM369 658l-288 -629h577z" />
    <glyph glyph-name="uni03A9" unicode="&#x3a9;" horiz-adv-x="806" 
d="M292 0h-173v29h130c-79 79 -136 200 -136 331c0 104 27 189 81 254s124 98 209 98s155 -33 209 -98s81 -150 81 -254c0 -131 -57 -251 -137 -331h131v-29h-173v26c41 37 76 84 104 143c29 59 43 122 43 188c0 97 -25 175 -74 235c-49 61 -110 91 -184 91
s-136 -30 -185 -91c-49 -60 -73 -138 -73 -235c0 -66 14 -129 42 -188c29 -59 64 -106 105 -143v-26z" />
    <glyph glyph-name="uni03BC" unicode="&#x3bc;" horiz-adv-x="610" 
d="M125 -200h-32v673h32v-282c0 -116 54 -174 161 -174c39 0 78 11 116 34s66 50 83 80v342h31v-473h-31v88c-43 -55 -119 -100 -207 -100c-74 0 -125 26 -153 79v-267z" />
    <glyph glyph-name="pi" unicode="&#x3c0;" horiz-adv-x="666" 
d="M560 -4c-60 0 -90 39 -90 118v330h-300v-444h-31v444h-91v29h551v-29h-98v-323c0 -69 19 -96 64 -96c13 0 24 2 34 6v-27c-13 -5 -26 -8 -39 -8z" />
    <glyph glyph-name="uni0401" unicode="&#x401;" horiz-adv-x="635" 
d="M586 0h-477v700h460v-29h-429v-280h356v-29h-356v-333h446v-29zM224 823c0 39 59 39 59 0c4 -37 -62 -37 -59 0zM409 823c0 39 60 39 60 0c0 -37 -60 -37 -60 0z" />
    <glyph glyph-name="uni0402" unicode="&#x402;" horiz-adv-x="739" 
d="M471 -12c-39 0 -79 7 -118 21v31c36 -15 75 -23 117 -23c112 0 182 71 182 174c0 49 -19 92 -57 127c-37 35 -89 53 -156 53c-79 0 -154 -17 -224 -52v-319h-31v671h-147v29h465v-29h-287v-320c71 33 147 49 228 49c71 0 129 -20 174 -59s67 -89 67 -151
c0 -121 -84 -202 -213 -202z" />
    <glyph glyph-name="uni0403" unicode="&#x403;" horiz-adv-x="592" 
d="M329 765h-37l97 126h42zM140 0h-31v700h446v-29h-415v-671z" />
    <glyph glyph-name="uni0404" unicode="&#x404;" horiz-adv-x="693" 
d="M425 -12c-99 0 -181 34 -248 103c-66 69 -99 155 -99 259s33 190 99 259c67 69 149 103 248 103c78 0 145 -19 200 -57v-34c-61 41 -128 62 -201 62c-85 0 -157 -30 -216 -89s-91 -133 -96 -222h361v-29h-362c1 -93 32 -171 92 -233c61 -62 135 -93 222 -93
c85 0 158 25 218 75v-36c-57 -45 -130 -68 -218 -68z" />
    <glyph glyph-name="uni0405" unicode="&#x405;" horiz-adv-x="620" 
d="M301 -12c-52 0 -101 7 -147 22c-45 15 -81 33 -106 53v36c53 -44 146 -82 250 -82c65 0 117 15 158 45s62 69 62 118c0 43 -19 78 -42 99c-11 11 -28 22 -49 32s-41 18 -58 23c-17 6 -39 13 -68 21c-64 17 -93 27 -137 47c-62 30 -86 69 -91 140c0 48 20 88 59 121
s96 49 169 49c81 0 151 -20 210 -59v-33c-63 42 -133 63 -208 63c-129 0 -198 -64 -198 -141c0 -39 17 -70 38 -90c38 -31 91 -48 151 -64c8 -2 14 -3 22 -6l69 -21c15 -5 35 -14 60 -26c25 -11 44 -23 56 -36c25 -24 49 -67 49 -119c0 -61 -24 -108 -73 -142
c-49 -33 -107 -50 -176 -50z" />
    <glyph glyph-name="uni0406" unicode="&#x406;" horiz-adv-x="262" 
d="M147 0h-32v700h32v-700z" />
    <glyph glyph-name="uni0407" unicode="&#x407;" horiz-adv-x="261" 
d="M146 0h-32v700h32v-700zM8 823c0 39 59 39 59 0c4 -37 -62 -37 -59 0zM193 823c0 39 60 39 60 0c0 -37 -60 -37 -60 0z" />
    <glyph glyph-name="uni0408" unicode="&#x408;" horiz-adv-x="500" 
d="M194 -12c-63 0 -115 16 -157 49v35c40 -37 91 -55 154 -55c119 0 178 63 178 189v494h31v-498c0 -141 -73 -214 -206 -214z" />
    <glyph glyph-name="uni0409" unicode="&#x409;" horiz-adv-x="1118" 
d="M603 388v-359h218c133 0 210 65 210 180s-77 179 -210 179h-218zM204 518l6 182h393v-283h221c152 0 239 -81 239 -208s-87 -209 -239 -209h-252v671h-331l-6 -167c-3 -71 -6 -131 -11 -180s-12 -95 -22 -139c-30 -127 -84 -181 -187 -185v31c81 -5 126 58 152 137
c9 26 15 59 20 100s9 80 11 115z" />
    <glyph glyph-name="uni040A" unicode="&#x40a;" horiz-adv-x="1154" 
d="M140 0h-31v700h31v-283h463v283h32v-283h225c152 0 239 -81 239 -208s-87 -209 -239 -209h-257v388h-463v-388zM635 389v-360h221c135 0 211 65 211 180s-76 180 -211 180h-221z" />
    <glyph glyph-name="uni040B" unicode="&#x40b;" horiz-adv-x="761" 
d="M215 0h-31v671h-147v29h465v-29h-287v-315c75 29 153 44 232 44c156 0 237 -53 237 -206v-194h-31v181c0 72 -17 122 -50 149s-90 41 -169 41c-73 0 -146 -15 -219 -45v-326z" />
    <glyph glyph-name="uni040C" unicode="&#x40c;" horiz-adv-x="634" 
d="M632 0h-47l-408 365v26l353 309h46l-367 -321zM109 700h31v-700h-31v700zM316 765h-37l97 126h42z" />
    <glyph glyph-name="uni040E" unicode="&#x40e;" horiz-adv-x="626" 
d="M166 -12c-26 0 -51 4 -74 11v30c23 -8 46 -12 69 -12c63 0 100 43 152 162l3 8l-287 513h36l268 -478l222 478h34l-258 -554c-55 -116 -97 -158 -165 -158zM313 758c-92 0 -153 56 -153 137h29c0 -63 49 -109 124 -109c72 0 120 46 120 109h30c0 -39 -14 -72 -43 -98
s-64 -39 -107 -39z" />
    <glyph glyph-name="uni040F" unicode="&#x40f;" horiz-adv-x="740" 
d="M384 -164h-31v164h-244v700h31v-671h460v671h31v-700h-247v-164z" />
    <glyph glyph-name="uni0410" unicode="&#x410;" horiz-adv-x="739" 
d="M68 0h-32l319 705h29l319 -705h-33l-97 213h-408zM369 662l-192 -421h385z" />
    <glyph glyph-name="uni0411" unicode="&#x411;" horiz-adv-x="699" 
d="M386 0h-277v700h460v-29h-429v-255h246c151 0 238 -82 238 -207c0 -127 -87 -209 -238 -209zM140 388v-359h243c133 0 209 65 209 180c0 113 -76 179 -209 179h-243z" />
    <glyph glyph-name="uni0412" unicode="&#x412;" horiz-adv-x="726" 
d="M433 0h-324v700h288c124 0 195 -64 195 -168c0 -77 -35 -127 -104 -152c105 -15 167 -86 167 -187c0 -117 -82 -193 -222 -193zM140 360v-331h289c123 0 193 61 193 166c0 104 -70 165 -193 165h-289zM140 671v-283h254c107 0 167 52 167 141c0 91 -62 142 -167 142h-254
z" />
    <glyph glyph-name="uni0413" unicode="&#x413;" horiz-adv-x="592" 
d="M140 0h-31v700h446v-29h-415v-671z" />
    <glyph glyph-name="uni0414" unicode="&#x414;" horiz-adv-x="766" 
d="M50 -164h-31v193h65c33 45 59 92 78 139c39 95 62 244 62 465v67h396v-671h113v-193h-31v164h-652v-164zM121 29h468v642h-334v-48c0 -280 -37 -463 -134 -594z" />
    <glyph glyph-name="uni0415" unicode="&#x415;" horiz-adv-x="635" 
d="M586 0h-477v700h460v-29h-429v-280h356v-29h-356v-333h446v-29z" />
    <glyph glyph-name="uni0416" unicode="&#x416;" horiz-adv-x="997" 
d="M447 384v-26l-388 -358h-45l401 372l-352 328h42zM483 700h31v-700h-31v700zM983 0h-45l-388 358v26l342 316h42l-352 -328z" />
    <glyph glyph-name="uni0417" unicode="&#x417;" horiz-adv-x="617" 
d="M274 -12c-82 0 -157 16 -225 48v34c66 -35 139 -53 219 -53c75 0 135 16 179 49c45 33 67 77 67 131c0 49 -20 90 -60 123s-94 50 -161 50h-86v29h87c112 0 184 55 184 143c0 89 -82 141 -195 141c-67 0 -134 -15 -199 -45v32c64 28 130 42 199 42c65 0 118 -15 161 -45
c43 -29 65 -71 65 -124c0 -45 -14 -81 -43 -108c-29 -26 -59 -42 -91 -49c71 -15 171 -71 171 -189c0 -61 -24 -112 -73 -151s-115 -58 -199 -58z" />
    <glyph glyph-name="uni0418" unicode="&#x418;" horiz-adv-x="771" 
d="M137 0h-28v700h31v-646l493 646h29v-700h-31v647z" />
    <glyph glyph-name="uni0419" unicode="&#x419;" horiz-adv-x="771" 
d="M137 0h-28v700h31v-646l493 646h29v-700h-31v647zM386 758c-92 0 -153 56 -153 137h29c0 -63 49 -109 124 -109c72 0 120 46 120 109h30c0 -39 -14 -72 -43 -98s-64 -39 -107 -39z" />
    <glyph glyph-name="uni041A" unicode="&#x41a;" horiz-adv-x="634" 
d="M632 0h-47l-408 365v26l353 309h46l-367 -321zM109 700h31v-700h-31v700z" />
    <glyph glyph-name="uni041B" unicode="&#x41b;" horiz-adv-x="722" 
d="M204 518l6 182h403v-700h-31v671h-341l-6 -167c-3 -71 -6 -131 -11 -180s-12 -95 -22 -139c-30 -127 -84 -181 -187 -185v31c81 -5 126 58 152 137c9 26 15 59 20 100s9 80 11 115z" />
    <glyph glyph-name="uni041C" unicode="&#x41c;" horiz-adv-x="846" 
d="M140 0h-31v700h32l282 -368l283 368h31v-700h-31v650l-271 -351h-23l-272 351v-650z" />
    <glyph glyph-name="uni041D" unicode="&#x41d;" horiz-adv-x="759" 
d="M140 0h-31v700h31v-309h479v309h31v-700h-31v362h-479v-362z" />
    <glyph glyph-name="uni041E" unicode="&#x41e;" horiz-adv-x="847" 
d="M424 17c88 0 162 32 222 95s90 143 90 238s-30 174 -90 237c-60 64 -134 96 -222 96c-89 0 -163 -32 -224 -96c-60 -63 -90 -142 -90 -237s30 -174 90 -238c61 -63 135 -95 224 -95zM424 -12c-99 0 -181 34 -247 103s-99 155 -99 259c0 103 33 189 99 258
c67 69 149 104 247 104s180 -34 245 -103c66 -69 99 -155 99 -259s-33 -190 -99 -259c-65 -69 -147 -103 -245 -103z" />
    <glyph glyph-name="uni041F" unicode="&#x41f;" horiz-adv-x="745" 
d="M140 0h-31v700h527v-700h-31v671h-465v-671z" />
    <glyph glyph-name="uni0420" unicode="&#x420;" horiz-adv-x="664" 
d="M140 0h-31v700h288c135 0 212 -72 212 -184s-77 -185 -212 -185h-257v-331zM140 671v-311h255c115 0 182 56 182 155s-67 156 -182 156h-255z" />
    <glyph glyph-name="uni0421" unicode="&#x421;" horiz-adv-x="694" 
d="M425 -12c-99 0 -181 34 -248 102c-66 69 -99 155 -99 260c0 104 33 190 99 259c67 69 149 103 248 103c78 0 145 -19 202 -57v-34c-62 41 -129 62 -201 62c-89 0 -164 -32 -225 -96c-61 -63 -91 -142 -91 -237s30 -175 91 -238s137 -95 226 -95c83 0 156 25 217 75v-36
c-59 -45 -132 -68 -219 -68z" />
    <glyph glyph-name="uni0422" unicode="&#x422;" horiz-adv-x="616" 
d="M323 0h-31v671h-255v29h542v-29h-256v-671z" />
    <glyph glyph-name="uni0423" unicode="&#x423;" horiz-adv-x="625" 
d="M165 -12c-26 0 -51 4 -74 11v30c23 -8 46 -12 69 -12c63 0 100 43 152 162l3 8l-287 513h36l268 -478l222 478h34l-258 -554c-55 -116 -97 -158 -165 -158z" />
    <glyph glyph-name="uni0424" unicode="&#x424;" horiz-adv-x="897" 
d="M464 -17h-32v67c-117 1 -206 29 -265 86s-89 128 -89 212s30 155 89 213s148 87 265 88v64h32v-64c118 -1 206 -30 265 -87s89 -128 89 -212c0 -153 -104 -300 -354 -300v-67zM432 79v541c-116 0 -205 -34 -253 -89c-47 -55 -68 -114 -68 -181s21 -126 68 -181
c48 -55 137 -90 253 -90zM464 620v-541c116 0 206 35 253 90c48 55 69 114 69 181c0 124 -79 270 -322 270z" />
    <glyph glyph-name="uni0425" unicode="&#x425;" horiz-adv-x="694" 
d="M79 0h-39l287 381l-239 319h39l220 -293l221 293h38l-239 -318l288 -382h-41l-268 356z" />
    <glyph glyph-name="uni0426" unicode="&#x426;" horiz-adv-x="775" 
d="M742 -164h-30v164h-603v700h31v-671h460v671h31v-671h111v-193z" />
    <glyph glyph-name="uni0427" unicode="&#x427;" horiz-adv-x="687" 
d="M578 0h-31v343c-77 -30 -155 -45 -233 -45c-155 0 -236 53 -236 208v194h31v-182c0 -72 17 -122 50 -150c33 -27 90 -41 169 -41c75 0 148 16 219 47v326h31v-700z" />
    <glyph glyph-name="uni0428" unicode="&#x428;" horiz-adv-x="1008" 
d="M899 0h-790v700h31v-671h348v671h31v-671h349v671h31v-700z" />
    <glyph glyph-name="uni0429" unicode="&#x429;" horiz-adv-x="1045" 
d="M1012 -164h-31v164h-872v700h32v-671h348v671h31v-671h349v671h31v-671h112v-193z" />
    <glyph glyph-name="uni042A" unicode="&#x42a;" horiz-adv-x="780" 
d="M486 0h-273v671h-200v29h231v-283h242c153 0 239 -81 239 -208s-87 -209 -239 -209zM244 388v-359h240c133 0 210 65 210 180s-77 179 -210 179h-240z" />
    <glyph glyph-name="uni042B" unicode="&#x42b;" horiz-adv-x="858" 
d="M359 0h-250v700h31v-283h219c151 0 239 -81 239 -208s-88 -209 -239 -209zM140 388v-359h216c133 0 210 67 210 180s-77 179 -210 179h-216zM749 0h-31v700h31v-700z" />
    <glyph glyph-name="uni042C" unicode="&#x42c;" horiz-adv-x="677" 
d="M383 0h-274v700h31v-283h243c151 0 239 -81 239 -208s-88 -209 -239 -209zM140 388v-359h240c133 0 210 65 210 180s-77 179 -210 179h-240z" />
    <glyph glyph-name="uni042D" unicode="&#x42d;" horiz-adv-x="694" 
d="M268 -12c-88 0 -161 23 -218 68v36c60 -50 133 -75 218 -75c87 0 161 31 221 93c61 62 92 140 93 233h-362v29h361c-5 89 -37 163 -96 222s-131 89 -216 89c-73 0 -140 -21 -201 -62v34c55 38 122 57 200 57c99 0 181 -34 247 -103c67 -69 100 -155 100 -259
s-33 -190 -100 -259c-66 -69 -148 -103 -247 -103z" />
    <glyph glyph-name="uni042E" unicode="&#x42e;" horiz-adv-x="1033" 
d="M633 -12c-92 0 -168 34 -229 101c-61 68 -92 154 -94 257h-170v-346h-31v700h31v-324h171c5 97 38 177 99 240c61 64 135 96 223 96c91 0 168 -35 229 -104s92 -155 92 -258s-31 -190 -92 -259s-138 -103 -229 -103zM923 350c0 98 -28 178 -85 240
c-56 62 -124 93 -205 93s-149 -31 -206 -93s-85 -142 -85 -240c0 -99 28 -179 85 -241c57 -61 125 -92 206 -92s149 31 205 92c57 62 85 142 85 241z" />
    <glyph glyph-name="uni042F" unicode="&#x42f;" horiz-adv-x="734" 
d="M93 0h-37l232 341c-115 9 -178 78 -178 179c0 109 75 180 207 180h308v-700h-31v338h-271zM320 367h274v304h-274c-115 0 -179 -55 -179 -152s64 -152 179 -152z" />
    <glyph glyph-name="uni0430" unicode="&#x430;" horiz-adv-x="586" 
d="M245 17c84 0 158 46 199 102v89c-60 40 -122 60 -186 60c-107 0 -174 -50 -174 -126c0 -42 16 -73 47 -94s69 -31 114 -31zM236 -12c-50 0 -93 13 -130 40c-36 27 -54 65 -54 114c0 45 19 82 56 110c37 29 85 43 142 43c67 0 132 -18 194 -55v74c0 93 -64 142 -177 142
c-60 0 -114 -17 -162 -51v33c45 31 100 47 167 47c120 0 203 -55 203 -171v-218c0 -45 21 -72 54 -72c10 0 19 2 27 6v-27c-7 -4 -17 -6 -32 -6c-43 0 -76 30 -79 86c-53 -63 -123 -95 -209 -95z" />
    <glyph glyph-name="uni0431" unicode="&#x431;" horiz-adv-x="613" 
d="M323 -12c-79 0 -141 28 -186 84c-45 57 -68 135 -68 234c0 76 8 138 29 186s42 84 85 112c43 29 73 47 136 64c32 9 61 16 86 21c26 6 59 13 100 20v-31c-63 -11 -115 -21 -156 -32c-40 -11 -77 -25 -112 -42c-102 -53 -132 -132 -138 -287c44 84 128 141 233 141
c63 0 116 -22 159 -65s65 -97 65 -163c0 -71 -23 -129 -68 -174s-100 -68 -165 -68zM324 17c54 0 101 20 141 59s60 90 60 152c0 59 -20 108 -59 145s-85 56 -138 56s-100 -16 -139 -47s-68 -68 -87 -111c3 -77 25 -138 64 -185c39 -46 92 -69 158 -69z" />
    <glyph glyph-name="uni0432" unicode="&#x432;" horiz-adv-x="567" 
d="M350 0h-257v473h236c88 0 137 -47 137 -119c0 -53 -22 -89 -65 -106c65 -15 97 -56 97 -122c0 -77 -53 -126 -148 -126zM125 229v-200h222c77 0 120 36 120 100s-43 100 -120 100h-222zM125 444v-186h198c71 0 112 34 112 93s-41 93 -112 93h-198z" />
    <glyph glyph-name="uni0433" unicode="&#x433;" horiz-adv-x="479" 
d="M124 0h-31v473h342v-29h-311v-444z" />
    <glyph glyph-name="uni0434" unicode="&#x434;" horiz-adv-x="626" 
d="M51 -152h-31v181h58c64 75 96 206 97 393v51h323v-444h94v-181h-30v152h-511v-152zM115 29h353v415h-263v-35c0 -173 -30 -299 -90 -380z" />
    <glyph glyph-name="uni0435" unicode="&#x435;" horiz-adv-x="566" 
d="M316 -12c-74 0 -136 23 -185 70s-74 107 -74 178s22 131 66 178c45 47 101 71 170 71c80 0 142 -36 173 -87s44 -102 44 -150v-10h-421c1 -65 23 -118 65 -159c43 -41 98 -62 165 -62c61 0 112 15 153 44v-31c-39 -28 -91 -42 -156 -42zM90 264h389
c-3 73 -46 192 -187 192c-60 0 -108 -20 -144 -59c-35 -39 -55 -83 -58 -133z" />
    <glyph glyph-name="uni0436" unicode="&#x436;" horiz-adv-x="735" 
d="M318 267v-25l-255 -242h-46l271 255l-234 218h44zM383 0h-31v473h31v-473zM718 0h-46l-255 242v25l220 206h44l-234 -218z" />
    <glyph glyph-name="uni0437" unicode="&#x437;" horiz-adv-x="512" 
d="M234 -12c-63 0 -120 11 -169 32v33c52 -24 108 -36 167 -36c108 0 182 42 182 113c0 67 -65 108 -157 108h-76v29h76c92 0 137 43 137 92c0 63 -61 97 -156 97c-53 0 -105 -11 -156 -32v31c51 20 105 30 160 30c107 0 183 -46 183 -121c0 -63 -45 -95 -97 -110
c78 -19 117 -60 117 -125c0 -85 -82 -141 -211 -141z" />
    <glyph glyph-name="uni0438" unicode="&#x438;" horiz-adv-x="604" 
d="M121 0h-28v473h31v-424l359 424h27v-473h-30v424z" />
    <glyph glyph-name="uni0439" unicode="&#x439;" horiz-adv-x="604" 
d="M121 0h-28v473h31v-424l359 424h27v-473h-30v424zM303 575c-92 0 -151 56 -151 136h29c0 -63 48 -108 121 -108c72 0 119 45 119 108h30c0 -39 -14 -72 -43 -98c-28 -25 -63 -38 -105 -38z" />
    <glyph glyph-name="uni043A" unicode="&#x43a;" horiz-adv-x="505" 
d="M93 473h31v-473h-31v473zM486 0h-47l-281 243v25l245 205h47l-261 -217z" />
    <glyph glyph-name="uni043B" unicode="&#x43b;" horiz-adv-x="578" 
d="M20 0v31c55 4 89 33 108 89c15 40 21 63 25 111l4 54c1 12 1 29 2 50l4 138h321v-473h-31v444h-259l-4 -112c-1 -23 -1 -42 -2 -55l-6 -60c-3 -26 -6 -47 -11 -64c-8 -33 -25 -83 -48 -108c-23 -24 -59 -45 -103 -45z" />
    <glyph glyph-name="uni043C" unicode="&#x43c;" horiz-adv-x="687" 
d="M124 0h-31v473h29l220 -247l222 247h29v-473h-31v428l-214 -240h-11l-213 240v-428z" />
    <glyph glyph-name="uni043D" unicode="&#x43d;" horiz-adv-x="600" 
d="M124 0h-31v473h31v-215h351v215h31v-473h-31v229h-351v-229z" />
    <glyph glyph-name="uni043E" unicode="&#x43e;" horiz-adv-x="613" 
d="M307 17c61 0 113 21 154 63c42 43 63 95 63 156c0 62 -21 114 -63 156c-41 43 -93 64 -154 64c-62 0 -114 -21 -156 -64c-41 -42 -62 -94 -62 -156s21 -114 62 -156c42 -42 94 -63 156 -63zM57 236c0 68 23 126 69 175c47 49 107 74 181 74c73 0 133 -25 179 -74
c47 -49 70 -107 70 -175c0 -67 -23 -126 -70 -175c-46 -49 -106 -73 -179 -73s-133 24 -180 73s-70 108 -70 175z" />
    <glyph glyph-name="uni043F" unicode="&#x43f;" horiz-adv-x="592" 
d="M124 0h-31v473h405v-473h-31v444h-343v-444z" />
    <glyph glyph-name="uni0440" unicode="&#x440;" horiz-adv-x="628" 
d="M124 -200h-31v673h31v-90c49 68 116 102 201 102c73 0 132 -25 177 -74c46 -49 69 -107 69 -175c0 -67 -23 -126 -69 -175c-45 -49 -104 -73 -177 -73c-85 0 -152 34 -201 102v-290zM321 17c62 0 114 21 155 63c42 42 63 94 63 156s-21 114 -63 156
c-41 43 -93 64 -155 64c-85 0 -164 -49 -197 -121v-197c33 -71 112 -121 197 -121z" />
    <glyph glyph-name="uni0441" unicode="&#x441;" horiz-adv-x="525" 
d="M306 -12c-73 0 -133 24 -180 73c-46 49 -69 107 -69 175s23 126 70 175s107 74 180 74c54 0 102 -12 143 -37v-33c-43 27 -90 41 -141 41c-62 0 -114 -21 -157 -63c-42 -42 -63 -94 -63 -157c0 -62 21 -114 63 -156c43 -42 95 -63 157 -63c59 0 109 15 151 46v-32
c-43 -29 -95 -43 -154 -43z" />
    <glyph glyph-name="uni0442" unicode="&#x442;" horiz-adv-x="464" 
d="M247 0h-31v444h-185v29h402v-29h-186v-444z" />
    <glyph glyph-name="uni0443" unicode="&#x443;" horiz-adv-x="534" 
d="M95 -203c-27 0 -49 5 -64 15v30c19 -11 40 -16 61 -16c33 0 60 14 81 41s47 74 76 141l-220 465h35l202 -428l196 428h34l-243 -528c-45 -99 -89 -148 -158 -148z" />
    <glyph glyph-name="uni0444" unicode="&#x444;" horiz-adv-x="706" 
d="M369 -199h-31v189c-85 0 -154 22 -205 67s-76 104 -76 179s25 135 76 179s119 66 205 67v218h31v-218c86 -1 154 -23 204 -67c51 -44 76 -104 76 -179s-25 -134 -76 -179s-119 -67 -204 -67v-189zM369 454v-435c71 0 131 18 178 55c48 37 72 91 72 162s-24 125 -71 162
s-107 56 -179 56zM338 19v435c-72 0 -132 -19 -179 -56s-71 -91 -71 -162s24 -125 71 -162c48 -37 108 -55 179 -55z" />
    <glyph glyph-name="uni0445" unicode="&#x445;" horiz-adv-x="535" 
d="M77 0h-38l211 253l-182 220h40l162 -195l163 195h38l-182 -219l211 -254h-39l-192 231z" />
    <glyph glyph-name="uni0446" unicode="&#x446;" horiz-adv-x="620" 
d="M586 -152h-30v152h-463v473h31v-444h338v444h31v-444h93v-181z" />
    <glyph glyph-name="uni0447" unicode="&#x447;" horiz-adv-x="552" 
d="M458 0h-31v212c-55 -25 -113 -37 -174 -37c-124 0 -185 50 -185 177v121h31v-119c0 -111 49 -150 164 -150c59 0 113 12 164 37v232h31v-473z" />
    <glyph glyph-name="uni0448" unicode="&#x448;" horiz-adv-x="804" 
d="M710 0h-617v473h31v-444h262v444h31v-444h262v444h31v-473z" />
    <glyph glyph-name="uni0449" unicode="&#x449;" horiz-adv-x="838" 
d="M804 -152h-29v152h-682v473h31v-444h262v444h31v-444h262v444h31v-444h94v-181z" />
    <glyph glyph-name="uni044A" unicode="&#x44a;" horiz-adv-x="625" 
d="M397 0h-229v444h-153v29h184v-176h197c108 0 170 -57 170 -148s-61 -149 -169 -149zM199 268v-239h194c91 0 141 43 141 119s-52 120 -141 120h-194z" />
    <glyph glyph-name="uni044B" unicode="&#x44b;" horiz-adv-x="680" 
d="M125 473v-176h168c107 0 169 -57 169 -148s-61 -149 -169 -149h-200v473h32zM586 0h-31v473h31v-473zM125 268v-239h164c91 0 142 43 142 119s-53 120 -142 120h-164z" />
    <glyph glyph-name="uni044C" unicode="&#x44c;" horiz-adv-x="550" 
d="M125 473v-176h197c107 0 169 -57 169 -148s-60 -149 -168 -149h-230v473h32zM125 268v-239h194c91 0 141 43 141 119s-52 120 -141 120h-194z" />
    <glyph glyph-name="uni044D" unicode="&#x44d;" horiz-adv-x="521" 
d="M217 -12c-59 0 -110 14 -153 43v32c43 -31 94 -46 151 -46c61 0 112 20 153 59c41 40 63 90 65 149h-263v29h263c-3 58 -26 106 -67 144c-41 39 -92 58 -151 58c-50 0 -97 -13 -141 -40v32c41 25 89 37 143 37c73 0 132 -25 178 -74s69 -107 69 -175s-23 -126 -69 -175
s-105 -73 -178 -73z" />
    <glyph glyph-name="uni044E" unicode="&#x44e;" horiz-adv-x="781" 
d="M494 -12c-64 0 -118 22 -161 66c-43 45 -65 101 -68 168h-140v-222h-32v473h32v-222h140c3 67 25 123 68 167c43 45 97 67 161 67c66 0 121 -24 164 -71c44 -47 66 -107 66 -178s-22 -130 -66 -177c-43 -47 -98 -71 -164 -71zM494 17c58 0 106 21 143 62
c38 42 57 94 57 157s-19 115 -57 157c-37 42 -85 63 -143 63c-57 0 -105 -21 -143 -63c-37 -42 -56 -94 -56 -157c0 -62 19 -114 56 -156c38 -42 86 -63 143 -63z" />
    <glyph glyph-name="uni044F" unicode="&#x44f;" horiz-adv-x="562" 
d="M94 0h-37l154 198c-89 5 -139 57 -139 137c0 84 57 138 160 138h236v-473h-30v195h-192zM234 224h204v220h-204c-83 0 -131 -41 -131 -110s48 -110 131 -110z" />
    <glyph glyph-name="uni0451" unicode="&#x451;" horiz-adv-x="566" 
d="M316 -12c-74 0 -136 23 -185 70s-74 107 -74 178s22 131 66 178c45 47 101 71 170 71c80 0 142 -36 173 -87s44 -102 44 -150v-10h-421c1 -65 23 -118 65 -159c43 -41 98 -62 165 -62c61 0 112 15 153 44v-31c-39 -28 -91 -42 -156 -42zM90 264h389
c-3 73 -46 192 -187 192c-60 0 -108 -20 -144 -59c-35 -39 -55 -83 -58 -133zM200 586c-17 0 -30 13 -30 30c0 16 13 29 30 29c16 0 29 -13 29 -29c0 -17 -13 -30 -29 -30zM385 586c-17 0 -30 13 -30 30c0 16 13 29 30 29c16 0 29 -13 29 -29c0 -17 -13 -30 -29 -30z" />
    <glyph glyph-name="uni0452" unicode="&#x452;" horiz-adv-x="625" 
d="M541 230v-304c0 -95 -51 -129 -119 -129c-26 0 -50 5 -71 16v32c20 -13 43 -19 68 -19c61 0 91 36 91 107v291c0 117 -54 175 -161 175c-39 0 -77 -12 -115 -35s-66 -49 -85 -79v-285h-31v552h-103v29h103v119h31v-119h132v-29h-132v-223c44 53 121 99 208 99
c121 0 184 -71 184 -198z" />
    <glyph glyph-name="uni0453" unicode="&#x453;" horiz-adv-x="479" 
d="M256 574h-36l97 126h42zM124 0h-31v473h342v-29h-311v-444z" />
    <glyph glyph-name="uni0454" unicode="&#x454;" horiz-adv-x="522" 
d="M304 -12c-73 0 -132 24 -178 73s-69 107 -69 175s23 126 69 175s105 74 178 74c54 0 102 -12 143 -37v-32c-44 27 -91 40 -141 40c-59 0 -110 -19 -151 -58c-41 -38 -64 -86 -67 -144h263v-29h-263c2 -59 24 -109 65 -149c41 -39 92 -59 153 -59c57 0 108 15 151 46v-32
c-43 -29 -94 -43 -153 -43z" />
    <glyph glyph-name="uni0455" unicode="&#x455;" horiz-adv-x="497" 
d="M241 -12c-79 0 -158 26 -195 53v34c43 -29 116 -58 195 -58c99 0 164 40 164 103c0 36 -25 63 -76 82c-13 5 -46 14 -97 27c-43 11 -61 16 -96 31c-44 20 -73 51 -73 102c0 75 65 123 180 123c69 0 126 -15 169 -44v-33c-50 32 -106 48 -167 48c-100 0 -151 -39 -151 -95
c0 -32 14 -54 47 -71c17 -8 32 -14 44 -18l58 -16l30 -8l32 -8c11 -3 46 -13 57 -20c11 -5 36 -16 45 -28c17 -19 29 -39 29 -72c0 -41 -19 -74 -56 -97s-84 -35 -139 -35z" />
    <glyph glyph-name="uni0456" unicode="&#x456;" horiz-adv-x="242" 
d="M137 0h-31v473h31v-473zM100 623c-11 12 -11 32 0 43c12 12 32 12 43 0c12 -11 12 -31 0 -43c-11 -11 -31 -11 -43 0z" />
    <glyph glyph-name="uni0457" unicode="&#x457;" horiz-adv-x="240" 
d="M28 613c-17 0 -30 13 -30 30c0 16 13 29 30 29c16 0 29 -13 29 -29c0 -17 -13 -30 -29 -30zM213 613c-17 0 -30 13 -30 30c0 16 13 29 30 29c16 0 29 -13 29 -29c0 -17 -13 -30 -29 -30zM136 0h-31v473h31v-473z" />
    <glyph glyph-name="uni0458" unicode="&#x458;" horiz-adv-x="244" 
d="M18 -203c-26 0 -50 5 -71 16v32c22 -13 44 -19 67 -19c61 0 92 36 92 107v540h31v-547c0 -93 -51 -129 -119 -129zM100 623c-11 12 -11 32 0 43c12 12 32 12 43 0c12 -11 12 -31 0 -43c-11 -11 -31 -11 -43 0z" />
    <glyph glyph-name="uni0459" unicode="&#x459;" horiz-adv-x="900" 
d="M20 0v31c55 4 89 33 108 89c15 40 21 63 25 111l4 54c1 12 1 29 2 50l4 138h321v-177h187c108 0 170 -56 170 -147s-61 -149 -169 -149h-219v444h-259l-4 -112c-1 -23 -1 -42 -2 -55l-6 -60c-3 -26 -6 -47 -11 -64c-8 -33 -25 -83 -48 -108c-23 -24 -59 -45 -103 -45z
M484 268v-240h184c89 0 141 44 141 120c0 77 -50 120 -141 120h-184z" />
    <glyph glyph-name="uni045A" unicode="&#x45a;" horiz-adv-x="894" 
d="M495 473v-199h171c108 0 169 -53 169 -137c0 -83 -61 -137 -168 -137h-203v246h-339v-246h-32v473h32v-199h339v199h31zM495 246v-218h168c89 0 141 40 141 109s-52 109 -141 109h-168z" />
    <glyph glyph-name="uni045B" unicode="&#x45b;" horiz-adv-x="625" 
d="M149 0h-31v552h-103v29h103v119h31v-119h132v-29h-132v-223c43 53 121 99 208 99c121 0 184 -71 184 -198v-230h-31v224c0 117 -54 175 -161 175c-39 0 -77 -12 -115 -35s-66 -49 -85 -79v-285z" />
    <glyph glyph-name="uni045C" unicode="&#x45c;" horiz-adv-x="505" 
d="M93 473h31v-473h-31v473zM486 0h-47l-281 243v25l245 205h47l-261 -217zM257 574h-36l97 126h42z" />
    <glyph glyph-name="uni045E" unicode="&#x45e;" horiz-adv-x="534" 
d="M95 -203c-27 0 -49 5 -64 15v30c19 -11 40 -16 61 -16c33 0 60 14 81 41s47 74 76 141l-220 465h35l202 -428l196 428h34l-243 -528c-45 -99 -89 -148 -158 -148zM269 575c-92 0 -151 56 -151 136h29c0 -63 48 -108 121 -108c72 0 119 45 119 108h30
c0 -39 -14 -72 -43 -98c-28 -25 -63 -38 -105 -38z" />
    <glyph glyph-name="uni045F" unicode="&#x45f;" horiz-adv-x="587" 
d="M308 -152h-31v152h-184v473h31v-444h338v444h31v-473h-185v-152z" />
    <glyph glyph-name="uni0490" unicode="&#x490;" horiz-adv-x="586" 
d="M140 0h-31v700h411v149h29v-178h-409v-671z" />
    <glyph glyph-name="uni0491" unicode="&#x491;" horiz-adv-x="479" 
d="M124 0h-31v473h312v136h30v-165h-311v-444z" />
    <glyph glyph-name="uni1E02" unicode="&#x1e02;" horiz-adv-x="726" 
d="M433 0h-324v700h288c124 0 195 -64 195 -168c0 -77 -35 -127 -104 -152c105 -15 167 -86 167 -187c0 -117 -82 -193 -222 -193zM140 360v-331h289c123 0 193 61 193 166c0 104 -70 165 -193 165h-289zM140 671v-283h254c107 0 167 52 167 141c0 91 -62 142 -167 142h-254
zM363 801c-11 -11 -31 -11 -43 0c-11 12 -11 32 0 43c28 28 71 -15 43 -43z" />
    <glyph glyph-name="uni1E03" unicode="&#x1e03;" horiz-adv-x="628" 
d="M325 -12c-85 0 -152 34 -201 102v-90h-31v700h31v-317c49 68 116 102 201 102c73 0 132 -25 177 -74c46 -49 69 -107 69 -175c0 -67 -23 -126 -69 -175c-45 -49 -104 -73 -177 -73zM321 17c62 0 114 21 155 63c42 42 63 94 63 156s-21 114 -63 156c-41 43 -93 64 -155 64
c-85 0 -164 -50 -197 -121v-197c33 -71 112 -121 197 -121zM342 801c-11 -11 -31 -11 -43 0c-11 12 -11 32 0 43c28 28 71 -15 43 -43z" />
    <glyph glyph-name="uni1E0A" unicode="&#x1e0a;" horiz-adv-x="774" 
d="M319 0h-210v700h210c112 0 203 -32 272 -97c69 -64 104 -148 104 -253s-35 -189 -104 -254c-69 -64 -160 -96 -272 -96zM140 671v-642h171c108 0 194 29 257 88s95 136 95 233s-32 174 -95 233s-149 88 -257 88h-171zM354 801c-11 -11 -31 -11 -43 0c-11 12 -11 32 0 43
c28 28 71 -15 43 -43z" />
    <glyph glyph-name="uni1E0B" unicode="&#x1e0b;" horiz-adv-x="629" 
d="M304 -12c-73 0 -132 24 -178 73s-69 108 -69 175c0 68 23 126 69 175s105 74 178 74c85 0 157 -41 200 -102v317h31v-700h-31v90c-43 -61 -115 -102 -200 -102zM308 17c42 0 81 11 117 34c37 23 63 52 79 87v197c-16 35 -42 64 -79 87c-36 23 -75 34 -117 34
c-62 0 -114 -21 -156 -64c-42 -42 -63 -94 -63 -156c0 -61 21 -113 63 -156c42 -42 94 -63 156 -63zM329 801c-11 -11 -31 -11 -43 0c-11 12 -11 32 0 43c28 28 71 -15 43 -43z" />
    <glyph glyph-name="uni1E1E" unicode="&#x1e1e;" horiz-adv-x="614" 
d="M140 0h-31v700h456v-29h-425v-289h354v-29h-354v-353zM359 801c-11 -11 -31 -11 -43 0c-11 12 -11 32 0 43c28 28 71 -15 43 -43z" />
    <glyph glyph-name="uni1E1F" unicode="&#x1e1f;" horiz-adv-x="366" 
d="M130 0v444h-101v29h101v104c0 81 43 129 119 129c32 0 61 -7 87 -20v-30c-27 14 -54 21 -83 21c-60 0 -92 -39 -92 -107v-97h175v-29h-175v-444h-31zM257 801c-11 -11 -31 -11 -43 0c-11 12 -11 32 0 43c28 28 71 -15 43 -43z" />
    <glyph glyph-name="uni1E40" unicode="&#x1e40;" horiz-adv-x="846" 
d="M140 0h-31v700h32l282 -368l283 368h31v-700h-31v650l-271 -351h-23l-272 351v-650zM445 801c-11 -11 -31 -11 -43 0c-11 12 -11 32 0 43c28 28 71 -15 43 -43z" />
    <glyph glyph-name="uni1E41" unicode="&#x1e41;" horiz-adv-x="910" 
d="M124 0h-31v473h31v-83c37 55 102 95 185 95c81 0 133 -36 155 -107c40 61 107 107 195 107c108 0 167 -67 167 -190v-295h-31v290c0 69 -21 118 -53 139s-57 27 -89 27c-75 0 -146 -49 -179 -116c1 -11 2 -29 2 -52v-288h-31v290c0 69 -21 119 -54 139
c-32 21 -57 27 -89 27c-71 0 -142 -46 -178 -110v-346zM483 623c-28 -28 -72 16 -44 44s72 -16 44 -44z" />
    <glyph glyph-name="uni1E56" unicode="&#x1e56;" horiz-adv-x="664" 
d="M140 0h-31v700h288c135 0 212 -72 212 -184s-77 -185 -212 -185h-257v-331zM140 671v-311h255c115 0 182 56 182 155s-67 156 -182 156h-255zM354 801c-11 -11 -31 -11 -43 0c-11 12 -11 32 0 43c28 28 71 -15 43 -43z" />
    <glyph glyph-name="uni1E57" unicode="&#x1e57;" horiz-adv-x="628" 
d="M124 -200h-31v673h31v-90c49 68 116 102 201 102c73 0 132 -25 177 -74c46 -49 69 -107 69 -175c0 -67 -23 -126 -69 -175c-45 -49 -104 -73 -177 -73c-85 0 -152 34 -201 102v-290zM321 17c62 0 114 21 155 63c42 42 63 94 63 156s-21 114 -63 156
c-41 43 -93 64 -155 64c-85 0 -164 -49 -197 -121v-197c33 -71 112 -121 197 -121zM343 623c-28 -28 -72 16 -44 44s72 -16 44 -44z" />
    <glyph glyph-name="uni1E60" unicode="&#x1e60;" horiz-adv-x="620" 
d="M301 -12c-52 0 -101 7 -147 22c-45 15 -81 33 -106 53v36c53 -44 146 -82 250 -82c65 0 117 15 158 45s62 69 62 118c0 43 -19 78 -42 99c-11 11 -28 22 -49 32s-41 18 -58 23c-17 6 -39 13 -68 21c-64 17 -93 27 -137 47c-62 30 -86 69 -91 140c0 48 20 88 59 121
s96 49 169 49c81 0 151 -20 210 -59v-33c-63 42 -133 63 -208 63c-129 0 -198 -64 -198 -141c0 -39 17 -70 38 -90c38 -31 91 -48 151 -64c8 -2 14 -3 22 -6l69 -21c15 -5 35 -14 60 -26c25 -11 44 -23 56 -36c25 -24 49 -67 49 -119c0 -61 -24 -108 -73 -142
c-49 -33 -107 -50 -176 -50zM313 801c-11 -11 -31 -11 -43 0c-11 12 -11 32 0 43c28 28 71 -15 43 -43z" />
    <glyph glyph-name="uni1E61" unicode="&#x1e61;" horiz-adv-x="497" 
d="M241 -12c-79 0 -158 26 -195 53v34c43 -29 116 -58 195 -58c99 0 164 40 164 103c0 36 -25 63 -76 82c-13 5 -46 14 -97 27c-43 11 -61 16 -96 31c-44 20 -73 51 -73 102c0 75 65 123 180 123c69 0 126 -15 169 -44v-33c-50 32 -106 48 -167 48c-100 0 -151 -39 -151 -95
c0 -32 14 -54 47 -71c17 -8 32 -14 44 -18l58 -16l30 -8l32 -8c11 -3 46 -13 57 -20c11 -5 36 -16 45 -28c17 -19 29 -39 29 -72c0 -41 -19 -74 -56 -97s-84 -35 -139 -35zM263 623c-28 -28 -72 16 -44 44s72 -16 44 -44z" />
    <glyph glyph-name="uni1E6A" unicode="&#x1e6a;" horiz-adv-x="616" 
d="M323 0h-31v671h-255v29h542v-29h-256v-671zM330 801c-11 -11 -31 -11 -43 0c-11 12 -11 32 0 43c28 28 71 -15 43 -43z" />
    <glyph glyph-name="uni1E6B" unicode="&#x1e6b;" horiz-adv-x="419" 
d="M362 11c-22 -15 -52 -23 -89 -23s-67 11 -88 32c-21 22 -31 53 -31 94v330h-125v29h125v157h31v-157h184v-29h-184v-322c0 -73 32 -105 93 -105c27 0 55 8 84 24v-30zM192 702c-28 -28 -72 16 -44 44s72 -16 44 -44z" />
    <glyph glyph-name="Wgrave" unicode="&#x1e80;" horiz-adv-x="1034" 
d="M321 -4h-28l-245 704h35l225 -652l196 653h26l197 -653l225 652h34l-245 -704h-28l-196 646zM394 891h42l97 -126h-36z" />
    <glyph glyph-name="wgrave" unicode="&#x1e81;" horiz-adv-x="811" 
d="M251 -4h-28l-176 477h33l157 -428l154 430h27l154 -430l157 428h32l-175 -477h-27l-155 431zM287 700h42l97 -126h-36z" />
    <glyph glyph-name="Wacute" unicode="&#x1e82;" horiz-adv-x="1034" 
d="M321 -4h-28l-245 704h35l225 -652l196 653h26l197 -653l225 652h34l-245 -704h-28l-196 646zM531 765h-37l97 126h42z" />
    <glyph glyph-name="wacute" unicode="&#x1e83;" horiz-adv-x="811" 
d="M251 -4h-28l-176 477h33l157 -428l154 430h27l154 -430l157 428h32l-175 -477h-27l-155 431zM418 574h-36l97 126h42z" />
    <glyph glyph-name="Wdieresis" unicode="&#x1e84;" horiz-adv-x="1034" 
d="M321 -4h-28l-245 704h35l225 -652l196 653h26l197 -653l225 652h34l-245 -704h-28l-196 646zM394 823c0 39 59 39 59 0c4 -37 -62 -37 -59 0zM579 823c0 39 60 39 60 0c0 -37 -60 -37 -60 0z" />
    <glyph glyph-name="wdieresis" unicode="&#x1e85;" horiz-adv-x="811" 
d="M251 -4h-28l-176 477h33l157 -428l154 430h27l154 -430l157 428h32l-175 -477h-27l-155 431zM313 613c-17 0 -30 13 -30 30c0 16 13 29 30 29c16 0 29 -13 29 -29c0 -17 -13 -30 -29 -30zM498 613c-17 0 -30 13 -30 30c0 16 13 29 30 29c16 0 29 -13 29 -29
c0 -17 -13 -30 -29 -30z" />
    <glyph glyph-name="Ygrave" unicode="&#x1ef2;" horiz-adv-x="635" 
d="M334 0h-32v326l-273 374h38l251 -343l251 343h38l-273 -374v-326zM211 891h42l97 -126h-36z" />
    <glyph glyph-name="ygrave" unicode="&#x1ef3;" horiz-adv-x="534" 
d="M95 -203c-27 0 -49 5 -64 15v30c19 -11 40 -16 61 -16c33 0 60 14 81 41s47 74 76 141l-220 465h35l202 -428l196 428h34l-243 -528c-45 -99 -89 -148 -158 -148zM166 700h42l97 -126h-36z" />
    <glyph glyph-name="endash" unicode="&#x2013;" horiz-adv-x="714" 
d="M607 254h-500v29h500v-29z" />
    <glyph glyph-name="emdash" unicode="&#x2014;" horiz-adv-x="908" 
d="M801 254h-694v29h694v-29z" />
    <glyph glyph-name="uni2015" unicode="&#x2015;" horiz-adv-x="758" 
d="M651 230h-544v29h544v-29z" />
    <glyph glyph-name="quoteleft" unicode="&#x2018;" horiz-adv-x="193" 
d="M124 700h29l-75 -228h-39z" />
    <glyph glyph-name="quoteright" unicode="&#x2019;" horiz-adv-x="193" 
d="M68 473h-29l75 228h39z" />
    <glyph glyph-name="quotesinglbase" unicode="&#x201a;" horiz-adv-x="208" 
d="M58 -152h-29l75 228h39z" />
    <glyph glyph-name="quotedblleft" unicode="&#x201c;" horiz-adv-x="307" 
d="M238 700h29l-75 -228h-39zM124 700h29l-75 -228h-39z" />
    <glyph glyph-name="quotedblright" unicode="&#x201d;" horiz-adv-x="306" 
d="M181 473h-29l75 228h39zM68 473h-29l75 228h39z" />
    <glyph glyph-name="quotedblbase" unicode="&#x201e;" horiz-adv-x="321" 
d="M171 -152h-29l75 228h39zM58 -152h-29l75 228h39z" />
    <glyph glyph-name="dagger" unicode="&#x2020;" horiz-adv-x="531" 
d="M281 0h-31v444h-185v30h185v226h31v-226h186v-30h-186v-444z" />
    <glyph glyph-name="daggerdbl" unicode="&#x2021;" horiz-adv-x="531" 
d="M282 0h-31v225h-186v29h186v190h-186v30h186v226h31v-226h185v-30h-185v-190h185v-29h-185v-225z" />
    <glyph glyph-name="bullet" unicode="&#x2022;" horiz-adv-x="402" 
d="M265 293c-36 -35 -94 -35 -130 0c-35 36 -35 94 0 129c36 36 94 36 130 0c36 -35 36 -93 0 -129z" />
    <glyph glyph-name="ellipsis" unicode="&#x2026;" horiz-adv-x="608" 
d="M77 28c0 19 12 31 31 31c27 0 40 -34 21 -53c-18 -18 -52 -5 -52 22zM274 28c0 19 13 31 30 31c19 0 31 -12 31 -31c0 -39 -61 -39 -61 0zM522 6c-25 -27 -73 16 -43 44c12 12 32 12 43 0c12 -12 12 -32 0 -44z" />
    <glyph glyph-name="perthousand" unicode="&#x2030;" horiz-adv-x="1197" 
d="M224 0h-32l403 700h32zM220 380c-47 0 -85 16 -116 48c-31 33 -46 72 -46 119c0 46 15 85 46 117s69 48 116 48c46 0 84 -16 115 -49c31 -32 47 -71 47 -116c0 -47 -16 -86 -47 -119c-31 -32 -69 -48 -115 -48zM597 -12c-46 0 -84 16 -115 48s-46 71 -46 118
c0 46 15 85 46 117c31 33 69 49 115 49c47 0 85 -16 116 -49c31 -32 47 -71 47 -117c0 -47 -16 -86 -47 -118s-69 -48 -116 -48zM977 -12c-47 0 -85 16 -116 48s-46 71 -46 118c0 46 15 85 46 117c31 33 69 49 116 49c46 0 84 -16 115 -49c31 -32 47 -71 47 -117
c0 -47 -16 -86 -47 -118s-69 -48 -115 -48zM220 408c76 0 132 59 132 139c0 39 -13 71 -38 97c-25 27 -56 40 -94 40c-77 0 -132 -60 -132 -137c0 -80 55 -139 132 -139zM597 16c76 0 132 59 132 139c0 39 -13 71 -38 97c-25 27 -56 40 -94 40c-77 0 -132 -60 -132 -137
c0 -80 55 -139 132 -139zM977 16c76 0 132 59 132 139c0 39 -13 71 -38 97c-25 27 -56 40 -94 40c-77 0 -132 -60 -132 -137c0 -80 55 -139 132 -139z" />
    <glyph glyph-name="guilsinglleft" unicode="&#x2039;" horiz-adv-x="307" 
d="M252 42h-38l-159 185v19l159 185h38l-166 -195z" />
    <glyph glyph-name="guilsinglright" unicode="&#x203a;" horiz-adv-x="307" 
d="M252 246v-19l-159 -185h-38l166 194l-166 195h38z" />
    <glyph glyph-name="fraction" unicode="&#x2044;" horiz-adv-x="163" 
d="M-100 0h-35l404 700h34z" />
    <glyph glyph-name="zerosuperior" unicode="&#x2070;" horiz-adv-x="388" 
d="M41 511c0 55 14 101 43 138s65 55 110 55c44 0 80 -18 109 -55s44 -83 44 -138s-14 -101 -43 -138s-65 -55 -110 -55s-81 18 -110 54c-29 37 -43 83 -43 139zM71 511c0 -48 12 -88 35 -119s53 -47 88 -47s64 16 87 47s35 71 35 119s-12 88 -35 119s-52 47 -87 47
s-65 -16 -88 -48c-23 -31 -35 -71 -35 -118z" />
    <glyph glyph-name="foursuperior" unicode="&#x2074;" horiz-adv-x="348" 
d="M260 322h-30v106h-205v23l208 249h27v-245h63v-27h-63v-106zM230 654l-167 -199h167v199z" />
    <glyph glyph-name="fivesuperior" unicode="&#x2075;" horiz-adv-x="335" 
d="M145 318c-41 0 -76 9 -105 26v30c31 -19 66 -29 105 -29c67 0 116 41 116 96c0 52 -44 92 -111 92c-33 0 -64 -5 -94 -15l25 182h186v-27h-163l-15 -121c17 5 39 8 66 8c79 0 137 -48 137 -119c0 -35 -14 -65 -42 -88s-63 -35 -105 -35z" />
    <glyph glyph-name="sixsuperior" unicode="&#x2076;" horiz-adv-x="352" 
d="M185 318c-91 0 -142 72 -142 176c0 61 15 112 44 151c30 39 69 59 118 59c33 0 60 -7 81 -22v-29c-22 16 -48 24 -79 24c-79 0 -132 -69 -133 -172c27 39 65 58 114 58c34 0 63 -11 87 -34c25 -23 37 -52 37 -87s-12 -65 -37 -89c-24 -23 -54 -35 -90 -35zM185 345
c55 0 97 41 97 97s-43 94 -98 94c-46 0 -82 -24 -108 -71c4 -69 44 -120 109 -120z" />
    <glyph glyph-name="sevensuperior" unicode="&#x2077;" horiz-adv-x="306" 
d="M95 322h-34l179 351h-209v27h244v-24z" />
    <glyph glyph-name="eightsuperior" unicode="&#x2078;" horiz-adv-x="359" 
d="M180 318c-83 0 -144 42 -144 106c0 48 27 81 81 100c-41 15 -61 43 -61 83c0 57 53 97 124 97s123 -40 123 -97c0 -40 -20 -68 -60 -83c54 -19 81 -52 81 -100c0 -64 -63 -106 -144 -106zM180 345c65 0 113 34 113 82c0 51 -46 82 -113 82s-113 -31 -113 -82
c0 -48 46 -82 113 -82zM180 535c55 0 93 27 93 70c0 44 -38 72 -93 72s-94 -28 -94 -72c0 -43 38 -70 94 -70z" />
    <glyph glyph-name="ninesuperior" unicode="&#x2079;" horiz-adv-x="352" 
d="M170 704c91 0 142 -72 142 -176c0 -61 -15 -112 -45 -151c-29 -39 -68 -59 -117 -59c-33 0 -60 7 -81 22v29c23 -16 50 -24 79 -24c79 0 132 69 133 172c-26 -39 -64 -58 -114 -58c-34 0 -63 11 -88 34c-24 23 -36 52 -36 87s12 65 36 88c25 24 55 36 91 36zM170 677
c-55 0 -97 -41 -97 -97s43 -94 98 -94c47 0 85 28 108 71c-4 69 -44 120 -109 120z" />
    <glyph glyph-name="zeroinferior" unicode="&#x2080;" horiz-adv-x="388" 
d="M41 189c0 55 14 101 43 138s65 55 110 55c44 0 80 -18 109 -55s44 -83 44 -138s-14 -101 -43 -138s-65 -55 -110 -55s-81 18 -110 54c-29 37 -43 83 -43 139zM71 189c0 -48 12 -88 35 -119s53 -47 88 -47s64 16 87 47s35 71 35 119s-12 88 -35 119s-52 47 -87 47
s-65 -16 -88 -48c-23 -31 -35 -71 -35 -118z" />
    <glyph glyph-name="oneinferior" unicode="&#x2081;" horiz-adv-x="248" 
d="M161 0h-30v344l-106 -65v32l108 67h28v-378z" />
    <glyph glyph-name="twoinferior" unicode="&#x2082;" horiz-adv-x="355" 
d="M301 0h-255v23l134 127c53 52 77 83 77 126c0 45 -35 78 -90 78c-41 0 -79 -16 -114 -49v33c32 29 71 44 116 44c68 0 118 -43 118 -104c0 -49 -25 -88 -84 -145l-110 -106h208v-27z" />
    <glyph glyph-name="threeinferior" unicode="&#x2083;" horiz-adv-x="319" 
d="M136 -4c-44 0 -81 9 -110 28v30c33 -21 70 -31 109 -31c60 0 112 39 112 95s-41 91 -109 91c-14 0 -27 -2 -39 -6v23l123 125h-179v27h222v-21l-121 -123c73 -1 133 -40 133 -116c0 -72 -60 -122 -141 -122z" />
    <glyph glyph-name="fourinferior" unicode="&#x2084;" horiz-adv-x="348" 
d="M260 0h-30v106h-205v23l208 249h27v-245h63v-27h-63v-106zM230 332l-167 -199h167v199z" />
    <glyph glyph-name="fiveinferior" unicode="&#x2085;" horiz-adv-x="335" 
d="M145 -4c-41 0 -76 9 -105 26v30c31 -19 66 -29 105 -29c67 0 116 41 116 96c0 52 -44 92 -111 92c-33 0 -64 -5 -94 -15l25 182h186v-27h-163l-15 -121c17 5 39 8 66 8c79 0 137 -48 137 -119c0 -35 -14 -65 -42 -88s-63 -35 -105 -35z" />
    <glyph glyph-name="sixinferior" unicode="&#x2086;" horiz-adv-x="352" 
d="M185 -4c-91 0 -142 72 -142 176c0 61 15 112 44 151c30 39 69 59 118 59c33 0 60 -7 81 -22v-29c-22 16 -48 24 -79 24c-79 0 -132 -69 -133 -172c27 39 65 58 114 58c34 0 63 -11 87 -34c25 -23 37 -52 37 -87s-12 -65 -37 -89c-24 -23 -54 -35 -90 -35zM185 23
c55 0 97 41 97 97s-43 94 -98 94c-46 0 -82 -24 -108 -71c4 -69 44 -120 109 -120z" />
    <glyph glyph-name="seveninferior" unicode="&#x2087;" horiz-adv-x="306" 
d="M95 0h-34l179 351h-209v27h244v-24z" />
    <glyph glyph-name="eightinferior" unicode="&#x2088;" horiz-adv-x="359" 
d="M180 -4c-83 0 -144 42 -144 106c0 48 27 81 81 100c-41 15 -61 43 -61 83c0 57 53 97 124 97s123 -40 123 -97c0 -40 -20 -68 -60 -83c54 -19 81 -52 81 -100c0 -64 -63 -106 -144 -106zM180 23c65 0 113 34 113 82c0 51 -46 82 -113 82s-113 -31 -113 -82
c0 -48 46 -82 113 -82zM180 213c55 0 93 27 93 70c0 44 -38 72 -93 72s-94 -28 -94 -72c0 -43 38 -70 94 -70z" />
    <glyph glyph-name="nineinferior" unicode="&#x2089;" horiz-adv-x="352" 
d="M170 382c91 0 142 -72 142 -176c0 -61 -15 -112 -45 -151c-29 -39 -68 -59 -117 -59c-33 0 -60 7 -81 22v29c23 -16 50 -24 79 -24c79 0 132 69 133 172c-26 -39 -64 -58 -114 -58c-34 0 -63 11 -88 34c-24 23 -36 52 -36 87s12 65 36 88c25 24 55 36 91 36zM170 355
c-55 0 -97 -41 -97 -97s43 -94 98 -94c47 0 85 28 108 71c-4 69 -44 120 -109 120z" />
    <glyph glyph-name="franc" unicode="&#x20a3;" horiz-adv-x="618" 
d="M144 0h-31v163h-121v29h121v508h456v-29h-425v-289h354v-29h-354v-161h188v-29h-188v-163z" />
    <glyph glyph-name="lira" unicode="&#x20a4;" horiz-adv-x="576" 
d="M517 0h-447v29h26c27 0 41 22 41 65v136h-67v29h67v125h-67v29h67v82c0 139 79 217 215 217c64 0 118 -16 163 -48v-34c-41 35 -95 53 -162 53c-119 0 -185 -68 -185 -192v-78h299v-29h-299v-125h299v-29h-299v-149c0 -22 -7 -39 -21 -52h370v-29z" />
    <glyph glyph-name="peseta" unicode="&#x20a7;" horiz-adv-x="714" 
d="M143 0h-31v500h-100v29h100v171h287c129 0 206 -67 211 -171h94v-29h-94c-7 -103 -83 -169 -211 -169h-256v-331zM143 671v-311h254c116 0 183 56 183 155s-67 156 -183 156h-254z" />
    <glyph glyph-name="Euro" unicode="&#x20ac;" horiz-adv-x="696" 
d="M469 456v-29h-296c-3 -25 -5 -49 -5 -71c0 -19 1 -37 3 -54h298v-29h-294c27 -156 128 -256 275 -256c77 0 143 25 196 74v-35c-55 -45 -120 -68 -197 -68c-167 0 -279 109 -307 285h-93v29h90c-2 17 -3 35 -3 54c0 22 2 46 5 71h-92v29h98c17 77 51 139 104 186
s119 70 198 70c69 0 130 -19 181 -56v-33c-54 40 -114 60 -180 60c-69 0 -128 -21 -176 -62c-47 -41 -79 -96 -95 -165h290z" />
    <glyph glyph-name="uni20B4" unicode="&#x20b4;" horiz-adv-x="606" 
d="M109 134c0 54 26 100 77 138h-117v29h467v-29h-300c-63 -36 -95 -80 -95 -133c0 -77 64 -122 184 -122c62 0 119 13 171 38v-31c-48 -24 -106 -36 -174 -36c-136 0 -213 57 -213 146zM536 417h-467v29h329c51 33 76 72 76 119c0 38 -15 67 -45 87c-30 21 -74 31 -133 31
s-113 -12 -163 -36v31c47 23 102 34 166 34c133 0 208 -56 208 -144c0 -48 -22 -89 -65 -122h94v-29z" />
    <glyph glyph-name="uni20B6" unicode="&#x20b6;" horiz-adv-x="654" 
d="M146 0h-31v176h-92v29h92v125h-92v29h92v341h265c135 0 212 -72 212 -185s-77 -185 -212 -185h-234v-125h315v-29h-315v-176zM146 671v-312h231c116 0 183 56 183 155c0 100 -67 157 -183 157h-231z" />
    <glyph glyph-name="uni20B6" unicode="&#x20cf;" horiz-adv-x="654" 
d="M146 0h-31v176h-92v29h92v125h-92v29h92v341h265c135 0 212 -72 212 -185s-77 -185 -212 -185h-234v-125h315v-29h-315v-176zM146 671v-312h231c116 0 183 56 183 155c0 100 -67 157 -183 157h-231z" />
    <glyph glyph-name="uni20B6" unicode="&#x20ce;" horiz-adv-x="654" 
d="M146 0h-31v176h-92v29h92v125h-92v29h92v341h265c135 0 212 -72 212 -185s-77 -185 -212 -185h-234v-125h315v-29h-315v-176zM146 671v-312h231c116 0 183 56 183 155c0 100 -67 157 -183 157h-231z" />
    <glyph glyph-name="uni20B6" unicode="&#x20cd;" horiz-adv-x="654" 
d="M146 0h-31v176h-92v29h92v125h-92v29h92v341h265c135 0 212 -72 212 -185s-77 -185 -212 -185h-234v-125h315v-29h-315v-176zM146 671v-312h231c116 0 183 56 183 155c0 100 -67 157 -183 157h-231z" />
    <glyph glyph-name="uni20B6" unicode="&#x20cc;" horiz-adv-x="654" 
d="M146 0h-31v176h-92v29h92v125h-92v29h92v341h265c135 0 212 -72 212 -185s-77 -185 -212 -185h-234v-125h315v-29h-315v-176zM146 671v-312h231c116 0 183 56 183 155c0 100 -67 157 -183 157h-231z" />
    <glyph glyph-name="uni20B6" unicode="&#x20cb;" horiz-adv-x="654" 
d="M146 0h-31v176h-92v29h92v125h-92v29h92v341h265c135 0 212 -72 212 -185s-77 -185 -212 -185h-234v-125h315v-29h-315v-176zM146 671v-312h231c116 0 183 56 183 155c0 100 -67 157 -183 157h-231z" />
    <glyph glyph-name="uni20B6" unicode="&#x20ca;" horiz-adv-x="654" 
d="M146 0h-31v176h-92v29h92v125h-92v29h92v341h265c135 0 212 -72 212 -185s-77 -185 -212 -185h-234v-125h315v-29h-315v-176zM146 671v-312h231c116 0 183 56 183 155c0 100 -67 157 -183 157h-231z" />
    <glyph glyph-name="uni20B6" unicode="&#x20c9;" horiz-adv-x="654" 
d="M146 0h-31v176h-92v29h92v125h-92v29h92v341h265c135 0 212 -72 212 -185s-77 -185 -212 -185h-234v-125h315v-29h-315v-176zM146 671v-312h231c116 0 183 56 183 155c0 100 -67 157 -183 157h-231z" />
    <glyph glyph-name="uni20B6" unicode="&#x20c8;" horiz-adv-x="654" 
d="M146 0h-31v176h-92v29h92v125h-92v29h92v341h265c135 0 212 -72 212 -185s-77 -185 -212 -185h-234v-125h315v-29h-315v-176zM146 671v-312h231c116 0 183 56 183 155c0 100 -67 157 -183 157h-231z" />
    <glyph glyph-name="uni20B6" unicode="&#x20c7;" horiz-adv-x="654" 
d="M146 0h-31v176h-92v29h92v125h-92v29h92v341h265c135 0 212 -72 212 -185s-77 -185 -212 -185h-234v-125h315v-29h-315v-176zM146 671v-312h231c116 0 183 56 183 155c0 100 -67 157 -183 157h-231z" />
    <glyph glyph-name="uni20B6" unicode="&#x20c6;" horiz-adv-x="654" 
d="M146 0h-31v176h-92v29h92v125h-92v29h92v341h265c135 0 212 -72 212 -185s-77 -185 -212 -185h-234v-125h315v-29h-315v-176zM146 671v-312h231c116 0 183 56 183 155c0 100 -67 157 -183 157h-231z" />
    <glyph glyph-name="uni20B6" unicode="&#x20c5;" horiz-adv-x="654" 
d="M146 0h-31v176h-92v29h92v125h-92v29h92v341h265c135 0 212 -72 212 -185s-77 -185 -212 -185h-234v-125h315v-29h-315v-176zM146 671v-312h231c116 0 183 56 183 155c0 100 -67 157 -183 157h-231z" />
    <glyph glyph-name="uni20B6" unicode="&#x20c4;" horiz-adv-x="654" 
d="M146 0h-31v176h-92v29h92v125h-92v29h92v341h265c135 0 212 -72 212 -185s-77 -185 -212 -185h-234v-125h315v-29h-315v-176zM146 671v-312h231c116 0 183 56 183 155c0 100 -67 157 -183 157h-231z" />
    <glyph glyph-name="uni20B6" unicode="&#x20c3;" horiz-adv-x="654" 
d="M146 0h-31v176h-92v29h92v125h-92v29h92v341h265c135 0 212 -72 212 -185s-77 -185 -212 -185h-234v-125h315v-29h-315v-176zM146 671v-312h231c116 0 183 56 183 155c0 100 -67 157 -183 157h-231z" />
    <glyph glyph-name="uni20B6" unicode="&#x20c2;" horiz-adv-x="654" 
d="M146 0h-31v176h-92v29h92v125h-92v29h92v341h265c135 0 212 -72 212 -185s-77 -185 -212 -185h-234v-125h315v-29h-315v-176zM146 671v-312h231c116 0 183 56 183 155c0 100 -67 157 -183 157h-231z" />
    <glyph glyph-name="uni20B6" unicode="&#x20c1;" horiz-adv-x="654" 
d="M146 0h-31v176h-92v29h92v125h-92v29h92v341h265c135 0 212 -72 212 -185s-77 -185 -212 -185h-234v-125h315v-29h-315v-176zM146 671v-312h231c116 0 183 56 183 155c0 100 -67 157 -183 157h-231z" />
    <glyph glyph-name="uni20B6" unicode="&#x20c0;" horiz-adv-x="654" 
d="M146 0h-31v176h-92v29h92v125h-92v29h92v341h265c135 0 212 -72 212 -185s-77 -185 -212 -185h-234v-125h315v-29h-315v-176zM146 671v-312h231c116 0 183 56 183 155c0 100 -67 157 -183 157h-231z" />
    <glyph glyph-name="uni20B6" unicode="&#x20bf;" horiz-adv-x="654" 
d="M146 0h-31v176h-92v29h92v125h-92v29h92v341h265c135 0 212 -72 212 -185s-77 -185 -212 -185h-234v-125h315v-29h-315v-176zM146 671v-312h231c116 0 183 56 183 155c0 100 -67 157 -183 157h-231z" />
    <glyph glyph-name="uni20B6" unicode="&#x20be;" horiz-adv-x="654" 
d="M146 0h-31v176h-92v29h92v125h-92v29h92v341h265c135 0 212 -72 212 -185s-77 -185 -212 -185h-234v-125h315v-29h-315v-176zM146 671v-312h231c116 0 183 56 183 155c0 100 -67 157 -183 157h-231z" />
    <glyph glyph-name="uni20B6" unicode="&#x20bd;" horiz-adv-x="654" 
d="M146 0h-31v176h-92v29h92v125h-92v29h92v341h265c135 0 212 -72 212 -185s-77 -185 -212 -185h-234v-125h315v-29h-315v-176zM146 671v-312h231c116 0 183 56 183 155c0 100 -67 157 -183 157h-231z" />
    <glyph glyph-name="uni20B6" unicode="&#x20bc;" horiz-adv-x="654" 
d="M146 0h-31v176h-92v29h92v125h-92v29h92v341h265c135 0 212 -72 212 -185s-77 -185 -212 -185h-234v-125h315v-29h-315v-176zM146 671v-312h231c116 0 183 56 183 155c0 100 -67 157 -183 157h-231z" />
    <glyph glyph-name="uni20B6" unicode="&#x20bb;" horiz-adv-x="654" 
d="M146 0h-31v176h-92v29h92v125h-92v29h92v341h265c135 0 212 -72 212 -185s-77 -185 -212 -185h-234v-125h315v-29h-315v-176zM146 671v-312h231c116 0 183 56 183 155c0 100 -67 157 -183 157h-231z" />
    <glyph glyph-name="uni20B6" unicode="&#x20ba;" horiz-adv-x="654" 
d="M146 0h-31v176h-92v29h92v125h-92v29h92v341h265c135 0 212 -72 212 -185s-77 -185 -212 -185h-234v-125h315v-29h-315v-176zM146 671v-312h231c116 0 183 56 183 155c0 100 -67 157 -183 157h-231z" />
    <glyph glyph-name="uni20B6" unicode="&#x20b9;" horiz-adv-x="654" 
d="M146 0h-31v176h-92v29h92v125h-92v29h92v341h265c135 0 212 -72 212 -185s-77 -185 -212 -185h-234v-125h315v-29h-315v-176zM146 671v-312h231c116 0 183 56 183 155c0 100 -67 157 -183 157h-231z" />
    <glyph glyph-name="uni20B6" unicode="&#x20b7;" horiz-adv-x="654" 
d="M146 0h-31v176h-92v29h92v125h-92v29h92v341h265c135 0 212 -72 212 -185s-77 -185 -212 -185h-234v-125h315v-29h-315v-176zM146 671v-312h231c116 0 183 56 183 155c0 100 -67 157 -183 157h-231z" />
    <glyph glyph-name="uni2113" unicode="&#x2113;" horiz-adv-x="398" 
d="M210 -12c-77 0 -124 44 -124 128v394c0 127 61 196 144 196c75 0 118 -49 118 -141c0 -119 -77 -248 -232 -385v-61c0 -67 32 -101 97 -101c30 0 59 9 88 26v-32c-24 -16 -54 -24 -91 -24zM116 510v-290c134 127 201 242 201 345c0 74 -29 111 -87 111
c-61 0 -114 -55 -114 -166z" />
    <glyph glyph-name="uni2116" unicode="&#x2116;" horiz-adv-x="1115" 
d="M140 0h-31v700h29l495 -645v645h32v-700h-29l-496 646v-646zM1041 276h-285v29h285v-29zM899 380c-47 0 -85 16 -116 48c-31 33 -46 72 -46 119c0 46 15 85 46 117s69 48 116 48c46 0 84 -16 115 -49c31 -32 47 -71 47 -116c0 -47 -16 -86 -47 -119
c-31 -32 -69 -48 -115 -48zM899 408c76 0 132 59 132 139c0 39 -13 71 -38 97c-25 27 -56 40 -94 40c-77 0 -132 -60 -132 -137c0 -80 55 -139 132 -139z" />
    <glyph glyph-name="trademark" unicode="&#x2122;" horiz-adv-x="685" 
d="M357 392h-28v308h25l121 -149l120 149h24v-308h-27v262l-111 -133h-14l-110 133v-262zM158 392h-28v283h-105v25h241v-25h-108v-283z" />
    <glyph glyph-name="Omega" unicode="&#x2126;" horiz-adv-x="806" 
d="M292 0h-173v29h130c-79 79 -136 200 -136 331c0 104 27 189 81 254s124 98 209 98s155 -33 209 -98s81 -150 81 -254c0 -131 -57 -251 -137 -331h131v-29h-173v26c41 37 76 84 104 143c29 59 43 122 43 188c0 97 -25 175 -74 235c-49 61 -110 91 -184 91
s-136 -30 -185 -91c-49 -60 -73 -138 -73 -235c0 -66 14 -129 42 -188c29 -59 64 -106 105 -143v-26z" />
    <glyph glyph-name="estimated" unicode="&#x212e;" horiz-adv-x="812" 
d="M406 -12c-93 0 -171 31 -234 94s-94 140 -94 232s31 169 93 232c63 63 141 95 235 95c93 0 171 -31 232 -93s93 -138 95 -228h-574v-194c56 -75 144 -120 247 -120c65 0 123 17 174 51c51 35 88 80 111 137h21c-23 -62 -62 -112 -117 -150c-55 -37 -118 -56 -189 -56z
M159 503v-164h493v164c-56 75 -145 119 -246 119c-103 0 -191 -44 -247 -119z" />
    <glyph glyph-name="onethird" unicode="&#x2153;" horiz-adv-x="767" 
d="M155 0h-35l404 700h34zM161 322h-30v344l-106 -65v32l108 67h28v-378zM584 -4c-44 0 -81 9 -110 28v30c33 -21 70 -31 109 -31c60 0 112 39 112 95s-41 91 -109 91c-14 0 -27 -2 -39 -6v23l123 125h-179v27h222v-21l-121 -123c73 -1 133 -40 133 -116
c0 -72 -60 -122 -141 -122z" />
    <glyph glyph-name="twothirds" unicode="&#x2154;" horiz-adv-x="885" 
d="M301 322h-255v23l134 127c53 52 77 83 77 126c0 45 -35 78 -90 78c-41 0 -79 -16 -114 -49v33c32 29 71 44 116 44c68 0 118 -43 118 -104c0 -49 -25 -88 -84 -145l-110 -106h208v-27zM702 -4c-44 0 -81 9 -110 28v30c33 -21 70 -31 109 -31c60 0 112 39 112 95
s-41 91 -109 91c-14 0 -27 -2 -39 -6v23l123 125h-179v27h222v-21l-121 -123c73 -1 133 -40 133 -116c0 -72 -60 -122 -141 -122zM273 0h-35l404 700h34z" />
    <glyph glyph-name="uni2155" unicode="&#x2155;" horiz-adv-x="748" 
d="M155 0h-35l404 700h34zM161 322h-30v344l-106 -65v32l108 67h28v-378zM558 -4c-41 0 -76 9 -105 26v30c31 -19 66 -29 105 -29c67 0 116 41 116 96c0 52 -44 92 -111 92c-33 0 -64 -5 -94 -15l25 182h186v-27h-163l-15 -121c17 5 39 8 66 8c79 0 137 -48 137 -119
c0 -35 -14 -65 -42 -88s-63 -35 -105 -35z" />
    <glyph glyph-name="uni2156" unicode="&#x2156;" horiz-adv-x="865" 
d="M675 -4c-41 0 -76 9 -105 26v30c31 -19 66 -29 105 -29c67 0 116 41 116 96c0 52 -44 92 -111 92c-33 0 -64 -5 -94 -15l25 182h186v-27h-163l-15 -121c17 5 39 8 66 8c79 0 137 -48 137 -119c0 -35 -14 -65 -42 -88s-63 -35 -105 -35zM301 322h-255v23l134 127
c53 52 77 83 77 126c0 45 -35 78 -90 78c-41 0 -79 -16 -114 -49v33c32 29 71 44 116 44c68 0 118 -43 118 -104c0 -49 -25 -88 -84 -145l-110 -106h208v-27zM273 0h-35l404 700h34z" />
    <glyph glyph-name="uni2157" unicode="&#x2157;" horiz-adv-x="803" 
d="M210 0h-35l404 700h34zM613 -4c-41 0 -76 9 -105 26v30c31 -19 66 -29 105 -29c67 0 116 41 116 96c0 52 -44 92 -111 92c-33 0 -64 -5 -94 -15l25 182h186v-27h-163l-15 -121c17 5 39 8 66 8c79 0 137 -48 137 -119c0 -35 -14 -65 -42 -88s-63 -35 -105 -35zM136 318
c-44 0 -81 9 -110 28v30c33 -21 70 -31 109 -31c60 0 112 39 112 95s-41 91 -109 91c-14 0 -27 -2 -39 -6v23l123 125h-179v27h222v-21l-121 -123c73 -1 133 -40 133 -116c0 -72 -60 -122 -141 -122z" />
    <glyph glyph-name="uni2158" unicode="&#x2158;" horiz-adv-x="846" 
d="M656 -4c-41 0 -76 9 -105 26v30c31 -19 66 -29 105 -29c67 0 116 41 116 96c0 52 -44 92 -111 92c-33 0 -64 -5 -94 -15l25 182h186v-27h-163l-15 -121c17 5 39 8 66 8c79 0 137 -48 137 -119c0 -35 -14 -65 -42 -88s-63 -35 -105 -35zM260 322h-30v106h-205v23l208 249
h27v-245h63v-27h-63v-106zM230 654l-167 -199h167v199zM253 0h-35l404 700h34z" />
    <glyph glyph-name="uni2159" unicode="&#x2159;" horiz-adv-x="753" 
d="M155 0h-35l404 700h34zM161 322h-30v344l-106 -65v32l108 67h28v-378zM586 -4c-91 0 -142 72 -142 176c0 61 15 112 44 151c30 39 69 59 118 59c33 0 60 -7 81 -22v-29c-22 16 -48 24 -79 24c-79 0 -132 -69 -133 -172c27 39 65 58 114 58c34 0 63 -11 87 -34
c25 -23 37 -52 37 -87s-12 -65 -37 -89c-24 -23 -54 -35 -90 -35zM586 23c55 0 97 41 97 97s-43 94 -98 94c-46 0 -82 -24 -108 -71c4 -69 44 -120 109 -120z" />
    <glyph glyph-name="uni215A" unicode="&#x215a;" horiz-adv-x="823" 
d="M145 318c-41 0 -76 9 -105 26v30c31 -19 66 -29 105 -29c67 0 116 41 116 96c0 52 -44 92 -111 92c-33 0 -64 -5 -94 -15l25 182h186v-27h-163l-15 -121c17 5 39 8 66 8c79 0 137 -48 137 -119c0 -35 -14 -65 -42 -88s-63 -35 -105 -35zM656 -4c-91 0 -142 72 -142 176
c0 61 15 112 44 151c30 39 69 59 118 59c33 0 60 -7 81 -22v-29c-22 16 -48 24 -79 24c-79 0 -132 -69 -133 -172c27 39 65 58 114 58c34 0 63 -11 87 -34c25 -23 37 -52 37 -87s-12 -65 -37 -89c-24 -23 -54 -35 -90 -35zM656 23c55 0 97 41 97 97s-43 94 -98 94
c-46 0 -82 -24 -108 -71c4 -69 44 -120 109 -120zM225 0h-35l404 700h34z" />
    <glyph glyph-name="oneeighth" unicode="&#x215b;" horiz-adv-x="767" 
d="M155 0h-35l404 700h34zM161 322h-30v344l-106 -65v32l108 67h28v-378zM588 -4c-83 0 -144 42 -144 106c0 48 27 81 81 100c-41 15 -61 43 -61 83c0 57 53 97 124 97s123 -40 123 -97c0 -40 -20 -68 -60 -83c54 -19 81 -52 81 -100c0 -64 -63 -106 -144 -106zM588 23
c65 0 113 34 113 82c0 51 -46 82 -113 82s-113 -31 -113 -82c0 -48 46 -82 113 -82zM588 213c55 0 93 27 93 70c0 44 -38 72 -93 72s-94 -28 -94 -72c0 -43 38 -70 94 -70z" />
    <glyph glyph-name="threeeighths" unicode="&#x215c;" horiz-adv-x="822" 
d="M210 0h-35l404 700h34zM643 -4c-83 0 -144 42 -144 106c0 48 27 81 81 100c-41 15 -61 43 -61 83c0 57 53 97 124 97s123 -40 123 -97c0 -40 -20 -68 -60 -83c54 -19 81 -52 81 -100c0 -64 -63 -106 -144 -106zM643 23c65 0 113 34 113 82c0 51 -46 82 -113 82
s-113 -31 -113 -82c0 -48 46 -82 113 -82zM643 213c55 0 93 27 93 70c0 44 -38 72 -93 72s-94 -28 -94 -72c0 -43 38 -70 94 -70zM136 318c-44 0 -81 9 -110 28v30c33 -21 70 -31 109 -31c60 0 112 39 112 95s-41 91 -109 91c-14 0 -27 -2 -39 -6v23l123 125h-179v27h222
v-21l-121 -123c73 -1 133 -40 133 -116c0 -72 -60 -122 -141 -122z" />
    <glyph glyph-name="fiveeighths" unicode="&#x215d;" horiz-adv-x="837" 
d="M658 -4c-83 0 -144 42 -144 106c0 48 27 81 81 100c-41 15 -61 43 -61 83c0 57 53 97 124 97s123 -40 123 -97c0 -40 -20 -68 -60 -83c54 -19 81 -52 81 -100c0 -64 -63 -106 -144 -106zM658 23c65 0 113 34 113 82c0 51 -46 82 -113 82s-113 -31 -113 -82
c0 -48 46 -82 113 -82zM658 213c55 0 93 27 93 70c0 44 -38 72 -93 72s-94 -28 -94 -72c0 -43 38 -70 94 -70zM145 318c-41 0 -76 9 -105 26v30c31 -19 66 -29 105 -29c67 0 116 41 116 96c0 52 -44 92 -111 92c-33 0 -64 -5 -94 -15l25 182h186v-27h-163l-15 -121
c17 5 39 8 66 8c79 0 137 -48 137 -119c0 -35 -14 -65 -42 -88s-63 -35 -105 -35zM225 0h-35l404 700h34z" />
    <glyph glyph-name="seveneighths" unicode="&#x215e;" horiz-adv-x="759" 
d="M580 -4c-83 0 -144 42 -144 106c0 48 27 81 81 100c-41 15 -61 43 -61 83c0 57 53 97 124 97s123 -40 123 -97c0 -40 -20 -68 -60 -83c54 -19 81 -52 81 -100c0 -64 -63 -106 -144 -106zM580 23c65 0 113 34 113 82c0 51 -46 82 -113 82s-113 -31 -113 -82
c0 -48 46 -82 113 -82zM580 213c55 0 93 27 93 70c0 44 -38 72 -93 72s-94 -28 -94 -72c0 -43 38 -70 94 -70zM95 322h-34l179 351h-209v27h244v-24zM148 0h-35l404 700h34z" />
    <glyph glyph-name="uni215F" unicode="&#x215f;" horiz-adv-x="418" 
d="M161 322h-30v344l-106 -65v32l108 67h28v-378zM155 0h-35l404 700h34z" />
    <glyph glyph-name="arrowleft" unicode="&#x2190;" horiz-adv-x="729" 
d="M293 467l-167 -184h516v-30h-516l167 -184h-39l-183 199l183 199h39z" />
    <glyph glyph-name="arrowup" unicode="&#x2191;" horiz-adv-x="570" 
d="M484 349l-184 167v-516h-30v516l-183 -167v39l198 183l199 -183v-39z" />
    <glyph glyph-name="arrowright" unicode="&#x2192;" horiz-adv-x="729" 
d="M87 253v30h516l-168 184h39l183 -199l-183 -199h-39l168 184h-516z" />
    <glyph glyph-name="arrowdown" unicode="&#x2193;" horiz-adv-x="570" 
d="M87 216l183 -168v516h30v-516l184 168v-39l-199 -183l-198 183v39z" />
    <glyph glyph-name="partialdiff" unicode="&#x2202;" horiz-adv-x="630" 
d="M273 -12c-62 0 -114 20 -155 60s-61 91 -61 153c0 67 23 123 70 169s104 69 173 69c53 0 99 -14 137 -42c39 -28 65 -61 80 -100c3 15 4 36 4 62c0 91 -21 167 -64 227c-43 61 -101 91 -176 91c-49 0 -97 -14 -143 -42v29c42 28 90 42 145 42c81 0 146 -32 195 -96
c49 -63 73 -147 73 -252c0 -167 -70 -370 -278 -370zM274 17c128 0 212 91 236 232c-13 47 -39 85 -77 115c-37 31 -81 46 -131 46c-57 0 -107 -20 -150 -59c-42 -39 -63 -88 -63 -146c0 -55 18 -100 53 -135s79 -53 132 -53z" />
    <glyph glyph-name="increment" unicode="&#x2206;" horiz-adv-x="739" 
d="M703 0h-667l319 700h29zM369 658l-288 -629h577z" />
    <glyph glyph-name="product" unicode="&#x220f;" horiz-adv-x="746" 
d="M222 -125h-31v797h-115v28h594v-28h-115v-797h-31v797h-302v-797z" />
    <glyph glyph-name="summation" unicode="&#x2211;" horiz-adv-x="587" 
d="M538 0h-471v23l274 327l-272 327v23h469v-29h-426l260 -312v-18l-260 -312h426v-29z" />
    <glyph glyph-name="minus" unicode="&#x2212;" horiz-adv-x="559" 
d="M489 308h-419v29h419v-29z" />
    <glyph glyph-name="uni2215" unicode="&#x2215;" horiz-adv-x="489" 
d="M67 0h-34l404 700h34z" />
    <glyph glyph-name="uni2219" unicode="&#x2219;" horiz-adv-x="213" 
d="M128 195c-25 -27 -73 16 -43 44c12 12 32 12 43 0c12 -12 12 -32 0 -44z" />
    <glyph glyph-name="radical" unicode="&#x221a;" horiz-adv-x="642" 
d="M348 0h-29l-196 435h-140v29h162l187 -422l249 658h31z" />
    <glyph glyph-name="infinity" unicode="&#x221e;" horiz-adv-x="794" 
d="M216 167c-91 0 -150 64 -150 153c0 43 14 80 41 109s64 44 109 44c39 0 73 -13 104 -42c32 -28 46 -46 77 -86c19 26 36 47 49 62c28 31 80 66 132 66c45 0 82 -15 109 -44s41 -66 41 -109s-14 -80 -41 -109s-64 -44 -109 -44c-25 0 -50 7 -74 21s-43 28 -57 43
c-13 15 -30 36 -50 63c-15 -20 -28 -36 -38 -47c-9 -11 -22 -23 -38 -38c-32 -29 -66 -42 -105 -42zM218 195c22 0 44 7 65 21c22 15 39 29 51 43c12 15 27 35 46 61c-19 26 -34 46 -46 60c-24 29 -72 65 -117 65c-160 6 -161 -256 1 -250zM576 195c161 -6 161 256 0 250
c-23 0 -45 -7 -66 -21s-38 -28 -51 -43c-12 -14 -27 -34 -46 -61c19 -27 34 -47 46 -62c25 -28 72 -63 117 -63z" />
    <glyph glyph-name="integral" unicode="&#x222b;" horiz-adv-x="490" 
d="M16 -203c-27 0 -53 5 -78 16v30c25 -11 50 -17 75 -17c81 0 129 54 146 161l82 540c20 124 72 184 171 184c29 0 56 -5 81 -16v-31c-24 12 -50 18 -77 18c-80 0 -128 -46 -145 -161l-82 -540c-17 -112 -76 -184 -173 -184z" />
    <glyph glyph-name="approxequal" unicode="&#x2248;" horiz-adv-x="663" 
d="M469 162c-33 0 -79 10 -138 29s-104 29 -137 29c-52 0 -93 -16 -124 -48v33c20 25 72 44 124 44c33 0 78 -10 137 -29s105 -29 138 -29c52 0 93 16 124 48v-33c-20 -25 -72 -44 -124 -44zM469 391c-33 0 -79 10 -138 29s-104 29 -137 29c-52 0 -93 -16 -124 -48v33
c20 25 72 44 124 44c33 0 78 -10 137 -29s105 -29 138 -29c52 0 93 16 124 48v-33c-20 -25 -72 -44 -124 -44z" />
    <glyph glyph-name="notequal" unicode="&#x2260;" horiz-adv-x="600" 
d="M181 66h-31l67 127h-147v29h162l105 199h-267v29h281l68 128h31l-67 -128h147v-29h-163l-103 -199h266v-29h-282z" />
    <glyph glyph-name="lessequal" unicode="&#x2264;" horiz-adv-x="600" 
d="M530 198v-32l-460 190v28l460 190v-33l-421 -172zM529 75h-459v29h459v-29z" />
    <glyph glyph-name="greaterequal" unicode="&#x2265;" horiz-adv-x="600" 
d="M530 356l-460 -190v32l422 171l-422 172v33l460 -190v-28zM530 75h-459v29h459v-29z" />
    <glyph glyph-name="dotmath" unicode="&#x22c5;" horiz-adv-x="215" 
d="M129 352c-25 -27 -73 16 -43 44c12 12 32 12 43 0c12 -12 12 -32 0 -44z" />
    <glyph glyph-name="lozenge" unicode="&#x25ca;" horiz-adv-x="556" 
d="M293 0h-30l-206 350l206 350h30l208 -350zM92 350l187 -317l186 317l-187 317z" />
    <glyph glyph-name="uniF401" unicode="&#xf401;" horiz-adv-x="20" 
d="M-364 765h-37l97 126h42z" />
    <glyph glyph-name="uniF639" unicode="&#xf639;" 
d="M312 -12c-76 0 -138 34 -186 102c-48 69 -72 155 -72 260c0 104 24 190 72 259s110 103 186 103c75 0 137 -34 185 -103c49 -69 73 -155 73 -259s-24 -190 -73 -259c-48 -69 -110 -103 -185 -103zM539 350c0 96 -21 175 -64 238s-97 95 -163 95s-120 -32 -163 -95
s-64 -142 -64 -238c0 -97 21 -176 64 -239s97 -94 163 -94s120 31 163 94s64 142 64 239z" />
    <glyph glyph-name="uniF63A" unicode="&#xf63a;" 
d="M544 0h-465l1 25l254 247c55 53 93 96 116 131s35 74 35 117c0 48 -17 87 -51 117c-33 31 -77 46 -132 46c-89 0 -150 -38 -209 -101v41c57 59 127 89 211 89c63 0 115 -18 154 -53s59 -80 59 -137c0 -47 -12 -89 -36 -127s-65 -84 -122 -139l-233 -227h419z" />
    <glyph glyph-name="uniF63B" unicode="&#xf63b;" 
d="M282 -12c-79 0 -146 16 -199 49v34c52 -36 118 -54 197 -54c61 0 114 18 159 54s68 84 68 143c0 56 -20 101 -60 135c-40 35 -94 52 -161 52c-20 0 -42 -2 -65 -7v24l251 253h-355v29h399v-23l-244 -249c3 1 9 1 17 1c70 0 129 -19 177 -56s72 -90 72 -159
c0 -66 -25 -120 -74 -163c-49 -42 -109 -63 -182 -63z" />
    <glyph glyph-name="uniF63C" unicode="&#xf63c;" 
d="M463 0h-30v209h-391v25l393 466h28v-462h124v-29h-124v-209zM433 653l-352 -415h352v415z" />
    <glyph glyph-name="uniF63D" unicode="&#xf63d;" 
d="M272 -12c-75 0 -138 15 -189 45v33c52 -33 115 -49 190 -49c68 0 124 19 168 56c44 38 66 85 66 140c0 53 -21 98 -62 134c-41 37 -95 55 -162 55c-59 0 -115 -9 -169 -28l47 326h329v-29h-303l-38 -258c39 12 86 18 139 18c71 0 131 -21 179 -62c49 -41 73 -93 73 -156
c0 -65 -25 -118 -76 -161s-115 -64 -192 -64z" />
    <glyph glyph-name="uniF63E" unicode="&#xf63e;" 
d="M332 -12c-156 0 -256 120 -256 328c0 115 27 210 81 284c54 75 125 112 214 112c55 0 102 -14 143 -42v-31c-43 29 -91 44 -142 44c-57 0 -106 -18 -147 -54c-81 -72 -114 -180 -117 -303v-31c36 80 120 142 227 142c63 0 116 -21 160 -62c45 -41 67 -93 67 -156
c0 -66 -22 -121 -66 -165s-99 -66 -164 -66zM333 17c55 0 102 19 140 57c38 39 57 87 57 144s-19 103 -58 138s-86 53 -142 53c-50 0 -95 -15 -135 -46c-39 -30 -67 -69 -84 -116c17 -141 93 -230 222 -230z" />
    <glyph glyph-name="uniF63F" unicode="&#xf63f;" 
d="M196 0h-35l341 671h-404v29h441v-23z" />
    <glyph glyph-name="uniF640" unicode="&#xf640;" 
d="M311 -12c-73 0 -135 18 -185 55c-49 37 -74 84 -74 141c0 96 67 163 176 188c-84 23 -137 83 -137 164c0 52 21 94 62 127c42 33 95 49 158 49c64 0 117 -16 158 -49c42 -33 63 -75 63 -127c0 -81 -54 -141 -138 -164c109 -25 176 -92 176 -188c0 -57 -25 -104 -74 -141
s-111 -55 -185 -55zM311 16c65 0 119 16 162 49c44 33 66 73 66 122s-22 90 -65 121c-43 32 -98 48 -163 48s-119 -16 -162 -48c-43 -31 -65 -72 -65 -121s22 -89 65 -122c44 -33 98 -49 162 -49zM311 384c55 0 100 14 136 42s54 64 54 108s-18 80 -54 108s-81 42 -136 42
c-54 0 -99 -14 -136 -42c-36 -28 -54 -64 -54 -108c0 -43 18 -79 54 -108c37 -28 82 -42 136 -42z" />
    <glyph glyph-name="uniF641" unicode="&#xf641;" 
d="M288 712c157 0 257 -120 257 -328c0 -115 -27 -209 -82 -284c-54 -75 -125 -112 -214 -112c-55 0 -103 14 -142 42v31c43 -29 91 -44 142 -44c57 0 106 18 147 54c81 72 115 180 116 303c1 7 1 17 1 31c-36 -80 -121 -142 -228 -142c-63 0 -116 20 -161 61
c-44 41 -66 93 -66 156c0 66 22 121 66 165c44 45 99 67 164 67zM288 683c-55 0 -102 -19 -141 -58c-38 -38 -57 -86 -57 -143s19 -103 58 -138s87 -53 143 -53c49 0 94 15 134 45c40 31 68 70 85 117c-17 141 -93 230 -222 230z" />
    <glyph glyph-name="uniF643" unicode="&#xf643;" 
d="M312 17c61 0 113 21 154 63c42 43 63 95 63 156c0 62 -21 114 -63 156c-41 43 -93 64 -154 64c-62 0 -114 -21 -156 -64c-41 -42 -62 -94 -62 -156s21 -114 62 -156c42 -42 94 -63 156 -63zM62 236c0 68 23 126 69 175c47 49 107 74 181 74c73 0 133 -25 179 -74
c47 -49 70 -107 70 -175c0 -67 -23 -126 -70 -175c-46 -49 -106 -73 -179 -73s-133 24 -180 73s-70 108 -70 175z" />
    <glyph glyph-name="uniF644" unicode="&#xf644;" 
d="M538 0h-433v29h205v409l-164 -103v33l166 105h29v-444h197v-29z" />
    <glyph glyph-name="uniF645" unicode="&#xf645;" 
d="M528 0h-431v24c116 65 192 110 227 133c21 13 37 23 49 32s26 21 43 36c35 31 52 64 52 101c0 76 -65 130 -162 130c-73 0 -139 -30 -200 -89v37c54 54 121 81 202 81c58 0 104 -15 139 -44s52 -66 52 -111c0 -44 -18 -84 -54 -117c-35 -33 -59 -51 -106 -80
c-15 -9 -37 -23 -67 -40c-60 -35 -111 -63 -114 -64h370v-29z" />
    <glyph glyph-name="uniF646" unicode="&#xf646;" 
d="M280 -203c-80 0 -147 16 -200 49v34c52 -36 118 -54 198 -54c61 0 113 17 158 51s68 80 68 139c0 109 -87 179 -220 179c-25 0 -47 -2 -65 -7v24l243 232h-348v29h394v-23l-240 -228c12 0 20 0 25 -1c41 -1 80 -8 115 -22c71 -27 128 -92 128 -183
c0 -65 -25 -118 -74 -158c-49 -41 -109 -61 -182 -61z" />
    <glyph glyph-name="uniF647" unicode="&#xf647;" 
d="M463 -200h-30v200h-391v26l393 447h28v-444h124v-29h-124v-200zM433 426l-351 -397h351v397z" />
    <glyph glyph-name="uniF648" unicode="&#xf648;" 
d="M271 -203c-75 0 -139 15 -190 45v33c52 -33 115 -49 190 -49c68 0 124 19 168 57c45 37 67 83 67 138c0 53 -21 96 -62 130c-41 35 -96 52 -163 52c-60 0 -116 -10 -169 -29l44 299h329v-29h-304l-36 -231c45 12 93 18 142 18c72 0 132 -19 179 -58s71 -89 71 -152
c0 -64 -25 -117 -76 -160c-50 -43 -113 -64 -190 -64z" />
    <glyph glyph-name="uniF649" unicode="&#xf649;" 
d="M332 -12c-156 0 -256 120 -256 328c0 115 27 210 81 284c54 75 125 112 214 112c55 0 102 -14 143 -42v-31c-43 29 -91 44 -142 44c-57 0 -106 -18 -147 -54c-81 -72 -114 -180 -117 -303v-31c36 80 120 142 227 142c63 0 116 -21 160 -62c45 -41 67 -93 67 -156
c0 -66 -22 -121 -66 -165s-99 -66 -164 -66zM333 17c55 0 102 19 140 57c38 39 57 87 57 144s-19 103 -58 138s-86 53 -142 53c-50 0 -95 -15 -135 -46c-39 -30 -67 -69 -84 -116c17 -141 93 -230 222 -230z" />
    <glyph glyph-name="uniF64A" unicode="&#xf64a;" 
d="M205 -200h-34l327 644h-404v29h441v-23z" />
    <glyph glyph-name="uniF64B" unicode="&#xf64b;" 
d="M311 -12c-73 0 -135 18 -185 55c-49 37 -74 84 -74 141c0 96 67 163 176 188c-84 23 -137 83 -137 164c0 52 21 94 62 127c42 33 95 49 158 49c64 0 117 -16 158 -49c42 -33 63 -75 63 -127c0 -81 -54 -141 -138 -164c109 -25 176 -92 176 -188c0 -57 -25 -104 -74 -141
s-111 -55 -185 -55zM311 16c65 0 119 16 162 49c44 33 66 73 66 122s-22 90 -65 121c-43 32 -98 48 -163 48s-119 -16 -162 -48c-43 -31 -65 -72 -65 -121s22 -89 65 -122c44 -33 98 -49 162 -49zM311 384c55 0 100 14 136 42s54 64 54 108s-18 80 -54 108s-81 42 -136 42
c-54 0 -99 -14 -136 -42c-36 -28 -54 -64 -54 -108c0 -43 18 -79 54 -108c37 -28 82 -42 136 -42z" />
    <glyph glyph-name="uniF64C" unicode="&#xf64c;" 
d="M253 -203c-56 0 -104 14 -143 42v31c43 -29 91 -44 142 -44c83 0 147 30 194 89s70 138 70 239v24c-36 -80 -120 -142 -227 -142c-63 0 -116 20 -161 61c-44 41 -66 93 -66 156c0 67 22 122 66 166s98 66 163 66c157 0 256 -120 256 -328c0 -113 -27 -201 -80 -264
c-53 -64 -124 -96 -214 -96zM294 64c49 0 94 15 133 46c40 31 69 69 86 116c-17 141 -93 230 -222 230c-55 0 -102 -19 -141 -58c-38 -38 -57 -86 -57 -144c0 -56 19 -102 58 -137s87 -53 143 -53z" />
    <glyph glyph-name="uniF64E" unicode="&#xf64e;" horiz-adv-x="570" 
d="M106 277h-68v29h73c14 53 42 96 85 129s94 50 155 50c53 0 101 -12 144 -37v-33c-43 27 -91 41 -142 41c-101 0 -183 -58 -210 -150h248v-29h-253c-3 -15 -4 -28 -4 -41c0 -15 2 -30 5 -47h252v-29h-246c29 -89 108 -143 208 -143c59 0 109 15 151 46v-32
c-43 -29 -94 -43 -154 -43c-119 0 -209 68 -237 172h-75v29h68c-2 15 -3 30 -3 47c0 13 1 27 3 41z" />
    <glyph glyph-name="uniF653" unicode="&#xf653;" horiz-adv-x="495" 
d="M227 590h30v-106c64 -2 116 -16 155 -43v-33c-50 32 -106 48 -167 48c-100 0 -151 -39 -151 -95c0 -53 53 -83 120 -99c98 -22 224 -43 222 -142c0 -39 -17 -70 -51 -93s-77 -36 -128 -38v-105h-30v104c-73 3 -146 28 -181 53v34c43 -29 116 -58 195 -58
c99 0 164 40 164 103c0 140 -342 68 -342 242c0 71 59 118 164 122v106z" />
    <glyph glyph-name="commaaccent" unicode="&#xf6c3;" horiz-adv-x="222" 
d="M100 -208h-28l54 161h33z" />
    <glyph glyph-name="cyrbreve" unicode="&#xf6d4;" horiz-adv-x="512" 
d="M260 575c-92 0 -151 56 -151 136h29c0 -63 48 -108 121 -108c72 0 119 45 119 108h30c0 -39 -14 -72 -43 -98c-28 -25 -63 -38 -105 -38z" />
    <glyph glyph-name="uniF6DC" unicode="&#xf6dc;" 
d="M551 0h-441v29h210v636l-164 -103v33l166 105h29v-671h200v-29z" />
    <glyph glyph-name="uniF721" unicode="&#xf721;" horiz-adv-x="521" 
d="M282 -12c-58 0 -103 8 -134 25s-47 42 -47 74s19 59 56 82h-89v29h383v-29h-245c-48 -21 -72 -46 -72 -76c0 -48 51 -76 151 -76c54 0 102 9 145 28v-31c-45 -17 -94 -26 -148 -26zM451 284h-383v29h266c41 19 62 42 62 71c0 48 -48 72 -143 72c-52 0 -100 -10 -145 -31
v31c41 19 91 29 150 29c111 0 171 -35 171 -96c0 -30 -16 -55 -47 -76h69v-29z" />
    <glyph glyph-name="uniF722" unicode="&#xf722;" horiz-adv-x="558" 
d="M116 177h-70v29h70v267h223c108 0 169 -59 169 -148c0 -91 -62 -148 -170 -148h-191v-79h223v-29h-223v-69h-31v69h-70v29h70v79zM335 444h-188v-238h188c91 0 142 43 142 119s-51 119 -142 119z" />
    <glyph glyph-name="uniF725" unicode="&#xf725;" horiz-adv-x="560" 
d="M485 0h-415v29h28c24 0 38 25 38 54v94h-66v29h66v82c0 131 66 197 198 197c57 0 107 -14 150 -43v-31c-45 30 -94 45 -147 45c-113 0 -170 -58 -170 -174v-76h260v-29h-260v-98c0 -23 -7 -39 -21 -50h339v-29z" />
    <glyph glyph-name="uniF727" unicode="&#xf727;" horiz-adv-x="531" 
d="M281 0h-31v92h-163v29h163v88h-163v29h152l-189 235h38l178 -221l178 221h37l-189 -235h152v-29h-163v-88h163v-29h-163v-92z" />
    <glyph glyph-name="uniF730" unicode="&#xf730;" horiz-adv-x="613" 
d="M306 17c61 0 113 21 154 63c42 43 63 95 63 156c0 62 -21 114 -63 156c-41 43 -93 64 -154 64c-62 0 -114 -21 -156 -64c-41 -42 -62 -94 -62 -156s21 -114 62 -156c42 -42 94 -63 156 -63zM56 236c0 68 23 126 69 175c47 49 107 74 181 74c73 0 133 -25 179 -74
c47 -49 70 -107 70 -175c0 -67 -23 -126 -70 -175c-46 -49 -106 -73 -179 -73s-133 24 -180 73s-70 108 -70 175z" />
    <glyph glyph-name="uniF731" unicode="&#xf731;" horiz-adv-x="346" 
d="M234 0h-31v438l-163 -103v33l165 105h29v-473z" />
    <glyph glyph-name="uniF732" unicode="&#xf732;" horiz-adv-x="557" 
d="M493 0h-431v24c116 65 192 110 227 133c21 13 37 23 49 32s26 21 43 36c35 31 52 64 52 101c0 76 -65 130 -162 130c-73 0 -139 -30 -200 -89v37c54 54 121 81 202 81c58 0 104 -15 139 -44s52 -66 52 -111c0 -44 -18 -84 -54 -117c-35 -33 -59 -51 -106 -80
c-15 -9 -37 -23 -67 -40c-60 -35 -111 -63 -114 -64h370v-29z" />
    <glyph glyph-name="uniF733" unicode="&#xf733;" horiz-adv-x="538" 
d="M226 -203c-80 0 -147 16 -200 49v34c52 -36 118 -54 198 -54c61 0 113 17 158 51s68 80 68 139c0 109 -87 179 -220 179c-25 0 -47 -2 -65 -7v24l243 232h-348v29h394v-23l-240 -228c12 0 20 0 25 -1c41 -1 80 -8 115 -22c71 -27 128 -92 128 -183
c0 -65 -25 -118 -74 -158c-49 -41 -109 -61 -182 -61z" />
    <glyph glyph-name="uniF734" unicode="&#xf734;" 
d="M463 -200h-30v200h-391v26l393 447h28v-444h124v-29h-124v-200zM433 426l-351 -397h351v397z" />
    <glyph glyph-name="uniF735" unicode="&#xf735;" horiz-adv-x="591" 
d="M262 -203c-75 0 -139 15 -190 45v33c52 -33 115 -49 190 -49c68 0 124 19 168 57c45 37 67 83 67 138c0 53 -21 96 -62 130c-41 35 -96 52 -163 52c-60 0 -116 -10 -169 -29l44 299h329v-29h-304l-36 -231c45 12 93 18 142 18c72 0 132 -19 179 -58s71 -89 71 -152
c0 -64 -25 -117 -76 -160c-50 -43 -113 -64 -190 -64z" />
    <glyph glyph-name="uniF736" unicode="&#xf736;" horiz-adv-x="636" 
d="M333 -12c-156 0 -256 120 -256 328c0 115 27 210 81 284c54 75 125 112 214 112c55 0 102 -14 143 -42v-31c-43 29 -91 44 -142 44c-57 0 -106 -18 -147 -54c-81 -72 -114 -180 -117 -303v-31c36 80 120 142 227 142c63 0 116 -21 160 -62c45 -41 67 -93 67 -156
c0 -66 -22 -121 -66 -165s-99 -66 -164 -66zM334 17c55 0 102 19 140 57c38 39 57 87 57 144s-19 103 -58 138s-86 53 -142 53c-50 0 -95 -15 -135 -46c-39 -30 -67 -69 -84 -116c17 -141 93 -230 222 -230z" />
    <glyph glyph-name="uniF737" unicode="&#xf737;" horiz-adv-x="522" 
d="M157 -200h-34l327 644h-404v29h441v-23z" />
    <glyph glyph-name="uniF738" unicode="&#xf738;" horiz-adv-x="647" 
d="M323 -12c-73 0 -135 18 -185 55c-49 37 -74 84 -74 141c0 96 67 163 176 188c-84 23 -137 83 -137 164c0 52 21 94 62 127c42 33 95 49 158 49c64 0 117 -16 158 -49c42 -33 63 -75 63 -127c0 -81 -54 -141 -138 -164c109 -25 176 -92 176 -188c0 -57 -25 -104 -74 -141
s-111 -55 -185 -55zM323 16c65 0 119 16 162 49c44 33 66 73 66 122s-22 90 -65 121c-43 32 -98 48 -163 48s-119 -16 -162 -48c-43 -31 -65 -72 -65 -121s22 -89 65 -122c44 -33 98 -49 162 -49zM323 384c55 0 100 14 136 42s54 64 54 108s-18 80 -54 108s-81 42 -136 42
c-54 0 -99 -14 -136 -42c-36 -28 -54 -64 -54 -108c0 -43 18 -79 54 -108c37 -28 82 -42 136 -42z" />
    <glyph glyph-name="uniF739" unicode="&#xf739;" horiz-adv-x="635" 
d="M263 -203c-56 0 -104 14 -143 42v31c43 -29 91 -44 142 -44c83 0 147 30 194 89s70 138 70 239v24c-36 -80 -120 -142 -227 -142c-63 0 -116 20 -161 61c-44 41 -66 93 -66 156c0 67 22 122 66 166s98 66 163 66c157 0 256 -120 256 -328c0 -113 -27 -201 -80 -264
c-53 -64 -124 -96 -214 -96zM304 64c49 0 94 15 133 46c40 31 69 69 86 116c-17 141 -93 230 -222 230c-55 0 -102 -19 -141 -58c-38 -38 -57 -86 -57 -144c0 -56 19 -102 58 -137s87 -53 143 -53z" />
    <glyph glyph-name="aacute.alt" horiz-adv-x="628" 
d="M303 -12c-73 0 -132 24 -178 73c-45 49 -68 108 -68 175c0 68 23 126 68 175c46 49 105 74 178 74c85 0 159 -41 200 -102v90h31v-473h-31v90c-41 -61 -115 -102 -200 -102zM307 17c43 0 82 11 118 34c37 23 63 52 78 87v197c-15 35 -41 64 -78 87c-36 23 -75 34 -118 34
c-62 0 -114 -21 -156 -64c-41 -42 -62 -94 -62 -156s21 -114 62 -156c42 -42 94 -63 156 -63zM299 574h-36l97 126h42z" />
    <glyph glyph-name="cyrbreve.cap" horiz-adv-x="530" 
d="M261 758c-92 0 -153 56 -153 137h29c0 -63 49 -109 124 -109c72 0 120 46 120 109h30c0 -39 -14 -72 -43 -98s-64 -39 -107 -39z" />
    <glyph glyph-name="idieresis_idieresis" horiz-adv-x="459" 
d="M136 0h-31v473h31v-473zM355 0h-31v473h31v-473zM432 613c-17 0 -30 13 -30 30c0 16 13 29 30 29c16 0 29 -13 29 -29c0 -17 -13 -30 -29 -30zM28 613c-17 0 -30 13 -30 30c0 16 13 29 30 29c16 0 29 -13 29 -29c0 -17 -13 -30 -29 -30zM229 613c-17 0 -30 13 -30 30
c0 16 13 29 30 29c16 0 29 -13 29 -29c0 -17 -13 -30 -29 -30z" />
    <glyph glyph-name="agrave.alt" horiz-adv-x="628" 
d="M303 -12c-73 0 -132 24 -178 73c-45 49 -68 108 -68 175c0 68 23 126 68 175c46 49 105 74 178 74c85 0 159 -41 200 -102v90h31v-473h-31v90c-41 -61 -115 -102 -200 -102zM307 17c43 0 82 11 118 34c37 23 63 52 78 87v197c-15 35 -41 64 -78 87c-36 23 -75 34 -118 34
c-62 0 -114 -21 -156 -64c-41 -42 -62 -94 -62 -156s21 -114 62 -156c42 -42 94 -63 156 -63zM217 700h42l97 -126h-36z" />
    <glyph glyph-name="uni20B6.mono" 
d="M139 0h-31v176h-92v29h92v125h-92v29h92v341h265c135 0 212 -72 212 -185s-77 -185 -212 -185h-234v-125h315v-29h-315v-176zM139 671v-312h231c116 0 183 56 183 155c0 100 -67 157 -183 157h-231z" />
    <glyph glyph-name="liralow.mono" 
d="M500 0h-415v29h28c25 0 38 27 38 58v60h-66v29h66v87h-66v30h66c0 128 66 192 198 192c57 0 107 -14 150 -43v-31c-45 30 -95 45 -149 45c-111 0 -167 -50 -168 -163h259v-30h-259v-87h259v-29h-259v-68c0 -23 -7 -39 -21 -50h339v-29z" />
    <glyph glyph-name="franclow.mono" 
d="M171 0h-31v90h-82v29h82v354h369v-29h-338v-199h275v-29h-275v-97h145v-29h-145v-90z" />
    <glyph glyph-name="uniF64E.mono" 
d="M128 277h-68v29h73c14 53 42 96 85 129s94 50 155 50c53 0 101 -12 144 -37v-33c-43 27 -91 41 -142 41c-101 0 -183 -58 -210 -150h248v-29h-253c-3 -15 -4 -28 -4 -41c0 -15 2 -30 5 -47h252v-29h-246c29 -89 108 -143 208 -143c59 0 109 15 151 46v-32
c-43 -29 -95 -43 -154 -43c-119 0 -209 68 -237 172h-75v29h68c-2 15 -3 30 -3 47c0 13 1 27 3 41z" />
    <glyph glyph-name="pesolow.mono" 
d="M115 313h-71v29h71v131h223c100 0 160 -51 168 -131h69v-29h-69c-5 -83 -68 -136 -169 -136h-191v-177h-31v313zM333 444h-187v-238h187c91 0 142 43 142 119s-51 119 -142 119z" />
    <glyph glyph-name="uniF722.mono" 
d="M136 177h-70v29h70v267h223c108 0 169 -59 169 -148c0 -91 -62 -148 -170 -148h-191v-79h223v-29h-223v-69h-31v69h-70v29h70v79zM355 444h-188v-238h188c91 0 142 43 142 119s-51 119 -142 119z" />
    <glyph glyph-name="uniF653.mono" 
d="M295 590h30v-106c64 -2 116 -16 155 -43v-33c-50 32 -106 48 -167 48c-100 0 -151 -39 -151 -95c0 -53 53 -83 120 -99c98 -22 224 -43 222 -142c0 -39 -17 -70 -51 -93s-77 -36 -128 -38v-105h-30v104c-73 3 -146 28 -181 53v34c43 -29 116 -58 195 -58
c99 0 164 40 164 103c0 140 -342 68 -342 242c0 71 59 118 164 122v106z" />
    <glyph glyph-name="uniF725.mono" 
d="M500 0h-415v29h28c24 0 38 25 38 54v94h-66v29h66v82c0 131 66 197 198 197c57 0 107 -14 150 -43v-31c-45 30 -94 45 -147 45c-113 0 -170 -58 -170 -174v-76h260v-29h-260v-98c0 -23 -7 -39 -21 -50h339v-29z" />
    <glyph glyph-name="uniF721.mono" 
d="M323 -12c-58 0 -103 8 -134 25s-47 42 -47 74s19 59 56 82h-89v29h383v-29h-245c-48 -21 -72 -46 -72 -76c0 -48 51 -76 151 -76c54 0 102 9 145 28v-31c-45 -17 -94 -26 -148 -26zM492 284h-383v29h266c41 19 62 42 62 71c0 48 -48 72 -143 72c-52 0 -100 -10 -145 -31
v31c41 19 91 29 150 29c111 0 171 -35 171 -96c0 -30 -16 -55 -47 -76h69v-29z" />
    <glyph glyph-name="uni20B4.mono" 
d="M115 134c0 54 26 100 77 138h-117v29h467v-29h-300c-63 -36 -95 -80 -95 -133c0 -77 64 -122 184 -122c62 0 119 13 171 38v-31c-48 -24 -106 -36 -174 -36c-136 0 -213 57 -213 146zM542 417h-467v29h329c51 33 76 72 76 119c0 38 -15 67 -45 87c-30 21 -74 31 -133 31
s-113 -12 -163 -36v31c47 23 102 34 166 34c133 0 208 -56 208 -144c0 -48 -22 -89 -65 -122h94v-29z" />
    <glyph glyph-name="gbreve.alt" horiz-adv-x="617" 
d="M449 426l129 59v-29l-110 -53c26 -36 39 -74 39 -115c0 -38 -11 -73 -33 -106c45 -44 68 -97 68 -160c0 -61 -23 -114 -68 -158c-45 -45 -103 -67 -174 -67c-68 0 -124 20 -169 60s-69 89 -74 147h31c5 -51 28 -94 67 -127c40 -34 88 -51 145 -51c59 0 109 19 150 57
c41 37 61 84 61 139s-19 100 -57 137c-41 -45 -94 -67 -158 -67c-63 0 -115 19 -154 58s-59 85 -59 138c0 54 20 100 59 139s91 58 154 58s114 -20 153 -59zM296 121c51 0 93 16 127 48c35 32 52 72 52 119s-17 87 -52 119c-34 33 -76 49 -127 49c-52 0 -95 -16 -130 -49
c-35 -32 -52 -72 -52 -119s17 -87 52 -119s78 -48 130 -48zM296 575c-33 0 -62 12 -86 35c-23 24 -35 53 -35 86h28c0 -52 41 -94 93 -94s92 42 93 94h28c-1 -33 -13 -62 -37 -86c-23 -23 -51 -35 -84 -35z" />
    <glyph glyph-name="acircumflex.alt" horiz-adv-x="628" 
d="M303 -12c-73 0 -132 24 -178 73c-45 49 -68 108 -68 175c0 68 23 126 68 175c46 49 105 74 178 74c85 0 159 -41 200 -102v90h31v-473h-31v90c-41 -61 -115 -102 -200 -102zM307 17c43 0 82 11 118 34c37 23 63 52 78 87v197c-15 35 -41 64 -78 87c-36 23 -75 34 -118 34
c-62 0 -114 -21 -156 -64c-41 -42 -62 -94 -62 -156s21 -114 62 -156c42 -42 94 -63 156 -63zM185 574l103 126h36l104 -126h-38l-84 103l-84 -103h-37z" />
    <glyph glyph-name="adieresis.alt" horiz-adv-x="628" 
d="M303 -12c-73 0 -132 24 -178 73c-45 49 -68 108 -68 175c0 68 23 126 68 175c46 49 105 74 178 74c85 0 159 -41 200 -102v90h31v-473h-31v90c-41 -61 -115 -102 -200 -102zM307 17c43 0 82 11 118 34c37 23 63 52 78 87v197c-15 35 -41 64 -78 87c-36 23 -75 34 -118 34
c-62 0 -114 -21 -156 -64c-41 -42 -62 -94 -62 -156s21 -114 62 -156c42 -42 94 -63 156 -63zM214 613c-17 0 -30 13 -30 30c0 16 13 29 30 29c16 0 29 -13 29 -29c0 -17 -13 -30 -29 -30zM399 613c-17 0 -30 13 -30 30c0 16 13 29 30 29c16 0 29 -13 29 -29
c0 -17 -13 -30 -29 -30z" />
    <glyph glyph-name="Q.alt02" horiz-adv-x="851" 
d="M720 -132c-56 0 -125 26 -170 54c-45 27 -108 53 -155 53c-58 0 -109 -24 -152 -71v35c27 29 59 48 98 59c-78 18 -141 59 -190 123s-73 140 -73 229c0 103 33 189 99 258c67 69 149 104 247 104s180 -34 245 -103c66 -69 99 -155 99 -259c0 -96 -28 -177 -85 -244
s-129 -105 -216 -115c18 -6 43 -17 75 -34c65 -35 123 -60 179 -60c30 0 56 8 79 23v-32c-22 -13 -49 -20 -80 -20zM424 17c88 0 162 32 222 95c61 64 91 143 91 238s-30 174 -91 237c-60 64 -134 96 -222 96s-162 -32 -223 -96c-60 -63 -90 -142 -90 -237s30 -175 90 -238
s134 -95 223 -95z" />
    <glyph glyph-name="atilde.alt" horiz-adv-x="628" 
d="M303 -12c-73 0 -132 24 -178 73c-45 49 -68 108 -68 175c0 68 23 126 68 175c46 49 105 74 178 74c85 0 159 -41 200 -102v90h31v-473h-31v90c-41 -61 -115 -102 -200 -102zM307 17c43 0 82 11 118 34c37 23 63 52 78 87v197c-15 35 -41 64 -78 87c-36 23 -75 34 -118 34
c-62 0 -114 -21 -156 -64c-41 -42 -62 -94 -62 -156s21 -114 62 -156c42 -42 94 -63 156 -63zM383 596c-19 0 -44 11 -76 33s-55 33 -69 33c-27 0 -41 -20 -44 -60h-26c1 55 29 88 69 88c19 0 45 -11 77 -33s54 -33 67 -33c27 0 41 20 44 61h26c-1 -55 -28 -89 -68 -89z" />
    <glyph glyph-name="Q.alt01" horiz-adv-x="848" 
d="M424 -12c-99 0 -181 34 -247 103s-99 155 -99 259c0 103 33 189 99 258c67 69 149 104 247 104s180 -34 245 -103c66 -69 99 -155 99 -259c0 -101 -32 -187 -96 -256l85 -94h-39l-67 73c-63 -57 -138 -85 -227 -85zM424 17c79 0 148 26 206 79l-196 217h41l176 -196
c57 64 86 142 86 233c0 95 -30 174 -91 237c-60 64 -134 96 -222 96c-89 0 -163 -32 -224 -96c-60 -63 -90 -142 -90 -237s30 -174 90 -238c61 -63 135 -95 224 -95z" />
    <glyph glyph-name="aring.alt" horiz-adv-x="628" 
d="M303 -12c-73 0 -132 24 -178 73c-45 49 -68 108 -68 175c0 68 23 126 68 175c46 49 105 74 178 74c85 0 159 -41 200 -102v90h31v-473h-31v90c-41 -61 -115 -102 -200 -102zM307 17c43 0 82 11 118 34c37 23 63 52 78 87v197c-15 35 -41 64 -78 87c-36 23 -75 34 -118 34
c-62 0 -114 -21 -156 -64c-41 -42 -62 -94 -62 -156s21 -114 62 -156c42 -42 94 -63 156 -63zM243 706c36 36 92 36 127 0c36 -35 36 -91 0 -127c-35 -36 -91 -36 -127 0s-36 92 0 127zM307 578c37 0 66 28 66 65s-29 66 -66 66c-36 0 -65 -29 -65 -66s29 -65 65 -65z" />
    <glyph glyph-name="amacron.alt" horiz-adv-x="628" 
d="M303 -12c-73 0 -132 24 -178 73c-45 49 -68 108 -68 175c0 68 23 126 68 175c46 49 105 74 178 74c85 0 159 -41 200 -102v90h31v-473h-31v90c-41 -61 -115 -102 -200 -102zM307 17c43 0 82 11 118 34c37 23 63 52 78 87v197c-15 35 -41 64 -78 87c-36 23 -75 34 -118 34
c-62 0 -114 -21 -156 -64c-41 -42 -62 -94 -62 -156s21 -114 62 -156c42 -42 94 -63 156 -63zM423 629h-219v28h219v-28z" />
    <glyph glyph-name="gcommaaccent.alt" horiz-adv-x="617" 
d="M449 426l129 59v-29l-110 -53c26 -36 39 -74 39 -115c0 -38 -11 -73 -33 -106c45 -44 68 -97 68 -160c0 -61 -23 -114 -68 -158c-45 -45 -103 -67 -174 -67c-68 0 -124 20 -169 60s-69 89 -74 147h31c5 -51 28 -94 67 -127c40 -34 88 -51 145 -51c59 0 109 19 150 57
c41 37 61 84 61 139s-19 100 -57 137c-41 -45 -94 -67 -158 -67c-63 0 -115 19 -154 58s-59 85 -59 138c0 54 20 100 59 139s91 58 154 58s114 -20 153 -59zM296 121c51 0 93 16 127 48c35 32 52 72 52 119s-17 87 -52 119c-34 33 -76 49 -127 49c-52 0 -95 -16 -130 -49
c-35 -32 -52 -72 -52 -119s17 -87 52 -119s78 -48 130 -48zM319 709h28l-54 -161h-33z" />
    <glyph glyph-name="uniF727.mono" 
d="M327 0h-31v92h-163v29h163v88h-163v29h152l-189 235h38l178 -221l178 221h37l-189 -235h152v-29h-163v-88h163v-29h-163v-92z" />
    <glyph glyph-name="circumflex.cap" horiz-adv-x="520" 
d="M139 765l103 126h36l104 -126h-38l-84 103l-84 -103h-37z" />
    <glyph glyph-name="dieresis.cap" horiz-adv-x="519" 
d="M139 823c0 39 59 39 59 0c4 -37 -62 -37 -59 0zM324 823c0 39 60 39 60 0c0 -37 -60 -37 -60 0z" />
    <glyph glyph-name="macron.cap" horiz-adv-x="523" 
d="M372 814h-220v28h220v-28z" />
    <glyph glyph-name="gcircumflex.alt" horiz-adv-x="617" 
d="M449 426l129 59v-29l-110 -53c26 -36 39 -74 39 -115c0 -38 -11 -73 -33 -106c45 -44 68 -97 68 -160c0 -61 -23 -114 -68 -158c-45 -45 -103 -67 -174 -67c-68 0 -124 20 -169 60s-69 89 -74 147h31c5 -51 28 -94 67 -127c40 -34 88 -51 145 -51c59 0 109 19 150 57
c41 37 61 84 61 139s-19 100 -57 137c-41 -45 -94 -67 -158 -67c-63 0 -115 19 -154 58s-59 85 -59 138c0 54 20 100 59 139s91 58 154 58s114 -20 153 -59zM296 121c51 0 93 16 127 48c35 32 52 72 52 119s-17 87 -52 119c-34 33 -76 49 -127 49c-52 0 -95 -16 -130 -49
c-35 -32 -52 -72 -52 -119s17 -87 52 -119s78 -48 130 -48zM177 574l103 126h36l104 -126h-38l-84 103l-84 -103h-37z" />
    <glyph glyph-name="grave.cap" horiz-adv-x="519" 
d="M175 891h42l97 -126h-36z" />
    <glyph glyph-name="onehalf.mono" horiz-adv-x="826" 
d="M769 0h-255v23l134 127c53 52 77 83 77 126c0 45 -35 78 -90 78c-41 0 -79 -16 -114 -49v33c32 29 71 44 116 44c68 0 118 -43 118 -104c0 -49 -25 -88 -84 -145l-110 -106h208v-27zM190 322h-30v344l-106 -65v32l108 67h28v-378zM185 0h-35l404 700h34z" />
    <glyph glyph-name="threequarters.mono" horiz-adv-x="826" 
d="M232 0h-35l404 700h34zM709 0h-30v106h-205v23l208 249h27v-245h63v-27h-63v-106zM679 332l-167 -199h167v199zM158 318c-44 0 -81 9 -110 28v30c33 -21 70 -31 109 -31c60 0 112 39 112 95s-41 91 -109 91c-14 0 -27 -2 -39 -6v23l123 125h-179v27h222v-21l-121 -123
c73 -1 133 -40 133 -116c0 -72 -60 -122 -141 -122z" />
    <glyph glyph-name="N_T" horiz-adv-x="958" 
d="M140 0h-31v700h29l496 -645v616h-255v29h542v-29h-256v-671h-29l-496 646v-646z" />
    <glyph glyph-name="uni0422_uni0418" horiz-adv-x="954" 
d="M320 0h-28v671h-255v29h542v-29h-256v-617l493 646h29v-700h-31v647z" />
    <glyph glyph-name="Idieresis_Idieresis" horiz-adv-x="502" 
d="M146 0h-31v700h31v-700zM386 0h-31v700h31v-700zM434 823c0 39 60 39 60 0c0 -37 -60 -37 -60 0zM8 823c0 39 59 39 59 0c4 -37 -62 -37 -59 0zM221 823c0 39 59 39 59 0c4 -37 -62 -37 -59 0z" />
    <glyph glyph-name="O_C" horiz-adv-x="1352" 
d="M1083 -12c-79 0 -149 23 -209 68s-101 105 -122 180c-22 -75 -63 -135 -122 -180s-128 -68 -206 -68c-99 0 -181 34 -247 103s-99 155 -99 259c0 103 33 189 99 258c67 69 149 104 247 104c78 0 147 -23 206 -69c59 -45 100 -105 122 -180c21 75 62 135 122 180
c60 46 130 69 209 69c78 0 145 -19 202 -57v-34c-62 41 -129 62 -201 62c-89 0 -164 -32 -225 -96c-61 -63 -91 -142 -91 -237s30 -175 91 -238s137 -95 226 -95c83 0 156 25 217 75v-36c-59 -45 -132 -68 -219 -68zM424 17c88 0 162 32 222 95s90 143 90 238
s-30 174 -90 237c-60 64 -134 96 -222 96c-89 0 -163 -32 -224 -96c-60 -63 -90 -142 -90 -237s30 -174 90 -238c61 -63 135 -95 224 -95z" />
    <glyph glyph-name="O_O" horiz-adv-x="1506" 
d="M1083 -12c-79 0 -148 23 -208 68s-101 106 -123 181c-21 -75 -62 -135 -122 -181c-59 -45 -128 -68 -206 -68c-99 0 -181 34 -247 103s-99 155 -99 259c0 103 33 189 99 258c67 69 149 104 247 104c79 0 147 -23 206 -69c59 -45 100 -106 122 -181c21 75 62 136 122 181
c61 46 130 69 209 69c98 0 180 -34 245 -103c66 -69 99 -155 99 -259s-33 -190 -99 -259c-65 -69 -147 -103 -245 -103zM1083 17c88 0 162 32 222 95c61 64 91 143 91 238s-30 174 -91 237c-60 64 -134 96 -222 96c-89 0 -163 -32 -224 -96c-60 -63 -90 -142 -90 -237
s30 -174 90 -238c61 -63 135 -95 224 -95zM424 17c88 0 162 32 222 95c61 64 91 143 91 238s-30 174 -91 237c-60 64 -134 96 -222 96c-89 0 -163 -32 -224 -96c-60 -63 -90 -142 -90 -237s30 -174 90 -238c61 -63 135 -95 224 -95z" />
    <glyph glyph-name="o_c" horiz-adv-x="993" 
d="M307 -12c-73 0 -133 24 -180 73s-70 108 -70 175c0 68 23 126 69 175c47 49 107 74 181 74c112 0 198 -66 233 -161c35 96 123 161 235 161c54 0 102 -12 143 -37v-33c-43 27 -90 41 -141 41c-62 0 -114 -21 -156 -63s-63 -94 -63 -157c0 -62 21 -114 63 -156
s94 -63 156 -63c59 0 109 15 151 46v-32c-43 -29 -94 -43 -154 -43c-112 0 -199 65 -234 160c-35 -95 -121 -160 -233 -160zM307 17c61 0 113 21 155 63c42 43 63 95 63 156c0 62 -21 114 -63 156c-42 43 -94 64 -155 64c-62 0 -114 -21 -156 -64c-41 -42 -62 -94 -62 -156
s21 -114 62 -156c42 -42 94 -63 156 -63z" />
    <glyph glyph-name="o_o" horiz-adv-x="1081" 
d="M775 -12c-113 0 -200 65 -235 160c-35 -95 -121 -160 -233 -160c-73 0 -133 24 -180 73s-70 108 -70 175c0 68 23 126 69 175c47 49 107 74 181 74c112 0 198 -65 233 -161c36 96 122 161 235 161c73 0 133 -25 179 -74c47 -49 70 -107 70 -175c0 -67 -23 -126 -70 -175
c-46 -49 -106 -73 -179 -73zM775 17c61 0 113 21 155 63c42 43 63 95 63 156c0 62 -21 114 -63 156c-42 43 -94 64 -155 64c-62 0 -114 -21 -156 -64c-41 -42 -62 -94 -62 -156s21 -114 62 -156c42 -42 94 -63 156 -63zM307 17c61 0 113 21 155 63c42 43 63 95 63 156
c0 63 -21 116 -64 157c-42 42 -93 63 -154 63c-62 0 -114 -21 -156 -64c-41 -42 -62 -94 -62 -156s21 -114 62 -156c42 -42 94 -63 156 -63z" />
    <glyph glyph-name="liralow" horiz-adv-x="560" 
d="M485 0h-415v29h28c25 0 38 27 38 58v60h-66v29h66v87h-66v30h66c0 128 66 192 198 192c57 0 107 -14 150 -43v-31c-45 30 -95 45 -149 45c-111 0 -167 -50 -168 -163h259v-30h-259v-87h259v-29h-259v-68c0 -23 -7 -39 -21 -50h339v-29z" />
    <glyph glyph-name="franclow" horiz-adv-x="526" 
d="M140 0h-31v90h-82v29h82v354h369v-29h-338v-199h275v-29h-275v-97h145v-29h-145v-90z" />
    <glyph glyph-name="pesolow" horiz-adv-x="600" 
d="M115 313h-71v29h71v131h223c100 0 160 -51 168 -131h69v-29h-69c-5 -83 -68 -136 -169 -136h-191v-177h-31v313zM333 444h-187v-238h187c91 0 142 43 142 119s-51 119 -142 119z" />
    <glyph glyph-name="franc.mono" 
d="M144 0h-31v163h-121v29h121v508h456v-29h-425v-289h354v-29h-354v-161h188v-29h-188v-163z" />
    <glyph glyph-name="lira.mono" 
d="M531 0h-447v29h26c27 0 41 22 41 65v136h-67v29h67v125h-67v29h67v82c0 139 79 217 215 217c64 0 118 -16 163 -48v-34c-41 35 -95 53 -162 53c-119 0 -185 -68 -185 -192v-78h299v-29h-299v-125h299v-29h-299v-149c0 -22 -7 -39 -21 -52h370v-29z" />
    <glyph glyph-name="peseta.mono" 
d="M97 0h-31v500h-100v29h100v171h287c129 0 206 -67 211 -171h94v-29h-94c-7 -103 -83 -169 -211 -169h-256v-331zM97 671v-311h254c116 0 183 56 183 155s-67 156 -183 156h-254z" />
    <glyph glyph-name="gdotaccent.alt" horiz-adv-x="617" 
d="M449 426l129 59v-29l-110 -53c26 -36 39 -74 39 -115c0 -38 -11 -73 -33 -106c45 -44 68 -97 68 -160c0 -61 -23 -114 -68 -158c-45 -45 -103 -67 -174 -67c-68 0 -124 20 -169 60s-69 89 -74 147h31c5 -51 28 -94 67 -127c40 -34 88 -51 145 -51c59 0 109 19 150 57
c41 37 61 84 61 139s-19 100 -57 137c-41 -45 -94 -67 -158 -67c-63 0 -115 19 -154 58s-59 85 -59 138c0 54 20 100 59 139s91 58 154 58s114 -20 153 -59zM296 121c51 0 93 16 127 48c35 32 52 72 52 119s-17 87 -52 119c-34 33 -76 49 -127 49c-52 0 -95 -16 -130 -49
c-35 -32 -52 -72 -52 -119s17 -87 52 -119s78 -48 130 -48zM317 623c-28 -28 -72 16 -44 44s72 -16 44 -44z" />
    <glyph glyph-name="twothirds.mono" horiz-adv-x="826" 
d="M300 322h-255v23l134 127c53 52 77 83 77 126c0 45 -35 78 -90 78c-41 0 -79 -16 -114 -49v33c32 29 71 44 116 44c68 0 118 -43 118 -104c0 -49 -25 -88 -84 -145l-110 -106h208v-27zM644 -4c-44 0 -81 9 -110 28v30c33 -21 70 -31 109 -31c60 0 112 39 112 95
s-41 91 -109 91c-14 0 -27 -2 -39 -6v23l123 125h-179v27h222v-21l-121 -123c73 -1 133 -40 133 -116c0 -72 -60 -122 -141 -122zM244 0h-35l404 700h34z" />
    <glyph glyph-name="onethird.mono" horiz-adv-x="826" 
d="M193 0h-35l404 700h34zM199 322h-30v344l-106 -65v32l108 67h28v-378zM622 -4c-44 0 -81 9 -110 28v30c33 -21 70 -31 109 -31c60 0 112 39 112 95s-41 91 -109 91c-14 0 -27 -2 -39 -6v23l123 125h-179v27h222v-21l-121 -123c73 -1 133 -40 133 -116
c0 -72 -60 -122 -141 -122z" />
    <glyph glyph-name="t_t" horiz-adv-x="691" 
d="M154 114v330h-125v29h125v157h31v-157h241v157h30v-157h185v-29h-185v-322c0 -73 32 -105 93 -105c29 0 57 8 84 24v-30c-22 -15 -51 -23 -88 -23c-75 0 -119 46 -119 126v330h-241v-322c0 -73 32 -105 93 -105c27 0 55 8 84 24v-30c-22 -15 -52 -23 -89 -23
c-75 0 -119 46 -119 126z" />
    <glyph glyph-name="yen.mono" 
d="M328 0h-31v160h-219v29h219v125h-219v29h206l-242 357h36l234 -344l234 344h37l-242 -357h205v-29h-218v-125h218v-29h-218v-160z" />
    <glyph glyph-name="dollar.mono" 
d="M295 815h31v-103c75 -3 140 -23 194 -59v-33c-63 42 -133 63 -208 63c-129 0 -198 -64 -198 -141c0 -215 445 -100 445 -362c0 -58 -23 -104 -68 -138c-45 -33 -100 -51 -165 -54v-103h-31v103c-99 3 -191 36 -238 75v36c53 -44 146 -82 250 -82c65 0 117 15 158 45
s61 69 61 118c0 43 -18 78 -41 99c-11 11 -28 22 -49 32s-41 18 -58 23c-17 6 -39 13 -68 21c-64 17 -93 27 -137 47c-62 30 -86 69 -91 140c0 92 76 165 213 170v103z" />
    <glyph glyph-name="hungarumlaut.cap" horiz-adv-x="534" 
d="M174 765h-36l97 126h41zM304 765h-35l96 126h41z" />
    <glyph glyph-name="breve.cap" horiz-adv-x="520" 
d="M138 887h29c0 -53 40 -95 93 -95c52 0 93 42 93 95h28c-1 -34 -13 -63 -36 -87c-23 -23 -52 -35 -85 -35s-62 12 -86 35c-23 24 -35 53 -36 87z" />
    <glyph glyph-name="dotaccent.cap" horiz-adv-x="509" 
d="M275 801c-11 -11 -31 -11 -43 0c-11 12 -11 32 0 43c28 28 71 -15 43 -43z" />
    <glyph glyph-name="caron.cap" horiz-adv-x="523" 
d="M384 891l-104 -126h-36l-103 126h37l84 -103l84 103h38z" />
    <glyph glyph-name="ring.cap" horiz-adv-x="520" 
d="M323 764c-35 -35 -91 -35 -127 0c-36 36 -36 92 0 127c36 36 92 36 127 0c35 -35 35 -91 0 -127zM260 762c37 0 66 29 66 66s-29 67 -66 67s-67 -30 -67 -67s28 -66 67 -66z" />
    <glyph glyph-name="uni2155.mono" horiz-adv-x="826" 
d="M204 0h-35l404 700h34zM210 322h-30v344l-106 -65v32l108 67h28v-378zM607 -4c-41 0 -76 9 -105 26v30c31 -19 66 -29 105 -29c67 0 116 41 116 96c0 52 -44 92 -111 92c-33 0 -64 -5 -94 -15l25 182h186v-27h-163l-15 -121c17 5 39 8 66 8c79 0 137 -48 137 -119
c0 -35 -14 -65 -42 -88s-63 -35 -105 -35z" />
    <glyph glyph-name="uni2156.mono" horiz-adv-x="826" 
d="M626 -4c-41 0 -76 9 -105 26v30c31 -19 66 -29 105 -29c67 0 116 41 116 96c0 52 -44 92 -111 92c-33 0 -64 -5 -94 -15l25 182h186v-27h-163l-15 -121c17 5 39 8 66 8c79 0 137 -48 137 -119c0 -35 -14 -65 -42 -88s-63 -35 -105 -35zM308 322h-255v23l134 127
c53 52 77 83 77 126c0 45 -35 78 -90 78c-41 0 -79 -16 -114 -49v33c32 29 71 44 116 44c68 0 118 -43 118 -104c0 -49 -25 -88 -84 -145l-110 -106h208v-27zM252 0h-35l404 700h34z" />
    <glyph glyph-name="uni2157.mono" horiz-adv-x="826" 
d="M229 0h-35l404 700h34zM632 -4c-41 0 -76 9 -105 26v30c31 -19 66 -29 105 -29c67 0 116 41 116 96c0 52 -44 92 -111 92c-33 0 -64 -5 -94 -15l25 182h186v-27h-163l-15 -121c17 5 39 8 66 8c79 0 137 -48 137 -119c0 -35 -14 -65 -42 -88s-63 -35 -105 -35zM155 318
c-44 0 -81 9 -110 28v30c33 -21 70 -31 109 -31c60 0 112 39 112 95s-41 91 -109 91c-14 0 -27 -2 -39 -6v23l123 125h-179v27h222v-21l-121 -123c73 -1 133 -40 133 -116c0 -72 -60 -122 -141 -122z" />
    <glyph glyph-name="uni2158.mono" horiz-adv-x="826" 
d="M627 -4c-41 0 -76 9 -105 26v30c31 -19 66 -29 105 -29c67 0 116 41 116 96c0 52 -44 92 -111 92c-33 0 -64 -5 -94 -15l25 182h186v-27h-163l-15 -121c17 5 39 8 66 8c79 0 137 -48 137 -119c0 -35 -14 -65 -42 -88s-63 -35 -105 -35zM288 322h-30v106h-205v23l208 249
h27v-245h63v-27h-63v-106zM258 654l-167 -199h167v199zM252 0h-35l404 700h34z" />
    <glyph glyph-name="uni2159.mono" horiz-adv-x="826" 
d="M632 -4c-91 0 -142 72 -142 176c0 61 15 112 44 151c30 39 69 59 118 59c33 0 60 -7 81 -22v-29c-22 16 -48 24 -79 24c-79 0 -132 -69 -133 -172c27 39 65 58 114 58c34 0 63 -11 87 -34c25 -23 37 -52 37 -87s-12 -65 -37 -89c-24 -23 -54 -35 -90 -35zM632 23
c55 0 97 41 97 97s-43 94 -98 94c-46 0 -82 -24 -108 -71c4 -69 44 -120 109 -120zM207 322h-30v344l-106 -65v32l108 67h28v-378zM202 0h-35l404 700h34z" />
    <glyph glyph-name="uni215A.mono" horiz-adv-x="826" 
d="M147 318c-41 0 -76 9 -105 26v30c31 -19 66 -29 105 -29c67 0 116 41 116 96c0 52 -44 92 -111 92c-33 0 -64 -5 -94 -15l25 182h186v-27h-163l-15 -121c17 5 39 8 66 8c79 0 137 -48 137 -119c0 -35 -14 -65 -42 -88s-63 -35 -105 -35zM657 -4c-91 0 -142 72 -142 176
c0 61 15 112 44 151c30 39 69 59 118 59c33 0 60 -7 81 -22v-29c-22 16 -48 24 -79 24c-79 0 -132 -69 -133 -172c27 39 65 58 114 58c34 0 63 -11 87 -34c25 -23 37 -52 37 -87s-12 -65 -37 -89c-24 -23 -54 -35 -90 -35zM657 23c55 0 97 41 97 97s-43 94 -98 94
c-46 0 -82 -24 -108 -71c4 -69 44 -120 109 -120zM227 0h-35l404 700h34z" />
    <glyph glyph-name="seveneighths.mono" horiz-adv-x="833" 
d="M622 -4c-83 0 -144 42 -144 106c0 48 27 81 81 100c-41 15 -61 43 -61 83c0 57 53 97 124 97s123 -40 123 -97c0 -40 -20 -68 -60 -83c54 -19 81 -52 81 -100c0 -64 -63 -106 -144 -106zM622 23c65 0 113 34 113 82c0 51 -46 82 -113 82s-113 -31 -113 -82
c0 -48 46 -82 113 -82zM622 213c55 0 93 27 93 70c0 44 -38 72 -93 72s-94 -28 -94 -72c0 -43 38 -70 94 -70zM137 322h-34l179 351h-209v27h244v-24zM189 0h-35l404 700h34z" />
    <glyph glyph-name="fiveeighths.mono" horiz-adv-x="833" 
d="M651 -4c-83 0 -144 42 -144 106c0 48 27 81 81 100c-41 15 -61 43 -61 83c0 57 53 97 124 97s123 -40 123 -97c0 -40 -20 -68 -60 -83c54 -19 81 -52 81 -100c0 -64 -63 -106 -144 -106zM651 23c65 0 113 34 113 82c0 51 -46 82 -113 82s-113 -31 -113 -82
c0 -48 46 -82 113 -82zM651 213c55 0 93 27 93 70c0 44 -38 72 -93 72s-94 -28 -94 -72c0 -43 38 -70 94 -70zM146 318c-41 0 -76 9 -105 26v30c31 -19 66 -29 105 -29c67 0 116 41 116 96c0 52 -44 92 -111 92c-33 0 -64 -5 -94 -15l25 182h186v-27h-163l-15 -121
c17 5 39 8 66 8c79 0 137 -48 137 -119c0 -35 -14 -65 -42 -88s-63 -35 -105 -35zM218 0h-35l404 700h34z" />
    <glyph glyph-name="threeeighths.mono" horiz-adv-x="833" 
d="M218 0h-35l404 700h34zM651 -4c-83 0 -144 42 -144 106c0 48 27 81 81 100c-41 15 -61 43 -61 83c0 57 53 97 124 97s123 -40 123 -97c0 -40 -20 -68 -60 -83c54 -19 81 -52 81 -100c0 -64 -63 -106 -144 -106zM651 23c65 0 113 34 113 82c0 51 -46 82 -113 82
s-113 -31 -113 -82c0 -48 46 -82 113 -82zM651 213c55 0 93 27 93 70c0 44 -38 72 -93 72s-94 -28 -94 -72c0 -43 38 -70 94 -70zM144 318c-44 0 -81 9 -110 28v30c33 -21 70 -31 109 -31c60 0 112 39 112 95s-41 91 -109 91c-14 0 -27 -2 -39 -6v23l123 125h-179v27h222
v-21l-121 -123c73 -1 133 -40 133 -116c0 -72 -60 -122 -141 -122z" />
    <glyph glyph-name="sterling.mono" 
d="M530 0h-446v29h25c27 0 41 22 41 65v216h-66v29h66v156c0 139 79 217 215 217c65 0 119 -16 164 -48v-34c-41 35 -96 53 -163 53c-119 0 -185 -68 -185 -192v-152h305v-29h-305v-229c0 -23 -7 -40 -21 -52h370v-29z" />
    <glyph glyph-name="f_f_t" horiz-adv-x="949" 
d="M803 -12c-87 0 -119 48 -119 156v300h-246v-444h-31v444h-246v-444h-31v444h-101v29h101v77c0 103 32 156 119 156c32 0 61 -7 87 -20v-30c-27 14 -54 21 -83 21c-60 0 -92 -39 -92 -107v-97h246v104c0 81 43 129 119 129c32 0 61 -7 87 -20v-30c-27 14 -54 21 -83 21
c-60 0 -92 -39 -92 -107v-97h246v157h31v-157h184v-29h-184v-293c0 -100 22 -134 93 -134c27 0 55 8 84 24v-30c-22 -15 -52 -23 -89 -23z" />
    <glyph glyph-name="t.alt" horiz-adv-x="351" 
d="M205 -12c-75 0 -119 46 -119 126v516h31v-157h184v-29h-184v-322c0 -73 32 -105 93 -105c29 0 56 8 83 24v-30c-21 -15 -50 -23 -88 -23z" />
    <glyph glyph-name="f.alt01" horiz-adv-x="350" 
d="M124 444v-444h-31v577c0 80 43 129 119 129c32 0 61 -7 88 -20v-30c-28 14 -56 21 -83 21c-60 0 -93 -39 -93 -107v-97h176v-29h-176z" />
    <glyph glyph-name="T_U" horiz-adv-x="940" 
d="M292 299v372h-255v29h542v-29h-256v-372c0 -177 92 -282 244 -282s245 105 245 282v401h31v-401c0 -99 -25 -176 -76 -230c-50 -54 -117 -81 -200 -81s-150 27 -200 81s-75 131 -75 230z" />
    <glyph glyph-name="U_T" horiz-adv-x="942" 
d="M98 299v401h31v-401c0 -177 92 -282 244 -282s245 105 245 282v372h-255v29h542v-29h-256v-372c0 -99 -25 -176 -76 -230c-50 -54 -117 -81 -200 -81s-150 27 -200 81s-75 131 -75 230z" />
    <glyph glyph-name="f_j" horiz-adv-x="545" 
d="M319 -203c-27 0 -50 5 -70 16v32c20 -13 42 -19 67 -19c61 0 91 36 91 107v511h-246v-444h-31v444h-101v29h101v104c0 81 43 129 119 129c32 0 61 -7 87 -20v-30c-27 14 -54 21 -83 21c-60 0 -92 -39 -92 -107v-97h277v-547c0 -95 -51 -129 -119 -129zM444 623
c-28 -27 -71 16 -44 44c28 28 72 -16 44 -44z" />
    <glyph glyph-name="T_h" horiz-adv-x="1069" 
d="M323 0h-31v671h-255v29h556v-315c43 55 119 100 207 100c123 0 185 -71 185 -198v-287h-31v281c0 117 -54 175 -161 175c-39 0 -78 -12 -116 -35s-66 -49 -84 -79v-342h-31v671h-239v-671z" />
    <glyph glyph-name="uni043F_uni0438" horiz-adv-x="977" 
d="M124 0h-31v473h405v-424l358 424h27v-473h-30v424l-358 -424h-28v444h-343v-444z" />
    <glyph glyph-name="uni041F_uni0418" horiz-adv-x="1267" 
d="M140 0h-31v700h527v-646l493 646h29v-700h-32v647l-494 -647h-27v671h-465v-671z" />
    <glyph glyph-name="uni041D_uni0418" horiz-adv-x="1281" 
d="M140 0h-31v700h31v-309h479v309h31v-646l493 646h29v-700h-31v647l-495 -647h-27v362h-479v-362z" />
    </font>
</defs>
</svg>
