<?xml version="1.0" standalone="no"?>
<!DOCTYPE svg PUBLIC "-//W3C//DTD SVG 1.1//EN" "http://www.w3.org/Graphics/SVG/1.1/DTD/svg11.dtd" >
<svg xmlns="http://www.w3.org/2000/svg" xmlns:xlink="http://www.w3.org/1999/xlink" version="1.1">
<metadata>
Created by FontForge 20170910 at Wed Dec 11 00:50:03 2013
 By Jimmy Wärting
Copyright (c) 2012 by Vyacheslav Kirilenko, Gayane Bagdasaryan. All rights reserved.
</metadata>
<defs>
<font id="Geometria-Heavy" horiz-adv-x="661" >
  <font-face 
    font-family="Geometria"
    font-weight="900"
    font-stretch="normal"
    units-per-em="1000"
    panose-1="2 11 9 3 2 2 4 2 2 4"
    ascent="790"
    descent="-210"
    x-height="516"
    cap-height="700"
    bbox="-524 -309 1415 949"
    underline-thickness="50"
    underline-position="-100"
    unicode-range="U+0020-FB04"
  />
<missing-glyph horiz-adv-x="767" 
d="M639 0h-563v700h563v-700zM236 563v-426h243v426h-243z" />
    <glyph glyph-name="ij" unicode="ij" horiz-adv-x="636" 
d="M477 540c-33 0 -60 11 -83 34s-34 52 -34 85c0 65 52 118 117 118c33 0 60 -12 83 -35s35 -50 35 -83c0 -67 -51 -119 -118 -119zM351 -206c-56 0 -97 7 -124 20v159c20 -10 43 -15 70 -15c47 0 75 22 75 63v495h211v-497c0 -137 -81 -225 -232 -225zM264 0h-211v516h211
v-516zM159 540c-33 0 -61 11 -84 34s-34 52 -34 85s11 60 34 83s51 35 84 35s60 -12 83 -35s35 -50 35 -83c0 -67 -51 -119 -118 -119z" />
    <glyph glyph-name="f_f" unicode="ff" horiz-adv-x="868" 
d="M712 352v-352h-211v352h-201v-352h-211v352h-81v164h81v14c0 109 71 184 208 184c54 0 102 -7 145 -22v-139c-28 9 -55 13 -80 13c-41 0 -62 -17 -62 -50h201v14c0 109 71 184 208 184c54 0 102 -7 145 -22v-139c-28 9 -55 13 -80 13c-41 0 -62 -17 -62 -50h142v-164
h-142z" />
    <glyph glyph-name="fi" unicode="fi" horiz-adv-x="766" 
d="M712 0h-211v352h-201v-352h-211v352h-81v164h81v14c0 109 71 184 208 184c54 0 102 -7 145 -22v-139c-28 9 -55 13 -80 13c-41 0 -62 -17 -62 -50h412v-516zM607 540c-33 0 -61 11 -84 34s-34 52 -34 85s11 60 34 83s51 35 84 35s60 -12 83 -35s35 -50 35 -83
c0 -67 -51 -119 -118 -119z" />
    <glyph glyph-name="fl" unicode="fl" horiz-adv-x="792" 
d="M656 -13c-103 0 -155 52 -155 157v208h-201v-352h-211v352h-81v164h81v14c0 109 71 184 208 184c54 0 102 -7 145 -22v-139c-28 9 -55 13 -80 13c-41 0 -62 -17 -62 -50h201v184h210v-509c0 -20 14 -28 27 -28c10 0 18 2 25 5v-161c-27 -13 -62 -20 -107 -20z" />
    <glyph glyph-name="f_f_i" unicode="ffi" horiz-adv-x="1169" 
d="M712 352v-352h-211v352h-201v-352h-211v352h-81v164h81v14c0 109 71 184 208 184c54 0 102 -7 145 -22v-139c-28 9 -55 13 -80 13c-41 0 -62 -17 -62 -50h201v14c0 109 71 184 208 184c54 0 102 -7 145 -22v-139c-28 9 -55 13 -80 13c-41 0 -62 -17 -62 -50h412v-516
h-211v352h-201zM1019 540c-33 0 -61 11 -84 34s-34 52 -34 85s11 60 34 83s51 35 84 35s60 -12 83 -35s35 -50 35 -83c0 -67 -51 -119 -118 -119z" />
    <glyph glyph-name="f_f_l" unicode="ffl" horiz-adv-x="1204" 
d="M712 352v-352h-211v352h-201v-352h-211v352h-81v164h81v14c0 109 71 184 208 184c54 0 102 -7 145 -22v-139c-28 9 -55 13 -80 13c-41 0 -62 -17 -62 -50h201v14c0 109 71 184 208 184c54 0 102 -7 145 -22v-139c-28 9 -55 13 -80 13c-41 0 -62 -17 -62 -50h201v184h210
v-509c0 -20 14 -28 27 -28c10 0 18 2 25 5v-161c-27 -13 -62 -20 -107 -20c-103 0 -155 52 -155 157v208h-201z" />
    <glyph glyph-name=".notdef" horiz-adv-x="767" 
d="M639 0h-563v700h563v-700zM236 563v-426h243v426h-243z" />
    <glyph glyph-name="NULL" horiz-adv-x="0" 
 />
    <glyph glyph-name="CR" horiz-adv-x="333" 
 />
    <glyph glyph-name="space" unicode=" " horiz-adv-x="248" 
 />
    <glyph glyph-name="exclam" unicode="!" horiz-adv-x="378" 
d="M188 -14c-33 0 -62 12 -86 36s-36 53 -36 86c0 35 12 64 36 87c24 24 53 36 86 36c34 0 63 -12 87 -36c24 -23 36 -52 36 -87c0 -33 -12 -62 -36 -86s-53 -36 -87 -36zM285 264h-191l-30 436h250z" />
    <glyph glyph-name="quotedbl" unicode="&#x22;" horiz-adv-x="458" 
d="M200 358h-170v342h170v-342zM428 358h-170v342h170v-342z" />
    <glyph glyph-name="numbersign" unicode="#" horiz-adv-x="800" 
d="M294 0h-163l24 143h-134l25 150h132l18 114h-132l23 150h134l21 143h163l-22 -143h101l22 143h163l-22 -143h132l-25 -150h-131l-19 -114h133l-25 -150h-131l-23 -143h-163l23 143h-101zM359 407l-19 -114h101l19 114h-101z" />
    <glyph glyph-name="dollar" unicode="$" horiz-adv-x="659" 
d="M424 -4v-101h-176v95c-82 9 -153 32 -212 71v210c32 -27 77 -50 136 -69s112 -29 159 -29c54 0 81 11 81 33c0 10 -10 19 -30 28s-59 22 -116 39c-145 43 -230 105 -230 224c0 117 80 189 212 210v98h176v-97c57 -7 112 -24 166 -50v-200c-34 20 -77 37 -129 50
c-52 14 -99 21 -140 21s-62 -9 -62 -26c0 -9 10 -18 29 -27c20 -8 64 -22 131 -42c145 -44 216 -111 216 -218c0 -113 -80 -195 -211 -220z" />
    <glyph glyph-name="percent" unicode="%" horiz-adv-x="831" 
d="M270 0h-136l427 700h137zM62 664c35 33 80 50 134 50s98 -17 133 -50s53 -75 53 -126s-18 -93 -53 -126s-79 -50 -133 -50s-99 17 -134 50s-52 75 -52 126s17 93 52 126zM254 538c0 32 -26 59 -58 59s-58 -27 -58 -59c0 -33 25 -59 58 -59s58 26 58 59zM501 288
c35 33 80 50 134 50s98 -17 133 -50s53 -75 53 -126s-18 -93 -53 -126s-79 -50 -133 -50s-99 17 -134 50s-52 75 -52 126s17 93 52 126zM693 162c0 32 -26 59 -58 59s-58 -27 -58 -59c0 -33 25 -59 58 -59s58 26 58 59z" />
    <glyph glyph-name="ampersand" unicode="&#x26;" horiz-adv-x="783" 
d="M411 376l32 -32l46 -47c9 17 14 48 15 93h185c0 -80 -29 -171 -66 -228l160 -162h-251l-40 38c-48 -35 -110 -52 -186 -52c-81 0 -148 21 -201 63s-79 100 -79 173c0 89 49 155 112 190c-21 35 -32 73 -32 116c0 54 20 98 61 133s94 53 159 53c78 0 146 -16 204 -49v-184
c-47 39 -96 59 -147 59c-36 0 -63 -14 -63 -42c0 -15 9 -33 29 -57l27 -30zM363 166l-119 121c-15 -13 -23 -31 -23 -55c0 -44 39 -77 91 -77c19 0 36 4 51 11z" />
    <glyph glyph-name="quotesingle" unicode="'" horiz-adv-x="230" 
d="M200 358h-170v342h170v-342z" />
    <glyph glyph-name="parenleft" unicode="(" horiz-adv-x="415" 
d="M399 -206h-213c-95 120 -142 272 -142 456c0 183 47 335 142 456h213c-107 -135 -161 -287 -161 -456s54 -321 161 -456z" />
    <glyph glyph-name="parenright" unicode=")" horiz-adv-x="415" 
d="M229 -206h-213c107 135 161 287 161 456s-54 321 -161 456h213c95 -121 142 -273 142 -456c0 -184 -47 -336 -142 -456z" />
    <glyph glyph-name="asterisk" unicode="*" horiz-adv-x="409" 
d="M260 323h-109l5 108l-86 -61l-55 95l97 46l-97 47l55 95l86 -62l-5 109h109l-5 -109l87 62l54 -95l-96 -47l96 -46l-54 -95l-87 61z" />
    <glyph glyph-name="plus" unicode="+" horiz-adv-x="618" 
d="M40 245v183h178v179h183v-179h177v-183h-177v-178h-183v178h-178z" />
    <glyph glyph-name="comma" unicode="," horiz-adv-x="312" 
d="M154 -152h-174l94 351h217z" />
    <glyph glyph-name="hyphen" unicode="-" horiz-adv-x="485" 
d="M411 193h-337v183h337v-183z" />
    <glyph glyph-name="period" unicode="." horiz-adv-x="288" 
d="M144 231c33 0 62 -12 86 -36c24 -23 36 -52 36 -86s-12 -63 -36 -87s-53 -36 -86 -36s-62 12 -87 36c-24 24 -36 53 -36 87s12 63 36 86c24 24 53 36 87 36z" />
    <glyph glyph-name="slash" unicode="/" horiz-adv-x="551" 
d="M383 792h190l-421 -932h-190z" />
    <glyph glyph-name="zero" unicode="0" horiz-adv-x="699" 
d="M349 -14c-67 0 -126 18 -175 54c-97 73 -141 185 -141 310c0 63 11 121 34 174c23 54 58 99 107 135c49 37 108 55 175 55c103 0 188 -46 239 -115s78 -157 78 -249s-27 -180 -78 -249s-136 -115 -239 -115zM349 180c138 -8 138 348 0 340c-34 0 -60 -17 -77 -52
c-17 -34 -26 -73 -26 -118s9 -84 26 -119c17 -34 43 -51 77 -51z" />
    <glyph glyph-name="one" unicode="1" horiz-adv-x="419" 
d="M369 0h-210v476l-139 -57v203l164 78h185v-700z" />
    <glyph glyph-name="two" unicode="2" horiz-adv-x="577" 
d="M543 0h-518v154l173 150c42 37 71 66 86 88c16 23 24 45 24 66c0 37 -32 61 -80 61c-60 0 -119 -23 -177 -68v211c53 35 120 52 200 52c71 0 133 -21 188 -62s83 -97 83 -167c0 -51 -11 -97 -32 -136s-59 -81 -114 -127l-52 -43h219v-179z" />
    <glyph glyph-name="three" unicode="3" horiz-adv-x="579" 
d="M256 -14c-86 0 -160 19 -223 57v194c73 -43 141 -65 202 -65c63 0 105 27 105 71c0 40 -32 69 -91 69c-45 0 -84 -8 -117 -24v129l138 104h-221v179h471v-160l-121 -98c104 -40 156 -108 156 -205c0 -76 -29 -137 -87 -183c-57 -45 -128 -68 -212 -68z" />
    <glyph glyph-name="four" unicode="4" horiz-adv-x="645" 
d="M541 0h-203v158h-329v149l320 393h212v-380h91v-162h-91v-158zM338 466l-124 -146h124v146z" />
    <glyph glyph-name="five" unicode="5" horiz-adv-x="575" 
d="M236 -14c-79 0 -147 17 -206 50v197c63 -41 128 -61 193 -61c71 0 106 24 106 72c0 45 -40 72 -112 72c-58 0 -114 -9 -168 -27l46 411h402v-179h-244l-4 -47l22 1c81 0 147 -20 197 -61c51 -41 76 -97 76 -170c0 -57 -15 -106 -45 -146c-59 -80 -152 -112 -263 -112z
" />
    <glyph glyph-name="six" unicode="6" horiz-adv-x="632" 
d="M379 474c64 0 117 -21 158 -62c42 -41 63 -98 63 -171c0 -77 -26 -138 -77 -185s-116 -70 -193 -70c-93 0 -166 30 -217 89s-76 139 -76 239c0 101 25 194 77 271c52 79 144 129 260 129c71 0 127 -14 168 -42v-187c-41 30 -89 45 -142 45c-76 0 -138 -36 -147 -105
c30 33 72 49 126 49zM315 161c49 0 76 32 76 79c0 40 -29 75 -74 75c-31 0 -66 -20 -79 -49c0 -69 37 -105 77 -105z" />
    <glyph glyph-name="seven" unicode="7" horiz-adv-x="578" 
d="M283 0h-227l257 521h-290v179h527v-167z" />
    <glyph glyph-name="eight" unicode="8" horiz-adv-x="626" 
d="M491 372c31 -13 57 -35 79 -66c23 -31 34 -64 34 -99c0 -71 -28 -125 -85 -164c-56 -38 -125 -57 -206 -57s-150 19 -207 57c-56 39 -84 93 -84 164c0 35 11 68 33 99c23 31 49 53 80 66c-48 24 -84 82 -84 138c0 61 25 110 74 147c50 38 113 57 188 57s138 -19 187 -57
c50 -37 75 -86 75 -147c0 -56 -36 -114 -84 -138zM360 527c-25 21 -69 21 -94 0s-25 -59 0 -80c25 -20 69 -20 94 0c25 21 25 59 0 80zM394 226c0 39 -33 68 -81 68s-81 -29 -81 -68c0 -37 34 -66 81 -66s81 29 81 66z" />
    <glyph glyph-name="nine" unicode="9" horiz-adv-x="632" 
d="M258 226c-64 0 -117 21 -159 62c-41 41 -62 98 -62 171c0 77 26 138 77 185s116 70 193 70c93 0 165 -30 216 -89s77 -139 77 -239c0 -101 -25 -193 -77 -272c-52 -77 -144 -128 -260 -128c-71 0 -127 14 -168 42v187c41 -30 89 -45 142 -45c76 0 138 36 147 105
c-30 -33 -72 -49 -126 -49zM322 539c-49 0 -76 -32 -76 -79c0 -40 29 -75 74 -75c31 0 66 20 79 49c0 69 -37 105 -77 105z" />
    <glyph glyph-name="colon" unicode=":" horiz-adv-x="288" 
d="M144 529c33 0 62 -12 86 -36c24 -23 36 -52 36 -86s-12 -63 -36 -87s-53 -36 -86 -36s-62 12 -87 36c-24 24 -36 53 -36 87s12 63 36 86c24 24 53 36 87 36zM144 231c33 0 62 -12 86 -36c24 -23 36 -52 36 -86s-12 -63 -36 -87s-53 -36 -86 -36s-62 12 -87 36
c-24 24 -36 53 -36 87s12 63 36 86c24 24 53 36 87 36z" />
    <glyph glyph-name="semicolon" unicode=";" horiz-adv-x="312" 
d="M154 -152h-174l94 351h217zM161 529c33 0 62 -12 86 -36c24 -23 36 -52 36 -86s-12 -63 -36 -87s-53 -36 -86 -36s-62 12 -87 36c-24 24 -36 53 -36 87s12 63 36 86c24 24 53 36 87 36z" />
    <glyph glyph-name="less" unicode="&#x3c;" horiz-adv-x="618" 
d="M578 231v-204l-538 209v199l538 209v-203l-329 -104z" />
    <glyph glyph-name="equal" unicode="=" horiz-adv-x="618" 
d="M578 365h-538v180h538v-180zM578 130h-538v180h538v-180z" />
    <glyph glyph-name="greater" unicode="&#x3e;" horiz-adv-x="618" 
d="M578 236l-538 -209v204l329 106l-329 104v203l538 -209v-199z" />
    <glyph glyph-name="question" unicode="?" horiz-adv-x="502" 
d="M320 264h-200v149c108 17 162 43 162 78c0 27 -25 40 -76 40c-67 0 -130 -17 -189 -52v176c61 41 134 61 221 61c73 0 134 -17 184 -52c50 -34 75 -85 75 -153c0 -49 -17 -89 -52 -120s-76 -55 -125 -70v-57zM224 231c33 0 62 -12 86 -36c24 -23 36 -52 36 -86
s-12 -63 -36 -87s-53 -36 -86 -36s-62 12 -87 36c-24 24 -36 53 -36 87s12 63 36 86c24 24 53 36 87 36z" />
    <glyph glyph-name="at" unicode="@" horiz-adv-x="914" 
d="M458 -162c-123 0 -227 41 -312 124c-85 82 -127 187 -127 314c0 123 43 227 128 311c85 85 189 127 311 127c124 0 228 -40 312 -120s126 -177 126 -292c0 -80 -18 -143 -54 -188s-83 -68 -140 -68c-73 0 -126 22 -159 65c-34 -47 -83 -71 -147 -71
c-59 0 -107 22 -145 66c-37 44 -56 100 -56 168c0 67 19 123 56 167c37 45 85 67 142 67c53 0 95 -19 128 -56v46h164v-294c0 -65 20 -98 61 -98c25 0 49 17 70 51s32 82 32 145c0 67 -15 128 -46 183c-31 56 -76 101 -137 136c-60 35 -129 52 -207 52
c-113 0 -207 -39 -281 -116c-73 -77 -110 -170 -110 -281c0 -113 36 -207 109 -282c73 -76 167 -114 282 -114c77 0 152 22 223 65v-47c-65 -40 -140 -60 -223 -60zM447 188c35 0 59 13 74 38v96c-15 25 -39 38 -74 38c-47 0 -77 -37 -77 -86s30 -86 77 -86z" />
    <glyph glyph-name="A" unicode="A" horiz-adv-x="783" 
d="M223 0h-222l288 704h205l289 -704h-231l-50 131h-228zM388 458l-52 -166h103z" />
    <glyph glyph-name="B" unicode="B" horiz-adv-x="702" 
d="M423 0h-370v700h355c65 0 118 -15 160 -46c42 -30 63 -74 63 -133c0 -33 -9 -62 -28 -85s-37 -39 -56 -48c30 -6 60 -26 89 -60c29 -33 44 -75 44 -125c0 -61 -24 -110 -71 -147s-109 -56 -186 -56zM268 289v-116h113c39 0 64 22 64 57s-27 59 -64 59h-113zM268 533v-94
h109c29 0 51 20 51 45c0 29 -22 49 -51 49h-109z" />
    <glyph glyph-name="C" unicode="C" horiz-adv-x="659" 
d="M434 -14c-115 0 -211 34 -287 101c-76 68 -114 156 -114 263s38 195 113 262c75 68 171 102 286 102c69 0 128 -12 177 -37v-203c-57 31 -114 46 -171 46c-53 0 -97 -16 -132 -49c-35 -32 -52 -72 -52 -121c0 -50 18 -91 54 -123c36 -31 82 -47 138 -47
c69 0 126 17 173 50v-206c-48 -25 -110 -38 -185 -38z" />
    <glyph glyph-name="D" unicode="D" horiz-adv-x="772" 
d="M348 0h-295v700h295c115 0 208 -33 281 -98s109 -149 109 -252s-36 -187 -109 -252s-166 -98 -281 -98zM268 515v-330h66c117 0 182 58 182 165s-65 165 -182 165h-66z" />
    <glyph glyph-name="E" unicode="E" horiz-adv-x="636" 
d="M608 0h-555v700h549v-185h-334v-62h262v-170h-262v-98h340v-185z" />
    <glyph glyph-name="F" unicode="F" horiz-adv-x="631" 
d="M268 0h-215v700h550v-185h-335v-69h241v-170h-241v-276z" />
    <glyph glyph-name="G" unicode="G" horiz-adv-x="751" 
d="M422 -14c-110 0 -202 34 -277 102s-112 155 -112 262s38 195 113 262c75 68 170 102 285 102c31 0 60 -2 85 -7s45 -10 58 -15c14 -5 32 -12 55 -22v-197c-188 97 -381 33 -375 -126c0 -55 16 -97 49 -128s72 -46 119 -46c36 0 64 7 83 20v215h216v-315
c-27 -29 -68 -55 -123 -76s-113 -31 -176 -31z" />
    <glyph glyph-name="H" unicode="H" horiz-adv-x="750" 
d="M268 0h-215v700h215v-237h214v237h215v-700h-215v276h-214v-276z" />
    <glyph glyph-name="I" unicode="I" horiz-adv-x="328" 
d="M272 0h-215v700h215v-700z" />
    <glyph glyph-name="J" unicode="J" horiz-adv-x="509" 
d="M194 -14c-81 0 -139 12 -176 36v203c42 -29 85 -44 128 -44c69 0 104 25 104 98v421h215v-452c0 -101 -32 -174 -87 -211c-53 -36 -112 -51 -184 -51z" />
    <glyph glyph-name="K" unicode="K" horiz-adv-x="754" 
d="M268 0h-215v700h215v-261l197 261h253l-248 -325l298 -375h-264l-236 302v-302z" />
    <glyph glyph-name="L" unicode="L" horiz-adv-x="606" 
d="M586 0h-533v700h215v-515h318v-185z" />
    <glyph glyph-name="M" unicode="M" horiz-adv-x="838" 
d="M261 0h-208v700h213l153 -249l154 249h212v-700h-206v392l-99 -167h-116l-103 167v-392z" />
    <glyph glyph-name="N" unicode="N" horiz-adv-x="761" 
d="M259 0h-206v700h183l268 -338v338h204v-700h-177l-272 340v-340z" />
    <glyph glyph-name="O" unicode="O" horiz-adv-x="816" 
d="M297 229c29 -31 66 -47 111 -47s82 16 111 47c29 32 44 72 44 121s-15 89 -44 120c-29 32 -66 48 -111 48s-82 -16 -111 -48c-29 -31 -44 -71 -44 -120s15 -89 44 -121zM33 350c0 101 35 186 106 257s161 107 269 107s197 -36 268 -107s106 -156 106 -257
s-35 -187 -106 -258s-160 -106 -268 -106s-198 36 -269 107s-106 157 -106 257z" />
    <glyph glyph-name="P" unicode="P" horiz-adv-x="651" 
d="M53 700h322c80 0 144 -21 192 -64c49 -43 73 -97 73 -164c0 -66 -24 -121 -73 -164c-48 -43 -112 -64 -192 -64h-107v-244h-215v700zM268 400h78c44 0 74 26 74 63s-31 62 -74 62h-78v-125z" />
    <glyph glyph-name="Q" unicode="Q" horiz-adv-x="816" 
d="M400 -71l-44 61c-95 11 -172 51 -233 120c-60 69 -90 149 -90 240c0 101 35 186 106 257s161 107 269 107s197 -36 268 -107s106 -156 106 -257c0 -71 -18 -135 -55 -194c-37 -58 -86 -102 -149 -132c20 -25 48 -37 85 -37c30 0 58 7 83 21v-175
c-35 -15 -74 -23 -118 -23c-93 0 -169 40 -228 119zM297 229c29 -31 66 -47 111 -47s82 16 111 47c29 32 44 72 44 121s-15 89 -44 120c-29 32 -66 48 -111 48s-82 -16 -111 -48c-29 -31 -44 -71 -44 -120s15 -89 44 -121z" />
    <glyph glyph-name="R" unicode="R" horiz-adv-x="725" 
d="M526 274l209 -274h-251l-186 250h-30v-250h-215v700h338c79 0 143 -21 191 -64c48 -42 72 -96 72 -161c0 -88 -48 -161 -128 -201zM268 407h98c40 0 67 22 67 57s-27 56 -67 56h-98v-113z" />
    <glyph glyph-name="S" unicode="S" horiz-adv-x="662" 
d="M327 -14c-115 0 -212 25 -291 75v210c32 -27 77 -50 136 -69s112 -29 159 -29c54 0 81 11 81 33c0 10 -10 19 -30 28s-59 22 -116 39c-145 43 -230 105 -230 224c0 143 117 217 301 217c90 0 174 -19 253 -56v-200c-34 20 -77 37 -129 50c-52 14 -99 21 -140 21
s-62 -9 -62 -26c0 -9 10 -18 29 -27c20 -8 64 -22 131 -42c145 -44 216 -111 216 -218c0 -70 -28 -126 -85 -168c-56 -41 -130 -62 -223 -62z" />
    <glyph glyph-name="T" unicode="T" horiz-adv-x="659" 
d="M22 515v185h615v-185h-201v-515h-215v515h-199z" />
    <glyph glyph-name="U" unicode="U" horiz-adv-x="729" 
d="M45 290v410h215v-411c0 -75 46 -108 105 -108s104 33 104 108v411h215v-410c0 -97 -30 -172 -91 -225c-60 -53 -136 -79 -228 -79s-168 26 -229 79s-91 128 -91 225z" />
    <glyph glyph-name="V" unicode="V" horiz-adv-x="763" 
d="M483 -4h-204l-279 704h239l146 -417l147 417h231z" />
    <glyph glyph-name="W" unicode="W" horiz-adv-x="1078" 
d="M415 -4h-187l-228 704h234l97 -373l132 375h162l132 -375l95 373h229l-230 -704h-183l-125 368z" />
    <glyph glyph-name="X" unicode="X" horiz-adv-x="738" 
d="M19 700h249l102 -167l103 167h246l-227 -324l265 -376h-250l-141 212l-138 -212h-247l265 375z" />
    <glyph glyph-name="Y" unicode="Y" horiz-adv-x="706" 
d="M460 0h-215v306l-255 394h243l122 -197l124 197h237l-256 -389v-311z" />
    <glyph glyph-name="Z" unicode="Z" horiz-adv-x="647" 
d="M627 0h-607v152l306 363h-297v185h582v-151l-305 -364h321v-185z" />
    <glyph glyph-name="bracketleft" unicode="[" horiz-adv-x="452" 
d="M436 -206h-376v912h376v-159h-186v-594h186v-159z" />
    <glyph glyph-name="backslash" unicode="\" horiz-adv-x="551" 
d="M589 -140h-190l-421 932h190z" />
    <glyph glyph-name="bracketright" unicode="]" horiz-adv-x="452" 
d="M16 706h376v-912h-376v159h186v594h-186v159z" />
    <glyph glyph-name="asciicircum" unicode="^" horiz-adv-x="579" 
d="M210 331h-198l178 430h199l177 -430h-197l-79 251z" />
    <glyph glyph-name="underscore" unicode="_" horiz-adv-x="666" 
d="M668 -170h-670v136h670v-136z" />
    <glyph glyph-name="grave" unicode="`" horiz-adv-x="515" 
d="M101 734h246l95 -158h-171z" />
    <glyph glyph-name="a" unicode="a" horiz-adv-x="611" 
d="M556 154c11 0 20 3 29 9v-145c-25 -21 -60 -31 -104 -31c-61 0 -117 31 -134 68c-27 -39 -84 -68 -153 -68c-57 0 -102 16 -135 48c-33 33 -50 74 -50 123c0 55 20 96 60 123c41 27 87 41 138 41c45 0 83 -9 116 -28c0 51 -34 77 -103 77c-55 0 -105 -11 -148 -33v157
c56 23 122 34 197 34c78 0 141 -20 189 -59s72 -90 72 -154v-138c0 -16 9 -24 26 -24zM326 149v54c-14 12 -31 18 -52 18c-35 0 -62 -17 -62 -50c0 -32 25 -51 57 -51c27 0 46 10 57 29z" />
    <glyph glyph-name="b" unicode="b" horiz-adv-x="648" 
d="M50 0v700h211v-242c31 47 78 71 141 71c65 0 120 -26 163 -77s65 -116 65 -194s-22 -143 -65 -194s-98 -77 -163 -77c-63 0 -110 24 -141 71v-58h-211zM258 316v-117c15 -25 42 -37 79 -37c51 0 85 43 85 96s-34 96 -85 96c-38 0 -64 -13 -79 -38z" />
    <glyph glyph-name="c" unicode="c" horiz-adv-x="504" 
d="M305 -13c-47 0 -92 9 -135 28c-42 19 -78 50 -107 93s-44 93 -44 151c0 59 15 109 44 151c59 84 147 119 244 119c57 0 108 -10 152 -29v-173c-41 15 -81 23 -118 23c-65 0 -117 -33 -117 -92c0 -60 52 -93 121 -93c43 0 83 9 120 26v-171c-51 -22 -104 -33 -160 -33z
" />
    <glyph glyph-name="d" unicode="d" horiz-adv-x="649" 
d="M388 458v242h211v-700h-211v58c-31 -47 -78 -71 -141 -71c-65 0 -120 26 -163 77s-65 116 -65 194s22 143 65 194s98 77 163 77c63 0 110 -24 141 -71zM391 199v117c-15 25 -41 38 -79 38c-51 0 -85 -43 -85 -96s34 -96 85 -96c37 0 64 12 79 37z" />
    <glyph glyph-name="e" unicode="e" horiz-adv-x="570" 
d="M307 -13c-80 0 -148 24 -204 72c-56 49 -84 115 -84 199c0 77 25 141 76 193s118 78 201 78c71 0 131 -24 179 -73c48 -48 72 -113 72 -195v-48h-328c17 -41 74 -61 135 -61s117 13 166 39v-154c-46 -33 -117 -50 -213 -50zM215 313h137c-1 47 -30 75 -66 75
c-39 0 -64 -27 -71 -75z" />
    <glyph glyph-name="f" unicode="f" horiz-adv-x="456" 
d="M300 352v-352h-211v352h-81v164h81v14c0 109 71 184 208 184c54 0 102 -7 145 -22v-139c-28 9 -55 13 -80 13c-41 0 -62 -17 -62 -50h142v-164h-142z" />
    <glyph glyph-name="g" unicode="g" horiz-adv-x="634" 
d="M381 460v56h211v-432c0 -204 -175 -290 -316 -290c-91 0 -160 14 -206 42v181c56 -33 117 -50 183 -50c85 0 128 34 128 102v31c-34 -46 -82 -69 -143 -69c-65 0 -117 23 -158 70s-61 106 -61 179s20 132 61 179s93 70 158 70c60 0 108 -23 143 -69zM384 234v92
c-18 21 -45 31 -80 31c-48 0 -77 -33 -77 -77s29 -77 77 -77c35 0 62 10 80 31z" />
    <glyph glyph-name="h" unicode="h" horiz-adv-x="623" 
d="M260 317v-317h-210v700h210v-250c12 19 32 37 60 54c29 17 59 25 91 25c111 0 171 -75 171 -202v-327h-211v282c0 43 -23 63 -52 63c-23 0 -43 -9 -59 -28z" />
    <glyph glyph-name="i" unicode="i" horiz-adv-x="318" 
d="M264 0h-211v516h211v-516zM159 540c-33 0 -61 11 -84 34s-34 52 -34 85s11 60 34 83s51 35 84 35s60 -12 83 -35s35 -50 35 -83c0 -67 -51 -119 -118 -119z" />
    <glyph glyph-name="j" unicode="j" horiz-adv-x="318" 
d="M159 540c-33 0 -60 11 -83 34s-34 52 -34 85c0 65 52 118 117 118c33 0 60 -12 83 -35s35 -50 35 -83c0 -67 -51 -119 -118 -119zM33 -206c-56 0 -97 7 -124 20v159c20 -10 43 -15 70 -15c47 0 75 22 75 63v495h211v-497c0 -137 -81 -225 -232 -225z" />
    <glyph glyph-name="k" unicode="k" horiz-adv-x="655" 
d="M260 0h-210v700h210v-366l133 182h241l-186 -232l218 -284h-257l-149 209v-209z" />
    <glyph glyph-name="l" unicode="l" horiz-adv-x="341" 
d="M205 -13c-103 0 -155 52 -155 157v556h210v-509c0 -20 14 -28 27 -28c10 0 18 2 25 5v-161c-27 -13 -62 -20 -107 -20z" />
    <glyph glyph-name="m" unicode="m" horiz-adv-x="931" 
d="M260 0h-210v516h210v-67c24 41 85 80 149 80c65 0 111 -28 138 -83c28 47 94 83 163 83c51 0 93 -18 128 -53s52 -86 52 -154v-322h-211v283c0 42 -15 63 -46 63c-25 0 -44 -10 -57 -30v-316h-211v283c0 42 -15 63 -46 63c-25 0 -44 -11 -59 -32v-314z" />
    <glyph glyph-name="n" unicode="n" horiz-adv-x="623" 
d="M260 317v-317h-210v516h210v-66c12 19 32 37 60 54c29 17 59 25 91 25c111 0 171 -75 171 -202v-327h-211v282c0 43 -23 63 -52 63c-23 0 -43 -9 -59 -28z" />
    <glyph glyph-name="o" unicode="o" horiz-adv-x="626" 
d="M249 191c33 -35 95 -35 128 0c17 18 25 40 25 67s-8 49 -25 66c-33 36 -95 36 -128 0c-17 -17 -25 -39 -25 -66s8 -49 25 -67zM313 -13c-85 0 -155 26 -211 77c-55 51 -83 116 -83 194s28 143 83 194c56 51 126 77 211 77s156 -26 211 -77c56 -51 84 -116 84 -194
s-28 -143 -84 -194c-55 -51 -126 -77 -211 -77z" />
    <glyph glyph-name="p" unicode="p" horiz-adv-x="648" 
d="M261 58v-258h-211v716h211v-58c31 47 78 71 141 71c65 0 120 -26 163 -77s65 -116 65 -194s-22 -143 -65 -194s-98 -77 -163 -77c-63 0 -110 24 -141 71zM258 317v-117c15 -25 41 -38 79 -38c51 0 85 43 85 96s-34 96 -85 96c-37 0 -64 -12 -79 -37z" />
    <glyph glyph-name="q" unicode="q" horiz-adv-x="649" 
d="M599 516v-716h-211v258c-31 -47 -78 -71 -141 -71c-65 0 -120 26 -163 77s-65 116 -65 194s22 143 65 194s98 77 163 77c63 0 110 -24 141 -71v58h211zM391 200v117c-15 25 -42 37 -79 37c-51 0 -85 -43 -85 -96s34 -96 85 -96c38 0 64 13 79 38z" />
    <glyph glyph-name="r" unicode="r" horiz-adv-x="473" 
d="M260 0h-210v516h210v-82c10 21 30 42 61 63s64 32 100 32c11 0 21 -1 28 -3v-198c-21 5 -42 8 -63 8c-56 0 -98 -15 -126 -45v-291z" />
    <glyph glyph-name="s" unicode="s" horiz-adv-x="522" 
d="M246 -13c-92 0 -164 15 -215 45v159c24 -14 56 -27 97 -38s82 -16 121 -16c29 0 43 6 43 19c0 6 -4 11 -12 15c-7 4 -23 9 -47 16l-54 16c-56 19 -95 40 -118 61c-23 22 -34 54 -34 97c0 107 96 168 252 168c77 0 144 -17 203 -50v-155c-25 15 -56 28 -95 39
s-74 17 -106 17c-23 0 -35 -6 -35 -18c0 -7 6 -12 21 -19c7 -3 14 -5 21 -7l62 -17c112 -35 154 -74 154 -161c0 -101 -90 -171 -258 -171z" />
    <glyph glyph-name="t" unicode="t" horiz-adv-x="448" 
d="M89 154v198h-81v164h81v124h210v-124h117v-164h-117v-133c0 -37 14 -53 53 -53c23 0 45 6 66 17v-164c-35 -21 -81 -32 -139 -32c-111 0 -190 60 -190 167z" />
    <glyph glyph-name="u" unicode="u" horiz-adv-x="623" 
d="M363 199v317h210v-516h-210v66c-12 -19 -32 -37 -61 -54c-28 -17 -58 -25 -90 -25c-111 0 -171 75 -171 202v327h211v-282c0 -43 23 -63 52 -63c23 0 43 9 59 28z" />
    <glyph glyph-name="v" unicode="v" horiz-adv-x="606" 
d="M398 -4h-190l-212 520h221l89 -267l90 267h215z" />
    <glyph glyph-name="w" unicode="w" horiz-adv-x="831" 
d="M337 -4h-176l-163 520h203l68 -242l67 244h160l69 -243l65 241h203l-167 -520h-178l-77 241z" />
    <glyph glyph-name="x" unicode="x" horiz-adv-x="604" 
d="M9 516h226l67 -121l66 121h226l-170 -251l178 -265h-229l-73 129l-75 -129h-226l180 264z" />
    <glyph glyph-name="y" unicode="y" horiz-adv-x="611" 
d="M170 -206c-54 0 -95 8 -124 24v181c25 -18 54 -27 87 -27c43 0 65 10 78 45l-211 499h221l91 -292l82 292h217l-218 -566c-40 -104 -114 -156 -223 -156z" />
    <glyph glyph-name="z" unicode="z" horiz-adv-x="548" 
d="M521 0h-494v139l204 211h-194v166h468v-144l-210 -206h226v-166z" />
    <glyph glyph-name="braceleft" unicode="{" horiz-adv-x="435" 
d="M121 444v66c0 117 77 196 197 196h101v-159h-56c-29 0 -52 -25 -52 -54v-124c0 -65 -31 -104 -94 -119c63 -15 94 -54 94 -119v-124c0 -29 23 -54 52 -54h56v-159h-101c-120 0 -197 79 -197 196v66c0 73 -17 106 -77 113v162c60 7 77 40 77 113z" />
    <glyph glyph-name="bar" unicode="|" horiz-adv-x="355" 
d="M259 -111h-163v871h163v-871z" />
    <glyph glyph-name="braceright" unicode="}" horiz-adv-x="435" 
d="M314 510v-66c0 -73 17 -106 77 -113v-162c-60 -7 -77 -40 -77 -113v-66c0 -117 -77 -196 -197 -196h-101v159h56c29 0 52 25 52 54v124c0 65 31 104 94 119c-63 15 -94 54 -94 119v124c0 29 -23 54 -52 54h-56v159h101c120 0 197 -79 197 -196z" />
    <glyph glyph-name="asciitilde" unicode="~" horiz-adv-x="604" 
d="M443 322c53 0 93 13 121 39v-181c-21 -24 -72 -41 -124 -41c-31 0 -77 9 -138 27c-60 19 -107 28 -141 28c-53 0 -93 -13 -121 -39v181c25 27 67 41 124 41c31 0 77 -9 138 -28c61 -18 108 -27 141 -27z" />
    <glyph glyph-name="nbspace" unicode="&#xa0;" horiz-adv-x="248" 
 />
    <glyph glyph-name="exclamdown" unicode="&#xa1;" horiz-adv-x="378" 
d="M285 251l29 -451h-250l30 451h191zM188 283c-33 0 -62 12 -86 36s-36 53 -36 88c0 33 12 62 36 86s53 36 86 36c34 0 63 -12 87 -36s36 -53 36 -86c0 -35 -12 -64 -36 -88s-53 -36 -87 -36z" />
    <glyph glyph-name="cent" unicode="&#xa2;" horiz-adv-x="504" 
d="M206 513v119h175v-108c21 -3 47 -11 78 -24v-173c-41 15 -81 23 -118 23c-65 0 -117 -33 -117 -92c0 -60 52 -93 121 -93c43 0 83 9 120 26v-171c-29 -13 -57 -22 -84 -27v-110h-175v119c-109 36 -187 125 -187 257s76 219 187 254z" />
    <glyph glyph-name="sterling" unicode="&#xa3;" horiz-adv-x="587" 
d="M567 0h-550v185h24c47 0 68 20 68 47v40h-92v149h92v42c0 77 25 138 74 183c50 45 117 68 202 68c62 0 115 -9 158 -27v-197c-31 12 -67 18 -108 18c-75 0 -112 -29 -112 -87h176v-149h-176v-14c0 -40 -7 -62 -35 -73h279v-185z" />
    <glyph glyph-name="currency" unicode="&#xa4;" horiz-adv-x="586" 
d="M496 237l66 -67l-87 -88l-66 66c-73 -39 -157 -39 -230 0l-66 -66l-87 88l66 67c-40 69 -40 159 0 228l-66 67l87 88l66 -66c73 39 157 39 230 0l66 66l87 -88l-66 -67c40 -69 40 -159 0 -228zM232 289c35 -35 89 -35 124 0s35 89 0 124s-89 35 -124 0s-35 -89 0 -124z
" />
    <glyph glyph-name="yen" unicode="&#xa5;" horiz-adv-x="694" 
d="M57 118v123h183v53h-183v123h135l-196 283h231l122 -197l123 197h226l-199 -283h137v-123h-182v-53h182v-123h-182v-118h-214v118h-183z" />
    <glyph glyph-name="brokenbar" unicode="&#xa6;" horiz-adv-x="355" 
d="M259 -111h-163v353h163v-353zM259 407h-163v353h163v-353z" />
    <glyph glyph-name="section" unicode="&#xa7;" horiz-adv-x="662" 
d="M642 261c0 -53 -28 -93 -83 -121c26 -31 39 -70 39 -115c0 -64 -27 -113 -80 -147c-53 -35 -122 -52 -206 -52c-85 0 -162 16 -229 49v177c64 -33 160 -60 237 -60c39 0 59 9 59 27c0 11 -6 19 -26 26c-10 4 -20 7 -29 10l-88 24c-63 19 -104 35 -148 66s-68 77 -68 134
c0 53 28 93 83 121c-26 31 -39 70 -39 115c0 64 27 113 80 147c53 35 122 52 205 52c93 0 185 -25 230 -49v-176c-32 16 -70 30 -114 41c-43 12 -84 18 -123 18s-59 -9 -59 -26c0 -11 6 -18 26 -26l28 -10c19 -5 64 -17 89 -25c64 -20 103 -35 147 -66
c45 -31 69 -75 69 -134zM422 205c20 4 30 15 30 34c0 13 -7 23 -28 31c-10 5 -19 8 -28 11c-17 7 -63 20 -84 27c-31 11 -55 19 -72 26c-20 -4 -30 -16 -30 -35c0 -13 7 -23 27 -32l29 -11l40 -13c19 -5 33 -10 44 -13c18 -7 51 -18 72 -25z" />
    <glyph glyph-name="dieresis" unicode="&#xa8;" horiz-adv-x="515" 
d="M284 656c0 53 44 98 99 98c27 0 51 -10 70 -29c20 -19 30 -42 30 -69c0 -55 -45 -99 -100 -99s-99 44 -99 99zM150 557c-55 0 -100 44 -100 99c0 27 10 50 29 69c20 19 44 29 71 29c56 0 99 -43 99 -98s-43 -99 -99 -99z" />
    <glyph glyph-name="copyright" unicode="&#xa9;" horiz-adv-x="791" 
d="M430 146c-65 0 -118 19 -161 57c-42 38 -63 87 -63 147s21 109 63 146c42 38 95 57 160 57c36 0 69 -7 99 -20v-115c-31 18 -63 27 -97 27c-57 0 -101 -40 -101 -95c0 -56 44 -95 105 -95c40 0 73 10 99 29v-116c-31 -15 -66 -22 -104 -22zM397 714
c101 0 186 -36 255 -107c70 -71 105 -157 105 -257c0 -99 -35 -185 -106 -257c-70 -71 -156 -107 -257 -107s-186 36 -256 107s-105 157 -105 257c0 99 35 185 106 256c71 72 157 108 258 108zM394 26c92 0 169 32 230 95s92 141 92 232c0 89 -30 165 -91 227
c-61 63 -137 94 -228 94c-92 0 -169 -32 -230 -95s-92 -141 -92 -232c0 -89 30 -165 91 -228c61 -62 137 -93 228 -93z" />
    <glyph glyph-name="ordfeminine" unicode="&#xaa;" horiz-adv-x="415" 
d="M393 418c8 0 15 2 21 5v-89c-17 -12 -38 -18 -65 -18c-43 0 -72 15 -88 44c-32 -31 -73 -46 -122 -46c-81 0 -136 51 -136 124c0 40 14 70 43 91s64 31 103 31s72 -7 98 -21v7c0 42 -30 63 -89 63c-38 0 -75 -9 -111 -28v99c39 19 85 28 140 28c109 0 182 -57 182 -149
v-119c0 -15 8 -22 24 -22zM247 433v40c-17 12 -37 18 -60 18c-36 0 -63 -18 -63 -47c0 -28 25 -44 57 -44c27 0 49 11 66 33z" />
    <glyph glyph-name="guillemotleft" unicode="&#xab;" horiz-adv-x="620" 
d="M343 29h-208l-123 177v103l123 178h208l-158 -229zM610 29h-208l-123 177v103l123 178h208l-158 -229z" />
    <glyph glyph-name="logicalnot" unicode="&#xac;" horiz-adv-x="580" 
d="M540 124h-188v150h-312v183h500v-333z" />
    <glyph glyph-name="uni00AD" unicode="&#xad;" horiz-adv-x="485" 
d="M411 193h-337v183h337v-183z" />
    <glyph glyph-name="registered" unicode="&#xae;" horiz-adv-x="791" 
d="M497 321l117 -153h-139l-105 139h-17v-139h-120v391h189c88 0 147 -53 147 -126c0 -51 -24 -89 -72 -112zM353 395h55c23 0 37 12 37 32c0 21 -12 31 -37 31h-55v-63zM397 714c101 0 186 -36 255 -107c70 -71 105 -157 105 -257c0 -99 -35 -185 -106 -257
c-70 -71 -156 -107 -257 -107s-186 36 -256 107s-105 157 -105 257c0 99 35 185 106 256c71 72 157 108 258 108zM394 26c92 0 169 32 230 95s92 141 92 232c0 89 -30 165 -91 227c-61 63 -137 94 -228 94c-92 0 -169 -32 -230 -95s-92 -141 -92 -232c0 -89 30 -165 91 -228
c61 -62 137 -93 228 -93z" />
    <glyph glyph-name="overscore" unicode="&#xaf;" horiz-adv-x="493" 
d="M423 584h-360v135h360v-135z" />
    <glyph glyph-name="degree" unicode="&#xb0;" horiz-adv-x="353" 
d="M233 551c0 33 -24 59 -57 59c-32 0 -56 -26 -57 -59c1 -32 25 -58 57 -58s57 26 57 58zM59 665c33 33 72 49 117 49s84 -16 117 -49c33 -32 50 -70 50 -114s-17 -82 -50 -115c-33 -32 -72 -48 -117 -48s-84 16 -117 48c-33 33 -49 71 -49 115s16 82 49 114z" />
    <glyph glyph-name="plusminus" unicode="&#xb1;" horiz-adv-x="618" 
d="M40 371v183h177v146h183v-146h178v-183h-178v-145h-183v145h-177zM578 0h-538v171h538v-171z" />
    <glyph glyph-name="twosuperior" unicode="&#xb2;" horiz-adv-x="346" 
d="M320 322h-289v83l100 81c41 34 61 62 61 83c0 22 -15 33 -45 33c-35 0 -68 -12 -101 -36v114c30 19 67 28 111 28c39 0 74 -11 105 -34c31 -22 46 -52 46 -90c0 -55 -20 -90 -81 -142l-29 -24h122v-96z" />
    <glyph glyph-name="threesuperior" unicode="&#xb3;" horiz-adv-x="321" 
d="M141 314c-48 0 -90 10 -125 31v105c41 -23 79 -35 115 -35c35 0 60 14 60 38c0 21 -17 37 -52 37c-27 0 -50 -4 -67 -13v70l76 57h-123v96h263v-86l-68 -53c58 -21 87 -58 87 -111c0 -41 -16 -74 -48 -99s-71 -37 -118 -37z" />
    <glyph glyph-name="acute" unicode="&#xb4;" horiz-adv-x="415" 
d="M272 576h-171l95 158h245z" />
    <glyph glyph-name="mu" unicode="&#xb5;" horiz-adv-x="632" 
d="M372 199v317h210v-516h-210v66c-19 -31 -62 -63 -111 -74v-192h-211v716h211v-282c0 -43 23 -63 52 -63c23 0 43 9 59 28z" />
    <glyph glyph-name="paragraph" unicode="&#xb6;" horiz-adv-x="615" 
d="M561 0h-214v260h-73c-78 0 -140 21 -187 62s-70 94 -70 158c0 65 23 117 70 158s109 62 187 62h287v-700z" />
    <glyph glyph-name="middot" unicode="&#xb7;" horiz-adv-x="288" 
d="M144 519c33 0 62 -12 86 -36c24 -23 36 -52 36 -86s-12 -63 -36 -87s-53 -36 -86 -36s-62 12 -87 36c-24 24 -36 53 -36 87s12 63 36 86c24 24 53 36 87 36z" />
    <glyph glyph-name="cedilla" unicode="&#xb8;" horiz-adv-x="520" 
d="M317 -159h-242l138 174h165z" />
    <glyph glyph-name="onesuperior" unicode="&#xb9;" horiz-adv-x="250" 
d="M225 322h-115v261l-100 -47v112l104 52h111v-378z" />
    <glyph glyph-name="ordmasculine" unicode="&#xba;" horiz-adv-x="432" 
d="M67 652c39 37 89 56 149 56s110 -19 149 -56s59 -84 59 -141s-20 -104 -59 -141s-89 -56 -149 -56s-110 19 -149 56s-59 84 -59 141s20 104 59 141zM302 512c0 51 -35 88 -86 88s-85 -37 -85 -88c0 -52 34 -91 85 -91s86 39 86 91z" />
    <glyph glyph-name="guillemotright" unicode="&#xbb;" horiz-adv-x="620" 
d="M608 309v-103l-123 -177h-208l158 229l-158 229h208zM341 309v-103l-123 -177h-208l158 229l-158 229h208z" />
    <glyph glyph-name="onequarter" unicode="&#xbc;" horiz-adv-x="768" 
d="M225 322h-115v261l-100 -47v112l104 52h111v-378zM218 0h-130l428 700h130zM710 378v-205h51v-88h-51v-85h-111v85h-185v81l178 212h118zM528 173h71v81z" />
    <glyph glyph-name="onehalf" unicode="&#xbd;" horiz-adv-x="800" 
d="M225 322h-115v261l-100 -47v112l104 52h111v-378zM218 0h-130l428 700h130zM774 0h-289v83l100 81c41 34 61 62 61 83c0 22 -15 33 -45 33c-35 0 -68 -12 -101 -36v114c30 19 67 28 111 28c39 0 74 -11 105 -34c31 -22 46 -52 46 -90c0 -55 -20 -90 -81 -142l-29 -24h122
v-96z" />
    <glyph glyph-name="threequarters" unicode="&#xbe;" horiz-adv-x="808" 
d="M141 314c-48 0 -90 10 -125 31v105c41 -23 79 -35 115 -35c35 0 60 14 60 38c0 21 -17 37 -52 37c-27 0 -50 -4 -67 -13v70l76 57h-123v96h263v-86l-68 -53c58 -21 87 -58 87 -111c0 -41 -16 -74 -48 -99s-71 -37 -118 -37zM258 0h-130l428 700h130zM750 378v-205h51v-88
h-51v-85h-111v85h-185v81l178 212h118zM568 173h71v81z" />
    <glyph glyph-name="questiondown" unicode="&#xbf;" horiz-adv-x="502" 
d="M182 251h200v-152c-45 -7 -84 -18 -115 -32c-31 -13 -47 -29 -47 -48c0 -27 25 -40 76 -40c67 0 130 17 189 52v-176c-61 -41 -134 -61 -221 -61c-73 0 -134 17 -184 52c-50 34 -75 85 -75 153c0 49 17 89 52 121s77 56 125 71v60zM278 284c-33 0 -62 12 -86 35
c-24 24 -36 53 -36 87s12 63 36 87s53 36 86 36s62 -12 86 -36c25 -24 37 -53 37 -87s-12 -63 -36 -87c-24 -23 -53 -35 -87 -35z" />
    <glyph glyph-name="Agrave" unicode="&#xc0;" horiz-adv-x="783" 
d="M223 0h-222l288 704h205l289 -704h-231l-50 131h-228zM388 458l-52 -166h103zM143 917h245l95 -158h-171z" />
    <glyph glyph-name="Aacute" unicode="&#xc1;" horiz-adv-x="783" 
d="M223 0h-222l288 704h205l289 -704h-231l-50 131h-228zM388 458l-52 -166h103zM482 759h-171l95 158h246z" />
    <glyph glyph-name="Acircumflex" unicode="&#xc2;" horiz-adv-x="783" 
d="M223 0h-222l288 704h205l289 -704h-231l-50 131h-228zM388 458l-52 -166h103zM336 760h-171l132 157h196l128 -157h-174l-56 61z" />
    <glyph glyph-name="Atilde" unicode="&#xc3;" horiz-adv-x="783" 
d="M287 756h-100c-1 47 12 86 37 119c26 33 59 50 100 50c22 0 45 -6 69 -17s44 -17 59 -17c24 0 39 10 45 30h101c0 -41 -13 -80 -39 -116c-25 -35 -58 -53 -97 -53c-25 0 -49 6 -73 18c-23 12 -42 18 -56 18c-24 0 -39 -11 -46 -32zM223 0h-222l288 704h205l289 -704h-231
l-50 131h-228zM388 458l-52 -166h103z" />
    <glyph glyph-name="Adieresis" unicode="&#xc4;" horiz-adv-x="783" 
d="M409 840c0 53 44 98 99 98c27 0 51 -10 70 -29c20 -19 30 -42 30 -69c0 -55 -45 -99 -100 -99s-99 44 -99 99zM275 741c-55 0 -99 44 -99 99c0 53 44 98 99 98c56 0 99 -43 99 -98s-43 -99 -99 -99zM223 0h-222l288 704h205l289 -704h-231l-50 131h-228zM388 458
l-52 -166h103z" />
    <glyph glyph-name="Aring" unicode="&#xc5;" horiz-adv-x="783" 
d="M283 839c0 30 11 56 32 77c22 22 48 33 78 33c60 0 108 -50 108 -110c0 -29 -11 -55 -32 -76s-46 -32 -76 -32s-56 11 -78 32c-21 21 -32 47 -32 76zM393 798c21 0 40 18 40 41s-19 42 -40 42c-23 0 -42 -19 -42 -42c0 -21 19 -41 42 -41zM223 0h-222l288 704h205
l289 -704h-231l-50 131h-228zM388 458l-52 -166h103z" />
    <glyph glyph-name="AE" unicode="&#xc6;" horiz-adv-x="1074" 
d="M718 283v-98h328v-185h-543v131h-209l-65 -131h-232l358 700h685v-185h-322v-62h250v-170h-250zM503 519h-16l-113 -227h129v227z" />
    <glyph glyph-name="Ccedilla" unicode="&#xc7;" horiz-adv-x="659" 
d="M463 -159h-242l121 154c-92 17 -167 57 -224 121s-85 142 -85 234c0 107 38 195 113 262c75 68 171 102 286 102c69 0 128 -12 177 -37v-203c-57 31 -114 46 -171 46c-53 0 -97 -16 -132 -49c-35 -32 -52 -72 -52 -121c0 -50 18 -91 54 -123c36 -31 82 -47 138 -47
c69 0 126 17 173 50v-206c-27 -15 -62 -25 -103 -32z" />
    <glyph glyph-name="Egrave" unicode="&#xc8;" horiz-adv-x="636" 
d="M608 0h-555v700h549v-185h-334v-62h262v-170h-262v-98h340v-185zM103 917h245l95 -158h-171z" />
    <glyph glyph-name="Eacute" unicode="&#xc9;" horiz-adv-x="636" 
d="M608 0h-555v700h549v-185h-334v-62h262v-170h-262v-98h340v-185zM380 759h-171l95 158h246z" />
    <glyph glyph-name="Ecircumflex" unicode="&#xca;" horiz-adv-x="636" 
d="M608 0h-555v700h549v-185h-334v-62h262v-170h-262v-98h340v-185zM274 760h-171l132 157h196l128 -157h-174l-56 61z" />
    <glyph glyph-name="Edieresis" unicode="&#xcb;" horiz-adv-x="636" 
d="M608 0h-555v700h549v-185h-334v-62h262v-170h-262v-98h340v-185zM347 840c0 53 44 98 99 98c27 0 51 -10 70 -29c20 -19 30 -42 30 -69c0 -55 -45 -99 -100 -99s-99 44 -99 99zM213 741c-55 0 -99 44 -99 99c0 53 44 98 99 98c56 0 99 -43 99 -98s-43 -99 -99 -99z" />
    <glyph glyph-name="Igrave" unicode="&#xcc;" horiz-adv-x="328" 
d="M272 0h-215v700h215v-700zM-86 917h245l95 -158h-171z" />
    <glyph glyph-name="Iacute" unicode="&#xcd;" horiz-adv-x="328" 
d="M272 0h-215v700h215v-700zM252 759h-171l95 158h246z" />
    <glyph glyph-name="Icircumflex" unicode="&#xce;" horiz-adv-x="328" 
d="M107 760h-171l132 157h196l128 -157h-174l-56 61zM272 0h-215v700h215v-700z" />
    <glyph glyph-name="Idieresis" unicode="&#xcf;" horiz-adv-x="328" 
d="M181 840c0 53 44 98 99 98c27 0 51 -10 70 -29c20 -19 30 -42 30 -69c0 -55 -45 -99 -100 -99s-99 44 -99 99zM47 741c-55 0 -99 44 -99 99c0 53 44 98 99 98c56 0 99 -43 99 -98s-43 -99 -99 -99zM272 0h-215v700h215v-700z" />
    <glyph glyph-name="Eth" unicode="&#xd0;" horiz-adv-x="820" 
d="M397 0h-295v290h-82v169h82v241h295c115 0 208 -33 280 -98c73 -65 109 -149 109 -252s-36 -188 -109 -253c-72 -65 -165 -97 -280 -97zM316 290v-105h67c117 0 182 58 182 165s-65 165 -182 165h-67v-56h115v-169h-115z" />
    <glyph glyph-name="Ntilde" unicode="&#xd1;" horiz-adv-x="761" 
d="M259 0h-206v700h183l268 -338v338h204v-700h-177l-272 340v-340zM276 756h-100c-1 47 12 86 37 119c26 33 59 50 100 50c22 0 45 -6 69 -17s44 -17 59 -17c24 0 39 10 45 30h101c0 -41 -13 -80 -39 -116c-25 -35 -58 -53 -97 -53c-25 0 -49 6 -73 18
c-23 12 -42 18 -56 18c-24 0 -39 -11 -46 -32z" />
    <glyph glyph-name="Ograve" unicode="&#xd2;" horiz-adv-x="816" 
d="M297 229c29 -31 66 -47 111 -47s82 16 111 47c29 32 44 72 44 121s-15 89 -44 120c-29 32 -66 48 -111 48s-82 -16 -111 -48c-29 -31 -44 -71 -44 -120s15 -89 44 -121zM33 350c0 101 35 186 106 257s161 107 269 107s197 -36 268 -107s106 -156 106 -257
s-35 -187 -106 -258s-160 -106 -268 -106s-198 36 -269 107s-106 157 -106 257zM156 917h245l95 -158h-171z" />
    <glyph glyph-name="Oacute" unicode="&#xd3;" horiz-adv-x="816" 
d="M297 229c29 -31 66 -47 111 -47s82 16 111 47c29 32 44 72 44 121s-15 89 -44 120c-29 32 -66 48 -111 48s-82 -16 -111 -48c-29 -31 -44 -71 -44 -120s15 -89 44 -121zM33 350c0 101 35 186 106 257s161 107 269 107s197 -36 268 -107s106 -156 106 -257
s-35 -187 -106 -258s-160 -106 -268 -106s-198 36 -269 107s-106 157 -106 257zM488 759h-171l95 158h246z" />
    <glyph glyph-name="Ocircumflex" unicode="&#xd4;" horiz-adv-x="816" 
d="M297 229c29 -31 66 -47 111 -47s82 16 111 47c29 32 44 72 44 121s-15 89 -44 120c-29 32 -66 48 -111 48s-82 -16 -111 -48c-29 -31 -44 -71 -44 -120s15 -89 44 -121zM33 350c0 101 35 186 106 257s161 107 269 107s197 -36 268 -107s106 -156 106 -257
s-35 -187 -106 -258s-160 -106 -268 -106s-198 36 -269 107s-106 157 -106 257zM350 760h-171l132 157h196l128 -157h-174l-56 61z" />
    <glyph glyph-name="Otilde" unicode="&#xd5;" horiz-adv-x="816" 
d="M297 229c29 -31 66 -47 111 -47s82 16 111 47c29 32 44 72 44 121s-15 89 -44 120c-29 32 -66 48 -111 48s-82 -16 -111 -48c-29 -31 -44 -71 -44 -120s15 -89 44 -121zM33 350c0 101 35 186 106 257s161 107 269 107s197 -36 268 -107s106 -156 106 -257
s-35 -187 -106 -258s-160 -106 -268 -106s-198 36 -269 107s-106 157 -106 257zM302 756h-100c-1 47 12 86 37 119c26 33 59 50 100 50c22 0 45 -6 69 -17s44 -17 59 -17c24 0 39 10 45 30h101c0 -41 -13 -80 -39 -116c-25 -35 -58 -53 -97 -53c-25 0 -49 6 -73 18
c-23 12 -42 18 -56 18c-24 0 -39 -11 -46 -32z" />
    <glyph glyph-name="Odieresis" unicode="&#xd6;" horiz-adv-x="816" 
d="M297 229c29 -31 66 -47 111 -47s82 16 111 47c29 32 44 72 44 121s-15 89 -44 120c-29 32 -66 48 -111 48s-82 -16 -111 -48c-29 -31 -44 -71 -44 -120s15 -89 44 -121zM33 350c0 101 35 186 106 257s161 107 269 107s197 -36 268 -107s106 -156 106 -257
s-35 -187 -106 -258s-160 -106 -268 -106s-198 36 -269 107s-106 157 -106 257zM424 840c0 53 44 98 99 98c27 0 51 -10 70 -29c20 -19 30 -42 30 -69c0 -55 -45 -99 -100 -99s-99 44 -99 99zM290 741c-55 0 -99 44 -99 99c0 53 44 98 99 98c56 0 99 -43 99 -98
s-43 -99 -99 -99z" />
    <glyph glyph-name="multiply" unicode="&#xd7;" horiz-adv-x="613" 
d="M306 203l-133 -135l-133 133l135 134l-135 134l133 133l134 -134l134 134l132 -133l-133 -134l133 -134l-132 -133z" />
    <glyph glyph-name="Oslash" unicode="&#xd8;" horiz-adv-x="816" 
d="M191 0h-147l85 103c-64 69 -96 152 -96 247c0 101 35 186 106 257s161 107 269 107c69 0 131 -16 188 -47l26 32h147l-84 -101c65 -70 97 -153 97 -248c0 -101 -35 -187 -106 -258s-160 -106 -268 -106c-69 0 -133 16 -190 47zM408 175c47 0 85 16 115 49
c31 33 46 75 46 126c0 30 -6 58 -19 85l-205 -248c19 -8 40 -12 63 -12zM247 350c0 -30 6 -58 17 -84l205 247c-19 8 -40 12 -61 12c-47 0 -85 -17 -116 -50c-30 -33 -45 -74 -45 -125z" />
    <glyph glyph-name="Ugrave" unicode="&#xd9;" horiz-adv-x="729" 
d="M45 290v410h215v-411c0 -75 46 -108 105 -108s104 33 104 108v411h215v-410c0 -97 -30 -172 -91 -225c-60 -53 -136 -79 -228 -79s-168 26 -229 79s-91 128 -91 225zM106 917h245l95 -158h-171z" />
    <glyph glyph-name="Uacute" unicode="&#xda;" horiz-adv-x="729" 
d="M45 290v410h215v-411c0 -75 46 -108 105 -108s104 33 104 108v411h215v-410c0 -97 -30 -172 -91 -225c-60 -53 -136 -79 -228 -79s-168 26 -229 79s-91 128 -91 225zM438 759h-171l95 158h246z" />
    <glyph glyph-name="Ucircumflex" unicode="&#xdb;" horiz-adv-x="729" 
d="M45 290v410h215v-411c0 -75 46 -108 105 -108s104 33 104 108v411h215v-410c0 -97 -30 -172 -91 -225c-60 -53 -136 -79 -228 -79s-168 26 -229 79s-91 128 -91 225zM307 760h-171l132 157h196l128 -157h-174l-56 61z" />
    <glyph glyph-name="Udieresis" unicode="&#xdc;" horiz-adv-x="729" 
d="M381 840c0 53 44 98 99 98c27 0 51 -10 70 -29c20 -19 30 -42 30 -69c0 -55 -45 -99 -100 -99s-99 44 -99 99zM247 741c-55 0 -99 44 -99 99c0 53 44 98 99 98c56 0 99 -43 99 -98s-43 -99 -99 -99zM45 290v410h215v-411c0 -75 46 -108 105 -108s104 33 104 108v411h215
v-410c0 -97 -30 -172 -91 -225c-60 -53 -136 -79 -228 -79s-168 26 -229 79s-91 128 -91 225z" />
    <glyph glyph-name="Yacute" unicode="&#xdd;" horiz-adv-x="706" 
d="M460 0h-215v306l-255 394h243l122 -197l124 197h237l-256 -389v-311zM431 759h-171l95 158h246z" />
    <glyph glyph-name="Thorn" unicode="&#xde;" horiz-adv-x="672" 
d="M268 578h128c80 0 144 -21 192 -64c49 -43 73 -97 73 -164c0 -66 -24 -121 -73 -164c-48 -43 -112 -64 -192 -64h-128v-122h-215v700h215v-122zM268 403v-125h99c44 0 74 26 74 63s-31 62 -74 62h-99z" />
    <glyph glyph-name="germandbls" unicode="&#xdf;" horiz-adv-x="632" 
d="M398 -7c-41 0 -71 5 -92 14v153c11 -3 23 -5 36 -5c41 0 68 26 68 66c0 45 -35 74 -88 74h-16v136h14c35 0 54 22 54 54s-20 50 -52 50c-36 0 -62 -25 -62 -78v-457h-210v455c0 83 25 147 75 192c50 46 115 69 194 69c81 0 144 -20 187 -59c44 -39 66 -89 66 -148
c0 -34 -9 -63 -27 -87c-17 -24 -36 -40 -55 -48c29 -9 57 -29 84 -61s40 -70 40 -114c0 -66 -21 -117 -63 -153c-41 -35 -92 -53 -153 -53z" />
    <glyph glyph-name="agrave" unicode="&#xe0;" horiz-adv-x="611" 
d="M556 154c11 0 20 3 29 9v-145c-25 -21 -60 -31 -104 -31c-61 0 -117 31 -134 68c-27 -39 -84 -68 -153 -68c-57 0 -102 16 -135 48c-33 33 -50 74 -50 123c0 55 20 96 60 123c41 27 87 41 138 41c45 0 83 -9 116 -28c0 51 -34 77 -103 77c-55 0 -105 -11 -148 -33v157
c56 23 122 34 197 34c78 0 141 -20 189 -59s72 -90 72 -154v-138c0 -16 9 -24 26 -24zM326 149v54c-14 12 -31 18 -52 18c-35 0 -62 -17 -62 -50c0 -32 25 -51 57 -51c27 0 46 10 57 29zM58 734h246l95 -158h-171z" />
    <glyph glyph-name="aacute" unicode="&#xe1;" horiz-adv-x="611" 
d="M556 154c11 0 20 3 29 9v-145c-25 -21 -60 -31 -104 -31c-61 0 -117 31 -134 68c-27 -39 -84 -68 -153 -68c-57 0 -102 16 -135 48c-33 33 -50 74 -50 123c0 55 20 96 60 123c41 27 87 41 138 41c45 0 83 -9 116 -28c0 51 -34 77 -103 77c-55 0 -105 -11 -148 -33v157
c56 23 122 34 197 34c78 0 141 -20 189 -59s72 -90 72 -154v-138c0 -16 9 -24 26 -24zM326 149v54c-14 12 -31 18 -52 18c-35 0 -62 -17 -62 -50c0 -32 25 -51 57 -51c27 0 46 10 57 29zM341 576h-171l95 158h245z" />
    <glyph glyph-name="acircumflex" unicode="&#xe2;" horiz-adv-x="611" 
d="M556 154c11 0 20 3 29 9v-145c-25 -21 -60 -31 -104 -31c-61 0 -117 31 -134 68c-27 -39 -84 -68 -153 -68c-57 0 -102 16 -135 48c-33 33 -50 74 -50 123c0 55 20 96 60 123c41 27 87 41 138 41c45 0 83 -9 116 -28c0 51 -34 77 -103 77c-55 0 -105 -11 -148 -33v157
c56 23 122 34 197 34c78 0 141 -20 189 -59s72 -90 72 -154v-138c0 -16 9 -24 26 -24zM326 149v54c-14 12 -31 18 -52 18c-35 0 -62 -17 -62 -50c0 -32 25 -51 57 -51c27 0 46 10 57 29zM227 577h-171l132 157h196l128 -157h-174l-56 61z" />
    <glyph glyph-name="atilde" unicode="&#xe3;" horiz-adv-x="611" 
d="M556 154c11 0 20 3 29 9v-145c-25 -21 -60 -31 -104 -31c-61 0 -117 31 -134 68c-27 -39 -84 -68 -153 -68c-57 0 -102 16 -135 48c-33 33 -50 74 -50 123c0 55 20 96 60 123c41 27 87 41 138 41c45 0 83 -9 116 -28c0 51 -34 77 -103 77c-55 0 -105 -11 -148 -33v157
c56 23 122 34 197 34c78 0 141 -20 189 -59s72 -90 72 -154v-138c0 -16 9 -24 26 -24zM326 149v54c-14 12 -31 18 -52 18c-35 0 -62 -17 -62 -50c0 -32 25 -51 57 -51c27 0 46 10 57 29zM186 572h-101c-1 47 12 86 37 119c26 33 60 50 101 50c22 0 45 -6 69 -17
s43 -17 58 -17c23 0 39 10 46 30h100c1 -41 -12 -80 -38 -116c-26 -35 -59 -53 -98 -53c-24 0 -48 6 -72 18s-43 18 -57 18c-25 0 -40 -11 -45 -32z" />
    <glyph glyph-name="adieresis" unicode="&#xe4;" horiz-adv-x="611" 
d="M556 154c11 0 20 3 29 9v-145c-25 -21 -60 -31 -104 -31c-61 0 -117 31 -134 68c-27 -39 -84 -68 -153 -68c-57 0 -102 16 -135 48c-33 33 -50 74 -50 123c0 55 20 96 60 123c41 27 87 41 138 41c45 0 83 -9 116 -28c0 51 -34 77 -103 77c-55 0 -105 -11 -148 -33v157
c56 23 122 34 197 34c78 0 141 -20 189 -59s72 -90 72 -154v-138c0 -16 9 -24 26 -24zM326 149v54c-14 12 -31 18 -52 18c-35 0 -62 -17 -62 -50c0 -32 25 -51 57 -51c27 0 46 10 57 29zM298 656c0 53 44 98 99 98c27 0 51 -10 70 -29c20 -19 30 -42 30 -69
c0 -55 -45 -99 -100 -99s-99 44 -99 99zM164 557c-55 0 -100 44 -100 99c0 27 10 50 29 69c20 19 44 29 71 29c56 0 99 -43 99 -98s-43 -99 -99 -99z" />
    <glyph glyph-name="aring" unicode="&#xe5;" horiz-adv-x="611" 
d="M556 154c11 0 20 3 29 9v-145c-25 -21 -60 -31 -104 -31c-61 0 -117 31 -134 68c-27 -39 -84 -68 -153 -68c-57 0 -102 16 -135 48c-33 33 -50 74 -50 123c0 55 20 96 60 123c41 27 87 41 138 41c45 0 83 -9 116 -28c0 51 -34 77 -103 77c-55 0 -105 -11 -148 -33v157
c56 23 122 34 197 34c78 0 141 -20 189 -59s72 -90 72 -154v-138c0 -16 9 -24 26 -24zM326 149v54c-14 12 -31 18 -52 18c-35 0 -62 -17 -62 -50c0 -32 25 -51 57 -51c27 0 46 10 57 29zM169 666c0 60 50 109 110 109s108 -49 108 -109s-48 -109 -108 -109
c-30 0 -56 11 -78 32c-21 22 -32 48 -32 77zM320 666c0 23 -18 42 -41 42s-42 -19 -42 -42c0 -21 19 -41 42 -41s41 20 41 41z" />
    <glyph glyph-name="ae" unicode="&#xe6;" horiz-adv-x="863" 
d="M840 261v-48h-328c17 -41 74 -61 135 -61c62 0 117 13 166 39v-154c-46 -33 -117 -50 -213 -50c-89 0 -161 28 -216 84c-35 -43 -102 -84 -193 -84c-55 0 -99 16 -132 49s-50 73 -50 122c0 55 20 96 60 123c41 27 87 41 138 41c45 0 83 -9 116 -28c0 51 -34 77 -103 77
c-55 0 -105 -11 -148 -33v157c56 23 117 34 183 34c67 0 137 -27 168 -59c41 39 98 59 170 59c68 0 126 -24 174 -73c49 -48 73 -113 73 -195zM269 120c29 0 50 10 63 31c-7 17 -13 36 -16 59c-12 7 -26 11 -42 11c-35 0 -62 -17 -62 -50c0 -32 25 -51 57 -51zM508 313h137
c-1 47 -30 75 -66 75c-39 0 -64 -27 -71 -75z" />
    <glyph glyph-name="ccedilla" unicode="&#xe7;" horiz-adv-x="504" 
d="M414 0l-56 -159h-242l121 153c-62 13 -114 43 -156 88c-41 45 -62 104 -62 177c0 59 15 109 44 151c59 84 147 119 244 119c57 0 108 -10 152 -29v-173c-41 15 -81 23 -118 23c-65 0 -117 -33 -117 -92c0 -60 52 -93 121 -93c43 0 83 9 120 26v-171
c-25 -11 -42 -17 -51 -20z" />
    <glyph glyph-name="egrave" unicode="&#xe8;" horiz-adv-x="570" 
d="M307 -13c-80 0 -148 24 -204 72c-56 49 -84 115 -84 199c0 77 25 141 76 193s118 78 201 78c71 0 131 -24 179 -73c48 -48 72 -113 72 -195v-48h-328c17 -41 74 -61 135 -61s117 13 166 39v-154c-46 -33 -117 -50 -213 -50zM215 313h137c-1 47 -30 75 -66 75
c-39 0 -64 -27 -71 -75zM61 734h246l95 -158h-171z" />
    <glyph glyph-name="eacute" unicode="&#xe9;" horiz-adv-x="570" 
d="M307 -13c-80 0 -148 24 -204 72c-56 49 -84 115 -84 199c0 77 25 141 76 193s118 78 201 78c71 0 131 -24 179 -73c48 -48 72 -113 72 -195v-48h-328c17 -41 74 -61 135 -61s117 13 166 39v-154c-46 -33 -117 -50 -213 -50zM215 313h137c-1 47 -30 75 -66 75
c-39 0 -64 -27 -71 -75zM343 576h-171l95 158h245z" />
    <glyph glyph-name="ecircumflex" unicode="&#xea;" horiz-adv-x="570" 
d="M307 -13c-80 0 -148 24 -204 72c-56 49 -84 115 -84 199c0 77 25 141 76 193s118 78 201 78c71 0 131 -24 179 -73c48 -48 72 -113 72 -195v-48h-328c17 -41 74 -61 135 -61s117 13 166 39v-154c-46 -33 -117 -50 -213 -50zM215 313h137c-1 47 -30 75 -66 75
c-39 0 -64 -27 -71 -75zM225 577h-171l132 157h196l128 -157h-174l-56 61z" />
    <glyph glyph-name="edieresis" unicode="&#xeb;" horiz-adv-x="570" 
d="M307 -13c-80 0 -148 24 -204 72c-56 49 -84 115 -84 199c0 77 25 141 76 193s118 78 201 78c71 0 131 -24 179 -73c48 -48 72 -113 72 -195v-48h-328c17 -41 74 -61 135 -61s117 13 166 39v-154c-46 -33 -117 -50 -213 -50zM215 313h137c-1 47 -30 75 -66 75
c-39 0 -64 -27 -71 -75zM304 656c0 53 44 98 99 98c27 0 51 -10 70 -29c20 -19 30 -42 30 -69c0 -55 -45 -99 -100 -99s-99 44 -99 99zM170 557c-55 0 -100 44 -100 99c0 27 10 50 29 69c20 19 44 29 71 29c56 0 99 -43 99 -98s-43 -99 -99 -99z" />
    <glyph glyph-name="igrave" unicode="&#xec;" horiz-adv-x="318" 
d="M264 0h-211v516h211v-516zM-95 734h246l95 -158h-171z" />
    <glyph glyph-name="iacute" unicode="&#xed;" horiz-adv-x="318" 
d="M242 577h-170l94 157h243zM264 0h-211v516h211v-516z" />
    <glyph glyph-name="icircumflex" unicode="&#xee;" horiz-adv-x="318" 
d="M101 577h-171l132 157h196l128 -157h-174l-56 61zM264 0h-211v516h211v-516z" />
    <glyph glyph-name="idieresis" unicode="&#xef;" horiz-adv-x="318" 
d="M177 656c0 53 44 98 99 98c27 0 51 -10 70 -29c20 -19 30 -42 30 -69c0 -55 -45 -99 -100 -99s-99 44 -99 99zM43 557c-55 0 -100 44 -100 99c0 27 10 50 30 69c19 19 43 29 70 29c56 0 99 -43 99 -98s-43 -99 -99 -99zM264 0h-211v516h211v-516z" />
    <glyph glyph-name="eth" unicode="&#xf0;" horiz-adv-x="602" 
d="M355 658l85 31l76 -86l-88 -32l20 -23c51 -62 87 -113 106 -154c20 -40 30 -86 30 -138c0 -75 -27 -139 -81 -191s-121 -78 -202 -78s-148 24 -202 71c-53 48 -80 107 -80 177c0 69 20 123 60 162c41 39 93 59 156 59c37 0 65 -6 85 -19l-62 73l-113 -40l-76 86l115 41
l-86 103h222zM379 240c0 44 -33 77 -78 77s-79 -33 -79 -77c0 -45 34 -78 79 -78s78 33 78 78z" />
    <glyph glyph-name="ntilde" unicode="&#xf1;" horiz-adv-x="623" 
d="M50 0v516h210v-66c12 19 32 37 60 54c29 17 59 25 91 25c111 0 171 -75 171 -202v-327h-211v282c0 43 -23 63 -52 63c-23 0 -43 -9 -59 -28v-317h-210zM212 572h-101c-1 47 12 86 37 119c26 33 60 50 101 50c22 0 45 -6 69 -17s43 -17 58 -17c23 0 39 10 46 30h100
c1 -41 -12 -80 -38 -116c-26 -35 -59 -53 -98 -53c-24 0 -48 6 -72 18s-43 18 -57 18c-25 0 -40 -11 -45 -32z" />
    <glyph glyph-name="ograve" unicode="&#xf2;" horiz-adv-x="626" 
d="M249 191c33 -35 95 -35 128 0c17 18 25 40 25 67s-8 49 -25 66c-33 36 -95 36 -128 0c-17 -17 -25 -39 -25 -66s8 -49 25 -67zM313 -13c-85 0 -155 26 -211 77c-55 51 -83 116 -83 194s28 143 83 194c56 51 126 77 211 77s156 -26 211 -77c56 -51 84 -116 84 -194
s-28 -143 -84 -194c-55 -51 -126 -77 -211 -77zM62 734h246l95 -158h-171z" />
    <glyph glyph-name="oacute" unicode="&#xf3;" horiz-adv-x="626" 
d="M249 191c33 -35 95 -35 128 0c17 18 25 40 25 67s-8 49 -25 66c-33 36 -95 36 -128 0c-17 -17 -25 -39 -25 -66s8 -49 25 -67zM313 -13c-85 0 -155 26 -211 77c-55 51 -83 116 -83 194s28 143 83 194c56 51 126 77 211 77s156 -26 211 -77c56 -51 84 -116 84 -194
s-28 -143 -84 -194c-55 -51 -126 -77 -211 -77zM389 576h-171l95 158h245z" />
    <glyph glyph-name="ocircumflex" unicode="&#xf4;" horiz-adv-x="626" 
d="M249 191c33 -35 95 -35 128 0c17 18 25 40 25 67s-8 49 -25 66c-33 36 -95 36 -128 0c-17 -17 -25 -39 -25 -66s8 -49 25 -67zM313 -13c-85 0 -155 26 -211 77c-55 51 -83 116 -83 194s28 143 83 194c56 51 126 77 211 77s156 -26 211 -77c56 -51 84 -116 84 -194
s-28 -143 -84 -194c-55 -51 -126 -77 -211 -77zM256 577h-171l132 157h196l128 -157h-174l-56 61z" />
    <glyph glyph-name="otilde" unicode="&#xf5;" horiz-adv-x="626" 
d="M249 191c33 -35 95 -35 128 0c17 18 25 40 25 67s-8 49 -25 66c-33 36 -95 36 -128 0c-17 -17 -25 -39 -25 -66s8 -49 25 -67zM313 -13c-85 0 -155 26 -211 77c-55 51 -83 116 -83 194s28 143 83 194c56 51 126 77 211 77s156 -26 211 -77c56 -51 84 -116 84 -194
s-28 -143 -84 -194c-55 -51 -126 -77 -211 -77zM209 572h-101c-1 47 12 86 37 119c26 33 60 50 101 50c22 0 45 -6 69 -17s43 -17 58 -17c23 0 39 10 46 30h100c1 -41 -12 -80 -38 -116c-26 -35 -59 -53 -98 -53c-24 0 -48 6 -72 18s-43 18 -57 18c-25 0 -40 -11 -45 -32z
" />
    <glyph glyph-name="odieresis" unicode="&#xf6;" horiz-adv-x="626" 
d="M249 191c33 -35 95 -35 128 0c17 18 25 40 25 67s-8 49 -25 66c-33 36 -95 36 -128 0c-17 -17 -25 -39 -25 -66s8 -49 25 -67zM313 -13c-85 0 -155 26 -211 77c-55 51 -83 116 -83 194s28 143 83 194c56 51 126 77 211 77s156 -26 211 -77c56 -51 84 -116 84 -194
s-28 -143 -84 -194c-55 -51 -126 -77 -211 -77zM331 656c0 53 44 98 99 98c27 0 51 -10 70 -29c20 -19 30 -42 30 -69c0 -55 -45 -99 -100 -99s-99 44 -99 99zM197 557c-55 0 -100 44 -100 99c0 27 10 50 29 69c20 19 44 29 71 29c56 0 99 -43 99 -98s-43 -99 -99 -99z" />
    <glyph glyph-name="divide" unicode="&#xf7;" horiz-adv-x="626" 
d="M192 583c0 34 12 63 36 86c24 24 53 36 86 36s62 -12 85 -36c24 -23 36 -52 36 -86c0 -33 -12 -62 -36 -86c-23 -23 -52 -35 -85 -35s-62 12 -86 35c-24 24 -36 53 -36 86zM586 245h-546v183h546v-183zM192 89c0 34 12 63 36 86c24 24 53 36 86 36s62 -12 85 -36
c24 -23 36 -52 36 -86c0 -33 -12 -62 -36 -86c-23 -23 -52 -35 -85 -35s-62 12 -86 36s-36 52 -36 85z" />
    <glyph glyph-name="oslash" unicode="&#xf8;" horiz-adv-x="626" 
d="M483 521h120l-69 -79c49 -51 74 -113 74 -184c0 -78 -28 -143 -84 -194c-55 -51 -126 -77 -211 -77c-53 0 -103 11 -148 33l-22 -25h-120l69 79c-49 50 -73 111 -73 184c0 78 28 143 83 194c56 51 126 77 211 77c55 0 104 -11 148 -34zM313 153c59 0 100 45 100 105
c0 11 -2 24 -7 38l-122 -140c9 -2 19 -3 29 -3zM213 258c0 -14 2 -27 6 -39l122 139c-8 3 -17 4 -28 4c-59 0 -100 -45 -100 -104z" />
    <glyph glyph-name="ugrave" unicode="&#xf9;" horiz-adv-x="623" 
d="M363 199v317h210v-516h-210v66c-12 -19 -32 -37 -61 -54c-28 -17 -58 -25 -90 -25c-111 0 -171 75 -171 202v327h211v-282c0 -43 23 -63 52 -63c23 0 43 9 59 28zM77 734h246l95 -158h-171z" />
    <glyph glyph-name="uacute" unicode="&#xfa;" horiz-adv-x="623" 
d="M363 199v317h210v-516h-210v66c-12 -19 -32 -37 -61 -54c-28 -17 -58 -25 -90 -25c-111 0 -171 75 -171 202v327h211v-282c0 -43 23 -63 52 -63c23 0 43 9 59 28zM370 576h-171l95 158h245z" />
    <glyph glyph-name="ucircumflex" unicode="&#xfb;" horiz-adv-x="623" 
d="M363 199v317h210v-516h-210v66c-12 -19 -32 -37 -61 -54c-28 -17 -58 -25 -90 -25c-111 0 -171 75 -171 202v327h211v-282c0 -43 23 -63 52 -63c23 0 43 9 59 28zM249 577h-171l132 157h196l128 -157h-174l-56 61z" />
    <glyph glyph-name="udieresis" unicode="&#xfc;" horiz-adv-x="623" 
d="M363 199v317h210v-516h-210v66c-12 -19 -32 -37 -61 -54c-28 -17 -58 -25 -90 -25c-111 0 -171 75 -171 202v327h211v-282c0 -43 23 -63 52 -63c23 0 43 9 59 28zM325 656c0 53 44 98 99 98c27 0 51 -10 70 -29c20 -19 30 -42 30 -69c0 -55 -45 -99 -100 -99
s-99 44 -99 99zM191 557c-55 0 -100 44 -100 99c0 27 10 50 29 69c20 19 44 29 71 29c56 0 99 -43 99 -98s-43 -99 -99 -99z" />
    <glyph glyph-name="yacute" unicode="&#xfd;" horiz-adv-x="611" 
d="M170 -206c-54 0 -95 8 -124 24v181c25 -18 54 -27 87 -27c43 0 65 10 78 45l-211 499h221l91 -292l82 292h217l-218 -566c-40 -104 -114 -156 -223 -156zM380 576h-171l95 158h245z" />
    <glyph glyph-name="thorn" unicode="&#xfe;" horiz-adv-x="648" 
d="M50 -200v900h211v-242c31 47 78 71 141 71c65 0 120 -26 163 -77s65 -116 65 -194s-22 -143 -65 -194s-98 -77 -163 -77c-63 0 -110 24 -141 71v-258h-211zM258 316v-117c15 -25 42 -37 79 -37c51 0 85 43 85 96s-34 96 -85 96c-38 0 -64 -13 -79 -38z" />
    <glyph glyph-name="ydieresis" unicode="&#xff;" horiz-adv-x="611" 
d="M325 656c0 53 44 98 99 98c27 0 51 -10 70 -29c20 -19 30 -42 30 -69c0 -55 -45 -99 -100 -99s-99 44 -99 99zM191 557c-55 0 -100 44 -100 99c0 27 10 50 29 69c20 19 44 29 71 29c56 0 99 -43 99 -98s-43 -99 -99 -99zM170 -206c-54 0 -95 8 -124 24v181
c25 -18 54 -27 87 -27c43 0 65 10 78 45l-211 499h221l91 -292l82 292h217l-218 -566c-40 -104 -114 -156 -223 -156z" />
    <glyph glyph-name="Amacron" unicode="&#x100;" horiz-adv-x="783" 
d="M223 0h-222l288 704h205l289 -704h-231l-50 131h-228zM388 458l-52 -166h103zM572 768h-360v135h360v-135z" />
    <glyph glyph-name="amacron" unicode="&#x101;" horiz-adv-x="611" 
d="M556 154c11 0 20 3 29 9v-145c-25 -21 -60 -31 -104 -31c-61 0 -117 31 -134 68c-27 -39 -84 -68 -153 -68c-57 0 -102 16 -135 48c-33 33 -50 74 -50 123c0 55 20 96 60 123c41 27 87 41 138 41c45 0 83 -9 116 -28c0 51 -34 77 -103 77c-55 0 -105 -11 -148 -33v157
c56 23 122 34 197 34c78 0 141 -20 189 -59s72 -90 72 -154v-138c0 -16 9 -24 26 -24zM326 149v54c-14 12 -31 18 -52 18c-35 0 -62 -17 -62 -50c0 -32 25 -51 57 -51c27 0 46 10 57 29zM469 584h-360v135h360v-135z" />
    <glyph glyph-name="Abreve" unicode="&#x102;" horiz-adv-x="783" 
d="M223 0h-222l288 704h205l289 -704h-231l-50 131h-228zM388 458l-52 -166h103zM393 744c-107 0 -186 64 -190 179h128c5 -41 25 -61 62 -61c35 0 57 24 60 61h128c-5 -115 -83 -179 -188 -179z" />
    <glyph glyph-name="abreve" unicode="&#x103;" horiz-adv-x="611" 
d="M556 154c11 0 20 3 29 9v-145c-25 -21 -60 -31 -104 -31c-61 0 -117 31 -134 68c-27 -39 -84 -68 -153 -68c-57 0 -102 16 -135 48c-33 33 -50 74 -50 123c0 55 20 96 60 123c41 27 87 41 138 41c45 0 83 -9 116 -28c0 51 -34 77 -103 77c-55 0 -105 -11 -148 -33v157
c56 23 122 34 197 34c78 0 141 -20 189 -59s72 -90 72 -154v-138c0 -16 9 -24 26 -24zM326 149v54c-14 12 -31 18 -52 18c-35 0 -62 -17 -62 -50c0 -32 25 -51 57 -51c27 0 46 10 57 29zM93 740h127c5 -41 26 -61 62 -61s58 24 61 61h128c-5 -115 -84 -179 -189 -179
c-53 0 -97 15 -133 46c-35 31 -54 76 -56 133z" />
    <glyph glyph-name="Aogonek" unicode="&#x104;" horiz-adv-x="783" 
d="M752 -209c-91 0 -145 45 -145 108c0 45 29 84 50 101h-105l-50 131h-228l-51 -131h-222l288 704h205l289 -704c-12 -11 -32 -41 -32 -58c0 -19 12 -28 37 -28c15 0 27 3 34 8v-122c-16 -6 -39 -9 -70 -9zM388 458l-52 -166h103z" />
    <glyph glyph-name="aogonek" unicode="&#x105;" horiz-adv-x="597" 
d="M554 -191c-91 0 -145 45 -145 108c0 25 9 51 26 76c-41 9 -76 34 -88 62c-27 -39 -84 -68 -153 -68c-57 0 -102 16 -135 48c-33 33 -50 74 -50 123c0 55 20 96 60 123c41 27 87 41 138 41c45 0 83 -9 116 -28c0 51 -34 77 -103 77c-55 0 -105 -11 -148 -33v157
c56 23 122 34 197 34c78 0 141 -20 189 -59s72 -90 72 -154v-138c0 -16 9 -24 26 -24c11 0 20 3 29 9v-145c-12 -11 -32 -41 -32 -58c0 -19 12 -28 37 -28c15 0 27 3 34 8v-122c-16 -6 -39 -9 -70 -9zM326 149v54c-14 12 -31 18 -52 18c-35 0 -62 -17 -62 -50
c0 -32 25 -51 57 -51c27 0 46 10 57 29z" />
    <glyph glyph-name="Cacute" unicode="&#x106;" horiz-adv-x="659" 
d="M434 -14c-115 0 -211 34 -287 101c-76 68 -114 156 -114 263s38 195 113 262c75 68 171 102 286 102c69 0 128 -12 177 -37v-203c-57 31 -114 46 -171 46c-53 0 -97 -16 -132 -49c-35 -32 -52 -72 -52 -121c0 -50 18 -91 54 -123c36 -31 82 -47 138 -47
c69 0 126 17 173 50v-206c-48 -25 -110 -38 -185 -38zM447 759h-171l95 158h246z" />
    <glyph glyph-name="cacute" unicode="&#x107;" horiz-adv-x="504" 
d="M305 -13c-47 0 -92 9 -135 28c-42 19 -78 50 -107 93s-44 93 -44 151c0 59 15 109 44 151c59 84 147 119 244 119c57 0 108 -10 152 -29v-173c-41 15 -81 23 -118 23c-65 0 -117 -33 -117 -92c0 -60 52 -93 121 -93c43 0 83 9 120 26v-171c-51 -22 -104 -33 -160 -33z
M319 576h-171l95 158h245z" />
    <glyph glyph-name="Ccircumflex" unicode="&#x108;" horiz-adv-x="659" 
d="M434 -14c-115 0 -211 34 -287 101c-76 68 -114 156 -114 263s38 195 113 262c75 68 171 102 286 102c69 0 128 -12 177 -37v-203c-57 31 -114 46 -171 46c-53 0 -97 -16 -132 -49c-35 -32 -52 -72 -52 -121c0 -50 18 -91 54 -123c36 -31 82 -47 138 -47
c69 0 126 17 173 50v-206c-48 -25 -110 -38 -185 -38zM325 760h-171l132 157h196l128 -157h-174l-56 61z" />
    <glyph glyph-name="ccircumflex" unicode="&#x109;" horiz-adv-x="504" 
d="M305 -13c-47 0 -92 9 -135 28c-42 19 -78 50 -107 93s-44 93 -44 151c0 59 15 109 44 151c59 84 147 119 244 119c57 0 108 -10 152 -29v-173c-41 15 -81 23 -118 23c-65 0 -117 -33 -117 -92c0 -60 52 -93 121 -93c43 0 83 9 120 26v-171c-51 -22 -104 -33 -160 -33z
M211 577h-171l132 157h196l128 -157h-174l-56 61z" />
    <glyph glyph-name="Cdotaccent" unicode="&#x10a;" horiz-adv-x="659" 
d="M434 -14c-115 0 -211 34 -287 101c-76 68 -114 156 -114 263s38 195 113 262c75 68 171 102 286 102c69 0 128 -12 177 -37v-203c-57 31 -114 46 -171 46c-53 0 -97 -16 -132 -49c-35 -32 -52 -72 -52 -121c0 -50 18 -91 54 -123c36 -31 82 -47 138 -47
c69 0 126 17 173 50v-206c-48 -25 -110 -38 -185 -38zM398 741c-55 0 -99 44 -99 99s44 98 99 98c56 0 99 -43 99 -98s-43 -99 -99 -99z" />
    <glyph glyph-name="cdotaccent" unicode="&#x10b;" horiz-adv-x="504" 
d="M305 -13c-47 0 -92 9 -135 28c-42 19 -78 50 -107 93s-44 93 -44 151c0 59 15 109 44 151c59 84 147 119 244 119c57 0 108 -10 152 -29v-173c-41 15 -81 23 -118 23c-65 0 -117 -33 -117 -92c0 -60 52 -93 121 -93c43 0 83 9 120 26v-171c-51 -22 -104 -33 -160 -33z
M288 556c-55 0 -100 44 -100 99s45 98 100 98c56 0 99 -43 99 -98s-43 -99 -99 -99z" />
    <glyph glyph-name="Ccaron" unicode="&#x10c;" horiz-adv-x="659" 
d="M434 -14c-115 0 -211 34 -287 101c-76 68 -114 156 -114 263s38 195 113 262c75 68 171 102 286 102c69 0 128 -12 177 -37v-203c-57 31 -114 46 -171 46c-53 0 -97 -16 -132 -49c-35 -32 -52 -72 -52 -121c0 -50 18 -91 54 -123c36 -31 82 -47 138 -47
c69 0 126 17 173 50v-206c-48 -25 -110 -38 -185 -38zM442 917h170l-131 -157h-196l-129 157h175l56 -61z" />
    <glyph glyph-name="ccaron" unicode="&#x10d;" horiz-adv-x="504" 
d="M305 -13c-47 0 -92 9 -135 28c-42 19 -78 50 -107 93s-44 93 -44 151c0 59 15 109 44 151c59 84 147 119 244 119c57 0 108 -10 152 -29v-173c-41 15 -81 23 -118 23c-65 0 -117 -33 -117 -92c0 -60 52 -93 121 -93c43 0 83 9 120 26v-171c-51 -22 -104 -33 -160 -33z
M343 733h171l-132 -157h-196l-129 157h175l56 -62z" />
    <glyph glyph-name="Dcaron" unicode="&#x10e;" horiz-adv-x="772" 
d="M348 0h-295v700h295c115 0 208 -33 281 -98s109 -149 109 -252s-36 -187 -109 -252s-166 -98 -281 -98zM268 515v-330h66c117 0 182 58 182 165s-65 165 -182 165h-66zM409 917h170l-131 -157h-196l-129 157h175l56 -61z" />
    <glyph glyph-name="dcaron" unicode="&#x10f;" horiz-adv-x="867" 
d="M388 458v242h211v-700h-211v58c-31 -47 -78 -71 -141 -71c-65 0 -120 26 -163 77s-65 116 -65 194s22 143 65 194s98 77 163 77c63 0 110 -24 141 -71zM391 199v117c-15 25 -41 38 -79 38c-51 0 -85 -43 -85 -96s34 -96 85 -96c37 0 64 12 79 37zM803 469h-154l61 231
h177z" />
    <glyph glyph-name="Dcroat" unicode="&#x110;" horiz-adv-x="820" 
d="M397 0h-295v290h-82v169h82v241h295c115 0 208 -33 280 -98c73 -65 109 -149 109 -252s-36 -188 -109 -253c-72 -65 -165 -97 -280 -97zM316 290v-105h67c117 0 182 58 182 165s-65 165 -182 165h-67v-56h115v-169h-115z" />
    <glyph glyph-name="dslash" unicode="&#x111;" horiz-adv-x="666" 
d="M388 571h-119v75h119v54h211v-54h87v-75h-87v-571h-211v58c-31 -47 -78 -71 -141 -71c-65 0 -120 26 -163 77s-65 116 -65 194s22 143 65 194s98 77 163 77c63 0 110 -24 141 -71v113zM391 199v117c-15 25 -41 38 -79 38c-51 0 -85 -43 -85 -96s34 -96 85 -96
c37 0 64 12 79 37z" />
    <glyph glyph-name="Emacron" unicode="&#x112;" horiz-adv-x="636" 
d="M608 0h-555v700h549v-185h-334v-62h262v-170h-262v-98h340v-185zM511 768h-360v135h360v-135z" />
    <glyph glyph-name="emacron" unicode="&#x113;" horiz-adv-x="570" 
d="M307 -13c-80 0 -148 24 -204 72c-56 49 -84 115 -84 199c0 77 25 141 76 193s118 78 201 78c71 0 131 -24 179 -73c48 -48 72 -113 72 -195v-48h-328c17 -41 74 -61 135 -61s117 13 166 39v-154c-46 -33 -117 -50 -213 -50zM215 313h137c-1 47 -30 75 -66 75
c-39 0 -64 -27 -71 -75zM472 584h-360v135h360v-135z" />
    <glyph glyph-name="Ebreve" unicode="&#x114;" horiz-adv-x="636" 
d="M608 0h-555v700h549v-185h-334v-62h262v-170h-262v-98h340v-185zM332 744c-107 0 -186 64 -190 179h128c5 -41 25 -61 62 -61c35 0 57 24 60 61h128c-5 -115 -83 -179 -188 -179z" />
    <glyph glyph-name="ebreve" unicode="&#x115;" horiz-adv-x="570" 
d="M307 -13c-80 0 -148 24 -204 72c-56 49 -84 115 -84 199c0 77 25 141 76 193s118 78 201 78c71 0 131 -24 179 -73c48 -48 72 -113 72 -195v-48h-328c17 -41 74 -61 135 -61s117 13 166 39v-154c-46 -33 -117 -50 -213 -50zM215 313h137c-1 47 -30 75 -66 75
c-39 0 -64 -27 -71 -75zM104 740h127c5 -41 26 -61 62 -61s58 24 61 61h128c-5 -115 -84 -179 -189 -179c-53 0 -97 15 -133 46c-35 31 -54 76 -56 133z" />
    <glyph glyph-name="Edotaccent" unicode="&#x116;" horiz-adv-x="636" 
d="M608 0h-555v700h549v-185h-334v-62h262v-170h-262v-98h340v-185zM331 741c-55 0 -99 44 -99 99s44 98 99 98c56 0 99 -43 99 -98s-43 -99 -99 -99z" />
    <glyph glyph-name="edotaccent" unicode="&#x117;" horiz-adv-x="570" 
d="M307 -13c-80 0 -148 24 -204 72c-56 49 -84 115 -84 199c0 77 25 141 76 193s118 78 201 78c71 0 131 -24 179 -73c48 -48 72 -113 72 -195v-48h-328c17 -41 74 -61 135 -61s117 13 166 39v-154c-46 -33 -117 -50 -213 -50zM215 313h137c-1 47 -30 75 -66 75
c-39 0 -64 -27 -71 -75zM281 556c-55 0 -100 44 -100 99s45 98 100 98c56 0 99 -43 99 -98s-43 -99 -99 -99z" />
    <glyph glyph-name="Eogonek" unicode="&#x118;" horiz-adv-x="647" 
d="M482 0h-429v700h549v-185h-334v-62h262v-170h-262v-98h340v-185c-12 -11 -32 -41 -32 -58c0 -19 12 -28 37 -28c15 0 27 3 34 8v-122c-16 -6 -39 -9 -70 -9c-91 0 -145 45 -145 108c0 45 29 84 50 101z" />
    <glyph glyph-name="eogonek" unicode="&#x119;" horiz-adv-x="570" 
d="M489 -172c-91 0 -145 45 -145 108c0 17 4 34 13 53c-21 -1 -38 -2 -50 -2c-80 0 -148 24 -204 72c-56 49 -84 115 -84 199c0 77 25 141 76 193s118 78 201 78c71 0 131 -24 179 -73c48 -48 72 -113 72 -195v-48h-328c17 -41 74 -61 135 -61s117 13 166 39v-154
c-12 -11 -32 -41 -32 -58c0 -19 12 -28 37 -28c15 0 27 3 34 8v-122c-16 -6 -39 -9 -70 -9zM215 313h137c-1 47 -30 75 -66 75c-39 0 -64 -27 -71 -75z" />
    <glyph glyph-name="Ecaron" unicode="&#x11a;" horiz-adv-x="636" 
d="M608 0h-555v700h549v-185h-334v-62h262v-170h-262v-98h340v-185zM389 917h170l-131 -157h-196l-129 157h175l56 -61z" />
    <glyph glyph-name="ecaron" unicode="&#x11b;" horiz-adv-x="570" 
d="M307 -13c-80 0 -148 24 -204 72c-56 49 -84 115 -84 199c0 77 25 141 76 193s118 78 201 78c71 0 131 -24 179 -73c48 -48 72 -113 72 -195v-48h-328c17 -41 74 -61 135 -61s117 13 166 39v-154c-46 -33 -117 -50 -213 -50zM215 313h137c-1 47 -30 75 -66 75
c-39 0 -64 -27 -71 -75zM349 733h171l-132 -157h-196l-129 157h175l56 -62z" />
    <glyph glyph-name="Gcircumflex" unicode="&#x11c;" horiz-adv-x="751" 
d="M422 -14c-110 0 -202 34 -277 102s-112 155 -112 262s38 195 113 262c75 68 170 102 285 102c31 0 60 -2 85 -7s45 -10 58 -15c14 -5 32 -12 55 -22v-197c-188 97 -381 33 -375 -126c0 -55 16 -97 49 -128s72 -46 119 -46c36 0 64 7 83 20v215h216v-315
c-27 -29 -68 -55 -123 -76s-113 -31 -176 -31zM336 760h-171l132 157h196l128 -157h-174l-56 61z" />
    <glyph glyph-name="gcircumflex" unicode="&#x11d;" horiz-adv-x="634" 
d="M381 460v56h211v-432c0 -204 -175 -290 -316 -290c-91 0 -160 14 -206 42v181c56 -33 117 -50 183 -50c85 0 128 34 128 102v31c-34 -46 -82 -69 -143 -69c-65 0 -117 23 -158 70s-61 106 -61 179s20 132 61 179s93 70 158 70c60 0 108 -23 143 -69zM384 234v92
c-18 21 -45 31 -80 31c-48 0 -77 -33 -77 -77s29 -77 77 -77c35 0 62 10 80 31zM261 577h-171l132 157h196l128 -157h-174l-56 61z" />
    <glyph glyph-name="Gbreve" unicode="&#x11e;" horiz-adv-x="751" 
d="M422 -14c-110 0 -202 34 -277 102s-112 155 -112 262s38 195 113 262c75 68 170 102 285 102c31 0 60 -2 85 -7s45 -10 58 -15c14 -5 32 -12 55 -22v-197c-188 97 -381 33 -375 -126c0 -55 16 -97 49 -128s72 -46 119 -46c36 0 64 7 83 20v215h216v-315
c-27 -29 -68 -55 -123 -76s-113 -31 -176 -31zM404 764c-107 0 -186 64 -190 179h128c5 -41 25 -61 62 -61c35 0 57 24 60 61h128c-5 -115 -83 -179 -188 -179z" />
    <glyph glyph-name="gbreve" unicode="&#x11f;" horiz-adv-x="634" 
d="M381 460v56h211v-432c0 -204 -175 -290 -316 -290c-91 0 -160 14 -206 42v181c56 -33 117 -50 183 -50c85 0 128 34 128 102v31c-34 -46 -82 -69 -143 -69c-65 0 -117 23 -158 70s-61 106 -61 179s20 132 61 179s93 70 158 70c60 0 108 -23 143 -69zM384 234v92
c-18 21 -45 31 -80 31c-48 0 -77 -33 -77 -77s29 -77 77 -77c35 0 62 10 80 31zM134 740h127c5 -41 26 -61 62 -61s58 24 61 61h128c-5 -115 -84 -179 -189 -179c-53 0 -97 15 -133 46c-35 31 -54 76 -56 133z" />
    <glyph glyph-name="Gdotaccent" unicode="&#x120;" horiz-adv-x="751" 
d="M422 -14c-110 0 -202 34 -277 102s-112 155 -112 262s38 195 113 262c75 68 170 102 285 102c31 0 60 -2 85 -7s45 -10 58 -15c14 -5 32 -12 55 -22v-197c-188 97 -381 33 -375 -126c0 -55 16 -97 49 -128s72 -46 119 -46c36 0 64 7 83 20v215h216v-315
c-27 -29 -68 -55 -123 -76s-113 -31 -176 -31zM404 741c-55 0 -99 44 -99 99s44 98 99 98c56 0 99 -43 99 -98s-43 -99 -99 -99z" />
    <glyph glyph-name="gdotaccent" unicode="&#x121;" horiz-adv-x="634" 
d="M381 460v56h211v-432c0 -204 -175 -290 -316 -290c-91 0 -160 14 -206 42v181c56 -33 117 -50 183 -50c85 0 128 34 128 102v31c-34 -46 -82 -69 -143 -69c-65 0 -117 23 -158 70s-61 106 -61 179s20 132 61 179s93 70 158 70c60 0 108 -23 143 -69zM384 234v92
c-18 21 -45 31 -80 31c-48 0 -77 -33 -77 -77s29 -77 77 -77c35 0 62 10 80 31zM303 556c-55 0 -100 44 -100 99s45 98 100 98c56 0 99 -43 99 -98s-43 -99 -99 -99z" />
    <glyph glyph-name="uni0122" unicode="&#x122;" horiz-adv-x="751" 
d="M422 -14c-110 0 -202 34 -277 102s-112 155 -112 262s38 195 113 262c75 68 170 102 285 102c31 0 60 -2 85 -7s45 -10 58 -15c14 -5 32 -12 55 -22v-197c-188 97 -381 33 -375 -126c0 -55 16 -97 49 -128s72 -46 119 -46c36 0 64 7 83 20v215h216v-315
c-27 -29 -68 -55 -123 -76s-113 -31 -176 -31zM431 -309h-154l61 231h177z" />
    <glyph glyph-name="uni0123" unicode="&#x123;" horiz-adv-x="634" 
d="M381 460v56h211v-432c0 -204 -175 -290 -316 -290c-91 0 -160 14 -206 42v181c56 -33 117 -50 183 -50c85 0 128 34 128 102v31c-34 -46 -82 -69 -143 -69c-65 0 -117 23 -158 70s-61 106 -61 179s20 132 61 179s93 70 158 70c60 0 108 -23 143 -69zM384 234v92
c-18 21 -45 31 -80 31c-48 0 -77 -33 -77 -77s29 -77 77 -77c35 0 62 10 80 31zM325 821h154l-61 -231h-177z" />
    <glyph glyph-name="Hcircumflex" unicode="&#x124;" horiz-adv-x="750" 
d="M268 0h-215v700h215v-237h214v237h215v-700h-215v276h-214v-276zM318 760h-171l132 157h196l128 -157h-174l-56 61z" />
    <glyph glyph-name="hcircumflex" unicode="&#x125;" horiz-adv-x="611" 
d="M38 0v700h210v-250c12 19 32 37 60 54c29 17 59 25 91 25c111 0 171 -75 171 -202v-327h-211v282c0 43 -23 63 -52 63c-23 0 -43 -9 -59 -28v-317h-210zM88 760h-171l132 157h196l128 -157h-174l-56 61z" />
    <glyph glyph-name="Hbar" unicode="&#x126;" horiz-adv-x="810" 
d="M298 0h-215v511h-53v108h53v81h215v-81h214v81h214v-81h54v-108h-54v-511h-214v276h-214v-276zM298 511v-56h214v56h-214z" />
    <glyph glyph-name="hbar" unicode="&#x127;" horiz-adv-x="682" 
d="M319 216v-216h-210v511h-101v108h101v81h210v-81h178v-108h-178v-162c12 19 32 37 60 54c29 17 59 25 91 25c111 0 171 -75 171 -202v-226h-211v181c0 43 -23 63 -52 63c-23 0 -43 -9 -59 -28z" />
    <glyph glyph-name="Itilde" unicode="&#x128;" horiz-adv-x="328" 
d="M60 756h-100c-1 47 12 86 38 119c25 33 58 50 99 50c22 0 45 -6 69 -17s44 -17 59 -17c24 0 39 10 45 30h101c0 -41 -13 -80 -39 -116c-25 -35 -58 -53 -97 -53c-25 0 -49 6 -73 18c-23 12 -42 18 -56 18c-24 0 -39 -11 -46 -32zM273 0h-215v700h215v-700z" />
    <glyph glyph-name="itilde" unicode="&#x129;" horiz-adv-x="318" 
d="M55 572h-101c-1 47 12 86 38 119c25 33 59 50 100 50c22 0 45 -6 69 -17s43 -17 58 -17c23 0 39 10 46 30h100c1 -41 -12 -80 -38 -116c-26 -35 -59 -53 -98 -53c-24 0 -48 6 -72 18s-43 18 -57 18c-25 0 -40 -11 -45 -32zM265 0h-211v516h211v-516z" />
    <glyph glyph-name="Imacron" unicode="&#x12a;" horiz-adv-x="328" 
d="M272 0h-215v700h215v-700zM345 768h-360v135h360v-135z" />
    <glyph glyph-name="imacron" unicode="&#x12b;" horiz-adv-x="318" 
d="M264 0h-211v516h211v-516zM339 584h-360v135h360v-135z" />
    <glyph glyph-name="Ibreve" unicode="&#x12c;" horiz-adv-x="328" 
d="M166 744c-107 0 -186 64 -190 179h128c5 -41 25 -61 62 -61c35 0 57 24 60 61h128c-5 -115 -83 -179 -188 -179zM272 0h-215v700h215v-700z" />
    <glyph glyph-name="ibreve" unicode="&#x12d;" horiz-adv-x="318" 
d="M-31 740h127c5 -41 26 -61 62 -61s58 24 61 61h128c-5 -115 -84 -179 -189 -179c-53 0 -97 15 -133 46c-35 31 -54 76 -56 133zM264 0h-211v516h211v-516z" />
    <glyph glyph-name="Iogonek" unicode="&#x12e;" horiz-adv-x="328" 
d="M146 0h-89v700h215v-700c-12 -11 -32 -41 -32 -58c0 -19 12 -28 37 -28c15 0 27 3 34 8v-122c-16 -6 -39 -9 -70 -9c-91 0 -145 45 -145 108c0 45 29 84 50 101z" />
    <glyph glyph-name="iogonek" unicode="&#x12f;" horiz-adv-x="318" 
d="M138 0h-85v516h211v-516c-12 -11 -32 -41 -32 -58c0 -19 12 -28 37 -28c15 0 27 3 34 8v-122c-16 -6 -39 -9 -70 -9c-91 0 -145 45 -145 108c0 45 29 84 50 101zM159 540c-33 0 -61 11 -84 34s-34 52 -34 85s11 60 34 83s51 35 84 35s60 -12 83 -35s35 -50 35 -83
c0 -67 -51 -119 -118 -119z" />
    <glyph glyph-name="Idot" unicode="&#x130;" horiz-adv-x="328" 
d="M164 741c-55 0 -99 44 -99 99s44 98 99 98c56 0 99 -43 99 -98s-43 -99 -99 -99zM272 0h-215v700h215v-700z" />
    <glyph glyph-name="dotlessi" unicode="&#x131;" horiz-adv-x="318" 
d="M264 0h-211v516h211v-516z" />
    <glyph glyph-name="IJ" unicode="&#x132;" horiz-adv-x="659" 
d="M272 288h-215v412h215v-412zM273 -14c-37 0 -77 4 -118 13s-73 21 -98 37v199c61 -36 122 -54 185 -54c99 0 149 45 149 134v385h215v-385c0 -219 -111 -329 -333 -329z" />
    <glyph glyph-name="Jcircumflex" unicode="&#x134;" horiz-adv-x="509" 
d="M194 -14c-81 0 -139 12 -176 36v203c42 -29 85 -44 128 -44c69 0 104 25 104 98v421h215v-452c0 -101 -32 -174 -87 -211c-53 -36 -112 -51 -184 -51zM298 760h-171l132 157h196l128 -157h-174l-56 61z" />
    <glyph glyph-name="jcircumflex" unicode="&#x135;" horiz-adv-x="318" 
d="M106 576h-174l132 156h199l128 -156h-177l-55 61zM45 -206c-61 0 -107 7 -136 22v174c27 -13 53 -19 79 -19c41 0 66 22 66 61v484h211v-497c0 -136 -80 -225 -220 -225z" />
    <glyph glyph-name="uni0136" unicode="&#x136;" horiz-adv-x="754" 
d="M268 0h-215v700h215v-261l197 261h253l-248 -325l298 -375h-264l-236 302v-302zM391 -309h-154l61 231h177z" />
    <glyph glyph-name="uni0137" unicode="&#x137;" horiz-adv-x="643" 
d="M248 0h-210v700h210v-366l133 182h241l-186 -232l218 -284h-257l-149 209v-209zM342 -309h-154l61 231h177z" />
    <glyph glyph-name="kgreenlandic" unicode="&#x138;" horiz-adv-x="655" 
d="M260 0h-210v516h210v-182l133 182h241l-186 -232l218 -284h-257l-149 209v-209z" />
    <glyph glyph-name="Lacute" unicode="&#x139;" horiz-adv-x="606" 
d="M586 0h-533v700h215v-515h318v-185zM250 759h-171l95 158h246z" />
    <glyph glyph-name="lacute" unicode="&#x13a;" horiz-adv-x="329" 
d="M194 -13c-103 0 -155 52 -155 157v556h210v-509c0 -20 14 -28 27 -28c10 0 18 2 25 5v-161c-27 -13 -62 -20 -107 -20zM229 759h-171l95 158h246z" />
    <glyph glyph-name="uni013B" unicode="&#x13b;" horiz-adv-x="606" 
d="M586 0h-533v700h215v-515h318v-185zM352 -309h-154l61 231h177z" />
    <glyph glyph-name="lcommaaccent" unicode="&#x13c;" horiz-adv-x="341" 
d="M205 -13c-103 0 -155 52 -155 157v556h210v-509c0 -20 14 -28 27 -28c10 0 18 2 25 5v-161c-27 -13 -62 -20 -107 -20zM210 -309h-154l61 231h177z" />
    <glyph glyph-name="Lcaron" unicode="&#x13d;" horiz-adv-x="616" 
d="M586 0h-533v700h215v-515h318v-185zM519 469h-154l61 231h177z" />
    <glyph glyph-name="lcaron" unicode="&#x13e;" horiz-adv-x="532" 
d="M206 -13c-103 0 -155 52 -155 157v556h210v-509c0 -20 14 -28 27 -28c10 0 18 2 25 5v-161c-27 -13 -62 -20 -107 -20zM468 469h-154l61 231h177z" />
    <glyph glyph-name="Ldot" unicode="&#x13f;" horiz-adv-x="606" 
d="M464 515c33 0 62 -12 86 -36c24 -23 36 -52 36 -86s-12 -63 -36 -87s-53 -36 -86 -36s-62 12 -87 36c-24 24 -36 53 -36 87s12 63 36 86c24 24 53 36 87 36zM586 0h-533v700h215v-515h318v-185z" />
    <glyph glyph-name="ldot" unicode="&#x140;" horiz-adv-x="549" 
d="M192 -13c-103 0 -155 52 -155 157v556h210v-509c0 -20 14 -28 27 -28c10 0 18 2 25 5v-161c-27 -13 -62 -20 -107 -20zM410 515c33 0 62 -12 86 -36c24 -23 36 -52 36 -86s-12 -63 -36 -87s-53 -36 -86 -36s-62 12 -87 36c-24 24 -36 53 -36 87s12 63 36 86
c24 24 53 36 87 36z" />
    <glyph glyph-name="Lslash" unicode="&#x141;" horiz-adv-x="654" 
d="M634 0h-532v232l-99 -66v178l99 66v290h214v-149l138 94v-179l-138 -93v-188h318v-185z" />
    <glyph glyph-name="lslash" unicode="&#x142;" horiz-adv-x="414" 
d="M105 202l-102 -68v179l102 68v319h210v-180l106 71v-179l-106 -71v-150c0 -20 14 -28 27 -28c10 0 18 2 25 5v-161c-27 -13 -62 -20 -107 -20c-103 0 -155 52 -155 157v58z" />
    <glyph glyph-name="Nacute" unicode="&#x143;" horiz-adv-x="761" 
d="M259 0h-206v700h183l268 -338v338h204v-700h-177l-272 340v-340zM458 759h-171l95 158h246z" />
    <glyph glyph-name="nacute" unicode="&#x144;" horiz-adv-x="623" 
d="M50 0v516h210v-66c12 19 32 37 60 54c29 17 59 25 91 25c111 0 171 -75 171 -202v-327h-211v282c0 43 -23 63 -52 63c-23 0 -43 -9 -59 -28v-317h-210zM370 576h-171l95 158h245z" />
    <glyph glyph-name="uni0145" unicode="&#x145;" horiz-adv-x="761" 
d="M259 0h-206v700h183l268 -338v338h204v-700h-177l-272 340v-340zM413 -309h-154l61 231h177z" />
    <glyph glyph-name="uni0146" unicode="&#x146;" horiz-adv-x="623" 
d="M260 317v-317h-210v516h210v-66c12 19 32 37 60 54c29 17 59 25 91 25c111 0 171 -75 171 -202v-327h-211v282c0 43 -23 63 -52 63c-23 0 -43 -9 -59 -28zM320 -309h-154l61 231h177z" />
    <glyph glyph-name="Ncaron" unicode="&#x147;" horiz-adv-x="761" 
d="M259 0h-206v700h183l268 -338v338h204v-700h-177l-272 340v-340zM438 917h170l-131 -157h-196l-129 157h175l56 -61z" />
    <glyph glyph-name="ncaron" unicode="&#x148;" horiz-adv-x="623" 
d="M50 0v516h210v-66c12 19 32 37 60 54c29 17 59 25 91 25c111 0 171 -75 171 -202v-327h-211v282c0 43 -23 63 -52 63c-23 0 -43 -9 -59 -28v-317h-210zM374 733h171l-132 -157h-196l-129 157h175l56 -62z" />
    <glyph glyph-name="napostrophe" unicode="&#x149;" horiz-adv-x="830" 
d="M257 0v516h210v-66c12 19 32 37 60 54c29 17 59 25 91 25c111 0 171 -75 171 -202v-327h-211v282c0 43 -23 63 -52 63c-23 0 -43 -9 -59 -28v-317h-210zM175 469h-154l61 231h177z" />
    <glyph glyph-name="Eng" unicode="&#x14a;" horiz-adv-x="761" 
d="M482 -206c-55 0 -96 7 -123 20v171c20 -10 42 -15 67 -15c47 0 71 21 71 63v9l-238 298v-340h-206v700h183l268 -338v338h204v-700c0 -123 -81 -206 -226 -206z" />
    <glyph glyph-name="eng" unicode="&#x14b;" horiz-adv-x="623" 
d="M260 317v-317h-210v516h210v-66c12 19 32 37 60 54c29 17 59 25 91 25c111 0 171 -75 171 -202v-308c0 -137 -81 -225 -232 -225c-56 0 -97 7 -124 20v159c20 -10 43 -15 70 -15c47 0 75 22 75 63v261c0 43 -23 63 -52 63c-23 0 -43 -9 -59 -28z" />
    <glyph glyph-name="Omacron" unicode="&#x14c;" horiz-adv-x="816" 
d="M297 229c29 -31 66 -47 111 -47s82 16 111 47c29 32 44 72 44 121s-15 89 -44 120c-29 32 -66 48 -111 48s-82 -16 -111 -48c-29 -31 -44 -71 -44 -120s15 -89 44 -121zM33 350c0 101 35 186 106 257s161 107 269 107s197 -36 268 -107s106 -156 106 -257
s-35 -187 -106 -258s-160 -106 -268 -106s-198 36 -269 107s-106 157 -106 257zM586 768h-360v135h360v-135z" />
    <glyph glyph-name="omacron" unicode="&#x14d;" horiz-adv-x="626" 
d="M249 191c33 -35 95 -35 128 0c17 18 25 40 25 67s-8 49 -25 66c-33 36 -95 36 -128 0c-17 -17 -25 -39 -25 -66s8 -49 25 -67zM313 -13c-85 0 -155 26 -211 77c-55 51 -83 116 -83 194s28 143 83 194c56 51 126 77 211 77s156 -26 211 -77c56 -51 84 -116 84 -194
s-28 -143 -84 -194c-55 -51 -126 -77 -211 -77zM493 584h-360v135h360v-135z" />
    <glyph glyph-name="Obreve" unicode="&#x14e;" horiz-adv-x="816" 
d="M297 229c29 -31 66 -47 111 -47s82 16 111 47c29 32 44 72 44 121s-15 89 -44 120c-29 32 -66 48 -111 48s-82 -16 -111 -48c-29 -31 -44 -71 -44 -120s15 -89 44 -121zM33 350c0 101 35 186 106 257s161 107 269 107s197 -36 268 -107s106 -156 106 -257
s-35 -187 -106 -258s-160 -106 -268 -106s-198 36 -269 107s-106 157 -106 257zM409 762c-107 0 -186 64 -190 179h128c5 -41 25 -61 62 -61c35 0 57 24 60 61h128c-5 -115 -83 -179 -188 -179z" />
    <glyph glyph-name="obreve" unicode="&#x14f;" horiz-adv-x="626" 
d="M249 191c33 -35 95 -35 128 0c17 18 25 40 25 67s-8 49 -25 66c-33 36 -95 36 -128 0c-17 -17 -25 -39 -25 -66s8 -49 25 -67zM313 -13c-85 0 -155 26 -211 77c-55 51 -83 116 -83 194s28 143 83 194c56 51 126 77 211 77s156 -26 211 -77c56 -51 84 -116 84 -194
s-28 -143 -84 -194c-55 -51 -126 -77 -211 -77zM125 751h127c5 -41 26 -61 62 -61s58 24 61 61h128c-5 -115 -84 -179 -189 -179c-53 0 -97 15 -133 46c-35 31 -54 76 -56 133z" />
    <glyph glyph-name="Ohungarumlaut" unicode="&#x150;" horiz-adv-x="816" 
d="M297 229c29 -31 66 -47 111 -47s82 16 111 47c29 32 44 72 44 121s-15 89 -44 120c-29 32 -66 48 -111 48s-82 -16 -111 -48c-29 -31 -44 -71 -44 -120s15 -89 44 -121zM33 350c0 101 35 186 106 257s161 107 269 107s197 -36 268 -107s106 -156 106 -257
s-35 -187 -106 -258s-160 -106 -268 -106s-198 36 -269 107s-106 157 -106 257zM343 759h-142l95 158h199zM578 759h-142l95 158h199z" />
    <glyph glyph-name="ohungarumlaut" unicode="&#x151;" horiz-adv-x="626" 
d="M249 191c33 -35 95 -35 128 0c17 18 25 40 25 67s-8 49 -25 66c-33 36 -95 36 -128 0c-17 -17 -25 -39 -25 -66s8 -49 25 -67zM313 -13c-85 0 -155 26 -211 77c-55 51 -83 116 -83 194s28 143 83 194c56 51 126 77 211 77s156 -26 211 -77c56 -51 84 -116 84 -194
s-28 -143 -84 -194c-55 -51 -126 -77 -211 -77zM254 576h-142l95 158h199zM489 576h-142l95 158h199z" />
    <glyph glyph-name="OE" unicode="&#x152;" horiz-adv-x="1036" 
d="M1008 0h-585c-115 0 -208 33 -281 98s-109 149 -109 252s36 187 109 252s166 98 281 98h579v-185h-334v-62h262v-170h-262v-98h340v-185zM437 185h16v330h-16c-116 0 -183 -60 -183 -165s67 -165 183 -165z" />
    <glyph glyph-name="oe" unicode="&#x153;" horiz-adv-x="932" 
d="M909 261v-48h-328c17 -41 74 -61 135 -61s117 13 166 39v-154c-46 -33 -114 -50 -205 -50c-75 0 -149 29 -188 69c-47 -46 -107 -69 -180 -69c-81 0 -150 26 -206 77c-56 52 -84 117 -84 194s28 141 84 193c57 52 125 78 205 78c70 0 131 -22 183 -66
c45 44 103 66 172 66c67 0 125 -24 173 -73c49 -49 73 -114 73 -195zM249 191c33 -35 95 -35 128 0c17 18 25 40 25 67s-8 49 -25 66c-33 36 -95 36 -128 0c-17 -17 -25 -39 -25 -66s8 -49 25 -67zM577 313h137c-1 47 -30 75 -66 75c-39 0 -64 -27 -71 -75z" />
    <glyph glyph-name="Racute" unicode="&#x154;" horiz-adv-x="725" 
d="M526 274l209 -274h-251l-186 250h-30v-250h-215v700h338c79 0 143 -21 191 -64c48 -42 72 -96 72 -161c0 -88 -48 -161 -128 -201zM268 407h98c40 0 67 22 67 57s-27 56 -67 56h-98v-113zM356 759h-171l95 158h246z" />
    <glyph glyph-name="racute" unicode="&#x155;" horiz-adv-x="473" 
d="M260 0h-210v516h210v-82c10 21 30 42 61 63s64 32 100 32c11 0 21 -1 28 -3v-198c-21 5 -42 8 -63 8c-56 0 -98 -15 -126 -45v-291zM299 576h-171l95 158h245z" />
    <glyph glyph-name="uni0156" unicode="&#x156;" horiz-adv-x="725" 
d="M526 274l209 -274h-251l-186 250h-30v-250h-215v700h338c79 0 143 -21 191 -64c48 -42 72 -96 72 -161c0 -88 -48 -161 -128 -201zM268 407h98c40 0 67 22 67 57s-27 56 -67 56h-98v-113zM390 -309h-154l61 231h177z" />
    <glyph glyph-name="uni0157" unicode="&#x157;" horiz-adv-x="473" 
d="M260 0h-210v516h210v-82c10 21 30 42 61 63s64 32 100 32c11 0 21 -1 28 -3v-198c-21 5 -42 8 -63 8c-56 0 -98 -15 -126 -45v-291zM155 -309h-154l61 231h177z" />
    <glyph glyph-name="Rcaron" unicode="&#x158;" horiz-adv-x="725" 
d="M526 274l209 -274h-251l-186 250h-30v-250h-215v700h338c79 0 143 -21 191 -64c48 -42 72 -96 72 -161c0 -88 -48 -161 -128 -201zM268 407h98c40 0 67 22 67 57s-27 56 -67 56h-98v-113zM388 917h170l-131 -157h-196l-129 157h175l56 -61z" />
    <glyph glyph-name="rcaron" unicode="&#x159;" horiz-adv-x="473" 
d="M260 0h-210v516h210v-82c10 21 30 42 61 63s64 32 100 32c11 0 21 -1 28 -3v-198c-21 5 -42 8 -63 8c-56 0 -98 -15 -126 -45v-291zM295 733h171l-132 -157h-196l-129 157h175l56 -62z" />
    <glyph glyph-name="Sacute" unicode="&#x15a;" horiz-adv-x="662" 
d="M327 -14c-115 0 -212 25 -291 75v210c32 -27 77 -50 136 -69s112 -29 159 -29c54 0 81 11 81 33c0 10 -10 19 -30 28s-59 22 -116 39c-145 43 -230 105 -230 224c0 143 117 217 301 217c90 0 174 -19 253 -56v-200c-34 20 -77 37 -129 50c-52 14 -99 21 -140 21
s-62 -9 -62 -26c0 -9 10 -18 29 -27c20 -8 64 -22 131 -42c145 -44 216 -111 216 -218c0 -70 -28 -126 -85 -168c-56 -41 -130 -62 -223 -62zM373 759h-171l95 158h246z" />
    <glyph glyph-name="sacute" unicode="&#x15b;" horiz-adv-x="522" 
d="M246 -13c-92 0 -164 15 -215 45v159c24 -14 56 -27 97 -38s82 -16 121 -16c29 0 43 6 43 19c0 6 -4 11 -12 15c-7 4 -23 9 -47 16l-54 16c-56 19 -95 40 -118 61c-23 22 -34 54 -34 97c0 107 96 168 252 168c77 0 144 -17 203 -50v-155c-25 15 -56 28 -95 39
s-74 17 -106 17c-23 0 -35 -6 -35 -18c0 -7 6 -12 21 -19c7 -3 14 -5 21 -7l62 -17c112 -35 154 -74 154 -161c0 -101 -90 -171 -258 -171zM305 576h-171l95 158h245z" />
    <glyph glyph-name="Scircumflex" unicode="&#x15c;" horiz-adv-x="662" 
d="M327 -14c-115 0 -212 25 -291 75v210c32 -27 77 -50 136 -69s112 -29 159 -29c54 0 81 11 81 33c0 10 -10 19 -30 28s-59 22 -116 39c-145 43 -230 105 -230 224c0 143 117 217 301 217c90 0 174 -19 253 -56v-200c-34 20 -77 37 -129 50c-52 14 -99 21 -140 21
s-62 -9 -62 -26c0 -9 10 -18 29 -27c20 -8 64 -22 131 -42c145 -44 216 -111 216 -218c0 -70 -28 -126 -85 -168c-56 -41 -130 -62 -223 -62zM265 760h-171l132 157h196l128 -157h-174l-56 61z" />
    <glyph glyph-name="scircumflex" unicode="&#x15d;" horiz-adv-x="522" 
d="M246 -13c-92 0 -164 15 -215 45v159c24 -14 56 -27 97 -38s82 -16 121 -16c29 0 43 6 43 19c0 6 -4 11 -12 15c-7 4 -23 9 -47 16l-54 16c-56 19 -95 40 -118 61c-23 22 -34 54 -34 97c0 107 96 168 252 168c77 0 144 -17 203 -50v-155c-25 15 -56 28 -95 39
s-74 17 -106 17c-23 0 -35 -6 -35 -18c0 -7 6 -12 21 -19c7 -3 14 -5 21 -7l62 -17c112 -35 154 -74 154 -161c0 -101 -90 -171 -258 -171zM208 577h-171l132 157h196l128 -157h-174l-56 61z" />
    <glyph glyph-name="Scedilla" unicode="&#x15e;" horiz-adv-x="665" 
d="M416 -6l-53 -153h-242l118 150c-78 10 -146 33 -203 70v210c32 -27 77 -50 136 -69s112 -29 159 -29c54 0 81 11 81 33c0 10 -10 19 -30 28s-59 22 -116 39c-145 43 -230 105 -230 224c0 143 117 217 301 217c90 0 174 -19 253 -56v-200c-34 20 -77 37 -129 50
c-52 14 -99 21 -140 21s-62 -9 -62 -26c0 -9 10 -18 29 -27c20 -8 64 -22 131 -42c145 -44 216 -111 216 -218c0 -116 -83 -198 -219 -222z" />
    <glyph glyph-name="scedilla" unicode="&#x15f;" horiz-adv-x="522" 
d="M289 -159h-242l119 151c-58 8 -103 21 -135 40v159c24 -14 56 -27 97 -38s82 -16 121 -16c29 0 43 6 43 19c0 6 -4 11 -12 15c-7 4 -23 9 -47 16l-54 16c-56 19 -95 40 -118 61c-23 22 -34 54 -34 97c0 107 96 168 252 168c77 0 144 -17 203 -50v-155
c-25 15 -56 28 -95 39s-74 17 -106 17c-23 0 -35 -6 -35 -18c0 -7 6 -12 21 -19c7 -3 14 -5 21 -7l62 -17c112 -35 154 -74 154 -161c0 -80 -56 -141 -161 -162z" />
    <glyph glyph-name="Scaron" unicode="&#x160;" horiz-adv-x="662" 
d="M327 -14c-115 0 -212 25 -291 75v210c32 -27 77 -50 136 -69s112 -29 159 -29c54 0 81 11 81 33c0 10 -10 19 -30 28s-59 22 -116 39c-145 43 -230 105 -230 224c0 143 117 217 301 217c90 0 174 -19 253 -56v-200c-34 20 -77 37 -129 50c-52 14 -99 21 -140 21
s-62 -9 -62 -26c0 -9 10 -18 29 -27c20 -8 64 -22 131 -42c145 -44 216 -111 216 -218c0 -70 -28 -126 -85 -168c-56 -41 -130 -62 -223 -62zM391 917h170l-131 -157h-196l-129 157h175l56 -61z" />
    <glyph glyph-name="scaron" unicode="&#x161;" horiz-adv-x="522" 
d="M246 -13c-92 0 -164 15 -215 45v159c24 -14 56 -27 97 -38s82 -16 121 -16c29 0 43 6 43 19c0 6 -4 11 -12 15c-7 4 -23 9 -47 16l-54 16c-56 19 -95 40 -118 61c-23 22 -34 54 -34 97c0 107 96 168 252 168c77 0 144 -17 203 -50v-155c-25 15 -56 28 -95 39
s-74 17 -106 17c-23 0 -35 -6 -35 -18c0 -7 6 -12 21 -19c7 -3 14 -5 21 -7l62 -17c112 -35 154 -74 154 -161c0 -101 -90 -171 -258 -171zM318 733h171l-132 -157h-196l-129 157h175l56 -62z" />
    <glyph glyph-name="uni0162" unicode="&#x162;" horiz-adv-x="659" 
d="M358 -159h-242l126 159h-21v515h-199v185h615v-185h-201v-515h-23z" />
    <glyph glyph-name="uni0163" unicode="&#x163;" horiz-adv-x="448" 
d="M89 154v198h-81v164h81v124h210v-124h117v-164h-117v-133c0 -37 14 -53 53 -53c23 0 45 6 66 17v-164c-17 -11 -40 -19 -68 -25l-53 -153h-242l129 163c-63 28 -95 78 -95 150z" />
    <glyph glyph-name="Tcaron" unicode="&#x164;" horiz-adv-x="659" 
d="M22 515v185h615v-185h-201v-515h-215v515h-199zM386 917h170l-131 -157h-196l-129 157h175l56 -61z" />
    <glyph glyph-name="tcaron" unicode="&#x165;" horiz-adv-x="683" 
d="M92 352h-81v164h81v124h210v-124h117v-164h-117v-133c0 -37 14 -53 53 -53c23 0 45 6 66 17v-164c-35 -21 -81 -32 -139 -32c-111 0 -190 60 -190 167v198zM619 469h-154l61 231h177z" />
    <glyph glyph-name="Tbar" unicode="&#x166;" horiz-adv-x="659" 
d="M436 0h-214v263h-100v146h100v106h-200v185h615v-185h-201v-106h97v-146h-97v-263z" />
    <glyph glyph-name="tbar" unicode="&#x167;" horiz-adv-x="448" 
d="M89 217h-81v109h81v44h-81v146h81v124h210v-124h117v-146h-117v-44h117v-109h-117c0 -36 13 -51 53 -51c23 0 45 6 66 17v-164c-35 -21 -81 -32 -139 -32c-111 0 -190 60 -190 167v63z" />
    <glyph glyph-name="Utilde" unicode="&#x168;" horiz-adv-x="729" 
d="M45 290v410h215v-411c0 -75 46 -108 105 -108s104 33 104 108v411h215v-410c0 -97 -30 -172 -91 -225c-60 -53 -136 -79 -228 -79s-168 26 -229 79s-91 128 -91 225zM259 756h-100c-1 47 12 86 37 119c26 33 59 50 100 50c22 0 45 -6 69 -17s44 -17 59 -17
c24 0 39 10 45 30h101c0 -41 -13 -80 -39 -116c-25 -35 -58 -53 -97 -53c-25 0 -49 6 -73 18c-23 12 -42 18 -56 18c-24 0 -39 -11 -46 -32z" />
    <glyph glyph-name="utilde" unicode="&#x169;" horiz-adv-x="623" 
d="M363 199v317h210v-516h-210v66c-12 -19 -32 -37 -61 -54c-28 -17 -58 -25 -90 -25c-111 0 -171 75 -171 202v327h211v-282c0 -43 23 -63 52 -63c23 0 43 9 59 28zM202 572h-101c-1 47 12 86 37 119c26 33 60 50 101 50c22 0 45 -6 69 -17s43 -17 58 -17c23 0 39 10 46 30
h100c1 -41 -12 -80 -38 -116c-26 -35 -59 -53 -98 -53c-24 0 -48 6 -72 18s-43 18 -57 18c-25 0 -40 -11 -45 -32z" />
    <glyph glyph-name="Umacron" unicode="&#x16a;" horiz-adv-x="729" 
d="M45 290v410h215v-411c0 -75 46 -108 105 -108s104 33 104 108v411h215v-410c0 -97 -30 -172 -91 -225c-60 -53 -136 -79 -228 -79s-168 26 -229 79s-91 128 -91 225zM544 768h-360v135h360v-135z" />
    <glyph glyph-name="umacron" unicode="&#x16b;" horiz-adv-x="623" 
d="M363 199v317h210v-516h-210v66c-12 -19 -32 -37 -61 -54c-28 -17 -58 -25 -90 -25c-111 0 -171 75 -171 202v327h211v-282c0 -43 23 -63 52 -63c23 0 43 9 59 28zM486 584h-360v135h360v-135z" />
    <glyph glyph-name="Ubreve" unicode="&#x16c;" horiz-adv-x="729" 
d="M45 290v410h215v-411c0 -75 46 -108 105 -108s104 33 104 108v411h215v-410c0 -97 -30 -172 -91 -225c-60 -53 -136 -79 -228 -79s-168 26 -229 79s-91 128 -91 225zM365 744c-107 0 -186 64 -190 179h128c5 -41 25 -61 62 -61c35 0 57 24 60 61h128
c-5 -115 -83 -179 -188 -179z" />
    <glyph glyph-name="ubreve" unicode="&#x16d;" horiz-adv-x="623" 
d="M363 199v317h210v-516h-210v66c-12 -19 -32 -37 -61 -54c-28 -17 -58 -25 -90 -25c-111 0 -171 75 -171 202v327h211v-282c0 -43 23 -63 52 -63c23 0 43 9 59 28zM118 740h127c5 -41 26 -61 62 -61s58 24 61 61h128c-5 -115 -84 -179 -189 -179c-53 0 -97 15 -133 46
c-35 31 -54 76 -56 133z" />
    <glyph glyph-name="Uring" unicode="&#x16e;" horiz-adv-x="729" 
d="M255 839c0 30 11 56 32 77c22 22 48 33 78 33c60 0 108 -50 108 -110c0 -29 -11 -55 -32 -76s-46 -32 -76 -32s-56 11 -78 32c-21 21 -32 47 -32 76zM365 798c21 0 40 18 40 41s-19 42 -40 42c-23 0 -42 -19 -42 -42c0 -21 19 -41 42 -41zM45 290v410h215v-411
c0 -75 46 -108 105 -108s104 33 104 108v411h215v-410c0 -97 -30 -172 -91 -225c-60 -53 -136 -79 -228 -79s-168 26 -229 79s-91 128 -91 225z" />
    <glyph glyph-name="uring" unicode="&#x16f;" horiz-adv-x="623" 
d="M363 199v317h210v-516h-210v66c-12 -19 -32 -37 -61 -54c-28 -17 -58 -25 -90 -25c-111 0 -171 75 -171 202v327h211v-282c0 -43 23 -63 52 -63c23 0 43 9 59 28zM198 666c0 60 50 109 110 109s108 -49 108 -109s-48 -109 -108 -109c-30 0 -56 11 -78 32
c-21 22 -32 48 -32 77zM308 625c21 0 41 20 41 41c0 23 -18 42 -41 42s-42 -19 -42 -42c0 -21 19 -41 42 -41z" />
    <glyph glyph-name="Uhungarumlaut" unicode="&#x170;" horiz-adv-x="729" 
d="M45 290v410h215v-411c0 -75 46 -108 105 -108s104 33 104 108v411h215v-410c0 -97 -30 -172 -91 -225c-60 -53 -136 -79 -228 -79s-168 26 -229 79s-91 128 -91 225zM290 759h-142l95 158h199zM525 759h-142l95 158h199z" />
    <glyph glyph-name="uhungarumlaut" unicode="&#x171;" horiz-adv-x="610" 
d="M363 199v317h210v-516h-210v66c-12 -19 -32 -37 -61 -54c-28 -17 -58 -25 -90 -25c-111 0 -171 75 -171 202v327h211v-282c0 -43 23 -63 52 -63c23 0 43 9 59 28zM247 576h-142l95 158h199zM482 576h-142l95 158h199z" />
    <glyph glyph-name="Uogonek" unicode="&#x172;" horiz-adv-x="729" 
d="M440 -59c0 -19 12 -28 36 -28c15 0 27 3 34 8v-122c-14 -6 -37 -9 -69 -9c-138 -5 -185 114 -108 197c-85 6 -154 35 -208 87c-53 53 -80 125 -80 216v410h214v-411c0 -75 47 -108 106 -108s105 33 105 108v411h214v-410c0 -135 -64 -229 -168 -274l-14 -7
c-15 -7 -17 -8 -29 -15c-20 -13 -33 -28 -33 -53z" />
    <glyph glyph-name="uogonek" unicode="&#x173;" horiz-adv-x="622" 
d="M542 -209c-91 0 -145 45 -145 108c0 45 29 84 50 101h-84v66c-12 -19 -32 -37 -61 -54c-28 -17 -58 -25 -90 -25c-111 0 -171 75 -171 202v327h211v-282c0 -43 23 -63 52 -63c23 0 43 9 59 28v317h210v-516c-12 -11 -32 -41 -32 -58c0 -19 12 -28 37 -28c15 0 27 3 34 8
v-122c-16 -6 -39 -9 -70 -9z" />
    <glyph glyph-name="Wcircumflex" unicode="&#x174;" horiz-adv-x="1078" 
d="M415 -4h-187l-228 704h234l97 -373l132 375h162l132 -375l95 373h229l-230 -704h-183l-125 368zM483 760h-171l132 157h196l128 -157h-174l-56 61z" />
    <glyph glyph-name="wcircumflex" unicode="&#x175;" horiz-adv-x="831" 
d="M337 -4h-176l-163 520h203l68 -242l67 244h160l69 -243l65 241h203l-167 -520h-178l-77 241zM358 577h-171l132 157h196l128 -157h-174l-56 61z" />
    <glyph glyph-name="Ycircumflex" unicode="&#x176;" horiz-adv-x="706" 
d="M460 0h-215v306l-255 394h243l122 -197l124 197h237l-256 -389v-311zM296 760h-171l132 157h196l128 -157h-174l-56 61z" />
    <glyph glyph-name="ycircumflex" unicode="&#x177;" horiz-adv-x="611" 
d="M170 -206c-54 0 -95 8 -124 24v181c25 -18 54 -27 87 -27c43 0 65 10 78 45l-211 499h221l91 -292l82 292h217l-218 -566c-40 -104 -114 -156 -223 -156zM246 577h-171l132 157h196l128 -157h-174l-56 61z" />
    <glyph glyph-name="Ydieresis" unicode="&#x178;" horiz-adv-x="706" 
d="M370 840c0 53 44 98 99 98c27 0 51 -10 70 -29c20 -19 30 -42 30 -69c0 -55 -45 -99 -100 -99s-99 44 -99 99zM236 741c-55 0 -99 44 -99 99c0 53 44 98 99 98c56 0 99 -43 99 -98s-43 -99 -99 -99zM460 0h-215v306l-255 394h243l122 -197l124 197h237l-256 -389v-311z
" />
    <glyph glyph-name="Zacute" unicode="&#x179;" horiz-adv-x="647" 
d="M627 0h-607v152l306 363h-297v185h582v-151l-305 -364h321v-185zM368 759h-171l95 158h246z" />
    <glyph glyph-name="zacute" unicode="&#x17a;" horiz-adv-x="548" 
d="M521 0h-494v139l204 211h-194v166h468v-144l-210 -206h226v-166zM309 576h-171l95 158h245z" />
    <glyph glyph-name="Zdotaccent" unicode="&#x17b;" horiz-adv-x="647" 
d="M627 0h-607v152l306 363h-297v185h582v-151l-305 -364h321v-185zM324 741c-55 0 -99 44 -99 99s44 98 99 98c56 0 99 -43 99 -98s-43 -99 -99 -99z" />
    <glyph glyph-name="zdotaccent" unicode="&#x17c;" horiz-adv-x="548" 
d="M521 0h-494v139l204 211h-194v166h468v-144l-210 -206h226v-166zM276 556c-55 0 -100 44 -100 99s45 98 100 98c56 0 99 -43 99 -98s-43 -99 -99 -99z" />
    <glyph glyph-name="Zcaron" unicode="&#x17d;" horiz-adv-x="647" 
d="M627 0h-607v152l306 363h-297v185h582v-151l-305 -364h321v-185zM381 917h170l-131 -157h-196l-129 157h175l56 -61z" />
    <glyph glyph-name="zcaron" unicode="&#x17e;" horiz-adv-x="548" 
d="M521 0h-494v139l204 211h-194v166h468v-144l-210 -206h226v-166zM332 733h171l-132 -157h-196l-129 157h175l56 -62z" />
    <glyph glyph-name="longs" unicode="&#x17f;" horiz-adv-x="441" 
d="M300 508v-508h-211v350h-81v166h81v9c0 112 66 191 202 191c56 0 106 -8 150 -23v-158c-25 9 -54 14 -87 14c-36 0 -54 -14 -54 -41z" />
    <glyph glyph-name="florin" unicode="&#x192;" horiz-adv-x="514" 
d="M459 452v-166h-135l-43 -262c-11 -65 -37 -119 -79 -163c-41 -45 -101 -67 -180 -67c-48 0 -85 5 -110 16v164c19 -5 37 -8 56 -8c57 0 93 37 102 96l37 224h-80v166h107l7 39c11 65 37 120 78 164c42 45 102 67 181 67c48 0 85 -5 110 -16v-164c-19 5 -37 8 -56 8
c-57 0 -92 -33 -103 -98h108z" />
    <glyph glyph-name="uni0218" unicode="&#x218;" horiz-adv-x="662" 
d="M327 -14c-115 0 -212 25 -291 75v210c32 -27 77 -50 136 -69s112 -29 159 -29c54 0 81 11 81 33c0 10 -10 19 -30 28s-59 22 -116 39c-145 43 -230 105 -230 224c0 143 117 217 301 217c90 0 174 -19 253 -56v-200c-34 20 -77 37 -129 50c-52 14 -99 21 -140 21
s-62 -9 -62 -26c0 -9 10 -18 29 -27c20 -8 64 -22 131 -42c145 -44 216 -111 216 -218c0 -70 -28 -126 -85 -168c-56 -41 -130 -62 -223 -62zM328 -309h-154l61 231h177z" />
    <glyph glyph-name="uni0219" unicode="&#x219;" horiz-adv-x="522" 
d="M246 -13c-92 0 -164 15 -215 45v159c24 -14 56 -27 97 -38s82 -16 121 -16c29 0 43 6 43 19c0 6 -4 11 -12 15c-7 4 -23 9 -47 16l-54 16c-56 19 -95 40 -118 61c-23 22 -34 54 -34 97c0 107 96 168 252 168c77 0 144 -17 203 -50v-155c-25 15 -56 28 -95 39
s-74 17 -106 17c-23 0 -35 -6 -35 -18c0 -7 6 -12 21 -19c7 -3 14 -5 21 -7l62 -17c112 -35 154 -74 154 -161c0 -101 -90 -171 -258 -171zM288 -309h-154l61 231h177z" />
    <glyph glyph-name="uni021A" unicode="&#x21a;" horiz-adv-x="659" 
d="M22 515v185h615v-185h-201v-515h-215v515h-199zM329 -309h-154l61 231h177z" />
    <glyph glyph-name="uni021B" unicode="&#x21b;" horiz-adv-x="448" 
d="M89 154v198h-81v164h81v124h210v-124h117v-164h-117v-133c0 -37 14 -53 53 -53c23 0 45 6 66 17v-164c-35 -21 -81 -32 -139 -32c-111 0 -190 60 -190 167zM268 -309h-154l61 231h177z" />
    <glyph glyph-name="circumflex" unicode="&#x2c6;" horiz-adv-x="544" 
d="M217 577h-171l132 157h196l128 -157h-174l-56 61z" />
    <glyph glyph-name="caron" unicode="&#x2c7;" horiz-adv-x="502" 
d="M270 733h171l-132 -157h-196l-129 157h175l56 -62z" />
    <glyph glyph-name="uni02C9" unicode="&#x2c9;" horiz-adv-x="485" 
d="M410 583h-335v137h335v-137z" />
    <glyph glyph-name="breve" unicode="&#x2d8;" horiz-adv-x="449" 
d="M36 740h127c5 -41 26 -61 62 -61s58 24 61 61h128c-5 -115 -84 -179 -189 -179c-53 0 -97 15 -133 46c-35 31 -54 76 -56 133z" />
    <glyph glyph-name="dotaccent" unicode="&#x2d9;" horiz-adv-x="590" 
d="M295 556c-55 0 -100 44 -100 99s45 98 100 98c56 0 99 -43 99 -98s-43 -99 -99 -99z" />
    <glyph glyph-name="ring" unicode="&#x2da;" horiz-adv-x="567" 
d="M151 666c0 60 50 109 110 109s108 -49 108 -109s-48 -109 -108 -109c-30 0 -56 11 -78 32c-21 22 -32 48 -32 77zM302 666c0 23 -18 42 -41 42s-42 -19 -42 -42c0 -21 19 -41 42 -41s41 20 41 41z" />
    <glyph glyph-name="ogonek" unicode="&#x2db;" horiz-adv-x="474" 
d="M294 -211c-91 0 -145 45 -145 108c0 45 29 84 50 101h126c-12 -11 -32 -41 -32 -58c0 -19 12 -28 37 -28c15 0 27 3 34 8v-122c-16 -6 -39 -9 -70 -9z" />
    <glyph glyph-name="tilde" unicode="&#x2dc;" horiz-adv-x="495" 
d="M141 572h-101c-1 47 12 86 37 119c26 33 60 50 101 50c22 0 45 -6 69 -17s43 -17 58 -17c23 0 39 10 46 30h100c1 -41 -12 -80 -38 -116c-26 -35 -59 -53 -98 -53c-24 0 -48 6 -72 18s-43 18 -57 18c-25 0 -40 -11 -45 -32z" />
    <glyph glyph-name="hungarumlaut" unicode="&#x2dd;" horiz-adv-x="573" 
d="M162 576h-142l95 158h199zM397 576h-142l95 158h199z" />
    <glyph glyph-name="acutecomb" unicode="&#x301;" horiz-adv-x="0" 
d="M-227 576h-171l95 158h245z" />
    <glyph glyph-name="uni037E" unicode="&#x37e;" horiz-adv-x="312" 
d="M154 -152h-174l94 351h217zM161 529c33 0 62 -12 86 -36c24 -23 36 -52 36 -86s-12 -63 -36 -87s-53 -36 -86 -36s-62 12 -87 36c-24 24 -36 53 -36 87s12 63 36 86c24 24 53 36 87 36z" />
    <glyph glyph-name="uni0394" unicode="&#x394;" horiz-adv-x="783" 
d="M783 0h-782l288 700h205zM390 446l-96 -266h191z" />
    <glyph glyph-name="uni03A9" unicode="&#x3a9;" horiz-adv-x="776" 
d="M645 185h93v-185h-324v156c57 33 104 112 104 205c0 46 -11 85 -34 118s-55 49 -96 49s-73 -16 -96 -49s-34 -72 -34 -118c0 -93 47 -172 104 -205v-156h-324v185h93c-49 35 -92 117 -92 213c0 80 31 156 87 216c56 61 150 100 262 100s206 -39 262 -100
c56 -60 87 -136 87 -216c0 -96 -43 -178 -92 -213z" />
    <glyph glyph-name="uni03BC" unicode="&#x3bc;" horiz-adv-x="632" 
d="M372 199v317h210v-516h-210v66c-19 -31 -62 -63 -111 -74v-192h-211v716h211v-282c0 -43 23 -63 52 -63c23 0 43 9 59 28z" />
    <glyph glyph-name="pi" unicode="&#x3c0;" horiz-adv-x="723" 
d="M562 -15c-101 0 -174 61 -174 181v186h-68v-352h-211v352h-100v164h686v-164h-100v-133c0 -37 12 -53 45 -53c23 0 41 5 55 16v-163c-29 -23 -73 -34 -133 -34z" />
    <glyph glyph-name="uni0401" unicode="&#x401;" horiz-adv-x="636" 
d="M608 0h-555v700h549v-185h-334v-62h262v-170h-262v-98h340v-185zM347 840c0 53 44 98 99 98c27 0 51 -10 70 -29c20 -19 30 -42 30 -69c0 -55 -45 -99 -100 -99s-99 44 -99 99zM213 741c-55 0 -99 44 -99 99c0 53 44 98 99 98c56 0 99 -43 99 -98s-43 -99 -99 -99z" />
    <glyph glyph-name="uni0402" unicode="&#x402;" horiz-adv-x="795" 
d="M543 -6c-23 0 -46 2 -67 7v163c10 -3 20 -5 31 -5c39 0 65 25 65 62c0 39 -34 63 -85 63c-37 0 -67 -6 -88 -18v-266h-214v536h-163v164h557v-164h-180v-83c32 7 69 11 112 11c83 0 150 -22 199 -65s74 -102 74 -176c0 -63 -22 -117 -66 -162s-102 -67 -175 -67z" />
    <glyph glyph-name="uni0403" unicode="&#x403;" horiz-adv-x="623" 
d="M268 0h-215v700h539v-185h-324v-515zM373 759h-171l95 158h246z" />
    <glyph glyph-name="uni0404" unicode="&#x404;" horiz-adv-x="659" 
d="M432 714c69 0 128 -12 177 -37v-200c-57 31 -114 46 -171 46c-72 0 -125 -26 -160 -77h204v-166h-219c28 -64 96 -103 184 -103c68 0 125 17 172 50v-203c-48 -25 -110 -38 -185 -38c-115 0 -211 34 -287 101c-76 68 -114 156 -114 263s38 195 113 262
c75 68 171 102 286 102z" />
    <glyph glyph-name="uni0405" unicode="&#x405;" horiz-adv-x="665" 
d="M330 -14c-115 0 -212 25 -291 75v210c32 -27 77 -50 136 -69s112 -29 159 -29c54 0 81 11 81 33c0 10 -10 19 -30 28s-59 22 -116 39c-145 43 -230 105 -230 224c0 143 117 217 301 217c90 0 174 -19 253 -56v-200c-34 20 -77 37 -129 50c-52 14 -99 21 -140 21
s-62 -9 -62 -26c0 -9 10 -18 29 -27c20 -8 64 -22 131 -42c145 -44 216 -111 216 -218c0 -70 -28 -126 -85 -168c-56 -41 -130 -62 -223 -62z" />
    <glyph glyph-name="uni0406" unicode="&#x406;" horiz-adv-x="328" 
d="M272 0h-215v700h215v-700z" />
    <glyph glyph-name="uni0407" unicode="&#x407;" horiz-adv-x="328" 
d="M181 840c0 53 44 98 99 98c27 0 51 -10 70 -29c20 -19 30 -42 30 -69c0 -55 -45 -99 -100 -99s-99 44 -99 99zM47 741c-55 0 -99 44 -99 99c0 53 44 98 99 98c56 0 99 -43 99 -98s-43 -99 -99 -99zM272 0h-215v700h215v-700z" />
    <glyph glyph-name="uni0408" unicode="&#x408;" horiz-adv-x="509" 
d="M194 -14c-81 0 -139 12 -176 36v203c42 -29 85 -44 128 -44c69 0 104 25 104 98v421h215v-452c0 -101 -32 -174 -87 -211c-53 -36 -112 -51 -184 -51z" />
    <glyph glyph-name="uni0409" unicode="&#x409;" horiz-adv-x="1104" 
d="M802 0h-313v515h-143l-1 -84c-1 -171 -26 -288 -71 -352c-44 -64 -99 -88 -176 -88c-45 0 -78 6 -98 19v190c20 -9 36 -13 49 -13c25 0 43 5 55 15c24 21 43 97 44 264l3 234h552v-202h99c88 0 158 -24 211 -71s80 -106 80 -179s-27 -133 -80 -179s-123 -69 -211 -69z
M703 330v-151h86c52 0 88 30 88 74c0 45 -36 77 -88 77h-86z" />
    <glyph glyph-name="uni040A" unicode="&#x40a;" horiz-adv-x="1098" 
d="M796 0h-313v259h-215v-259h-215v700h215v-250h215v250h214v-202h99c88 0 158 -24 211 -71s80 -106 80 -179s-27 -133 -80 -179s-123 -69 -211 -69zM697 328v-147h86c52 0 87 28 87 72c0 45 -35 75 -87 75h-86z" />
    <glyph glyph-name="uni040B" unicode="&#x40b;" horiz-adv-x="818" 
d="M399 266v-266h-214v536h-163v164h557v-164h-180v-88c39 11 77 16 116 16c83 0 148 -22 195 -65c48 -43 72 -102 72 -176v-223h-214v208c0 52 -36 76 -80 76c-35 0 -65 -6 -89 -18z" />
    <glyph glyph-name="uni040C" unicode="&#x40c;" horiz-adv-x="754" 
d="M268 0h-215v700h215v-261l197 261h253l-248 -325l298 -375h-264l-236 302v-302zM426 759h-171l95 158h246z" />
    <glyph glyph-name="uni040E" unicode="&#x40e;" horiz-adv-x="676" 
d="M188 -14c-59 0 -104 10 -137 29v180c27 -15 60 -22 98 -22c43 0 75 18 94 53l-250 474h235l121 -268l109 268h225l-250 -544c-33 -72 -82 -123 -130 -144c-48 -20 -80 -26 -115 -26zM336 734c-55 0 -101 16 -138 48c-37 33 -56 77 -57 133h136c1 -36 21 -54 58 -54
s56 18 57 54h138c-1 -56 -19 -100 -56 -133c-37 -32 -83 -48 -138 -48z" />
    <glyph glyph-name="uni040F" unicode="&#x40f;" horiz-adv-x="724" 
d="M464 -129h-202v129h-209v700h215v-515h189v515h214v-700h-207v-129z" />
    <glyph glyph-name="uni0410" unicode="&#x410;" horiz-adv-x="783" 
d="M223 0h-222l288 704h205l289 -704h-231l-50 131h-228zM388 458l-52 -166h103z" />
    <glyph glyph-name="uni0411" unicode="&#x411;" horiz-adv-x="673" 
d="M373 0h-320v700h538v-175h-322v-56h104c85 0 153 -22 204 -65s76 -100 76 -169s-26 -125 -77 -169s-118 -66 -203 -66zM269 317v-139h87c48 0 82 28 82 68c0 41 -34 71 -82 71h-87z" />
    <glyph glyph-name="uni0412" unicode="&#x412;" horiz-adv-x="702" 
d="M423 0h-370v700h355c65 0 118 -15 160 -46c42 -30 63 -74 63 -133c0 -33 -9 -62 -28 -85s-37 -39 -56 -48c30 -6 60 -26 89 -60c29 -33 44 -75 44 -125c0 -61 -24 -110 -71 -147s-109 -56 -186 -56zM268 289v-116h113c39 0 64 22 64 57s-27 59 -64 59h-113zM268 533v-94
h109c29 0 51 20 51 45c0 29 -22 49 -51 49h-109z" />
    <glyph glyph-name="uni0413" unicode="&#x413;" horiz-adv-x="623" 
d="M268 0h-215v700h539v-185h-324v-515z" />
    <glyph glyph-name="uni0414" unicode="&#x414;" horiz-adv-x="790" 
d="M199 -129h-201v314h71c45 81 68 208 68 379v136h545v-515h88v-314h-202v129h-369v-129zM285 185h183v330h-129c0 -55 -5 -114 -14 -179c-9 -64 -22 -114 -40 -151z" />
    <glyph glyph-name="uni0415" unicode="&#x415;" horiz-adv-x="636" 
d="M608 0h-555v700h549v-185h-334v-62h262v-170h-262v-98h340v-185z" />
    <glyph glyph-name="uni0416" unicode="&#x416;" horiz-adv-x="1085" 
d="M253 0h-263l257 357l-224 343h249l167 -280v280h209v-280l168 280h247l-225 -343l257 -357h-262l-185 277v-277h-209v277z" />
    <glyph glyph-name="uni0417" unicode="&#x417;" horiz-adv-x="628" 
d="M293 -14c-110 0 -200 22 -270 66v201c63 -49 158 -76 241 -76c80 0 120 20 120 59c0 33 -31 44 -88 44h-104v163h115c45 0 68 13 68 39c0 30 -34 45 -101 45c-83 0 -159 -17 -228 -52v183c73 37 157 56 250 56c91 0 162 -20 214 -59c53 -39 79 -87 79 -146
c0 -67 -28 -114 -84 -140c57 -27 101 -82 101 -157c0 -64 -28 -118 -85 -161c-56 -43 -132 -65 -228 -65z" />
    <glyph glyph-name="uni0418" unicode="&#x418;" horiz-adv-x="761" 
d="M236 0h-183v700h208v-348l270 348h177v-700h-206v345z" />
    <glyph glyph-name="uni0419" unicode="&#x419;" horiz-adv-x="761" 
d="M236 0h-183v700h208v-348l270 348h177v-700h-206v345zM382 734c-55 0 -101 16 -138 48c-37 33 -56 77 -57 133h136c1 -36 21 -54 58 -54s56 18 57 54h138c-1 -56 -19 -100 -56 -133c-37 -32 -83 -48 -138 -48z" />
    <glyph glyph-name="uni041A" unicode="&#x41a;" horiz-adv-x="754" 
d="M268 0h-215v700h215v-261l197 261h253l-248 -325l298 -375h-264l-236 302v-302z" />
    <glyph glyph-name="uni041B" unicode="&#x41b;" horiz-adv-x="756" 
d="M0 10v190c20 -9 36 -13 49 -13c25 0 43 5 55 15c24 21 43 97 44 264l3 234h552v-700h-214v515h-143l-1 -84c-1 -171 -26 -288 -71 -352c-44 -64 -99 -88 -176 -88c-45 0 -78 6 -98 19z" />
    <glyph glyph-name="uni041C" unicode="&#x41c;" horiz-adv-x="838" 
d="M261 0h-208v700h213l153 -249l154 249h212v-700h-206v392l-99 -167h-116l-103 167v-392z" />
    <glyph glyph-name="uni041D" unicode="&#x41d;" horiz-adv-x="750" 
d="M268 0h-215v700h215v-237h214v237h215v-700h-215v276h-214v-276z" />
    <glyph glyph-name="uni041E" unicode="&#x41e;" horiz-adv-x="816" 
d="M297 229c29 -31 66 -47 111 -47s82 16 111 47c29 32 44 72 44 121s-15 89 -44 120c-29 32 -66 48 -111 48s-82 -16 -111 -48c-29 -31 -44 -71 -44 -120s15 -89 44 -121zM33 350c0 101 35 186 106 257s161 107 269 107s197 -36 268 -107s106 -156 106 -257
s-35 -187 -106 -258s-160 -106 -268 -106s-198 36 -269 107s-106 157 -106 257z" />
    <glyph glyph-name="uni041F" unicode="&#x41f;" horiz-adv-x="741" 
d="M268 0h-215v700h635v-700h-214v515h-206v-515z" />
    <glyph glyph-name="uni0420" unicode="&#x420;" horiz-adv-x="651" 
d="M53 700h322c80 0 144 -21 192 -64c49 -43 73 -97 73 -164c0 -66 -24 -121 -73 -164c-48 -43 -112 -64 -192 -64h-107v-244h-215v700zM268 400h78c44 0 74 26 74 63s-31 62 -74 62h-78v-125z" />
    <glyph glyph-name="uni0421" unicode="&#x421;" horiz-adv-x="659" 
d="M434 -14c-115 0 -211 34 -287 101c-76 68 -114 156 -114 263s38 195 113 262c75 68 171 102 286 102c69 0 128 -12 177 -37v-203c-57 31 -114 46 -171 46c-53 0 -97 -16 -132 -49c-35 -32 -52 -72 -52 -121c0 -50 18 -91 54 -123c36 -31 82 -47 138 -47
c69 0 126 17 173 50v-206c-48 -25 -110 -38 -185 -38z" />
    <glyph glyph-name="uni0422" unicode="&#x422;" horiz-adv-x="659" 
d="M22 515v185h615v-185h-201v-515h-215v515h-199z" />
    <glyph glyph-name="uni0423" unicode="&#x423;" horiz-adv-x="676" 
d="M188 -14c-59 0 -104 10 -137 29v180c27 -15 60 -22 98 -22c43 0 75 18 94 53l-250 474h235l121 -268l109 268h225l-250 -544c-33 -72 -82 -123 -130 -144c-48 -20 -80 -26 -115 -26z" />
    <glyph glyph-name="uni0424" unicode="&#x424;" horiz-adv-x="939" 
d="M577 -33h-215v79c-102 6 -182 39 -241 99c-59 61 -88 132 -88 215s29 154 88 214s139 93 241 99v61h215v-61c103 -6 183 -39 241 -99s87 -131 87 -214s-29 -154 -87 -215c-58 -60 -138 -93 -241 -99v-79zM577 491v-263c57 5 109 49 109 132c0 84 -52 127 -109 131z
M362 228v263c-57 -4 -109 -47 -109 -131c0 -83 52 -127 109 -132z" />
    <glyph glyph-name="uni0425" unicode="&#x425;" horiz-adv-x="738" 
d="M19 700h249l102 -167l103 167h246l-227 -324l265 -376h-250l-141 212l-138 -212h-247l265 375z" />
    <glyph glyph-name="uni0426" unicode="&#x426;" horiz-adv-x="789" 
d="M769 -129h-202v129h-514v700h215v-515h199v515h214v-515h88v-314z" />
    <glyph glyph-name="uni0427" unicode="&#x427;" horiz-adv-x="686" 
d="M633 0h-214v241c-31 -14 -71 -21 -118 -21c-164 0 -265 92 -265 240v240h214v-212c0 -52 38 -78 87 -78c35 0 63 6 82 19v271h214v-700z" />
    <glyph glyph-name="uni0428" unicode="&#x428;" horiz-adv-x="1039" 
d="M986 0h-933v700h215v-515h145v515h214v-515h145v515h214v-700z" />
    <glyph glyph-name="uni0429" unicode="&#x429;" horiz-adv-x="1093" 
d="M1073 -129h-202v129h-818v700h215v-515h146v515h214v-515h145v515h213v-515h87v-314z" />
    <glyph glyph-name="uni042A" unicode="&#x42a;" horiz-adv-x="802" 
d="M500 0h-313v515h-165v185h379v-202h99c88 0 158 -24 211 -71s80 -106 80 -179s-27 -133 -80 -179s-123 -69 -211 -69zM401 330v-151h86c52 0 88 30 88 74c0 45 -36 77 -88 77h-86z" />
    <glyph glyph-name="uni042B" unicode="&#x42b;" horiz-adv-x="963" 
d="M910 0h-214v700h214v-700zM345 0h-292v700h215v-202h77c87 0 157 -24 210 -71s80 -106 80 -179s-26 -132 -79 -179c-53 -46 -123 -69 -211 -69zM268 330v-151h63c52 0 88 30 88 74c0 45 -36 77 -88 77h-63z" />
    <glyph glyph-name="uni042C" unicode="&#x42c;" horiz-adv-x="668" 
d="M366 0h-313v700h214v-202h99c88 0 158 -24 211 -71s80 -106 80 -179s-27 -133 -80 -179s-123 -69 -211 -69zM267 330v-151h86c52 0 88 30 88 74c0 45 -36 77 -88 77h-86z" />
    <glyph glyph-name="uni042D" unicode="&#x42d;" horiz-adv-x="660" 
d="M225 -14c-75 0 -137 13 -185 38v203c47 -33 104 -50 172 -50c88 0 156 39 184 103h-219v166h204c-35 51 -88 77 -160 77c-57 0 -114 -15 -171 -46v200c49 25 108 37 177 37c115 0 211 -34 286 -102c75 -67 113 -155 113 -262s-38 -195 -114 -263
c-76 -67 -172 -101 -287 -101z" />
    <glyph glyph-name="uni042E" unicode="&#x42e;" horiz-adv-x="1054" 
d="M671 714c102 0 186 -35 251 -104s98 -156 98 -260s-33 -191 -98 -260s-149 -104 -251 -104c-87 0 -160 24 -219 73c-58 49 -98 113 -121 193h-59v-252h-219v700h219v-261h59c23 83 64 149 123 199c59 51 132 76 217 76zM802 350c0 104 -50 171 -131 171
s-132 -67 -132 -171c0 -103 51 -172 132 -172s131 69 131 172z" />
    <glyph glyph-name="uni042F" unicode="&#x42f;" horiz-adv-x="723" 
d="M239 0h-249l209 274c-80 40 -128 113 -128 201c0 65 24 119 72 161c48 43 112 64 191 64h336v-700h-215v250h-28zM359 407h96v113h-96c-40 0 -67 -21 -67 -56s27 -57 67 -57z" />
    <glyph glyph-name="uni0430" unicode="&#x430;" horiz-adv-x="611" 
d="M556 154c11 0 20 3 29 9v-145c-25 -21 -60 -31 -104 -31c-61 0 -117 31 -134 68c-27 -39 -84 -68 -153 -68c-57 0 -102 16 -135 48c-33 33 -50 74 -50 123c0 55 20 96 60 123c41 27 87 41 138 41c45 0 83 -9 116 -28c0 51 -34 77 -103 77c-55 0 -105 -11 -148 -33v157
c56 23 122 34 197 34c78 0 141 -20 189 -59s72 -90 72 -154v-138c0 -16 9 -24 26 -24zM326 149v54c-14 12 -31 18 -52 18c-35 0 -62 -17 -62 -50c0 -32 25 -51 57 -51c27 0 46 10 57 29z" />
    <glyph glyph-name="uni0431" unicode="&#x431;" horiz-adv-x="600" 
d="M363 468c132 0 219 -80 219 -216c0 -78 -27 -142 -80 -191s-119 -74 -199 -74c-94 0 -165 30 -214 91s-73 140 -73 238c0 102 24 182 72 240s131 101 248 129c35 9 96 20 183 35v-179c-16 -1 -62 -7 -86 -10c-23 -3 -68 -8 -93 -15c-24 -7 -60 -16 -81 -28
c-33 -20 -57 -42 -59 -81c37 35 103 61 163 61zM301 150c53 0 82 38 82 86s-29 77 -78 77c-35 0 -67 -12 -94 -36c0 -85 34 -127 90 -127z" />
    <glyph glyph-name="uni0432" unicode="&#x432;" horiz-adv-x="603" 
d="M478 276c53 -16 105 -62 105 -131c0 -89 -74 -145 -203 -145h-330v516h325c113 0 174 -62 174 -135c0 -51 -35 -94 -71 -105zM306 389h-54v-76h54c28 0 42 12 42 37c0 24 -17 39 -42 39zM252 131h68c31 0 46 14 46 41c0 28 -15 42 -46 42h-68v-83z" />
    <glyph glyph-name="uni0433" unicode="&#x433;" horiz-adv-x="497" 
d="M260 0h-210v516h432v-164h-222v-352z" />
    <glyph glyph-name="uni0434" unicode="&#x434;" horiz-adv-x="701" 
d="M217 -111h-201v275h64c23 43 37 118 40 223l4 129h482v-352h74v-275h-198v111h-265v-111zM279 164h120v192h-91c0 -77 -10 -141 -29 -192z" />
    <glyph glyph-name="uni0435" unicode="&#x435;" horiz-adv-x="570" 
d="M307 -13c-80 0 -148 24 -204 72c-56 49 -84 115 -84 199c0 77 25 141 76 193s118 78 201 78c71 0 131 -24 179 -73c48 -48 72 -113 72 -195v-48h-328c17 -41 74 -61 135 -61s117 13 166 39v-154c-46 -33 -117 -50 -213 -50zM215 313h137c-1 47 -30 75 -66 75
c-39 0 -64 -27 -71 -75z" />
    <glyph glyph-name="uni0436" unicode="&#x436;" horiz-adv-x="903" 
d="M227 0h-226l187 274l-162 242h212l115 -186v186h197v-186l113 186h213l-160 -242l186 -274h-226l-126 204v-204h-197v204z" />
    <glyph glyph-name="uni0437" unicode="&#x437;" horiz-adv-x="539" 
d="M246 -13c-92 0 -162 13 -210 40v158c51 -27 112 -40 181 -40c53 0 80 9 80 28c0 13 -16 20 -48 20h-109v132h110c25 0 38 7 38 22c0 17 -23 26 -70 26c-67 0 -123 -11 -168 -32v145c55 29 129 43 223 43c67 0 121 -14 164 -41s64 -62 64 -104c0 -56 -44 -99 -88 -108
c24 -3 47 -16 70 -37s34 -48 34 -79c0 -50 -24 -91 -72 -124s-114 -49 -199 -49z" />
    <glyph glyph-name="uni0438" unicode="&#x438;" horiz-adv-x="647" 
d="M248 0h-198v516h197v-219l152 219h198v-516h-197v218z" />
    <glyph glyph-name="uni0439" unicode="&#x439;" horiz-adv-x="647" 
d="M248 0h-198v516h197v-219l152 219h198v-516h-197v218zM126 729h135c2 -35 22 -53 60 -53c39 0 59 18 60 53h139c-1 -56 -21 -100 -58 -133c-37 -32 -84 -48 -139 -48s-102 16 -140 48c-37 33 -56 77 -57 133z" />
    <glyph glyph-name="uni043A" unicode="&#x43a;" horiz-adv-x="655" 
d="M260 0h-210v516h210v-182l133 182h241l-186 -232l218 -284h-257l-149 209v-209z" />
    <glyph glyph-name="uni043B" unicode="&#x43b;" horiz-adv-x="660" 
d="M399 352h-91l-2 -72c-1 -61 -6 -106 -23 -161c-24 -75 -74 -129 -172 -129c-43 0 -74 6 -95 17v164c12 -5 23 -8 32 -8c28 0 46 17 53 50c8 34 13 94 14 179l1 124h494v-516h-211v352z" />
    <glyph glyph-name="uni043C" unicode="&#x43c;" horiz-adv-x="713" 
d="M238 0h-188v516h198l108 -161l108 161h199v-516h-189v245l-76 -113h-83l-77 114v-246z" />
    <glyph glyph-name="uni043D" unicode="&#x43d;" horiz-adv-x="635" 
d="M260 0h-210v516h210v-170h114v170h211v-516h-211v182h-114v-182z" />
    <glyph glyph-name="uni043E" unicode="&#x43e;" horiz-adv-x="626" 
d="M249 191c33 -35 95 -35 128 0c17 18 25 40 25 67s-8 49 -25 66c-33 36 -95 36 -128 0c-17 -17 -25 -39 -25 -66s8 -49 25 -67zM313 -13c-85 0 -155 26 -211 77c-55 51 -83 116 -83 194s28 143 83 194c56 51 126 77 211 77s156 -26 211 -77c56 -51 84 -116 84 -194
s-28 -143 -84 -194c-55 -51 -126 -77 -211 -77z" />
    <glyph glyph-name="uni043F" unicode="&#x43f;" horiz-adv-x="631" 
d="M260 0h-210v516h531v-516h-211v352h-110v-352z" />
    <glyph glyph-name="uni0440" unicode="&#x440;" horiz-adv-x="648" 
d="M261 58v-258h-211v716h211v-58c31 47 78 71 141 71c65 0 120 -26 163 -77s65 -116 65 -194s-22 -143 -65 -194s-98 -77 -163 -77c-63 0 -110 24 -141 71zM258 317v-117c15 -25 41 -38 79 -38c51 0 85 43 85 96s-34 96 -85 96c-37 0 -64 -12 -79 -37z" />
    <glyph glyph-name="uni0441" unicode="&#x441;" horiz-adv-x="504" 
d="M305 -13c-47 0 -92 9 -135 28c-42 19 -78 50 -107 93s-44 93 -44 151c0 59 15 109 44 151c59 84 147 119 244 119c57 0 108 -10 152 -29v-173c-41 15 -81 23 -118 23c-65 0 -117 -33 -117 -92c0 -60 52 -93 121 -93c43 0 83 9 120 26v-171c-51 -22 -104 -33 -160 -33z
" />
    <glyph glyph-name="uni0442" unicode="&#x442;" horiz-adv-x="521" 
d="M365 0h-211v350h-138v166h489v-166h-140v-350z" />
    <glyph glyph-name="uni0443" unicode="&#x443;" horiz-adv-x="611" 
d="M170 -206c-54 0 -95 8 -124 24v181c25 -18 54 -27 87 -27c43 0 65 10 78 45l-211 499h221l91 -292l82 292h217l-218 -566c-40 -104 -114 -156 -223 -156z" />
    <glyph glyph-name="uni0444" unicode="&#x444;" horiz-adv-x="786" 
d="M290 517v183h207v-183c87 -6 153 -33 200 -82s71 -108 71 -177c0 -141 -92 -238 -271 -259v-199h-207v199c-87 6 -154 33 -201 82s-70 108 -70 177c0 143 94 240 271 259zM575 257c0 56 -26 90 -78 102v-203c52 13 78 46 78 101zM212 257c0 -55 26 -88 78 -101v203
c-52 -12 -78 -46 -78 -102z" />
    <glyph glyph-name="uni0445" unicode="&#x445;" horiz-adv-x="604" 
d="M9 516h226l67 -121l66 121h226l-170 -251l178 -265h-229l-73 129l-75 -129h-226l180 264z" />
    <glyph glyph-name="uni0446" unicode="&#x446;" horiz-adv-x="682" 
d="M661 -111h-204v111h-407v516h210v-352h116v352h210v-352h75v-275z" />
    <glyph glyph-name="uni0447" unicode="&#x447;" horiz-adv-x="593" 
d="M543 0h-211v141c-18 -6 -43 -9 -75 -9c-55 0 -104 12 -152 39c-47 28 -78 81 -78 152v193h211v-166c0 -33 21 -50 52 -50c16 0 30 3 42 8v208h211v-516z" />
    <glyph glyph-name="uni0448" unicode="&#x448;" horiz-adv-x="874" 
d="M824 0h-774v516h202v-352h82v352h202v-352h86v352h202v-516z" />
    <glyph glyph-name="uni0449" unicode="&#x449;" horiz-adv-x="919" 
d="M898 -111h-189v111h-659v516h202v-352h82v352h202v-352h86v352h202v-352h74v-275z" />
    <glyph glyph-name="uni044A" unicode="&#x44a;" horiz-adv-x="669" 
d="M343 384h80c68 0 123 -17 165 -52c43 -34 64 -80 64 -139c0 -54 -19 -100 -57 -137c-37 -37 -91 -56 -161 -56h-292v352h-134v164h335v-132zM343 147h45c36 0 59 18 59 50s-24 52 -59 52h-45v-102z" />
    <glyph glyph-name="uni044B" unicode="&#x44b;" horiz-adv-x="826" 
d="M776 0h-196v516h196v-516zM251 384h70c68 0 123 -17 165 -52c43 -34 64 -80 64 -139c0 -54 -19 -100 -57 -137c-37 -37 -91 -56 -161 -56h-282v516h201v-132zM251 147h35c36 0 59 18 59 50s-24 52 -59 52h-35v-102z" />
    <glyph glyph-name="uni044C" unicode="&#x44c;" horiz-adv-x="577" 
d="M251 384h80c68 0 123 -17 165 -52c43 -34 64 -80 64 -139c0 -54 -19 -100 -57 -137c-37 -37 -91 -56 -161 -56h-292v516h201v-132zM251 147h45c36 0 59 18 59 50s-24 52 -59 52h-45v-102z" />
    <glyph glyph-name="uni044D" unicode="&#x44d;" horiz-adv-x="513" 
d="M37 19v155c36 -18 79 -27 128 -27c59 0 99 16 119 49h-141v126h139c-22 31 -61 47 -116 47c-43 0 -84 -8 -123 -23v154c42 19 95 29 158 29c138 0 294 -85 294 -270c0 -58 -15 -108 -46 -151c-60 -85 -150 -121 -246 -121c-71 0 -126 11 -166 32z" />
    <glyph glyph-name="uni044E" unicode="&#x44e;" horiz-adv-x="855" 
d="M560 -13c-68 0 -126 19 -174 56c-47 37 -79 85 -94 144h-42v-187h-200v516h200v-168h46c39 108 136 181 264 181c83 0 149 -26 200 -79c51 -52 77 -116 77 -192s-26 -140 -77 -193c-51 -52 -117 -78 -200 -78zM560 165c96 -7 96 193 0 186c-97 6 -97 -192 0 -186z" />
    <glyph glyph-name="uni044F" unicode="&#x44f;" horiz-adv-x="605" 
d="M231 0h-231l132 190c-55 31 -83 80 -83 147c0 51 18 93 53 127c35 35 90 52 165 52h288v-516h-210v152h-20zM297 283h48v79h-48c-28 0 -47 -15 -47 -39c0 -23 20 -40 47 -40z" />
    <glyph glyph-name="uni0451" unicode="&#x451;" horiz-adv-x="570" 
d="M307 -13c-80 0 -148 24 -204 72c-56 49 -84 115 -84 199c0 77 25 141 76 193s118 78 201 78c71 0 131 -24 179 -73c48 -48 72 -113 72 -195v-48h-328c17 -41 74 -61 135 -61s117 13 166 39v-154c-46 -33 -117 -50 -213 -50zM215 313h137c-1 47 -30 75 -66 75
c-39 0 -64 -27 -71 -75zM309 662c0 53 44 98 99 98c27 0 51 -10 70 -29c20 -19 30 -42 30 -69c0 -55 -45 -99 -100 -99s-99 44 -99 99zM175 563c-55 0 -100 44 -100 99c0 27 10 50 29 69c20 19 44 29 71 29c56 0 99 -43 99 -98s-43 -99 -99 -99z" />
    <glyph glyph-name="uni0452" unicode="&#x452;" horiz-adv-x="682" 
d="M409 -206c-56 0 -97 7 -124 20v159c20 -10 43 -15 70 -15c47 0 75 22 75 63v161c0 43 -23 63 -52 63c-23 0 -43 -9 -59 -28v-217h-210v511h-101v108h101v81h210v-81h178v-108h-178v-161c12 19 32 37 60 54c29 17 59 25 91 25c111 0 171 -75 171 -202v-208
c0 -137 -81 -225 -232 -225z" />
    <glyph glyph-name="uni0453" unicode="&#x453;" horiz-adv-x="497" 
d="M260 0h-210v516h432v-164h-222v-352zM300 576h-171l95 158h245z" />
    <glyph glyph-name="uni0454" unicode="&#x454;" horiz-adv-x="516" 
d="M477 174v-155c-40 -21 -95 -32 -166 -32c-48 0 -94 9 -137 28s-79 50 -110 93c-30 43 -45 93 -45 151c0 185 156 270 294 270c63 0 116 -10 158 -29v-154c-39 15 -80 23 -123 23c-55 0 -94 -16 -116 -47h139v-126h-141c20 -33 60 -49 119 -49c49 0 92 9 128 27z" />
    <glyph glyph-name="uni0455" unicode="&#x455;" horiz-adv-x="522" 
d="M246 -13c-92 0 -164 15 -215 45v159c24 -14 56 -27 97 -38s82 -16 121 -16c29 0 43 6 43 19c0 6 -4 11 -12 15c-7 4 -23 9 -47 16l-54 16c-56 19 -95 40 -118 61c-23 22 -34 54 -34 97c0 107 96 168 252 168c77 0 144 -17 203 -50v-155c-25 15 -56 28 -95 39
s-74 17 -106 17c-23 0 -35 -6 -35 -18c0 -7 6 -12 21 -19c7 -3 14 -5 21 -7l62 -17c112 -35 154 -74 154 -161c0 -101 -90 -171 -258 -171z" />
    <glyph glyph-name="uni0456" unicode="&#x456;" horiz-adv-x="318" 
d="M264 0h-211v516h211v-516zM159 540c-33 0 -61 11 -84 34s-34 52 -34 85s11 60 34 83s51 35 84 35s60 -12 83 -35s35 -50 35 -83c0 -67 -51 -119 -118 -119z" />
    <glyph glyph-name="uni0457" unicode="&#x457;" horiz-adv-x="318" 
d="M177 656c0 53 44 98 99 98c27 0 51 -10 70 -29c20 -19 30 -42 30 -69c0 -55 -45 -99 -100 -99s-99 44 -99 99zM43 557c-55 0 -100 44 -100 99c0 27 10 50 30 69c19 19 43 29 70 29c56 0 99 -43 99 -98s-43 -99 -99 -99zM264 0h-211v516h211v-516z" />
    <glyph glyph-name="uni0458" unicode="&#x458;" horiz-adv-x="318" 
d="M159 540c-33 0 -60 11 -83 34s-34 52 -34 85c0 65 52 118 117 118c33 0 60 -12 83 -35s35 -50 35 -83c0 -67 -51 -119 -118 -119zM33 -206c-56 0 -97 7 -124 20v159c20 -10 43 -15 70 -15c47 0 75 22 75 63v495h211v-497c0 -137 -81 -225 -232 -225z" />
    <glyph glyph-name="uni0459" unicode="&#x459;" horiz-adv-x="926" 
d="M600 384h80c68 0 123 -17 165 -52c43 -34 64 -80 64 -139c0 -54 -19 -100 -57 -137c-37 -37 -91 -56 -161 -56h-292v352h-91l-2 -72c-1 -61 -6 -106 -23 -161c-24 -75 -74 -129 -172 -129c-43 0 -74 6 -95 17v164c12 -5 23 -8 32 -8c28 0 46 17 53 50c8 34 13 94 14 179
l1 124h484v-132zM600 147h45c36 0 59 18 59 50s-24 52 -59 52h-45v-102z" />
    <glyph glyph-name="uni045A" unicode="&#x45a;" horiz-adv-x="908" 
d="M582 384h80c68 0 123 -17 165 -52c43 -34 64 -80 64 -139c0 -54 -19 -100 -57 -137c-37 -37 -91 -56 -161 -56h-292v167h-121v-167h-210v516h210v-180h121v180h201v-132zM582 147h45c36 0 59 18 59 50s-24 52 -59 52h-45v-102z" />
    <glyph glyph-name="uni045B" unicode="&#x45b;" horiz-adv-x="682" 
d="M319 216v-216h-210v511h-101v108h101v81h210v-81h178v-108h-178v-162c12 19 32 37 60 54c29 17 59 25 91 25c111 0 171 -75 171 -202v-226h-211v181c0 43 -23 63 -52 63c-23 0 -43 -9 -59 -28z" />
    <glyph glyph-name="uni045C" unicode="&#x45c;" horiz-adv-x="655" 
d="M260 0h-210v516h210v-182l133 182h241l-186 -232l218 -284h-257l-149 209v-209zM403 576h-171l95 158h245z" />
    <glyph glyph-name="uni045E" unicode="&#x45e;" horiz-adv-x="611" 
d="M170 -206c-54 0 -95 8 -124 24v181c25 -18 54 -27 87 -27c43 0 65 10 78 45l-211 499h221l91 -292l82 292h217l-218 -566c-40 -104 -114 -156 -223 -156zM98 729h135c2 -35 22 -53 60 -53c39 0 59 18 60 53h139c-1 -56 -21 -100 -58 -133c-37 -32 -84 -48 -139 -48
s-102 16 -140 48c-37 33 -56 77 -57 133z" />
    <glyph glyph-name="uni045F" unicode="&#x45f;" horiz-adv-x="636" 
d="M420 -111h-203v111h-167v516h210v-352h116v352h210v-516h-166v-111z" />
    <glyph glyph-name="uni0490" unicode="&#x490;" horiz-adv-x="615" 
d="M268 0h-215v700h338v133h193v-318h-316v-515z" />
    <glyph glyph-name="uni0491" unicode="&#x491;" horiz-adv-x="497" 
d="M260 0h-210v516h239v115h193v-279h-222v-352z" />
    <glyph glyph-name="uni1E02" unicode="&#x1e02;" horiz-adv-x="702" 
d="M423 0h-370v700h355c65 0 118 -15 160 -46c42 -30 63 -74 63 -133c0 -33 -9 -62 -28 -85s-37 -39 -56 -48c30 -6 60 -26 89 -60c29 -33 44 -75 44 -125c0 -61 -24 -110 -71 -147s-109 -56 -186 -56zM268 289v-116h113c39 0 64 22 64 57s-27 59 -64 59h-113zM268 533v-94
h109c29 0 51 20 51 45c0 29 -22 49 -51 49h-109zM327 741c-55 0 -99 44 -99 99s44 98 99 98c56 0 99 -43 99 -98s-43 -99 -99 -99z" />
    <glyph glyph-name="uni1E03" unicode="&#x1e03;" horiz-adv-x="648" 
d="M50 0v700h211v-242c31 47 78 71 141 71c65 0 120 -26 163 -77s65 -116 65 -194s-22 -143 -65 -194s-98 -77 -163 -77c-63 0 -110 24 -141 71v-58h-211zM258 316v-117c15 -25 42 -37 79 -37c51 0 85 43 85 96s-34 96 -85 96c-38 0 -64 -13 -79 -38zM345 741
c-55 0 -99 44 -99 99s44 98 99 98c56 0 99 -43 99 -98s-43 -99 -99 -99z" />
    <glyph glyph-name="uni1E0A" unicode="&#x1e0a;" horiz-adv-x="772" 
d="M348 0h-295v700h295c115 0 208 -33 281 -98s109 -149 109 -252s-36 -187 -109 -252s-166 -98 -281 -98zM268 515v-330h66c117 0 182 58 182 165s-65 165 -182 165h-66zM365 741c-55 0 -99 44 -99 99s44 98 99 98c56 0 99 -43 99 -98s-43 -99 -99 -99z" />
    <glyph glyph-name="uni1E0B" unicode="&#x1e0b;" horiz-adv-x="649" 
d="M388 458v242h211v-700h-211v58c-31 -47 -78 -71 -141 -71c-65 0 -120 26 -163 77s-65 116 -65 194s22 143 65 194s98 77 163 77c63 0 110 -24 141 -71zM391 199v117c-15 25 -41 38 -79 38c-51 0 -85 -43 -85 -96s34 -96 85 -96c37 0 64 12 79 37zM321 741
c-55 0 -99 44 -99 99s44 98 99 98c56 0 99 -43 99 -98s-43 -99 -99 -99z" />
    <glyph glyph-name="uni1E1E" unicode="&#x1e1e;" horiz-adv-x="631" 
d="M268 0h-215v700h550v-185h-335v-69h241v-170h-241v-276zM329 741c-55 0 -99 44 -99 99s44 98 99 98c56 0 99 -43 99 -98s-43 -99 -99 -99z" />
    <glyph glyph-name="uni1E1F" unicode="&#x1e1f;" horiz-adv-x="456" 
d="M89 0v352h-81v164h81v14c0 109 71 184 208 184c54 0 102 -7 145 -22v-139c-28 9 -55 13 -80 13c-41 0 -62 -17 -62 -50h142v-164h-142v-352h-211zM265 741c-55 0 -99 44 -99 99s44 98 99 98c56 0 99 -43 99 -98s-43 -99 -99 -99z" />
    <glyph glyph-name="uni1E40" unicode="&#x1e40;" horiz-adv-x="838" 
d="M261 0h-208v700h213l153 -249l154 249h212v-700h-206v392l-99 -167h-116l-103 167v-392zM419 741c-55 0 -99 44 -99 99s44 98 99 98c56 0 99 -43 99 -98s-43 -99 -99 -99z" />
    <glyph glyph-name="uni1E41" unicode="&#x1e41;" horiz-adv-x="931" 
d="M260 0h-210v516h210v-67c24 41 85 80 149 80c65 0 111 -28 138 -83c28 47 94 83 163 83c51 0 93 -18 128 -53s52 -86 52 -154v-322h-211v283c0 42 -15 63 -46 63c-25 0 -44 -10 -57 -30v-316h-211v283c0 42 -15 63 -46 63c-25 0 -44 -11 -59 -32v-314zM470 556
c-55 0 -100 44 -100 99s45 98 100 98c56 0 99 -43 99 -98s-43 -99 -99 -99z" />
    <glyph glyph-name="uni1E56" unicode="&#x1e56;" horiz-adv-x="651" 
d="M53 700h322c80 0 144 -21 192 -64c49 -43 73 -97 73 -164c0 -66 -24 -121 -73 -164c-48 -43 -112 -64 -192 -64h-107v-244h-215v700zM268 400h78c44 0 74 26 74 63s-31 62 -74 62h-78v-125zM325 741c-55 0 -99 44 -99 99s44 98 99 98c56 0 99 -43 99 -98s-43 -99 -99 -99
z" />
    <glyph glyph-name="uni1E57" unicode="&#x1e57;" horiz-adv-x="648" 
d="M261 58v-258h-211v716h211v-58c31 47 78 71 141 71c65 0 120 -26 163 -77s65 -116 65 -194s-22 -143 -65 -194s-98 -77 -163 -77c-63 0 -110 24 -141 71zM258 317v-117c15 -25 41 -38 79 -38c51 0 85 43 85 96s-34 96 -85 96c-37 0 -64 -12 -79 -37zM341 556
c-55 0 -100 44 -100 99s45 98 100 98c56 0 99 -43 99 -98s-43 -99 -99 -99z" />
    <glyph glyph-name="uni1E60" unicode="&#x1e60;" horiz-adv-x="662" 
d="M327 -14c-115 0 -212 25 -291 75v210c32 -27 77 -50 136 -69s112 -29 159 -29c54 0 81 11 81 33c0 10 -10 19 -30 28s-59 22 -116 39c-145 43 -230 105 -230 224c0 143 117 217 301 217c90 0 174 -19 253 -56v-200c-34 20 -77 37 -129 50c-52 14 -99 21 -140 21
s-62 -9 -62 -26c0 -9 10 -18 29 -27c20 -8 64 -22 131 -42c145 -44 216 -111 216 -218c0 -70 -28 -126 -85 -168c-56 -41 -130 -62 -223 -62zM332 741c-55 0 -99 44 -99 99s44 98 99 98c56 0 99 -43 99 -98s-43 -99 -99 -99z" />
    <glyph glyph-name="uni1E61" unicode="&#x1e61;" horiz-adv-x="522" 
d="M246 -13c-92 0 -164 15 -215 45v159c24 -14 56 -27 97 -38s82 -16 121 -16c29 0 43 6 43 19c0 6 -4 11 -12 15c-7 4 -23 9 -47 16l-54 16c-56 19 -95 40 -118 61c-23 22 -34 54 -34 97c0 107 96 168 252 168c77 0 144 -17 203 -50v-155c-25 15 -56 28 -95 39
s-74 17 -106 17c-23 0 -35 -6 -35 -18c0 -7 6 -12 21 -19c7 -3 14 -5 21 -7l62 -17c112 -35 154 -74 154 -161c0 -101 -90 -171 -258 -171zM251 556c-55 0 -100 44 -100 99s45 98 100 98c56 0 99 -43 99 -98s-43 -99 -99 -99z" />
    <glyph glyph-name="uni1E6A" unicode="&#x1e6a;" horiz-adv-x="659" 
d="M22 515v185h615v-185h-201v-515h-215v515h-199zM328 741c-55 0 -99 44 -99 99s44 98 99 98c56 0 99 -43 99 -98s-43 -99 -99 -99z" />
    <glyph glyph-name="uni1E6B" unicode="&#x1e6b;" horiz-adv-x="448" 
d="M89 352h-81v164h81v124h210v-124h117v-164h-117v-133c0 -37 14 -53 53 -53c23 0 45 6 66 17v-164c-35 -21 -81 -32 -139 -32c-111 0 -190 60 -190 167v198zM193 687c-55 0 -100 44 -100 99s45 98 100 98c56 0 99 -43 99 -98s-43 -99 -99 -99z" />
    <glyph glyph-name="Wgrave" unicode="&#x1e80;" horiz-adv-x="1078" 
d="M415 -4h-187l-228 704h234l97 -373l132 375h162l132 -375l95 373h229l-230 -704h-183l-125 368zM302 917h245l95 -158h-171z" />
    <glyph glyph-name="wgrave" unicode="&#x1e81;" horiz-adv-x="831" 
d="M337 -4h-176l-163 520h203l68 -242l67 244h160l69 -243l65 241h203l-167 -520h-178l-77 241zM178 734h246l95 -158h-171z" />
    <glyph glyph-name="Wacute" unicode="&#x1e82;" horiz-adv-x="1078" 
d="M415 -4h-187l-228 704h234l97 -373l132 375h162l132 -375l95 373h229l-230 -704h-183l-125 368zM633 759h-171l95 158h246z" />
    <glyph glyph-name="wacute" unicode="&#x1e83;" horiz-adv-x="831" 
d="M337 -4h-176l-163 520h203l68 -242l67 244h160l69 -243l65 241h203l-167 -520h-178l-77 241zM511 576h-171l95 158h245z" />
    <glyph glyph-name="Wdieresis" unicode="&#x1e84;" horiz-adv-x="1078" 
d="M557 840c0 53 44 98 99 98c27 0 51 -10 70 -29c20 -19 30 -42 30 -69c0 -55 -45 -99 -100 -99s-99 44 -99 99zM423 741c-55 0 -99 44 -99 99c0 53 44 98 99 98c56 0 99 -43 99 -98s-43 -99 -99 -99zM415 -4h-187l-228 704h234l97 -373l132 375h162l132 -375l95 373h229
l-230 -704h-183l-125 368z" />
    <glyph glyph-name="wdieresis" unicode="&#x1e85;" horiz-adv-x="831" 
d="M337 -4h-176l-163 520h203l68 -242l67 244h160l69 -243l65 241h203l-167 -520h-178l-77 241zM433 656c0 53 44 98 99 98c27 0 51 -10 70 -29c20 -19 30 -42 30 -69c0 -55 -45 -99 -100 -99s-99 44 -99 99zM299 557c-55 0 -100 44 -100 99c0 27 10 50 29 69
c20 19 44 29 71 29c56 0 99 -43 99 -98s-43 -99 -99 -99z" />
    <glyph glyph-name="Ygrave" unicode="&#x1ef2;" horiz-adv-x="706" 
d="M460 0h-215v306l-255 394h243l122 -197l124 197h237l-256 -389v-311zM111 917h245l95 -158h-171z" />
    <glyph glyph-name="ygrave" unicode="&#x1ef3;" horiz-adv-x="611" 
d="M170 -206c-54 0 -95 8 -124 24v181c25 -18 54 -27 87 -27c43 0 65 10 78 45l-211 499h221l91 -292l82 292h217l-218 -566c-40 -104 -114 -156 -223 -156zM85 734h246l95 -158h-171z" />
    <glyph glyph-name="endash" unicode="&#x2013;" horiz-adv-x="777" 
d="M703 193h-629v183h629v-183z" />
    <glyph glyph-name="emdash" unicode="&#x2014;" horiz-adv-x="893" 
d="M819 193h-745v183h745v-183z" />
    <glyph glyph-name="uni2015" unicode="&#x2015;" horiz-adv-x="777" 
d="M703 193h-629v183h629v-183z" />
    <glyph glyph-name="quoteleft" unicode="&#x2018;" horiz-adv-x="344" 
d="M153 700h174l-94 -351h-217z" />
    <glyph glyph-name="quoteright" unicode="&#x2019;" horiz-adv-x="344" 
d="M191 349h-174l94 351h217z" />
    <glyph glyph-name="quotesinglbase" unicode="&#x201a;" horiz-adv-x="312" 
d="M154 -152h-174l94 351h217z" />
    <glyph glyph-name="quotedblleft" unicode="&#x201c;" horiz-adv-x="626" 
d="M435 700h174l-94 -351h-217zM153 700h174l-94 -351h-217z" />
    <glyph glyph-name="quotedblright" unicode="&#x201d;" horiz-adv-x="627" 
d="M474 349h-174l94 351h217zM191 349h-174l94 351h217z" />
    <glyph glyph-name="quotedblbase" unicode="&#x201e;" horiz-adv-x="595" 
d="M437 -152h-174l94 351h217zM154 -152h-174l94 351h217z" />
    <glyph glyph-name="dagger" unicode="&#x2020;" horiz-adv-x="488" 
d="M320 535h165v-148h-165v-387h-151v387h-166v148h166v165h151v-165z" />
    <glyph glyph-name="daggerdbl" unicode="&#x2021;" horiz-adv-x="488" 
d="M320 535h165v-148h-165v-83h165v-148h-165v-156h-151v156h-166v148h166v83h-166v148h166v165h151v-165z" />
    <glyph glyph-name="bullet" unicode="&#x2022;" horiz-adv-x="415" 
d="M26 394c0 50 18 93 53 128c36 36 79 54 129 54s93 -18 128 -54c35 -35 53 -78 53 -128c0 -49 -18 -92 -53 -128c-35 -35 -78 -53 -128 -53s-93 18 -129 53c-35 36 -53 79 -53 128z" />
    <glyph glyph-name="ellipsis" unicode="&#x2026;" horiz-adv-x="839" 
d="M144 231c33 0 62 -12 86 -36c24 -23 36 -52 36 -86s-12 -63 -36 -87s-53 -36 -86 -36s-62 12 -87 36c-24 24 -36 53 -36 87s12 63 36 86c24 24 53 36 87 36zM419 -14c-33 0 -62 12 -86 36s-36 53 -36 87s12 63 36 86c24 24 53 36 86 36c34 0 63 -12 86 -36
c24 -23 36 -52 36 -86s-12 -63 -36 -87c-23 -24 -52 -36 -86 -36zM695 -14c-33 0 -62 12 -86 36s-36 53 -36 87s12 63 36 86c24 24 53 36 86 36c34 0 63 -12 86 -36c24 -23 36 -52 36 -86s-12 -63 -36 -87c-23 -24 -52 -36 -86 -36z" />
    <glyph glyph-name="perthousand" unicode="&#x2030;" horiz-adv-x="1233" 
d="M270 0h-136l427 700h137zM62 664c35 33 80 50 134 50s98 -17 133 -50s53 -75 53 -126s-18 -93 -53 -126s-79 -50 -133 -50s-99 17 -134 50s-52 75 -52 126s17 93 52 126zM254 538c0 32 -26 59 -58 59s-58 -27 -58 -59c0 -33 25 -59 58 -59s58 26 58 59zM501 288
c35 33 80 50 134 50s98 -17 133 -50s53 -75 53 -126s-18 -93 -53 -126s-79 -50 -133 -50s-99 17 -134 50s-52 75 -52 126s17 93 52 126zM693 162c0 32 -26 59 -58 59s-58 -27 -58 -59c0 -33 25 -59 58 -59s58 26 58 59zM903 288c35 33 80 50 134 50s98 -17 133 -50
s53 -75 53 -126s-18 -93 -53 -126s-79 -50 -133 -50s-99 17 -134 50s-52 75 -52 126s17 93 52 126zM1095 162c0 32 -26 59 -58 59s-58 -27 -58 -59c0 -33 25 -59 58 -59s58 26 58 59z" />
    <glyph glyph-name="guilsinglleft" unicode="&#x2039;" horiz-adv-x="353" 
d="M343 29h-208l-123 177v103l123 178h208l-158 -229z" />
    <glyph glyph-name="guilsinglright" unicode="&#x203a;" horiz-adv-x="353" 
d="M341 309v-103l-123 -177h-208l158 229l-158 229h208z" />
    <glyph glyph-name="fraction" unicode="&#x2044;" horiz-adv-x="238" 
d="M-32 0h-130l428 700h130z" />
    <glyph glyph-name="zerosuperior" unicode="&#x2070;" horiz-adv-x="368" 
d="M54 649c31 39 75 59 130 59s98 -20 129 -59s47 -85 47 -138s-16 -99 -47 -138s-74 -59 -129 -59s-99 20 -130 59s-46 85 -46 138s15 99 46 138zM138 443c11 -19 26 -29 46 -29s35 10 45 29c20 39 20 97 0 136c-10 19 -25 29 -45 29s-35 -10 -46 -30
c-20 -39 -20 -95 0 -135z" />
    <glyph glyph-name="foursuperior" unicode="&#x2074;" horiz-adv-x="359" 
d="M301 700v-205h51v-88h-51v-85h-111v85h-185v81l178 212h118zM119 495h71v81z" />
    <glyph glyph-name="fivesuperior" unicode="&#x2075;" horiz-adv-x="320" 
d="M130 314c-43 0 -81 9 -114 27v107c35 -22 71 -33 109 -33c41 0 61 13 61 39c0 24 -24 39 -64 39c-32 0 -64 -5 -96 -15l26 222h224v-96h-138l-2 -26l14 1c91 0 152 -46 152 -125c0 -92 -75 -140 -172 -140z" />
    <glyph glyph-name="sixsuperior" unicode="&#x2076;" horiz-adv-x="344" 
d="M207 578c72 0 123 -47 123 -126c0 -83 -64 -138 -151 -138c-104 0 -163 69 -163 178c0 59 16 109 47 152s78 64 141 64c40 0 71 -8 93 -23v-101c-23 16 -49 24 -79 24c-43 0 -77 -19 -82 -56c17 17 41 26 71 26zM171 406c29 0 45 19 45 46c0 23 -17 42 -44 42
c-23 0 -38 -9 -46 -28c0 -40 21 -60 45 -60z" />
    <glyph glyph-name="sevensuperior" unicode="&#x2077;" horiz-adv-x="321" 
d="M158 322h-125l143 282h-163v96h293v-90z" />
    <glyph glyph-name="eightsuperior" unicode="&#x2078;" horiz-adv-x="349" 
d="M274 523c35 -13 63 -50 63 -89s-16 -68 -47 -89s-70 -31 -115 -31s-84 10 -116 31c-31 21 -47 50 -47 89s30 76 63 89c-27 13 -46 44 -46 75c0 65 62 110 146 110c83 0 145 -45 145 -110c0 -31 -19 -62 -46 -75zM175 553c21 0 39 13 39 32s-16 33 -39 33
c-52 3 -52 -69 0 -65zM222 444c6 51 -100 51 -95 0c0 -21 20 -38 48 -38s47 17 47 38z" />
    <glyph glyph-name="ninesuperior" unicode="&#x2079;" horiz-adv-x="344" 
d="M139 444c-72 0 -123 47 -123 126c0 83 64 138 151 138c104 0 163 -69 163 -178c0 -59 -16 -109 -47 -152s-78 -64 -141 -64c-40 0 -71 8 -93 23v101c23 -16 49 -24 79 -24c43 0 77 19 82 56c-17 -17 -41 -26 -71 -26zM175 616c-29 0 -45 -19 -45 -46c0 -23 17 -42 44 -42
c23 0 38 9 46 28c0 40 -21 60 -45 60z" />
    <glyph glyph-name="zeroinferior" unicode="&#x2080;" horiz-adv-x="368" 
d="M54 327c31 39 75 59 130 59s98 -20 129 -59s47 -85 47 -138s-16 -99 -47 -138s-74 -59 -129 -59s-99 20 -130 59s-46 85 -46 138s15 99 46 138zM138 121c11 -19 26 -29 46 -29s35 10 45 29c20 39 20 97 0 136c-10 19 -25 29 -45 29s-35 -10 -46 -30
c-20 -39 -20 -95 0 -135z" />
    <glyph glyph-name="oneinferior" unicode="&#x2081;" horiz-adv-x="250" 
d="M225 0h-115v261l-100 -47v112l104 52h111v-378z" />
    <glyph glyph-name="twoinferior" unicode="&#x2082;" horiz-adv-x="346" 
d="M320 0h-289v83l100 81c41 34 61 62 61 83c0 22 -15 33 -45 33c-35 0 -68 -12 -101 -36v114c30 19 67 28 111 28c39 0 74 -11 105 -34c31 -22 46 -52 46 -90c0 -55 -20 -90 -81 -142l-29 -24h122v-96z" />
    <glyph glyph-name="threeinferior" unicode="&#x2083;" horiz-adv-x="321" 
d="M141 -8c-48 0 -90 10 -125 31v105c41 -23 79 -35 115 -35c35 0 60 14 60 38c0 21 -17 37 -52 37c-27 0 -50 -4 -67 -13v70l76 57h-123v96h263v-86l-68 -53c58 -21 87 -58 87 -111c0 -41 -16 -74 -48 -99s-71 -37 -118 -37z" />
    <glyph glyph-name="fourinferior" unicode="&#x2084;" horiz-adv-x="359" 
d="M301 378v-205h51v-88h-51v-85h-111v85h-185v81l178 212h118zM119 173h71v81z" />
    <glyph glyph-name="fiveinferior" unicode="&#x2085;" horiz-adv-x="320" 
d="M130 -8c-43 0 -81 9 -114 27v107c35 -22 71 -33 109 -33c41 0 61 13 61 39c0 24 -24 39 -64 39c-32 0 -64 -5 -96 -15l26 222h224v-96h-138l-2 -26l14 1c91 0 152 -46 152 -125c0 -92 -75 -140 -172 -140z" />
    <glyph glyph-name="sixinferior" unicode="&#x2086;" horiz-adv-x="344" 
d="M207 256c72 0 123 -47 123 -126c0 -83 -64 -138 -151 -138c-104 0 -163 69 -163 178c0 59 16 109 47 152s78 64 141 64c40 0 71 -8 93 -23v-101c-23 16 -49 24 -79 24c-43 0 -77 -19 -82 -56c17 17 41 26 71 26zM171 84c29 0 45 19 45 46c0 23 -17 42 -44 42
c-23 0 -38 -9 -46 -28c0 -40 21 -60 45 -60z" />
    <glyph glyph-name="seveninferior" unicode="&#x2087;" horiz-adv-x="321" 
d="M158 0h-125l143 282h-163v96h293v-90z" />
    <glyph glyph-name="eightinferior" unicode="&#x2088;" horiz-adv-x="349" 
d="M274 201c35 -13 63 -50 63 -89s-16 -68 -47 -89s-70 -31 -115 -31s-84 10 -116 31c-31 21 -47 50 -47 89s30 76 63 89c-27 13 -46 44 -46 75c0 65 62 110 146 110c83 0 145 -45 145 -110c0 -31 -19 -62 -46 -75zM175 231c21 0 39 13 39 32s-16 33 -39 33
c-52 3 -52 -69 0 -65zM222 122c6 51 -100 51 -95 0c0 -21 20 -38 48 -38s47 17 47 38z" />
    <glyph glyph-name="nineinferior" unicode="&#x2089;" horiz-adv-x="344" 
d="M139 121c-72 0 -123 47 -123 126c0 83 64 138 151 138c104 0 163 -69 163 -178c0 -59 -16 -109 -47 -152s-78 -64 -141 -64c-40 0 -71 8 -93 23v101c23 -16 49 -24 79 -24c43 0 77 19 82 56c-17 -17 -41 -26 -71 -26zM175 293c-29 0 -45 -19 -45 -46c0 -23 17 -42 44 -42
c23 0 38 9 46 28c0 40 -21 60 -45 60z" />
    <glyph glyph-name="franc" unicode="&#x20a3;" horiz-adv-x="690" 
d="M112 100h-90v107h90v493h550v-185h-335v-69h241v-170h-241v-69h124v-107h-124v-100h-215v100z" />
    <glyph glyph-name="lira" unicode="&#x20a4;" horiz-adv-x="613" 
d="M120 360h-92v97h92v6c0 77 25 138 74 183c50 45 117 68 202 68c62 0 115 -9 158 -27v-197c-31 12 -67 18 -108 18c-58 0 -94 -17 -107 -51h185v-97h-190v-34h190v-97h-192c-3 -22 -14 -37 -33 -44h279v-185h-550v185h24c43 0 65 15 68 44h-92v97h92v34z" />
    <glyph glyph-name="peseta" unicode="&#x20a7;" horiz-adv-x="774" 
d="M674 535h71v-146h-78c-35 -89 -125 -145 -249 -145h-107v-244h-215v389h-83v146h83v165h322c132 0 228 -65 256 -165zM311 400h78c44 0 74 26 74 63s-31 62 -74 62h-78v-125z" />
    <glyph glyph-name="Euro" unicode="&#x20ac;" horiz-adv-x="632" 
d="M6 372v107h84c16 54 43 99 82 136c77 73 164 99 259 99c55 0 103 -8 146 -23v-191c-40 18 -80 27 -120 27c-61 0 -108 -16 -141 -48h138v-107h-185c-1 -4 -1 -10 -1 -17v-17h186v-107h-145c32 -39 81 -58 148 -58c52 0 97 11 135 34v-198c-39 -15 -92 -23 -161 -23
c-79 0 -151 20 -214 60c-63 41 -106 102 -129 185h-82v107h67v17v17h-67z" />
    <glyph glyph-name="uni20B4" unicode="&#x20b4;" horiz-adv-x="591" 
d="M321 -14c-47 0 -91 6 -130 18s-73 33 -101 64s-42 68 -42 113c0 28 9 55 26 80h-44v85h535v-85h-251c-29 -10 -43 -27 -43 -50c0 -27 29 -41 86 -41c26 0 57 4 94 12s65 18 86 30v-188c-60 -25 -132 -38 -216 -38zM565 388h-535v85h269c7 5 10 13 10 25
c0 23 -26 35 -78 35c-59 0 -113 -11 -164 -33v184c48 20 112 30 192 30c129 0 273 -50 273 -198c0 -19 -3 -34 -8 -43h41v-85z" />
    <glyph glyph-name="uni20B6" unicode="&#x20b6;" horiz-adv-x="754" 
d="M140 246h-122v142h122v312h322c80 0 144 -21 192 -64c49 -42 73 -96 73 -163c0 -66 -24 -120 -73 -163c-48 -43 -112 -64 -192 -64h-108v-39h215v-107h-215v-100h-214v100h-122v107h122v39zM349 526v-138h76c55 0 90 25 90 70c0 43 -35 68 -90 68h-76z" />
    <glyph glyph-name="uni20B6" unicode="&#x20cf;" horiz-adv-x="754" 
d="M140 246h-122v142h122v312h322c80 0 144 -21 192 -64c49 -42 73 -96 73 -163c0 -66 -24 -120 -73 -163c-48 -43 -112 -64 -192 -64h-108v-39h215v-107h-215v-100h-214v100h-122v107h122v39zM349 526v-138h76c55 0 90 25 90 70c0 43 -35 68 -90 68h-76z" />
    <glyph glyph-name="uni20B6" unicode="&#x20ce;" horiz-adv-x="754" 
d="M140 246h-122v142h122v312h322c80 0 144 -21 192 -64c49 -42 73 -96 73 -163c0 -66 -24 -120 -73 -163c-48 -43 -112 -64 -192 -64h-108v-39h215v-107h-215v-100h-214v100h-122v107h122v39zM349 526v-138h76c55 0 90 25 90 70c0 43 -35 68 -90 68h-76z" />
    <glyph glyph-name="uni20B6" unicode="&#x20cd;" horiz-adv-x="754" 
d="M140 246h-122v142h122v312h322c80 0 144 -21 192 -64c49 -42 73 -96 73 -163c0 -66 -24 -120 -73 -163c-48 -43 -112 -64 -192 -64h-108v-39h215v-107h-215v-100h-214v100h-122v107h122v39zM349 526v-138h76c55 0 90 25 90 70c0 43 -35 68 -90 68h-76z" />
    <glyph glyph-name="uni20B6" unicode="&#x20cc;" horiz-adv-x="754" 
d="M140 246h-122v142h122v312h322c80 0 144 -21 192 -64c49 -42 73 -96 73 -163c0 -66 -24 -120 -73 -163c-48 -43 -112 -64 -192 -64h-108v-39h215v-107h-215v-100h-214v100h-122v107h122v39zM349 526v-138h76c55 0 90 25 90 70c0 43 -35 68 -90 68h-76z" />
    <glyph glyph-name="uni20B6" unicode="&#x20cb;" horiz-adv-x="754" 
d="M140 246h-122v142h122v312h322c80 0 144 -21 192 -64c49 -42 73 -96 73 -163c0 -66 -24 -120 -73 -163c-48 -43 -112 -64 -192 -64h-108v-39h215v-107h-215v-100h-214v100h-122v107h122v39zM349 526v-138h76c55 0 90 25 90 70c0 43 -35 68 -90 68h-76z" />
    <glyph glyph-name="uni20B6" unicode="&#x20ca;" horiz-adv-x="754" 
d="M140 246h-122v142h122v312h322c80 0 144 -21 192 -64c49 -42 73 -96 73 -163c0 -66 -24 -120 -73 -163c-48 -43 -112 -64 -192 -64h-108v-39h215v-107h-215v-100h-214v100h-122v107h122v39zM349 526v-138h76c55 0 90 25 90 70c0 43 -35 68 -90 68h-76z" />
    <glyph glyph-name="uni20B6" unicode="&#x20c9;" horiz-adv-x="754" 
d="M140 246h-122v142h122v312h322c80 0 144 -21 192 -64c49 -42 73 -96 73 -163c0 -66 -24 -120 -73 -163c-48 -43 -112 -64 -192 -64h-108v-39h215v-107h-215v-100h-214v100h-122v107h122v39zM349 526v-138h76c55 0 90 25 90 70c0 43 -35 68 -90 68h-76z" />
    <glyph glyph-name="uni20B6" unicode="&#x20c8;" horiz-adv-x="754" 
d="M140 246h-122v142h122v312h322c80 0 144 -21 192 -64c49 -42 73 -96 73 -163c0 -66 -24 -120 -73 -163c-48 -43 -112 -64 -192 -64h-108v-39h215v-107h-215v-100h-214v100h-122v107h122v39zM349 526v-138h76c55 0 90 25 90 70c0 43 -35 68 -90 68h-76z" />
    <glyph glyph-name="uni20B6" unicode="&#x20c7;" horiz-adv-x="754" 
d="M140 246h-122v142h122v312h322c80 0 144 -21 192 -64c49 -42 73 -96 73 -163c0 -66 -24 -120 -73 -163c-48 -43 -112 -64 -192 -64h-108v-39h215v-107h-215v-100h-214v100h-122v107h122v39zM349 526v-138h76c55 0 90 25 90 70c0 43 -35 68 -90 68h-76z" />
    <glyph glyph-name="uni20B6" unicode="&#x20c6;" horiz-adv-x="754" 
d="M140 246h-122v142h122v312h322c80 0 144 -21 192 -64c49 -42 73 -96 73 -163c0 -66 -24 -120 -73 -163c-48 -43 -112 -64 -192 -64h-108v-39h215v-107h-215v-100h-214v100h-122v107h122v39zM349 526v-138h76c55 0 90 25 90 70c0 43 -35 68 -90 68h-76z" />
    <glyph glyph-name="uni20B6" unicode="&#x20c5;" horiz-adv-x="754" 
d="M140 246h-122v142h122v312h322c80 0 144 -21 192 -64c49 -42 73 -96 73 -163c0 -66 -24 -120 -73 -163c-48 -43 -112 -64 -192 -64h-108v-39h215v-107h-215v-100h-214v100h-122v107h122v39zM349 526v-138h76c55 0 90 25 90 70c0 43 -35 68 -90 68h-76z" />
    <glyph glyph-name="uni20B6" unicode="&#x20c4;" horiz-adv-x="754" 
d="M140 246h-122v142h122v312h322c80 0 144 -21 192 -64c49 -42 73 -96 73 -163c0 -66 -24 -120 -73 -163c-48 -43 -112 -64 -192 -64h-108v-39h215v-107h-215v-100h-214v100h-122v107h122v39zM349 526v-138h76c55 0 90 25 90 70c0 43 -35 68 -90 68h-76z" />
    <glyph glyph-name="uni20B6" unicode="&#x20c3;" horiz-adv-x="754" 
d="M140 246h-122v142h122v312h322c80 0 144 -21 192 -64c49 -42 73 -96 73 -163c0 -66 -24 -120 -73 -163c-48 -43 -112 -64 -192 -64h-108v-39h215v-107h-215v-100h-214v100h-122v107h122v39zM349 526v-138h76c55 0 90 25 90 70c0 43 -35 68 -90 68h-76z" />
    <glyph glyph-name="uni20B6" unicode="&#x20c2;" horiz-adv-x="754" 
d="M140 246h-122v142h122v312h322c80 0 144 -21 192 -64c49 -42 73 -96 73 -163c0 -66 -24 -120 -73 -163c-48 -43 -112 -64 -192 -64h-108v-39h215v-107h-215v-100h-214v100h-122v107h122v39zM349 526v-138h76c55 0 90 25 90 70c0 43 -35 68 -90 68h-76z" />
    <glyph glyph-name="uni20B6" unicode="&#x20c1;" horiz-adv-x="754" 
d="M140 246h-122v142h122v312h322c80 0 144 -21 192 -64c49 -42 73 -96 73 -163c0 -66 -24 -120 -73 -163c-48 -43 -112 -64 -192 -64h-108v-39h215v-107h-215v-100h-214v100h-122v107h122v39zM349 526v-138h76c55 0 90 25 90 70c0 43 -35 68 -90 68h-76z" />
    <glyph glyph-name="uni20B6" unicode="&#x20c0;" horiz-adv-x="754" 
d="M140 246h-122v142h122v312h322c80 0 144 -21 192 -64c49 -42 73 -96 73 -163c0 -66 -24 -120 -73 -163c-48 -43 -112 -64 -192 -64h-108v-39h215v-107h-215v-100h-214v100h-122v107h122v39zM349 526v-138h76c55 0 90 25 90 70c0 43 -35 68 -90 68h-76z" />
    <glyph glyph-name="uni20B6" unicode="&#x20bf;" horiz-adv-x="754" 
d="M140 246h-122v142h122v312h322c80 0 144 -21 192 -64c49 -42 73 -96 73 -163c0 -66 -24 -120 -73 -163c-48 -43 -112 -64 -192 -64h-108v-39h215v-107h-215v-100h-214v100h-122v107h122v39zM349 526v-138h76c55 0 90 25 90 70c0 43 -35 68 -90 68h-76z" />
    <glyph glyph-name="uni20B6" unicode="&#x20be;" horiz-adv-x="754" 
d="M140 246h-122v142h122v312h322c80 0 144 -21 192 -64c49 -42 73 -96 73 -163c0 -66 -24 -120 -73 -163c-48 -43 -112 -64 -192 -64h-108v-39h215v-107h-215v-100h-214v100h-122v107h122v39zM349 526v-138h76c55 0 90 25 90 70c0 43 -35 68 -90 68h-76z" />
    <glyph glyph-name="uni20B6" unicode="&#x20bd;" horiz-adv-x="754" 
d="M140 246h-122v142h122v312h322c80 0 144 -21 192 -64c49 -42 73 -96 73 -163c0 -66 -24 -120 -73 -163c-48 -43 -112 -64 -192 -64h-108v-39h215v-107h-215v-100h-214v100h-122v107h122v39zM349 526v-138h76c55 0 90 25 90 70c0 43 -35 68 -90 68h-76z" />
    <glyph glyph-name="uni20B6" unicode="&#x20bc;" horiz-adv-x="754" 
d="M140 246h-122v142h122v312h322c80 0 144 -21 192 -64c49 -42 73 -96 73 -163c0 -66 -24 -120 -73 -163c-48 -43 -112 -64 -192 -64h-108v-39h215v-107h-215v-100h-214v100h-122v107h122v39zM349 526v-138h76c55 0 90 25 90 70c0 43 -35 68 -90 68h-76z" />
    <glyph glyph-name="uni20B6" unicode="&#x20bb;" horiz-adv-x="754" 
d="M140 246h-122v142h122v312h322c80 0 144 -21 192 -64c49 -42 73 -96 73 -163c0 -66 -24 -120 -73 -163c-48 -43 -112 -64 -192 -64h-108v-39h215v-107h-215v-100h-214v100h-122v107h122v39zM349 526v-138h76c55 0 90 25 90 70c0 43 -35 68 -90 68h-76z" />
    <glyph glyph-name="uni20B6" unicode="&#x20ba;" horiz-adv-x="754" 
d="M140 246h-122v142h122v312h322c80 0 144 -21 192 -64c49 -42 73 -96 73 -163c0 -66 -24 -120 -73 -163c-48 -43 -112 -64 -192 -64h-108v-39h215v-107h-215v-100h-214v100h-122v107h122v39zM349 526v-138h76c55 0 90 25 90 70c0 43 -35 68 -90 68h-76z" />
    <glyph glyph-name="uni20B6" unicode="&#x20b9;" horiz-adv-x="754" 
d="M140 246h-122v142h122v312h322c80 0 144 -21 192 -64c49 -42 73 -96 73 -163c0 -66 -24 -120 -73 -163c-48 -43 -112 -64 -192 -64h-108v-39h215v-107h-215v-100h-214v100h-122v107h122v39zM349 526v-138h76c55 0 90 25 90 70c0 43 -35 68 -90 68h-76z" />
    <glyph glyph-name="uni20B6" unicode="&#x20b7;" horiz-adv-x="754" 
d="M140 246h-122v142h122v312h322c80 0 144 -21 192 -64c49 -42 73 -96 73 -163c0 -66 -24 -120 -73 -163c-48 -43 -112 -64 -192 -64h-108v-39h215v-107h-215v-100h-214v100h-122v107h122v39zM349 526v-138h76c55 0 90 25 90 70c0 43 -35 68 -90 68h-76z" />
    <glyph glyph-name="uni2113" unicode="&#x2113;" horiz-adv-x="422" 
d="M194 190c4 -45 35 -68 93 -68c39 0 75 12 107 37v-129c-33 -29 -80 -43 -142 -43c-135 0 -211 80 -211 215v276c0 147 66 236 191 236c53 0 94 -18 123 -53s43 -78 43 -128c0 -107 -68 -222 -204 -343zM194 493v-129c52 53 79 119 79 163c0 33 -12 50 -37 50
c-24 0 -42 -27 -42 -84z" />
    <glyph glyph-name="uni2116" unicode="&#x2116;" horiz-adv-x="1172" 
d="M259 0h-206v700h183l268 -338v338h204v-700h-177l-272 340v-340zM1136 201h-357v118h357v-118zM824 664c35 33 80 50 134 50s98 -17 133 -50s53 -75 53 -126s-18 -93 -53 -126s-79 -50 -133 -50s-99 17 -134 50s-52 75 -52 126s17 93 52 126zM1016 538
c0 32 -26 59 -58 59s-58 -27 -58 -59c0 -33 25 -59 58 -59s58 26 58 59z" />
    <glyph glyph-name="trademark" unicode="&#x2122;" horiz-adv-x="670" 
d="M417 387h-90v313h87l70 -109l69 109h87v-313h-89v175l-44 -68h-47l-43 68v-175zM190 387h-91v234h-90v79h273v-79h-92v-234z" />
    <glyph glyph-name="Omega" unicode="&#x2126;" horiz-adv-x="776" 
d="M645 185h93v-185h-324v156c57 33 104 112 104 205c0 46 -11 85 -34 118s-55 49 -96 49s-73 -16 -96 -49s-34 -72 -34 -118c0 -93 47 -172 104 -205v-156h-324v185h93c-49 35 -92 117 -92 213c0 80 31 156 87 216c56 61 150 100 262 100s206 -39 262 -100
c56 -60 87 -136 87 -216c0 -96 -43 -178 -92 -213z" />
    <glyph glyph-name="estimated" unicode="&#x212e;" horiz-adv-x="764" 
d="M382 -14c-97 0 -180 33 -248 98c-67 65 -101 148 -101 249c0 88 34 173 91 238s151 108 258 108c115 0 211 -50 264 -119c55 -69 84 -149 84 -222v-15h-561v-211c59 -56 130 -84 213 -84c120 0 218 58 271 163h49c-23 -57 -62 -105 -117 -145s-122 -60 -203 -60zM169 553
v-187h426v187c-61 57 -132 85 -213 85c-82 0 -153 -28 -213 -85z" />
    <glyph glyph-name="onethird" unicode="&#x2153;" horiz-adv-x="791" 
d="M225 322h-115v261l-100 -47v112l104 52h111v-378zM218 0h-130l428 700h130zM611 -8c-48 0 -90 10 -125 31v105c41 -23 79 -35 115 -35c35 0 60 14 60 38c0 21 -17 37 -52 37c-27 0 -50 -4 -67 -13v70l76 57h-123v96h263v-86l-68 -53c58 -21 87 -58 87 -111
c0 -41 -16 -74 -48 -99s-71 -37 -118 -37z" />
    <glyph glyph-name="twothirds" unicode="&#x2154;" horiz-adv-x="878" 
d="M320 322h-289v83l100 81c41 34 61 62 61 83c0 22 -15 33 -45 33c-35 0 -68 -12 -101 -36v114c30 19 67 28 111 28c39 0 74 -11 105 -34c31 -22 46 -52 46 -90c0 -55 -20 -90 -81 -142l-29 -24h122v-96zM698 -8c-48 0 -90 10 -125 31v105c41 -23 79 -35 115 -35
c35 0 60 14 60 38c0 21 -17 37 -52 37c-27 0 -50 -4 -67 -13v70l76 57h-123v96h263v-86l-68 -53c58 -21 87 -58 87 -111c0 -41 -16 -74 -48 -99s-71 -37 -118 -37zM305 0h-130l428 700h130z" />
    <glyph glyph-name="uni2155" unicode="&#x2155;" horiz-adv-x="773" 
d="M225 322h-115v261l-100 -47v112l104 52h111v-378zM218 0h-130l428 700h130zM583 -8c-43 0 -81 9 -114 27v107c35 -22 71 -33 109 -33c41 0 61 13 61 39c0 24 -24 39 -64 39c-32 0 -64 -5 -96 -15l26 222h224v-96h-138l-2 -26l14 1c91 0 152 -46 152 -125
c0 -92 -75 -140 -172 -140z" />
    <glyph glyph-name="uni2156" unicode="&#x2156;" horiz-adv-x="860" 
d="M320 322h-289v83l100 81c41 34 61 62 61 83c0 22 -15 33 -45 33c-35 0 -68 -12 -101 -36v114c30 19 67 28 111 28c39 0 74 -11 105 -34c31 -22 46 -52 46 -90c0 -55 -20 -90 -81 -142l-29 -24h122v-96zM670 -8c-43 0 -81 9 -114 27v107c35 -22 71 -33 109 -33
c41 0 61 13 61 39c0 24 -24 39 -64 39c-32 0 -64 -5 -96 -15l26 222h224v-96h-138l-2 -26l14 1c91 0 152 -46 152 -125c0 -92 -75 -140 -172 -140zM305 0h-130l428 700h130z" />
    <glyph glyph-name="uni2157" unicode="&#x2157;" horiz-adv-x="813" 
d="M141 314c-48 0 -90 10 -125 31v105c41 -23 79 -35 115 -35c35 0 60 14 60 38c0 21 -17 37 -52 37c-27 0 -50 -4 -67 -13v70l76 57h-123v96h263v-86l-68 -53c58 -21 87 -58 87 -111c0 -41 -16 -74 -48 -99s-71 -37 -118 -37zM258 0h-130l428 700h130zM623 -8
c-43 0 -81 9 -114 27v107c35 -22 71 -33 109 -33c41 0 61 13 61 39c0 24 -24 39 -64 39c-32 0 -64 -5 -96 -15l26 222h224v-96h-138l-2 -26l14 1c91 0 152 -46 152 -125c0 -92 -75 -140 -172 -140z" />
    <glyph glyph-name="uni2158" unicode="&#x2158;" horiz-adv-x="855" 
d="M665 -8c-43 0 -81 9 -114 27v107c35 -22 71 -33 109 -33c41 0 61 13 61 39c0 24 -24 39 -64 39c-32 0 -64 -5 -96 -15l26 222h224v-96h-138l-2 -26l14 1c91 0 152 -46 152 -125c0 -92 -75 -140 -172 -140zM301 700v-205h51v-88h-51v-85h-111v85h-185v81l178 212h118z
M119 495h71v81zM300 0h-130l428 700h130z" />
    <glyph glyph-name="uni2159" unicode="&#x2159;" horiz-adv-x="775" 
d="M225 322h-115v261l-100 -47v112l104 52h111v-378zM218 0h-130l428 700h130zM638 256c72 0 123 -47 123 -126c0 -83 -64 -138 -151 -138c-104 0 -163 69 -163 178c0 59 16 109 47 152s78 64 141 64c40 0 71 -8 93 -23v-101c-23 16 -49 24 -79 24c-43 0 -77 -19 -82 -56
c17 17 41 26 71 26zM602 84c29 0 45 19 45 46c0 23 -17 42 -44 42c-23 0 -38 -9 -46 -28c0 -40 21 -60 45 -60z" />
    <glyph glyph-name="uni215A" unicode="&#x215a;" horiz-adv-x="810" 
d="M130 314c-43 0 -81 9 -114 27v107c35 -22 71 -33 109 -33c41 0 61 13 61 39c0 24 -24 39 -64 39c-32 0 -64 -5 -96 -15l26 222h224v-96h-138l-2 -26l14 1c91 0 152 -46 152 -125c0 -92 -75 -140 -172 -140zM253 0h-130l428 700h130zM673 256c72 0 123 -47 123 -126
c0 -83 -64 -138 -151 -138c-104 0 -163 69 -163 178c0 59 16 109 47 152s78 64 141 64c40 0 71 -8 93 -23v-101c-23 16 -49 24 -79 24c-43 0 -77 -19 -82 -56c17 17 41 26 71 26zM637 84c29 0 45 19 45 46c0 23 -17 42 -44 42c-23 0 -38 -9 -46 -28c0 -40 21 -60 45 -60z
" />
    <glyph glyph-name="oneeighth" unicode="&#x215b;" horiz-adv-x="800" 
d="M225 322h-115v261l-100 -47v112l104 52h111v-378zM218 0h-130l428 700h130zM725 201c35 -13 63 -50 63 -89s-16 -68 -47 -89s-70 -31 -115 -31s-84 10 -116 31c-31 21 -47 50 -47 89s30 76 63 89c-27 13 -46 44 -46 75c0 65 62 110 146 110c83 0 145 -45 145 -110
c0 -31 -19 -62 -46 -75zM626 231c21 0 39 13 39 32s-16 33 -39 33c-52 3 -52 -69 0 -65zM673 122c6 51 -100 51 -95 0c0 -21 20 -38 48 -38s47 17 47 38z" />
    <glyph glyph-name="threeeighths" unicode="&#x215c;" horiz-adv-x="840" 
d="M141 314c-48 0 -90 10 -125 31v105c41 -23 79 -35 115 -35c35 0 60 14 60 38c0 21 -17 37 -52 37c-27 0 -50 -4 -67 -13v70l76 57h-123v96h263v-86l-68 -53c58 -21 87 -58 87 -111c0 -41 -16 -74 -48 -99s-71 -37 -118 -37zM258 0h-130l428 700h130zM765 201
c35 -13 63 -50 63 -89s-16 -68 -47 -89s-70 -31 -115 -31s-84 10 -116 31c-31 21 -47 50 -47 89s30 76 63 89c-27 13 -46 44 -46 75c0 65 62 110 146 110c83 0 145 -45 145 -110c0 -31 -19 -62 -46 -75zM666 231c21 0 39 13 39 32s-16 33 -39 33c-52 3 -52 -69 0 -65z
M713 122c6 51 -100 51 -95 0c0 -21 20 -38 48 -38s47 17 47 38z" />
    <glyph glyph-name="fiveeighths" unicode="&#x215d;" horiz-adv-x="835" 
d="M130 314c-43 0 -81 9 -114 27v107c35 -22 71 -33 109 -33c41 0 61 13 61 39c0 24 -24 39 -64 39c-32 0 -64 -5 -96 -15l26 222h224v-96h-138l-2 -26l14 1c91 0 152 -46 152 -125c0 -92 -75 -140 -172 -140zM253 0h-130l428 700h130zM760 201c35 -13 63 -50 63 -89
s-16 -68 -47 -89s-70 -31 -115 -31s-84 10 -116 31c-31 21 -47 50 -47 89s30 76 63 89c-27 13 -46 44 -46 75c0 65 62 110 146 110c83 0 145 -45 145 -110c0 -31 -19 -62 -46 -75zM661 231c21 0 39 13 39 32s-16 33 -39 33c-52 3 -52 -69 0 -65zM708 122c6 51 -100 51 -95 0
c0 -21 20 -38 48 -38s47 17 47 38z" />
    <glyph glyph-name="seveneighths" unicode="&#x215e;" horiz-adv-x="786" 
d="M158 322h-125l143 282h-163v96h293v-90zM711 201c35 -13 63 -50 63 -89s-16 -68 -47 -89s-70 -31 -115 -31s-84 10 -116 31c-31 21 -47 50 -47 89s30 76 63 89c-27 13 -46 44 -46 75c0 65 62 110 146 110c83 0 145 -45 145 -110c0 -31 -19 -62 -46 -75zM612 231
c21 0 39 13 39 32s-16 33 -39 33c-52 3 -52 -69 0 -65zM659 122c6 51 -100 51 -95 0c0 -21 20 -38 48 -38s47 17 47 38zM204 0h-130l428 700h130z" />
    <glyph glyph-name="uni215F" unicode="&#x215f;" horiz-adv-x="463" 
d="M218 0h-130l428 700h130zM225 322h-115v261l-100 -47v112l104 52h111v-378z" />
    <glyph glyph-name="arrowleft" unicode="&#x2190;" horiz-adv-x="686" 
d="M22 267l194 235h191l-134 -156h368v-158h-368l134 -156h-191z" />
    <glyph glyph-name="arrowup" unicode="&#x2191;" horiz-adv-x="560" 
d="M201 368l-156 -134v191l235 194l235 -194v-191l-156 134v-368h-158v368z" />
    <glyph glyph-name="arrowright" unicode="&#x2192;" horiz-adv-x="686" 
d="M413 346l-134 156h191l194 -235l-194 -235h-191l134 156h-368v158h368z" />
    <glyph glyph-name="arrowdown" unicode="&#x2193;" horiz-adv-x="560" 
d="M359 229l156 134v-191l-235 -194l-235 194v191l156 -134v368h158v-368z" />
    <glyph glyph-name="partialdiff" unicode="&#x2202;" horiz-adv-x="600" 
d="M263 -14c-71 0 -130 22 -176 65c-45 44 -68 100 -68 169c0 67 22 123 67 169c45 47 102 70 173 70c61 0 110 -24 145 -73c0 54 -14 99 -42 135s-69 54 -122 54c-49 0 -94 -13 -135 -39v137c44 29 98 43 162 43c91 0 163 -32 217 -96c54 -63 81 -150 81 -259
c0 -191 -85 -375 -302 -375zM277 119c64 0 115 54 120 142c-17 44 -55 72 -100 72c-30 0 -57 -10 -82 -31c-24 -21 -36 -48 -36 -83c0 -59 38 -100 98 -100z" />
    <glyph glyph-name="increment" unicode="&#x2206;" horiz-adv-x="783" 
d="M783 0h-782l288 700h205zM390 446l-96 -266h191z" />
    <glyph glyph-name="product" unicode="&#x220f;" horiz-adv-x="786" 
d="M306 -140h-170v695h-126v145h767v-145h-127v-695h-170v695h-174v-695z" />
    <glyph glyph-name="summation" unicode="&#x2211;" horiz-adv-x="637" 
d="M609 0h-585v152l200 198l-188 199v151h562v-185h-266l114 -124v-81l-126 -125h289v-185z" />
    <glyph glyph-name="minus" unicode="&#x2212;" horiz-adv-x="762" 
d="M40 245v183h682v-183h-682z" />
    <glyph glyph-name="uni2215" unicode="&#x2215;" horiz-adv-x="555" 
d="M127 0h-130l428 700h130z" />
    <glyph glyph-name="uni2219" unicode="&#x2219;" horiz-adv-x="263" 
d="M132 420c33 0 62 -12 86 -36c24 -23 36 -52 36 -86s-12 -63 -36 -87s-53 -36 -86 -36s-62 12 -87 36c-24 24 -36 53 -36 87s12 63 36 86c24 24 53 36 87 36z" />
    <glyph glyph-name="radical" unicode="&#x221a;" horiz-adv-x="780" 
d="M479 0h-171l-158 352h-137v177h266l116 -268l185 439h195z" />
    <glyph glyph-name="infinity" unicode="&#x221e;" horiz-adv-x="802" 
d="M221 77c-51 0 -99 18 -144 55c-44 37 -66 90 -66 161c0 66 22 117 67 153c45 37 93 55 144 55c78 0 138 -30 180 -89c27 45 97 89 181 89c57 0 106 -20 147 -61c41 -40 61 -89 61 -147c0 -64 -20 -116 -61 -156s-90 -60 -147 -60c-81 0 -141 29 -182 88
c-43 -59 -103 -88 -180 -88zM240 225c33 0 66 29 82 66c-25 41 -53 62 -84 62s-60 -29 -60 -61c0 -36 27 -67 62 -67zM566 225c33 0 59 31 59 68c0 35 -25 59 -61 59c-37 0 -60 -17 -83 -61c17 -44 46 -66 85 -66z" />
    <glyph glyph-name="integral" unicode="&#x222b;" horiz-adv-x="514" 
d="M400 722c48 0 85 -5 110 -16v-164c-19 5 -37 8 -56 8c-59 0 -93 -37 -102 -96l-71 -430c-11 -65 -37 -119 -79 -163c-41 -45 -101 -67 -180 -67c-48 0 -85 5 -110 16v164c19 -5 37 -8 56 -8c57 0 93 37 102 96l71 429c11 65 37 120 78 164c42 45 102 67 181 67z" />
    <glyph glyph-name="approxequal" unicode="&#x2248;" horiz-adv-x="604" 
d="M443 495c53 0 93 13 121 39v-177c-21 -24 -72 -41 -124 -41c-31 0 -77 9 -138 27c-60 19 -107 28 -141 28c-53 0 -93 -13 -121 -39v177c25 27 67 41 124 41c31 0 77 -9 138 -28c61 -18 108 -27 141 -27zM443 261c53 0 93 13 121 39v-177c-21 -24 -72 -41 -124 -41
c-31 0 -77 9 -138 27c-60 19 -107 28 -141 28c-53 0 -93 -13 -121 -39v177c25 27 67 41 124 41c31 0 77 -9 138 -28c61 -18 108 -27 141 -27z" />
    <glyph glyph-name="notequal" unicode="&#x2260;" horiz-adv-x="618" 
d="M239 365h-199v180h294l45 86h169l-45 -86h75v-180h-170l-29 -55h199v-180h-293l-45 -86h-169l45 86h-76v180h170z" />
    <glyph glyph-name="lessequal" unicode="&#x2264;" horiz-adv-x="619" 
d="M578 400v-206l-538 176v179l538 176v-205l-333 -60zM579 0h-539v171h539v-171z" />
    <glyph glyph-name="greaterequal" unicode="&#x2265;" horiz-adv-x="618" 
d="M578 0h-538v171h538v-171zM578 549v-179l-538 -176v206l333 60l-333 60v205z" />
    <glyph glyph-name="dotmath" unicode="&#x22c5;" horiz-adv-x="288" 
d="M144 519c33 0 62 -12 86 -36c24 -23 36 -52 36 -86s-12 -63 -36 -87s-53 -36 -86 -36s-62 12 -87 36c-24 24 -36 53 -36 87s12 63 36 86c24 24 53 36 87 36z" />
    <glyph glyph-name="lozenge" unicode="&#x25ca;" horiz-adv-x="571" 
d="M376 0h-181l-181 350l181 350h181l181 -350zM203 350l85 -179l84 179l-84 179z" />
    <glyph glyph-name="uniF401" unicode="&#xf401;" horiz-adv-x="0" 
d="M-353 759h-171l95 158h246z" />
    <glyph glyph-name="uniF639" unicode="&#xf639;" 
d="M330 -14c-402 3 -402 725 0 728c65 0 121 -18 168 -55c93 -72 133 -184 133 -309c0 -63 -11 -121 -32 -175c-21 -53 -54 -98 -101 -135c-47 -36 -103 -54 -168 -54zM330 182c58 0 87 56 87 168s-29 168 -87 168c-31 0 -54 -16 -67 -49s-20 -72 -20 -119s7 -86 20 -119
s36 -49 67 -49z" />
    <glyph glyph-name="uniF63A" unicode="&#xf63a;" 
d="M587 0h-518v154l173 150c42 37 71 66 86 88c16 23 24 45 24 66c0 37 -32 61 -80 61c-60 0 -119 -23 -177 -68v211c53 35 120 52 200 52c71 0 133 -21 188 -62s83 -97 83 -167c0 -51 -11 -97 -32 -136s-59 -81 -114 -127l-52 -43h219v-179z" />
    <glyph glyph-name="uniF63B" unicode="&#xf63b;" 
d="M299 -14c-86 0 -160 19 -223 57v194c73 -43 141 -65 202 -65c63 0 105 27 105 71c0 40 -32 69 -91 69c-45 0 -84 -8 -117 -24v129l138 104h-221v179h471v-160l-121 -98c104 -40 156 -108 156 -205c0 -76 -29 -137 -87 -183c-57 -45 -128 -68 -212 -68z" />
    <glyph glyph-name="uniF63C" unicode="&#xf63c;" 
d="M541 0h-203v158h-329v149l320 393h212v-380h91v-162h-91v-158zM338 466l-124 -146h124v146z" />
    <glyph glyph-name="uniF63D" unicode="&#xf63d;" 
d="M283 -14c-79 0 -148 17 -206 50v197c63 -41 128 -61 193 -61c71 0 106 24 106 72c0 45 -40 72 -112 72c-58 0 -114 -9 -168 -27l46 411h402v-179h-244l-4 -47l22 1c81 0 147 -20 197 -61c51 -41 76 -97 76 -170c0 -57 -15 -106 -45 -146c-59 -80 -152 -112 -263 -112z
" />
    <glyph glyph-name="uniF63E" unicode="&#xf63e;" 
d="M391 474c64 0 117 -21 158 -62c42 -41 63 -98 63 -171c0 -77 -26 -138 -77 -185s-116 -70 -193 -70c-93 0 -166 30 -217 89s-76 139 -76 239c0 101 25 194 77 271c52 79 144 129 260 129c71 0 127 -14 168 -42v-187c-41 30 -89 45 -142 45c-76 0 -138 -36 -147 -105
c30 33 72 49 126 49zM327 161c49 0 76 32 76 79c0 40 -29 75 -74 75c-31 0 -66 -20 -79 -49c0 -69 37 -105 77 -105z" />
    <glyph glyph-name="uniF63F" unicode="&#xf63f;" 
d="M325 0h-227l257 521h-290v179h527v-167z" />
    <glyph glyph-name="uniF640" unicode="&#xf640;" 
d="M508 372c31 -13 57 -35 79 -66c23 -31 34 -64 34 -99c0 -71 -28 -125 -85 -164c-56 -38 -125 -57 -206 -57s-150 19 -207 57c-56 39 -84 93 -84 164c0 35 11 68 33 99c23 31 49 53 80 66c-48 24 -84 82 -84 138c0 61 25 110 74 147c50 38 113 57 188 57s138 -19 187 -57
c50 -37 75 -86 75 -147c0 -56 -36 -114 -84 -138zM377 527c-25 21 -69 21 -94 0s-25 -59 0 -80c25 -20 69 -20 94 0c25 21 25 59 0 80zM411 226c0 39 -33 68 -81 68s-81 -29 -81 -68c0 -37 34 -66 81 -66s81 29 81 66z" />
    <glyph glyph-name="uniF641" unicode="&#xf641;" 
d="M270 226c-64 0 -117 21 -159 62c-41 41 -62 98 -62 171c0 77 26 138 77 185s116 70 193 70c93 0 165 -30 216 -89s77 -139 77 -239c0 -101 -25 -193 -77 -272c-52 -77 -144 -128 -260 -128c-71 0 -127 14 -168 42v187c41 -30 89 -45 142 -45c76 0 138 36 147 105
c-30 -33 -72 -49 -126 -49zM334 539c-49 0 -76 -32 -76 -79c0 -40 29 -75 74 -75c31 0 66 20 79 49c0 69 -37 105 -77 105z" />
    <glyph glyph-name="uniF643" unicode="&#xf643;" 
d="M266 191c33 -35 95 -35 128 0c17 18 25 40 25 67s-8 49 -25 66c-33 36 -95 36 -128 0c-17 -17 -25 -39 -25 -66s8 -49 25 -67zM330 -13c-85 0 -155 26 -211 77c-55 51 -83 116 -83 194s28 143 83 194c56 51 126 77 211 77s156 -26 211 -77c56 -51 84 -116 84 -194
s-28 -143 -84 -194c-55 -51 -126 -77 -211 -77z" />
    <glyph glyph-name="uniF644" unicode="&#xf644;" 
d="M596 0h-519v160h162v132l-139 -57v203l164 78h185v-356h147v-160z" />
    <glyph glyph-name="uniF645" unicode="&#xf645;" 
d="M578 0h-508v155c87 42 154 77 201 104c31 17 36 20 52 32s20 20 20 29c0 16 -15 24 -46 24c-59 0 -127 -20 -203 -60v187c65 39 140 58 225 58c69 0 126 -16 171 -47s67 -76 67 -136c0 -43 -20 -82 -60 -116c-39 -34 -87 -59 -143 -74h224v-156z" />
    <glyph glyph-name="uniF646" unicode="&#xf646;" 
d="M285 -206c-86 0 -160 19 -223 57v194c73 -43 141 -65 202 -65c63 0 105 28 105 72c0 40 -32 70 -91 70c-45 0 -84 -8 -117 -24v129l138 110h-221v179h471v-160l-121 -104c104 -40 156 -109 156 -206c0 -76 -29 -137 -87 -183c-57 -46 -128 -69 -212 -69z" />
    <glyph glyph-name="uniF647" unicode="&#xf647;" 
d="M541 -200h-215v200h-317v146l320 370h212v-356h91v-160h-91v-200zM326 283l-107 -123h107v123z" />
    <glyph glyph-name="uniF648" unicode="&#xf648;" 
d="M278 -206c-79 0 -147 17 -206 50v197c63 -41 128 -61 195 -61c69 0 104 25 104 74c0 47 -40 74 -112 74c-58 0 -114 -9 -168 -27l46 415h402v-179h-244l-4 -51l22 1c81 0 147 -21 197 -62c51 -41 76 -98 76 -171c0 -57 -15 -106 -45 -146c-59 -80 -152 -114 -263 -114z
" />
    <glyph glyph-name="uniF649" unicode="&#xf649;" 
d="M391 474c64 0 117 -21 158 -62c42 -41 63 -98 63 -171c0 -77 -26 -138 -77 -185s-116 -70 -193 -70c-93 0 -166 30 -217 89s-76 139 -76 239c0 101 25 194 77 271c52 79 144 129 260 129c71 0 127 -14 168 -42v-187c-41 30 -89 45 -142 45c-76 0 -138 -36 -147 -105
c30 33 72 49 126 49zM327 161c49 0 76 32 76 79c0 40 -29 75 -74 75c-31 0 -66 -20 -79 -49c0 -69 37 -105 77 -105z" />
    <glyph glyph-name="uniF64A" unicode="&#xf64a;" 
d="M319 -200h-227l263 537h-290v179h527v-167z" />
    <glyph glyph-name="uniF64B" unicode="&#xf64b;" 
d="M508 372c31 -13 57 -35 79 -66c23 -31 34 -64 34 -99c0 -71 -28 -125 -85 -164c-56 -38 -125 -57 -206 -57s-150 19 -207 57c-56 39 -84 93 -84 164c0 35 11 68 33 99c23 31 49 53 80 66c-48 24 -84 82 -84 138c0 61 25 110 74 147c50 38 113 57 188 57s138 -19 187 -57
c50 -37 75 -86 75 -147c0 -56 -36 -114 -84 -138zM377 527c-25 21 -69 21 -94 0s-25 -59 0 -80c25 -20 69 -20 94 0c25 21 25 59 0 80zM411 226c0 39 -33 68 -81 68s-81 -29 -81 -68c0 -37 34 -66 81 -66s81 29 81 66z" />
    <glyph glyph-name="uniF64C" unicode="&#xf64c;" 
d="M270 41c-64 0 -117 21 -159 62c-41 41 -62 98 -62 171c0 77 26 138 77 185s116 70 193 70c93 0 165 -30 216 -89s77 -139 77 -239c0 -101 -26 -195 -78 -275c-51 -80 -143 -132 -259 -132c-71 0 -127 14 -168 42v187c41 -30 89 -45 142 -45c75 0 138 41 147 112
c-30 -33 -72 -49 -126 -49zM332 356c-47 0 -74 -28 -74 -75c0 -45 28 -83 72 -83c35 0 62 14 81 43c0 79 -34 115 -79 115z" />
    <glyph glyph-name="uniF64E" unicode="&#xf64e;" horiz-adv-x="570" 
d="M86 247v28h-65v63h76c17 62 51 109 102 142c52 33 109 49 172 49c55 0 105 -10 150 -31v-151c-35 15 -73 22 -114 22c-44 0 -78 -10 -102 -31h119v-63h-139c-1 -4 -1 -9 -1 -14l1 -14h139v-63h-119c25 -25 60 -37 105 -37c40 0 80 9 121 27v-153
c-51 -23 -104 -34 -159 -34c-64 0 -122 17 -174 50c-52 34 -86 83 -103 147h-74v63h65z" />
    <glyph glyph-name="uniF653" unicode="&#xf653;" horiz-adv-x="522" 
d="M188 521v109h155v-106c55 -8 101 -23 139 -45v-155c-25 15 -56 28 -95 39s-74 17 -106 17c-23 0 -35 -6 -35 -18c0 -7 6 -12 21 -19c7 -3 14 -5 21 -7l62 -17c112 -35 154 -74 154 -161c0 -80 -56 -141 -161 -162v-114h-155v108c-67 5 -119 19 -157 42v159
c24 -14 56 -27 97 -38s82 -16 121 -16c29 0 43 6 43 19c0 6 -4 11 -12 15c-7 4 -23 9 -47 16l-54 16c-56 19 -95 40 -118 61c-23 22 -34 54 -34 97c0 83 58 140 161 160z" />
    <glyph glyph-name="commaaccent" unicode="&#xf6c3;" horiz-adv-x="240" 
d="M157 -309h-154l61 231h177z" />
    <glyph glyph-name="cyrbreve" unicode="&#xf6d4;" horiz-adv-x="389" 
d="M28 729h135c2 -35 22 -53 60 -53c39 0 59 18 60 53h139c-1 -56 -21 -100 -58 -133c-37 -32 -84 -48 -139 -48s-102 16 -140 48c-37 33 -56 77 -57 133z" />
    <glyph glyph-name="uniF6DC" unicode="&#xf6dc;" 
d="M597 0h-523v179h161v297l-139 -57v203l164 78h185v-521h152v-179z" />
    <glyph glyph-name="uniF721" unicode="&#xf721;" horiz-adv-x="579" 
d="M517 275h-470v60h241c15 5 23 14 23 28c0 17 -22 25 -66 25c-53 0 -104 -9 -153 -26v138c49 19 105 29 169 29c48 0 91 -6 142 -25c52 -17 87 -60 87 -119c0 -22 -4 -39 -13 -50h40v-60zM47 243h470v-60h-241c-15 -5 -23 -14 -23 -29c0 -17 24 -26 72 -26
c55 0 108 9 159 27v-138c-49 -20 -107 -30 -175 -30c-36 0 -71 3 -116 15c-63 17 -119 54 -119 129c0 23 4 41 13 52h-40v60z" />
    <glyph glyph-name="uniF722" unicode="&#xf722;" horiz-adv-x="636" 
d="M306 0h-199v44h-96v63h96v35h-96v120h96v254h280c68 0 120 -18 157 -55s56 -81 56 -134c0 -57 -21 -103 -62 -136s-94 -49 -161 -49h-71v-35h132v-63h-132v-44zM344 375h-38v-113h38c47 0 76 22 76 58c0 33 -29 55 -76 55z" />
    <glyph glyph-name="uniF725" unicode="&#xf725;" horiz-adv-x="567" 
d="M309 137h223v-137h-475v137h22c37 0 56 13 56 40v34h-78v92h78v48c0 112 92 178 237 178c56 0 102 -6 139 -17v-154c-32 8 -62 12 -89 12c-57 0 -86 -18 -86 -53v-14h141v-92h-141v-16c0 -30 -9 -49 -27 -58z" />
    <glyph glyph-name="uniF727" unicode="&#xf727;" horiz-adv-x="602" 
d="M201 220h-128v63h86l-159 233h209l93 -160l97 160h203l-163 -233h89v-63h-128v-29h128v-63h-128v-128h-199v128h-128v63h128v29z" />
    <glyph glyph-name="uniF730" unicode="&#xf730;" horiz-adv-x="626" 
d="M249 191c33 -35 95 -35 128 0c17 18 25 40 25 67s-8 49 -25 66c-33 36 -95 36 -128 0c-17 -17 -25 -39 -25 -66s8 -49 25 -67zM313 -13c-85 0 -155 26 -211 77c-55 51 -83 116 -83 194s28 143 83 194c56 51 126 77 211 77s156 -26 211 -77c56 -51 84 -116 84 -194
s-28 -143 -84 -194c-55 -51 -126 -77 -211 -77z" />
    <glyph glyph-name="uniF731" unicode="&#xf731;" horiz-adv-x="411" 
d="M366 0h-210v292l-139 -57v203l164 78h185v-516z" />
    <glyph glyph-name="uniF732" unicode="&#xf732;" horiz-adv-x="578" 
d="M537 0h-508v155c87 42 154 77 201 104c31 17 36 20 52 32s20 20 20 29c0 16 -15 24 -46 24c-59 0 -127 -20 -203 -60v187c65 39 140 58 225 58c69 0 126 -16 171 -47s67 -76 67 -136c0 -43 -20 -82 -60 -116c-39 -34 -87 -59 -143 -74h224v-156z" />
    <glyph glyph-name="uniF733" unicode="&#xf733;" horiz-adv-x="578" 
d="M248 -206c-86 0 -160 19 -223 57v194c73 -43 141 -65 202 -65c63 0 105 28 105 72c0 40 -32 70 -91 70c-45 0 -84 -8 -117 -24v129l138 110h-221v179h471v-160l-121 -104c104 -40 156 -109 156 -206c0 -76 -29 -137 -87 -183c-57 -46 -128 -69 -212 -69z" />
    <glyph glyph-name="uniF734" unicode="&#xf734;" horiz-adv-x="645" 
d="M541 -200h-215v200h-317v146l320 370h212v-356h91v-160h-91v-200zM326 283l-107 -123h107v123z" />
    <glyph glyph-name="uniF735" unicode="&#xf735;" horiz-adv-x="543" 
d="M221 -206c-79 0 -148 17 -206 50v197c63 -41 128 -61 195 -61c69 0 104 25 104 74c0 47 -40 74 -112 74c-58 0 -114 -9 -168 -27l46 415h402v-179h-244l-4 -51l22 1c81 0 147 -21 197 -62c51 -41 76 -98 76 -171c0 -57 -15 -106 -45 -146c-59 -80 -152 -114 -263 -114z
" />
    <glyph glyph-name="uniF736" unicode="&#xf736;" horiz-adv-x="632" 
d="M379 474c64 0 117 -21 158 -62c42 -41 63 -98 63 -171c0 -77 -26 -138 -77 -185s-116 -70 -193 -70c-93 0 -166 30 -217 89s-76 139 -76 239c0 101 25 194 77 271c52 79 144 129 260 129c71 0 127 -14 168 -42v-187c-41 30 -89 45 -142 45c-76 0 -138 -36 -147 -105
c30 33 72 49 126 49zM315 161c49 0 76 32 76 79c0 40 -29 75 -74 75c-31 0 -66 -20 -79 -49c0 -69 37 -105 77 -105z" />
    <glyph glyph-name="uniF737" unicode="&#xf737;" horiz-adv-x="582" 
d="M278 -200h-227l263 537h-290v179h527v-167z" />
    <glyph glyph-name="uniF738" unicode="&#xf738;" horiz-adv-x="626" 
d="M491 372c31 -13 57 -35 79 -66c23 -31 34 -64 34 -99c0 -71 -28 -125 -85 -164c-56 -38 -125 -57 -206 -57s-150 19 -207 57c-56 39 -84 93 -84 164c0 35 11 68 33 99c23 31 49 53 80 66c-48 24 -84 82 -84 138c0 61 25 110 74 147c50 38 113 57 188 57s138 -19 187 -57
c50 -37 75 -86 75 -147c0 -56 -36 -114 -84 -138zM360 527c-25 21 -69 21 -94 0s-25 -59 0 -80c25 -20 69 -20 94 0c25 21 25 59 0 80zM394 226c0 39 -33 68 -81 68s-81 -29 -81 -68c0 -37 34 -66 81 -66s81 29 81 66z" />
    <glyph glyph-name="uniF739" unicode="&#xf739;" horiz-adv-x="632" 
d="M253 41c-64 0 -117 21 -159 62c-41 41 -62 98 -62 171c0 77 26 138 77 185s116 70 193 70c93 0 165 -30 216 -89s77 -139 77 -239c0 -101 -26 -195 -78 -275c-51 -80 -143 -132 -259 -132c-71 0 -127 14 -168 42v187c41 -30 89 -45 142 -45c75 0 138 41 147 112
c-30 -33 -72 -49 -126 -49zM315 356c-47 0 -74 -28 -74 -75c0 -45 28 -83 72 -83c35 0 62 14 81 43c0 79 -34 115 -79 115z" />
    <glyph glyph-name="caron.cap" horiz-adv-x="541" 
d="M328 917h170l-131 -157h-196l-129 157h175l56 -61z" />
    <glyph glyph-name="t_t" horiz-adv-x="860" 
d="M89 154v198h-81v164h81v124h210v-124h202v124h210v-124h117v-164h-117v-133c0 -37 14 -53 53 -53c23 0 45 6 66 17v-164c-35 -21 -81 -32 -139 -32c-111 0 -190 60 -190 167v198h-202v-133c0 -37 14 -53 53 -53c23 0 45 6 66 17v-164c-35 -21 -81 -32 -139 -32
c-111 0 -190 60 -190 167z" />
    <glyph glyph-name="sterling.mono" 
d="M610 0h-550v185h24c47 0 68 20 68 47v40h-92v149h92v42c0 77 25 138 74 183c50 45 117 68 202 68c62 0 115 -9 158 -27v-197c-31 12 -67 18 -108 18c-75 0 -112 -29 -112 -87h176v-149h-176v-14c0 -40 -7 -62 -35 -73h279v-185z" />
    <glyph glyph-name="franc.mono" 
d="M89 100h-90v107h90v493h550v-185h-335v-69h241v-170h-241v-69h124v-107h-124v-100h-215v100z" />
    <glyph glyph-name="ring.cap" horiz-adv-x="508" 
d="M133 839c0 30 11 56 32 77c22 22 48 33 78 33c60 0 108 -50 108 -110c0 -29 -11 -55 -32 -76s-46 -32 -76 -32s-56 11 -78 32c-21 21 -32 47 -32 76zM243 798c21 0 40 18 40 41s-19 42 -40 42c-23 0 -42 -19 -42 -42c0 -21 19 -41 42 -41z" />
    <glyph glyph-name="lira.mono" 
d="M148 360h-92v97h92v6c0 77 25 138 74 183c50 45 117 68 202 68c62 0 115 -9 158 -27v-197c-31 12 -67 18 -108 18c-58 0 -94 -17 -107 -51h185v-97h-190v-34h190v-97h-192c-3 -22 -14 -37 -33 -44h279v-185h-550v185h24c43 0 65 15 68 44h-92v97h92v34z" />
    <glyph glyph-name="twothirds.mono" horiz-adv-x="850" 
d="M313 322h-289v83l100 81c41 34 61 62 61 83c0 22 -15 33 -45 33c-35 0 -68 -12 -101 -36v114c30 19 67 28 111 28c39 0 74 -11 105 -34c31 -22 46 -52 46 -90c0 -55 -20 -90 -81 -142l-29 -24h122v-96zM659 -8c-48 0 -90 10 -125 31v105c41 -23 79 -35 115 -35
c35 0 60 14 60 38c0 21 -17 37 -52 37c-27 0 -50 -4 -67 -13v70l76 57h-123v96h263v-86l-68 -53c58 -21 87 -58 87 -111c0 -41 -16 -74 -48 -99s-71 -37 -118 -37zM282 0h-130l428 700h130z" />
    <glyph glyph-name="uni0418_uni041D" horiz-adv-x="1190" 
d="M708 0h-206v355l-266 -355h-183v700h208v-358l270 358h177v-237h215v237h214v-700h-214v276h-215v-276z" />
    <glyph glyph-name="Euro.mono" 
d="M20 372v107h84c16 54 43 99 82 136c77 73 164 99 259 99c55 0 103 -8 146 -23v-191c-40 18 -80 27 -120 27c-61 0 -108 -16 -141 -48h138v-107h-185c-1 -4 -1 -10 -1 -17v-17h186v-107h-145c32 -39 81 -58 148 -58c52 0 97 11 135 34v-198c-39 -15 -92 -23 -161 -23
c-79 0 -151 20 -214 60c-63 41 -106 102 -129 185h-82v107h67v17v17h-67z" />
    <glyph glyph-name="uni0418_uni0419" horiz-adv-x="1200" 
d="M675 0h-173v355l-266 -355h-183v700h208v-358l270 358h169v-358l270 358h177v-700h-206v355zM821 734c-55 0 -101 16 -138 48c-37 33 -56 77 -57 133h136c1 -36 21 -54 58 -54s56 18 57 54h138c-1 -56 -19 -100 -56 -133c-37 -32 -83 -48 -138 -48z" />
    <glyph glyph-name="uni0438_uni0439" horiz-adv-x="987" 
d="M588 0h-188v223l-152 -223h-198v516h197v-224l152 224h188v-224l152 224h198v-516h-197v223zM465 729h136c1 -35 21 -53 60 -53s59 18 60 53h138c-1 -56 -21 -100 -58 -133c-37 -32 -84 -48 -139 -48s-102 16 -139 48c-37 33 -57 77 -58 133z" />
    <glyph glyph-name="grave.cap" horiz-adv-x="488" 
d="M50 917h245l95 -158h-171z" />
    <glyph glyph-name="f_f_t" horiz-adv-x="1272" 
d="M913 154v198h-201v-352h-211v352h-201v-352h-211v352h-81v164h81v14c0 109 71 184 208 184c54 0 102 -7 145 -22v-139c-28 9 -55 13 -80 13c-41 0 -62 -17 -62 -50h201v14c0 109 71 184 208 184c54 0 102 -7 145 -22v-139c-28 9 -55 13 -80 13c-41 0 -62 -17 -62 -50h201
v124h210v-124h117v-164h-117v-133c0 -37 14 -53 53 -53c23 0 45 6 66 17v-164c-35 -21 -81 -32 -139 -32c-111 0 -190 60 -190 167z" />
    <glyph glyph-name="t.alt" horiz-adv-x="400" 
d="M41 154v486h210v-124h117v-164h-117v-133c0 -37 14 -53 53 -53c23 0 45 6 66 17v-164c-35 -21 -81 -32 -139 -32c-111 0 -190 60 -190 167z" />
    <glyph glyph-name="f.alt01" horiz-adv-x="408" 
d="M252 352v-352h-211v530c0 109 71 184 208 184c54 0 102 -7 145 -22v-139c-28 9 -55 13 -80 13c-41 0 -62 -17 -62 -50h142v-164h-142z" />
    <glyph glyph-name="f_j" horiz-adv-x="765" 
d="M480 -206c-56 0 -97 7 -124 20v171c20 -10 43 -15 70 -15c47 0 75 22 75 63v319h-201v-352h-211v352h-81v164h81v14c0 109 71 184 208 184c54 0 102 -7 145 -22v-139c-28 9 -55 13 -80 13c-41 0 -62 -17 -62 -50h412v-497c0 -137 -81 -225 -232 -225zM606 540
c-33 0 -60 11 -83 34s-34 52 -34 85c0 65 52 118 117 118c33 0 61 -12 84 -35s34 -50 34 -83c0 -67 -51 -119 -118 -119z" />
    <glyph glyph-name="T_h" horiz-adv-x="1150" 
d="M787 317v-317h-210v515h-141v-515h-214v515h-200v185h765v-250c12 19 32 37 60 54c29 17 59 25 91 25c111 0 171 -75 171 -202v-327h-211v282c0 43 -23 63 -52 63c-23 0 -43 -9 -59 -28z" />
    <glyph glyph-name="uni043F_uni0438" horiz-adv-x="967" 
d="M50 516h517v-223l152 223h198v-516h-197v224l-152 -224h-198v352h-110v-352h-210v516z" />
    <glyph glyph-name="uni041F_uni0418" horiz-adv-x="1182" 
d="M53 0v700h629v-358l270 358h177v-700h-206v355l-266 -355h-183v515h-206v-515h-215z" />
    <glyph glyph-name="yen.mono" 
d="M41 118v123h183v53h-183v123h135l-196 283h231l122 -197l123 197h226l-199 -283h137v-123h-182v-53h182v-123h-182v-118h-214v118h-183z" />
    <glyph glyph-name="dollar.mono" horiz-adv-x="665" 
d="M422 -4v-101h-176v95c-82 9 -153 32 -212 71v210c32 -27 77 -50 136 -69s112 -29 159 -29c54 0 81 11 81 33c0 10 -10 19 -30 28s-59 22 -116 39c-145 43 -230 105 -230 224c0 117 80 189 212 210v98h176v-97c57 -7 112 -24 166 -50v-200c-34 20 -77 37 -129 50
c-52 14 -99 21 -140 21s-62 -9 -62 -26c0 -9 10 -18 29 -27c20 -8 64 -22 131 -42c145 -44 216 -111 216 -218c0 -113 -80 -195 -211 -220z" />
    <glyph glyph-name="tilde.cap" horiz-adv-x="497" 
d="M158 756h-100c-1 47 12 86 37 119c26 33 59 50 100 50c22 0 45 -6 69 -17s44 -17 59 -17c24 0 39 10 45 30h101c0 -41 -13 -80 -39 -116c-25 -35 -58 -53 -97 -53c-25 0 -49 6 -73 18c-23 12 -42 18 -56 18c-24 0 -39 -11 -46 -32z" />
    <glyph glyph-name="uni041D_uni0418" horiz-adv-x="1191" 
d="M932 355l-266 -355h-183v276h-215v-276h-215v700h215v-237h215v237h208v-358l270 358h177v-700h-206v355z" />
    <glyph glyph-name="hungarumlaut.cap" horiz-adv-x="573" 
d="M160 759h-142l95 158h199zM395 759h-142l95 158h199z" />
    <glyph glyph-name="breve.cap" horiz-adv-x="500" 
d="M247 744c-107 0 -186 64 -190 179h128c5 -41 25 -61 62 -61c35 0 57 24 60 61h128c-5 -115 -83 -179 -188 -179z" />
    <glyph glyph-name="dotaccent.cap" horiz-adv-x="348" 
d="M164 741c-55 0 -99 44 -99 99s44 98 99 98c56 0 99 -43 99 -98s-43 -99 -99 -99z" />
    <glyph glyph-name="uni0438_uni043D" horiz-adv-x="963" 
d="M592 0h-192v223l-152 -223h-198v516h197v-224l152 224h193v-169h114v169h207v-516h-207v181h-114v-181z" />
    <glyph glyph-name="threeeighths.mono" horiz-adv-x="897" 
d="M165 314c-48 0 -90 10 -125 31v105c41 -23 79 -35 115 -35c35 0 60 14 60 38c0 21 -17 37 -52 37c-27 0 -50 -4 -67 -13v70l76 57h-123v96h263v-86l-68 -53c58 -21 87 -58 87 -111c0 -41 -16 -74 -48 -99s-71 -37 -118 -37zM282 0h-130l428 700h130zM789 201
c35 -13 63 -50 63 -89s-16 -68 -47 -89s-70 -31 -115 -31s-84 10 -116 31c-31 21 -47 50 -47 89s30 76 63 89c-27 13 -46 44 -46 75c0 65 62 110 146 110c83 0 145 -45 145 -110c0 -31 -19 -62 -46 -75zM690 231c21 0 39 13 39 32s-16 33 -39 33c-52 3 -52 -69 0 -65z
M737 122c6 51 -100 51 -95 0c0 -21 20 -38 48 -38s47 17 47 38z" />
    <glyph glyph-name="oneeighth.mono" horiz-adv-x="897" 
d="M271 322h-115v261l-100 -47v112l104 52h111v-378zM264 0h-130l428 700h130zM771 201c35 -13 63 -50 63 -89s-16 -68 -47 -89s-70 -31 -115 -31s-84 10 -116 31c-31 21 -47 50 -47 89s30 76 63 89c-27 13 -46 44 -46 75c0 65 62 110 146 110c83 0 145 -45 145 -110
c0 -31 -19 -62 -46 -75zM672 231c21 0 39 13 39 32s-16 33 -39 33c-52 3 -52 -69 0 -65zM719 122c6 51 -100 51 -95 0c0 -21 20 -38 48 -38s47 17 47 38z" />
    <glyph glyph-name="dieresis.cap" horiz-adv-x="477" 
d="M250 840c0 53 44 98 99 98c27 0 51 -10 70 -29c20 -19 30 -42 30 -69c0 -55 -45 -99 -100 -99s-99 44 -99 99zM116 741c-55 0 -99 44 -99 99c0 53 44 98 99 98c56 0 99 -43 99 -98s-43 -99 -99 -99z" />
    <glyph glyph-name="onequarter.mono" horiz-adv-x="850" 
d="M264 322h-115v261l-100 -47v112l104 52h111v-378zM257 0h-130l428 700h130zM749 378v-205h51v-88h-51v-85h-111v85h-185v81l178 212h118zM567 173h71v81z" />
    <glyph glyph-name="circumflex.cap" horiz-adv-x="502" 
d="M189 760h-171l132 157h196l128 -157h-174l-56 61z" />
    <glyph glyph-name="onehalf.mono" horiz-adv-x="850" 
d="M258 322h-115v261l-100 -47v112l104 52h111v-378zM251 0h-130l428 700h130zM807 0h-289v83l100 81c41 34 61 62 61 83c0 22 -15 33 -45 33c-35 0 -68 -12 -101 -36v114c30 19 67 28 111 28c39 0 74 -11 105 -34c31 -22 46 -52 46 -90c0 -55 -20 -90 -81 -142l-29 -24h122
v-96z" />
    <glyph glyph-name="threequarters.mono" horiz-adv-x="850" 
d="M155 314c-48 0 -90 10 -125 31v105c41 -23 79 -35 115 -35c35 0 60 14 60 38c0 21 -17 37 -52 37c-27 0 -50 -4 -67 -13v70l76 57h-123v96h263v-86l-68 -53c58 -21 87 -58 87 -111c0 -41 -16 -74 -48 -99s-71 -37 -118 -37zM272 0h-130l428 700h130zM764 378v-205h51v-88
h-51v-85h-111v85h-185v81l178 212h118zM582 173h71v81z" />
    <glyph glyph-name="macron.cap" horiz-adv-x="546" 
d="M444 768h-360v135h360v-135z" />
    <glyph glyph-name="acute.cap" horiz-adv-x="400" 
d="M224 759h-171l95 158h246z" />
    <glyph glyph-name="peseta.mono" 
d="M632 535h71v-146h-78c-35 -89 -125 -145 -249 -145h-107v-244h-215v389h-83v146h83v165h322c132 0 228 -65 256 -165zM269 400h78c44 0 74 26 74 63s-31 62 -74 62h-78v-125z" />
    <glyph glyph-name="onethird.mono" horiz-adv-x="850" 
d="M255 322h-115v261l-100 -47v112l104 52h111v-378zM248 0h-130l428 700h130zM641 -8c-48 0 -90 10 -125 31v105c41 -23 79 -35 115 -35c35 0 60 14 60 38c0 21 -17 37 -52 37c-27 0 -50 -4 -67 -13v70l76 57h-123v96h263v-86l-68 -53c58 -21 87 -58 87 -111
c0 -41 -16 -74 -48 -99s-71 -37 -118 -37z" />
    <glyph glyph-name="fiveeighths.mono" horiz-adv-x="897" 
d="M159 314c-43 0 -81 9 -114 27v107c35 -22 71 -33 109 -33c41 0 61 13 61 39c0 24 -24 39 -64 39c-32 0 -64 -5 -96 -15l26 222h224v-96h-138l-2 -26l14 1c91 0 152 -46 152 -125c0 -92 -75 -140 -172 -140zM282 0h-130l428 700h130zM789 201c35 -13 63 -50 63 -89
s-16 -68 -47 -89s-70 -31 -115 -31s-84 10 -116 31c-31 21 -47 50 -47 89s30 76 63 89c-27 13 -46 44 -46 75c0 65 62 110 146 110c83 0 145 -45 145 -110c0 -31 -19 -62 -46 -75zM690 231c21 0 39 13 39 32s-16 33 -39 33c-52 3 -52 -69 0 -65zM737 122c6 51 -100 51 -95 0
c0 -21 20 -38 48 -38s47 17 47 38z" />
    <glyph glyph-name="seveneighths.mono" horiz-adv-x="897" 
d="M217 322h-125l143 282h-163v96h293v-90zM770 201c35 -13 63 -50 63 -89s-16 -68 -47 -89s-70 -31 -115 -31s-84 10 -116 31c-31 21 -47 50 -47 89s30 76 63 89c-27 13 -46 44 -46 75c0 65 62 110 146 110c83 0 145 -45 145 -110c0 -31 -19 -62 -46 -75zM671 231
c21 0 39 13 39 32s-16 33 -39 33c-52 3 -52 -69 0 -65zM718 122c6 51 -100 51 -95 0c0 -21 20 -38 48 -38s47 17 47 38zM263 0h-130l428 700h130z" />
    <glyph glyph-name="uni043D_uni0438" horiz-adv-x="963" 
d="M716 224l-152 -224h-193v181h-114v-181h-207v516h207v-169h114v169h192v-223l152 223h198v-516h-197v224z" />
    <glyph glyph-name="uni20B6.mono" 
d="M98 246h-122v142h122v312h322c80 0 144 -21 192 -64c49 -42 73 -96 73 -163c0 -66 -24 -120 -73 -163c-48 -43 -112 -64 -192 -64h-108v-39h215v-107h-215v-100h-214v100h-122v107h122v39zM307 526v-138h76c55 0 90 25 90 70c0 43 -35 68 -90 68h-76z" />
    <glyph glyph-name="liralow.mono" 
d="M164 269h-78v63h78v16c0 112 92 181 237 181c56 0 102 -6 139 -17v-154c-32 8 -62 12 -89 12c-48 0 -76 -13 -84 -38h121v-63h-123v-29h123v-63h-124c-3 -21 -12 -34 -26 -40h223v-137h-475v137h22c37 0 56 13 56 40h-78v63h78v29z" />
    <glyph glyph-name="franclow.mono" 
d="M318 0h-201v49h-60v63h60v404h452v-159h-251v-61h177v-147h-177v-37h95v-63h-95v-49z" />
    <glyph glyph-name="uniF64E.mono" 
d="M120 247v28h-65v63h76c17 62 51 109 102 142c52 33 109 49 172 49c55 0 105 -10 150 -31v-151c-35 15 -73 22 -114 22c-44 0 -78 -10 -102 -31h119v-63h-139c-1 -4 -1 -9 -1 -14l1 -14h139v-63h-119c25 -25 60 -37 105 -37c40 0 80 9 121 27v-153
c-51 -23 -104 -34 -159 -34c-64 0 -122 17 -174 50c-52 34 -86 83 -103 147h-74v63h65z" />
    <glyph glyph-name="pesolow.mono" 
d="M585 361h66v-92h-70c-24 -85 -108 -137 -221 -137h-80v-132h-201v269h-83v92h83v155h292c121 0 197 -64 214 -155zM325 369h-45v-102h45c35 0 59 20 59 52s-23 50 -59 50z" />
    <glyph glyph-name="uniF722.mono" 
d="M332 0h-199v44h-96v63h96v35h-96v120h96v254h280c68 0 120 -18 157 -55s56 -81 56 -134c0 -57 -21 -103 -62 -136s-94 -49 -161 -49h-71v-35h132v-63h-132v-44zM370 375h-38v-113h38c47 0 76 22 76 58c0 33 -29 55 -76 55z" />
    <glyph glyph-name="uniF727.mono" 
d="M230 220h-128v63h86l-159 233h209l93 -160l97 160h203l-163 -233h89v-63h-128v-29h128v-63h-128v-128h-199v128h-128v63h128v29z" />
    <glyph glyph-name="uniF653.mono" 
d="M248 521v109h155v-106c55 -8 101 -23 139 -45v-155c-25 15 -56 28 -95 39s-74 17 -106 17c-23 0 -35 -6 -35 -18c0 -7 6 -12 21 -19c7 -3 14 -5 21 -7l62 -17c112 -35 154 -74 154 -161c0 -80 -56 -141 -161 -162v-114h-155v108c-67 5 -119 19 -157 42v159
c24 -14 56 -27 97 -38s82 -16 121 -16c29 0 43 6 43 19c0 6 -4 11 -12 15c-7 4 -23 9 -47 16l-54 16c-56 19 -95 40 -118 61c-23 22 -34 54 -34 97c0 83 58 140 161 160z" />
    <glyph glyph-name="uniF725.mono" 
d="M338 137h223v-137h-475v137h22c37 0 56 13 56 40v34h-78v92h78v48c0 112 92 178 237 178c56 0 102 -6 139 -17v-154c-32 8 -62 12 -89 12c-57 0 -86 -18 -86 -53v-14h141v-92h-141v-16c0 -30 -9 -49 -27 -58z" />
    <glyph glyph-name="uniF721.mono" 
d="M557 275h-470v60h241c15 5 23 14 23 28c0 17 -22 25 -66 25c-53 0 -104 -9 -153 -26v138c49 19 105 29 169 29c48 0 91 -6 142 -25c52 -17 87 -60 87 -119c0 -22 -4 -39 -13 -50h40v-60zM87 243h470v-60h-241c-15 -5 -23 -14 -23 -29c0 -17 24 -26 72 -26
c55 0 108 9 159 27v-138c-49 -20 -108 -30 -175 -30c-36 0 -71 3 -116 15c-63 17 -119 54 -119 129c0 23 4 41 13 52h-40v60z" />
    <glyph glyph-name="uni20B4.mono" 
d="M354 -14c-47 0 -91 6 -130 18s-73 33 -101 64s-42 68 -42 113c0 28 9 55 26 80h-44v85h535v-85h-251c-29 -10 -43 -27 -43 -50c0 -27 29 -41 86 -41c26 0 57 4 94 12s65 18 86 30v-188c-60 -25 -132 -38 -216 -38zM598 388h-535v85h269c7 5 10 13 10 25
c0 23 -26 35 -78 35c-59 0 -113 -11 -164 -33v184c48 20 112 30 192 30c129 0 273 -50 273 -198c0 -19 -3 -34 -8 -43h41v-85z" />
    <glyph glyph-name="Q.alt02" horiz-adv-x="816" 
d="M759 -82c19 0 32 2 41 6v-174c-10 -3 -28 -5 -53 -5c-41 0 -100 12 -178 37c-77 25 -137 37 -179 37c-65 0 -114 -10 -146 -30v177c24 12 57 21 98 26c-91 15 -166 56 -223 123s-86 146 -86 235c0 101 35 186 106 257s161 107 269 107s197 -36 268 -107
s106 -156 106 -257c0 -92 -30 -172 -91 -241c-60 -69 -138 -109 -234 -120c27 -4 74 -16 141 -37s121 -33 161 -34zM297 229c29 -31 66 -47 111 -47s82 16 111 47c29 32 44 72 44 121s-15 89 -44 120c-29 32 -66 48 -111 48s-82 -16 -111 -48c-29 -31 -44 -71 -44 -120
s15 -89 44 -121z" />
    <glyph glyph-name="Q.alt01" horiz-adv-x="836" 
d="M801 0h-205l-18 24c-53 -25 -109 -38 -170 -38c-108 0 -198 36 -269 107s-106 157 -106 257c0 101 35 186 106 257s161 107 269 107s197 -36 268 -107s106 -156 106 -257c0 -82 -25 -156 -74 -221zM408 182c20 0 37 3 51 8l-122 169h205l20 -28c0 4 1 14 1 19
c0 49 -15 89 -44 120c-29 32 -66 48 -111 48s-82 -16 -111 -48c-29 -31 -44 -71 -44 -120s15 -89 44 -121c29 -31 66 -47 111 -47z" />
    <glyph glyph-name="gcommaaccent.alt" horiz-adv-x="608" 
d="M535 313c0 -49 -15 -91 -44 -128c47 -36 77 -93 77 -153c0 -69 -27 -125 -80 -170s-120 -68 -201 -68c-84 0 -153 23 -207 70c-53 47 -80 105 -80 174c0 9 0 15 1 20h208c-1 -3 -1 -9 -1 -16c0 -44 31 -76 79 -76c44 0 72 29 72 66c0 31 -21 58 -48 65h-23
c-71 0 -130 20 -177 61s-70 92 -70 155s23 114 70 155s106 61 177 61c62 0 115 -16 160 -48l137 43v-153l-54 -15c3 -13 4 -27 4 -43zM243 270c24 -23 66 -23 89 0c24 23 24 63 0 86c-23 23 -65 23 -89 0c-23 -23 -23 -63 0 -86zM304 821h154l-61 -231h-177z" />
    <glyph glyph-name="gdotaccent.alt" horiz-adv-x="608" 
d="M535 313c0 -49 -15 -91 -44 -128c47 -36 77 -93 77 -153c0 -69 -27 -125 -80 -170s-120 -68 -201 -68c-84 0 -153 23 -207 70c-53 47 -80 105 -80 174c0 9 0 15 1 20h208c-1 -3 -1 -9 -1 -16c0 -44 31 -76 79 -76c44 0 72 29 72 66c0 31 -21 58 -48 65h-23
c-71 0 -130 20 -177 61s-70 92 -70 155s23 114 70 155s106 61 177 61c62 0 115 -16 160 -48l137 43v-153l-54 -15c3 -13 4 -27 4 -43zM243 270c24 -23 66 -23 89 0c24 23 24 63 0 86c-23 23 -65 23 -89 0c-23 -23 -23 -63 0 -86zM286 556c-55 0 -100 44 -100 99
s45 98 100 98c56 0 99 -43 99 -98s-43 -99 -99 -99z" />
    <glyph glyph-name="gbreve.alt" horiz-adv-x="608" 
d="M535 313c0 -49 -15 -91 -44 -128c47 -36 77 -93 77 -153c0 -69 -27 -125 -80 -170s-120 -68 -201 -68c-84 0 -153 23 -207 70c-53 47 -80 105 -80 174c0 9 0 15 1 20h208c-1 -3 -1 -9 -1 -16c0 -44 31 -76 79 -76c44 0 72 29 72 66c0 31 -21 58 -48 65h-23
c-71 0 -130 20 -177 61s-70 92 -70 155s23 114 70 155s106 61 177 61c62 0 115 -16 160 -48l137 43v-153l-54 -15c3 -13 4 -27 4 -43zM243 270c24 -23 66 -23 89 0c24 23 24 63 0 86c-23 23 -65 23 -89 0c-23 -23 -23 -63 0 -86zM102 740h127c5 -41 26 -61 62 -61
s58 24 61 61h128c-5 -115 -84 -179 -189 -179c-53 0 -97 15 -133 46c-35 31 -54 76 -56 133z" />
    <glyph glyph-name="g.alt" horiz-adv-x="608" 
d="M535 313c0 -49 -15 -91 -44 -128c47 -36 77 -93 77 -153c0 -69 -27 -125 -80 -170s-120 -68 -201 -68c-84 0 -153 23 -207 70c-53 47 -80 105 -80 174c0 9 0 15 1 20h208c-1 -3 -1 -9 -1 -16c0 -44 31 -76 79 -76c44 0 72 29 72 66c0 31 -21 58 -48 65h-23
c-71 0 -130 20 -177 61s-70 92 -70 155s23 114 70 155s106 61 177 61c62 0 115 -16 160 -48l137 43v-153l-54 -15c3 -13 4 -27 4 -43zM243 270c24 -23 66 -23 89 0c24 23 24 63 0 86c-23 23 -65 23 -89 0c-23 -23 -23 -63 0 -86z" />
    <glyph glyph-name="a.alt" horiz-adv-x="649" 
d="M388 458v58h211v-516h-211v58c-31 -47 -78 -71 -141 -71c-65 0 -120 26 -163 77s-65 116 -65 194s22 143 65 194s98 77 163 77c63 0 110 -24 141 -71zM391 199v117c-15 25 -41 38 -79 38c-51 0 -85 -43 -85 -96s34 -96 85 -96c37 0 64 12 79 37z" />
    <glyph glyph-name="gcircumflex.alt" horiz-adv-x="608" 
d="M535 313c0 -49 -15 -91 -44 -128c47 -36 77 -93 77 -153c0 -69 -27 -125 -80 -170s-120 -68 -201 -68c-84 0 -153 23 -207 70c-53 47 -80 105 -80 174c0 9 0 15 1 20h208c-1 -3 -1 -9 -1 -16c0 -44 31 -76 79 -76c44 0 72 29 72 66c0 31 -21 58 -48 65h-23
c-71 0 -130 20 -177 61s-70 92 -70 155s23 114 70 155s106 61 177 61c62 0 115 -16 160 -48l137 43v-153l-54 -15c3 -13 4 -27 4 -43zM243 270c24 -23 66 -23 89 0c24 23 24 63 0 86c-23 23 -65 23 -89 0c-23 -23 -23 -63 0 -86zM237 577h-171l132 157h196l128 -157h-174
l-56 61z" />
    <glyph glyph-name="abreve.alt" horiz-adv-x="649" 
d="M388 458v58h211v-516h-211v58c-31 -47 -78 -71 -141 -71c-65 0 -120 26 -163 77s-65 116 -65 194s22 143 65 194s98 77 163 77c63 0 110 -24 141 -71zM391 199v117c-15 25 -41 38 -79 38c-51 0 -85 -43 -85 -96s34 -96 85 -96c37 0 64 12 79 37zM126 740h127
c5 -41 26 -61 62 -61s58 24 61 61h128c-5 -115 -84 -179 -189 -179c-53 0 -97 15 -133 46c-35 31 -54 76 -56 133z" />
    <glyph glyph-name="aogonek.alt" horiz-adv-x="649" 
d="M568 -209c-91 0 -145 45 -145 108c0 45 29 84 50 101h-85v58c-31 -47 -78 -71 -141 -71c-65 0 -120 26 -163 77s-65 116 -65 194s22 143 65 194s98 77 163 77c63 0 110 -24 141 -71v58h211v-516c-12 -11 -32 -41 -32 -58c0 -19 12 -28 37 -28c15 0 27 3 34 8v-122
c-16 -6 -39 -9 -70 -9zM391 199v117c-15 25 -41 38 -79 38c-51 0 -85 -43 -85 -96s34 -96 85 -96c37 0 64 12 79 37z" />
    <glyph glyph-name="amacron.alt" horiz-adv-x="649" 
d="M388 458v58h211v-516h-211v58c-31 -47 -78 -71 -141 -71c-65 0 -120 26 -163 77s-65 116 -65 194s22 143 65 194s98 77 163 77c63 0 110 -24 141 -71zM391 199v117c-15 25 -41 38 -79 38c-51 0 -85 -43 -85 -96s34 -96 85 -96c37 0 64 12 79 37zM498 584h-360v135h360
v-135z" />
    <glyph glyph-name="aring.alt" horiz-adv-x="649" 
d="M198 666c0 60 50 109 110 109s108 -49 108 -109s-48 -109 -108 -109c-30 0 -56 11 -78 32c-21 22 -32 48 -32 77zM308 625c21 0 41 20 41 41c0 23 -18 42 -41 42s-42 -19 -42 -42c0 -21 19 -41 42 -41zM388 458v58h211v-516h-211v58c-31 -47 -78 -71 -141 -71
c-65 0 -120 26 -163 77s-65 116 -65 194s22 143 65 194s98 77 163 77c63 0 110 -24 141 -71zM391 199v117c-15 25 -41 38 -79 38c-51 0 -85 -43 -85 -96s34 -96 85 -96c37 0 64 12 79 37z" />
    <glyph glyph-name="atilde.alt" horiz-adv-x="649" 
d="M388 458v58h211v-516h-211v58c-31 -47 -78 -71 -141 -71c-65 0 -120 26 -163 77s-65 116 -65 194s22 143 65 194s98 77 163 77c63 0 110 -24 141 -71zM391 199v117c-15 25 -41 38 -79 38c-51 0 -85 -43 -85 -96s34 -96 85 -96c37 0 64 12 79 37zM222 572h-101
c-1 47 12 86 37 119c26 33 60 50 101 50c22 0 45 -6 69 -17s43 -17 58 -17c23 0 39 10 46 30h100c1 -41 -12 -80 -38 -116c-26 -35 -59 -53 -98 -53c-24 0 -48 6 -72 18s-43 18 -57 18c-25 0 -40 -11 -45 -32z" />
    <glyph glyph-name="pesolow" horiz-adv-x="673" 
d="M584 361h66v-92h-70c-24 -85 -108 -137 -221 -137h-80v-132h-201v269h-83v92h83v155h292c121 0 197 -64 214 -155zM324 369h-45v-102h45c35 0 59 20 59 52s-23 50 -59 50z" />
    <glyph glyph-name="franclow" horiz-adv-x="533" 
d="M264 0h-201v49h-60v63h60v404h452v-159h-251v-61h177v-147h-177v-37h95v-63h-95v-49z" />
    <glyph glyph-name="liralow" horiz-adv-x="567" 
d="M135 269h-78v63h78v16c0 112 92 181 237 181c56 0 102 -6 139 -17v-154c-32 8 -62 12 -89 12c-48 0 -76 -13 -84 -38h121v-63h-123v-29h123v-63h-124c-3 -21 -12 -34 -26 -40h223v-137h-475v137h22c37 0 56 13 56 40h-78v63h78v29z" />
    <glyph glyph-name="adieresis.alt" horiz-adv-x="649" 
d="M388 458v58h211v-516h-211v58c-31 -47 -78 -71 -141 -71c-65 0 -120 26 -163 77s-65 116 -65 194s22 143 65 194s98 77 163 77c63 0 110 -24 141 -71zM391 199v117c-15 25 -41 38 -79 38c-51 0 -85 -43 -85 -96s34 -96 85 -96c37 0 64 12 79 37zM339 656
c0 53 44 98 99 98c27 0 51 -10 70 -29c20 -19 30 -42 30 -69c0 -55 -45 -99 -100 -99s-99 44 -99 99zM205 557c-55 0 -100 44 -100 99c0 27 10 50 29 69c20 19 44 29 71 29c56 0 99 -43 99 -98s-43 -99 -99 -99z" />
    <glyph glyph-name="acircumflex.alt" horiz-adv-x="649" 
d="M388 458v58h211v-516h-211v58c-31 -47 -78 -71 -141 -71c-65 0 -120 26 -163 77s-65 116 -65 194s22 143 65 194s98 77 163 77c63 0 110 -24 141 -71zM391 199v117c-15 25 -41 38 -79 38c-51 0 -85 -43 -85 -96s34 -96 85 -96c37 0 64 12 79 37zM251 577h-171l132 157
h196l128 -157h-174l-56 61z" />
    <glyph glyph-name="agrave.alt" horiz-adv-x="649" 
d="M388 458v58h211v-516h-211v58c-31 -47 -78 -71 -141 -71c-65 0 -120 26 -163 77s-65 116 -65 194s22 143 65 194s98 77 163 77c63 0 110 -24 141 -71zM391 199v117c-15 25 -41 38 -79 38c-51 0 -85 -43 -85 -96s34 -96 85 -96c37 0 64 12 79 37zM101 734h246l95 -158
h-171z" />
    <glyph glyph-name="aacute.alt" horiz-adv-x="649" 
d="M388 458v58h211v-516h-211v58c-31 -47 -78 -71 -141 -71c-65 0 -120 26 -163 77s-65 116 -65 194s22 143 65 194s98 77 163 77c63 0 110 -24 141 -71zM391 199v117c-15 25 -41 38 -79 38c-51 0 -85 -43 -85 -96s34 -96 85 -96c37 0 64 12 79 37zM385 576h-171l95 158h245
z" />
    <glyph glyph-name="cyrbreve.cap" horiz-adv-x="645" 
d="M247 734c-55 0 -101 16 -138 48c-37 33 -56 77 -57 133h136c1 -36 21 -54 58 -54s56 18 57 54h138c-1 -56 -19 -100 -56 -133c-37 -32 -83 -48 -138 -48z" />
    <glyph glyph-name="idieresis_idieresis" horiz-adv-x="606" 
d="M204 656c0 53 44 98 99 98c27 0 51 -10 70 -29c20 -19 30 -42 30 -69c0 -55 -45 -99 -100 -99s-99 44 -99 99zM264 0h-211v516h211v-516zM42 557c-55 0 -100 44 -100 99c0 27 10 50 30 69c19 19 43 29 70 29c56 0 99 -43 99 -98s-43 -99 -99 -99zM342 516h211v-516h-211
v516zM564 557c-56 0 -99 44 -99 99s43 98 99 98c27 0 51 -10 70 -29c20 -19 30 -42 30 -69c0 -55 -45 -99 -100 -99z" />
    <glyph glyph-name="Idieresis_Idieresis" horiz-adv-x="643" 
d="M222 840c0 53 44 98 99 98c27 0 51 -10 70 -29c20 -19 30 -42 30 -69c0 -55 -45 -99 -100 -99s-99 44 -99 99zM47 741c-55 0 -99 44 -99 99c0 53 44 98 99 98c56 0 99 -43 99 -98s-43 -99 -99 -99zM272 0h-215v700h215v-700zM596 741c-56 0 -99 44 -99 99s43 98 99 98
c55 0 99 -45 99 -98c0 -55 -44 -99 -99 -99zM371 700h215v-700h-215v700z" />
    <glyph glyph-name="uni215A.mono" horiz-adv-x="850" 
d="M149 314c-43 0 -81 9 -114 27v107c35 -22 71 -33 109 -33c41 0 61 13 61 39c0 24 -24 39 -64 39c-32 0 -64 -5 -96 -15l26 222h224v-96h-138l-2 -26l14 1c91 0 152 -46 152 -125c0 -92 -75 -140 -172 -140zM272 0h-130l428 700h130zM692 256c72 0 123 -47 123 -126
c0 -83 -64 -138 -151 -138c-104 0 -163 69 -163 178c0 59 16 109 47 152s78 64 141 64c40 0 71 -8 93 -23v-101c-23 16 -49 24 -79 24c-43 0 -77 -19 -82 -56c17 17 41 26 71 26zM656 84c29 0 45 19 45 46c0 23 -17 42 -44 42c-23 0 -38 -9 -46 -28c0 -40 21 -60 45 -60z
" />
    <glyph glyph-name="uni2159.mono" horiz-adv-x="850" 
d="M265 322h-115v261l-100 -47v112l104 52h111v-378zM258 0h-130l428 700h130zM678 256c72 0 123 -47 123 -126c0 -83 -64 -138 -151 -138c-104 0 -163 69 -163 178c0 59 16 109 47 152s78 64 141 64c40 0 71 -8 93 -23v-101c-23 16 -49 24 -79 24c-43 0 -77 -19 -82 -56
c17 17 41 26 71 26zM642 84c29 0 45 19 45 46c0 23 -17 42 -44 42c-23 0 -38 -9 -46 -28c0 -40 21 -60 45 -60z" />
    <glyph glyph-name="uni2158.mono" horiz-adv-x="850" 
d="M652 -8c-43 0 -81 9 -114 27v107c35 -22 71 -33 109 -33c41 0 61 13 61 39c0 24 -24 39 -64 39c-32 0 -64 -5 -96 -15l26 222h224v-96h-138l-2 -26l14 1c91 0 152 -46 152 -125c0 -92 -75 -140 -172 -140zM320 700v-205h51v-88h-51v-85h-111v85h-185v81l178 212h118z
M138 495h71v81zM303 0h-130l428 700h130z" />
    <glyph glyph-name="uni2157.mono" horiz-adv-x="850" 
d="M160 314c-48 0 -90 10 -125 31v105c41 -23 79 -35 115 -35c35 0 60 14 60 38c0 21 -17 37 -52 37c-27 0 -50 -4 -67 -13v70l76 57h-123v96h263v-86l-68 -53c58 -21 87 -58 87 -111c0 -41 -16 -74 -48 -99s-71 -37 -118 -37zM277 0h-130l428 700h130zM642 -8
c-43 0 -81 9 -114 27v107c35 -22 71 -33 109 -33c41 0 61 13 61 39c0 24 -24 39 -64 39c-32 0 -64 -5 -96 -15l26 222h224v-96h-138l-2 -26l14 1c91 0 152 -46 152 -125c0 -92 -75 -140 -172 -140z" />
    <glyph glyph-name="endash.cap" horiz-adv-x="777" 
d="M703 278h-629v183h629v-183z" />
    <glyph glyph-name="emdash.cap" horiz-adv-x="893" 
d="M819 278h-745v183h745v-183z" />
    <glyph glyph-name="hyphen.cap" horiz-adv-x="485" 
d="M411 278h-337v183h337v-183z" />
    <glyph glyph-name="bracketleft.cap" horiz-adv-x="452" 
d="M436 -106h-376v912h376v-159h-186v-594h186v-159z" />
    <glyph glyph-name="bracketright.cap" horiz-adv-x="452" 
d="M16 806h376v-912h-376v159h186v594h-186v159z" />
    <glyph glyph-name="braceleft.cap" horiz-adv-x="435" 
d="M121 544v66c0 117 77 196 197 196h101v-159h-56c-29 0 -52 -25 -52 -54v-124c0 -65 -31 -104 -94 -119c63 -15 94 -54 94 -119v-124c0 -29 23 -54 52 -54h56v-159h-101c-120 0 -197 79 -197 196v66c0 73 -17 106 -77 113v162c60 7 77 40 77 113z" />
    <glyph glyph-name="braceright.cap" horiz-adv-x="435" 
d="M314 610v-66c0 -73 17 -106 77 -113v-162c-60 -7 -77 -40 -77 -113v-66c0 -117 -77 -196 -197 -196h-101v159h56c29 0 52 25 52 54v124c0 65 31 104 94 119c-63 15 -94 54 -94 119v124c0 29 -23 54 -52 54h-56v159h101c120 0 197 -79 197 -196z" />
    <glyph glyph-name="guillemotright.cap" horiz-adv-x="620" 
d="M608 401v-103l-123 -177h-208l158 229l-158 229h208zM341 401v-103l-123 -177h-208l158 229l-158 229h208z" />
    <glyph glyph-name="guillemotleft.cap" horiz-adv-x="620" 
d="M343 121h-208l-123 177v103l123 178h208l-158 -229zM610 121h-208l-123 177v103l123 178h208l-158 -229z" />
    <glyph glyph-name="guilsinglright.cap" horiz-adv-x="353" 
d="M341 401v-103l-123 -177h-208l158 229l-158 229h208z" />
    <glyph glyph-name="guilsinglleft.cap" horiz-adv-x="353" 
d="M343 121h-208l-123 177v103l123 178h208l-158 -229z" />
    <glyph glyph-name="parenleft.cap" horiz-adv-x="415" 
d="M399 -106h-213c-95 120 -142 272 -142 456c0 183 47 335 142 456h213c-107 -135 -161 -287 -161 -456s54 -321 161 -456z" />
    <glyph glyph-name="parenright.cap" horiz-adv-x="415" 
d="M229 -106h-213c107 135 161 287 161 456s-54 321 -161 456h213c95 -121 142 -273 142 -456c0 -184 -47 -336 -142 -456z" />
    <glyph glyph-name="exclamdown.cap" horiz-adv-x="378" 
d="M188 714c34 0 63 -12 87 -36s36 -53 36 -86c0 -35 -12 -64 -36 -88c-24 -23 -53 -35 -87 -35c-33 0 -62 12 -86 35c-24 24 -36 53 -36 88c0 33 12 62 36 86s53 36 86 36zM314 0h-250l30 436h191z" />
    <glyph glyph-name="questiondown.cap" horiz-adv-x="502" 
d="M194 436h200v-149c-108 -17 -162 -43 -162 -78c0 -27 25 -40 76 -40c67 0 130 17 189 52v-176c-61 -41 -134 -61 -221 -61c-73 0 -134 17 -184 51c-50 35 -75 86 -75 154c0 49 17 89 52 120s76 55 125 70v57zM290 469c-33 0 -62 12 -86 35c-24 24 -36 53 -36 87
s12 63 36 87s53 36 86 36s62 -12 86 -36c25 -24 37 -53 37 -87s-12 -63 -36 -87c-24 -23 -53 -35 -87 -35z" />
    <glyph glyph-name="f_t" horiz-adv-x="860" 
d="M501 154v198h-201v-352h-211v352h-81v164h81v14c0 109 71 184 208 184c54 0 102 -7 145 -22v-139c-28 9 -55 13 -80 13c-41 0 -62 -17 -62 -50h201v124h210v-124h117v-164h-117v-133c0 -37 14 -53 53 -53c23 0 45 6 66 17v-164c-35 -21 -81 -32 -139 -32
c-111 0 -190 60 -190 167z" />
    <glyph glyph-name="uni2156.mono" horiz-adv-x="850" 
d="M323 322h-289v83l100 81c41 34 61 62 61 83c0 22 -15 33 -45 33c-35 0 -68 -12 -101 -36v114c30 19 67 28 111 28c39 0 74 -11 105 -34c31 -22 46 -52 46 -90c0 -55 -20 -90 -81 -142l-29 -24h122v-96zM641 -8c-43 0 -81 9 -114 27v107c35 -22 71 -33 109 -33
c41 0 61 13 61 39c0 24 -24 39 -64 39c-32 0 -64 -5 -96 -15l26 222h224v-96h-138l-2 -26l14 1c91 0 152 -46 152 -125c0 -92 -75 -140 -172 -140zM292 0h-130l428 700h130z" />
    <glyph glyph-name="uni2155.mono" horiz-adv-x="850" 
d="M265 322h-115v261l-100 -47v112l104 52h111v-378zM258 0h-130l428 700h130zM623 -8c-43 0 -81 9 -114 27v107c35 -22 71 -33 109 -33c41 0 61 13 61 39c0 24 -24 39 -64 39c-32 0 -64 -5 -96 -15l26 222h224v-96h-138l-2 -26l14 1c91 0 152 -46 152 -125
c0 -92 -75 -140 -172 -140z" />
    </font>
</defs>
</svg>
