<?xml version="1.0" standalone="no"?>
<!DOCTYPE svg PUBLIC "-//W3C//DTD SVG 1.1//EN" "http://www.w3.org/Graphics/SVG/1.1/DTD/svg11.dtd" >
<svg xmlns="http://www.w3.org/2000/svg" xmlns:xlink="http://www.w3.org/1999/xlink" version="1.1">
<metadata>
Created by FontForge 20170910 at Wed Dec 11 00:50:15 2013
 By Jimmy Wärting
Copyright (c) 2012 by Vyacheslav Kirilenko, Gayane Bagdasaryan. All rights reserved.
</metadata>
<defs>
<font id="Geometria-Light" horiz-adv-x="628" >
  <font-face 
    font-family="Geometria"
    font-weight="300"
    font-stretch="normal"
    units-per-em="1000"
    panose-1="2 11 4 3 2 2 4 2 2 4"
    ascent="776"
    descent="-224"
    x-height="477"
    cap-height="700"
    bbox="-410 -218 1438 922"
    underline-thickness="50"
    underline-position="-100"
    unicode-range="U+0020-FB04"
  />
<missing-glyph horiz-adv-x="696" 
d="M501 0h-415v700h415v-700zM124 665v-630h339v630h-339z" />
    <glyph glyph-name="ij" unicode="ij" horiz-adv-x="488" 
d="M149 0h-45v477h45v-477zM153 619c-33 -36 -90 21 -54 54c33 36 90 -21 54 -54zM258 -204c-31 0 -57 6 -77 18v43c22 -13 45 -19 69 -19c59 0 89 34 89 103v536h45v-544c0 -97 -53 -137 -126 -137zM361 608c-49 -3 -49 79 0 76c49 3 50 -79 0 -76z" />
    <glyph glyph-name="f_f" unicode="ff" horiz-adv-x="663" 
d="M461 436v-436h-45v436h-244v-436h-45v436h-99v41h99v95c0 84 45 135 126 135c35 0 66 -7 93 -20v-43c-29 14 -57 21 -84 21c-57 0 -90 -38 -90 -103v-85h244v95c0 84 45 135 126 135c35 0 66 -7 93 -20v-43c-29 14 -57 21 -84 21c-57 0 -90 -38 -90 -103v-85h174v-41
h-174z" />
    <glyph glyph-name="fi" unicode="fi" horiz-adv-x="566" 
d="M172 436v-436h-45v436h-99v41h99v95c0 84 45 135 126 135c35 0 66 -7 93 -20v-43c-29 14 -57 21 -84 21c-57 0 -90 -38 -90 -103v-85h289v-477h-45v436h-244zM439 608c-50 -3 -49 79 0 76c49 3 49 -79 0 -76z" />
    <glyph glyph-name="fl" unicode="fl" horiz-adv-x="605" 
d="M519 -12c-57 0 -103 31 -103 111v337h-244v-436h-45v436h-99v41h99v95c0 84 45 135 126 135c35 0 66 -7 93 -20v-43c-29 14 -57 21 -84 21c-57 0 -90 -38 -90 -103v-85h244v223h45v-592c0 -52 24 -78 71 -78c19 0 35 5 50 14v-42c-17 -9 -38 -14 -63 -14z" />
    <glyph glyph-name="f_f_i" unicode="ffi" horiz-adv-x="856" 
d="M172 436v-436h-45v436h-99v41h99v95c0 84 45 135 126 135c35 0 66 -7 93 -20v-43c-29 14 -57 21 -84 21c-57 0 -90 -38 -90 -103v-85h244v95c0 84 45 135 126 135c35 0 66 -7 93 -20v-43c-29 14 -57 21 -84 21c-57 0 -90 -38 -90 -103v-85h289v-477h-45v436h-244v-436
h-45v436h-244zM755 619c-33 -36 -90 21 -54 54c33 36 90 -21 54 -54z" />
    <glyph glyph-name="f_f_l" unicode="ffl" horiz-adv-x="894" 
d="M172 436v-436h-45v436h-99v41h99v95c0 84 45 135 126 135c35 0 66 -7 93 -20v-43c-29 14 -57 21 -84 21c-57 0 -90 -38 -90 -103v-85h244v95c0 84 45 135 126 135c35 0 66 -7 93 -20v-43c-29 14 -57 21 -84 21c-57 0 -90 -38 -90 -103v-85h244v223h45v-592
c0 -52 24 -78 71 -78c19 0 35 5 50 14v-42c-17 -9 -38 -14 -63 -14c-57 0 -103 31 -103 111v337h-244v-436h-45v436h-244z" />
    <glyph glyph-name=".notdef" horiz-adv-x="696" 
d="M501 0h-415v700h415v-700zM124 665v-630h339v630h-339z" />
    <glyph glyph-name="NULL" horiz-adv-x="0" 
 />
    <glyph glyph-name="CR" horiz-adv-x="333" 
 />
    <glyph glyph-name="space" unicode=" " horiz-adv-x="268" 
 />
    <glyph glyph-name="exclam" unicode="!" horiz-adv-x="264" 
d="M153 208h-42l-6 492h54zM105 8c-36 33 21 90 54 54c36 -33 -21 -90 -54 -54z" />
    <glyph glyph-name="quotedbl" unicode="&#x22;" horiz-adv-x="343" 
d="M104 463h-44v237h44v-237zM283 463h-43v237h43v-237z" />
    <glyph glyph-name="numbersign" unicode="#" horiz-adv-x="712" 
d="M194 0h-44l31 198h-147l7 42h146l35 219h-147l8 42h145l33 199h44l-32 -199h213l31 199h45l-32 -199h148l-7 -42h-147l-35 -219h148l-7 -42h-148l-31 -198h-45l32 198h-212zM268 459l-36 -219h213l34 219h-211z" />
    <glyph glyph-name="dollar" unicode="$" horiz-adv-x="623" 
d="M280 814h47v-103c71 -4 133 -23 187 -58v-49c-64 43 -134 64 -210 64c-124 0 -188 -58 -188 -130c-4 -45 28 -77 56 -98c9 -6 22 -12 39 -19c18 -7 32 -12 43 -15l48 -14l21 -6l68 -21c17 -5 37 -14 61 -26c24 -11 42 -23 55 -36c25 -25 48 -68 48 -120
c0 -57 -22 -103 -66 -137c-43 -34 -97 -53 -162 -57v-103h-47v103c-96 5 -185 37 -232 74v53c27 -23 62 -42 107 -59s94 -25 145 -25c61 0 110 14 149 41s59 64 59 110c0 40 -19 73 -40 93c-11 10 -27 20 -48 29c-21 10 -40 17 -56 22c-15 5 -37 11 -66 19l-75 22
c-18 7 -38 15 -61 26c-62 32 -88 70 -92 145c0 47 18 86 54 118c37 33 89 51 156 54v103z" />
    <glyph glyph-name="percent" unicode="%" horiz-adv-x="822" 
d="M219 416c71 0 122 56 122 129s-51 129 -122 129c-72 0 -123 -56 -123 -129s51 -129 123 -129zM219 378c-47 0 -87 16 -118 48c-31 33 -46 72 -46 119s15 86 46 118c31 33 71 49 118 49s85 -16 116 -49c31 -32 47 -71 47 -118s-16 -86 -47 -119c-31 -32 -69 -48 -116 -48z
M232 0h-48l407 700h48zM604 26c71 0 122 56 122 129s-51 129 -122 129c-72 0 -123 -56 -123 -129s51 -129 123 -129zM604 -12c-47 0 -87 16 -118 48c-31 33 -46 72 -46 119s15 86 46 118c31 33 71 49 118 49s85 -16 116 -49c31 -32 47 -71 47 -118s-16 -86 -47 -119
c-31 -32 -69 -48 -116 -48z" />
    <glyph glyph-name="ampersand" unicode="&#x26;" horiz-adv-x="703" 
d="M496 656v-51c-50 43 -105 65 -164 65c-91 0 -149 -47 -149 -123c0 -48 27 -98 82 -151l263 -252c43 61 66 136 69 227h45c-3 -101 -31 -187 -83 -258l119 -113h-63l-84 80c-59 -61 -135 -92 -227 -92c-67 0 -126 20 -177 59c-50 40 -75 94 -75 163c0 52 15 95 44 130
s61 59 96 72c-37 43 -55 88 -55 136c0 49 18 89 54 119s81 45 134 45c67 0 124 -19 171 -56zM304 30c79 0 144 27 196 80l-279 269c-33 -10 -61 -30 -86 -60s-37 -66 -37 -109c0 -54 20 -98 59 -131s88 -49 147 -49z" />
    <glyph glyph-name="quotesingle" unicode="'" horiz-adv-x="164" 
d="M104 463h-44v237h44v-237z" />
    <glyph glyph-name="parenleft" unicode="(" horiz-adv-x="351" 
d="M302 -206h-50c-100 126 -150 278 -150 456c0 177 50 329 150 456h50c-105 -134 -157 -286 -157 -456c0 -171 52 -323 157 -456z" />
    <glyph glyph-name="parenright" unicode=")" horiz-adv-x="351" 
d="M99 -206h-50c105 133 157 285 157 456c0 170 -52 322 -157 456h50c100 -127 150 -279 150 -456c0 -178 -50 -330 -150 -456z" />
    <glyph glyph-name="asterisk" unicode="*" horiz-adv-x="426" 
d="M233 348h-39l2 146l-125 -76l-20 34l127 72l-127 71l20 35l125 -76l-2 146h39l-2 -146l125 76l19 -35l-127 -71l127 -72l-19 -34l-125 76z" />
    <glyph glyph-name="plus" unicode="+" horiz-adv-x="607" 
d="M325 90h-42v212h-213v42h213v213h42v-213h212v-42h-212v-212z" />
    <glyph glyph-name="comma" unicode="," horiz-adv-x="222" 
d="M62 -152h-39l76 239h56z" />
    <glyph glyph-name="hyphen" unicode="-" horiz-adv-x="476" 
d="M373 249h-270v41h270v-41z" />
    <glyph glyph-name="period" unicode="." horiz-adv-x="222" 
d="M84 8c-36 33 21 90 54 54c36 -33 -21 -90 -54 -54z" />
    <glyph glyph-name="slash" unicode="/" horiz-adv-x="499" 
d="M63 -140h-48l421 932h48z" />
    <glyph glyph-name="zero" unicode="0" horiz-adv-x="706" 
d="M353 -12c-83 0 -150 34 -203 103c-52 69 -78 156 -78 259s26 189 78 258c53 69 120 104 203 104c82 0 149 -35 202 -104s79 -155 79 -258s-26 -190 -79 -259s-120 -103 -202 -103zM184 122c45 -60 101 -90 169 -90s124 30 168 90c45 61 67 137 67 228s-22 167 -67 227
c-44 61 -100 91 -168 91s-124 -30 -169 -91c-44 -60 -66 -136 -66 -227s22 -167 66 -228z" />
    <glyph glyph-name="one" unicode="1" horiz-adv-x="363" 
d="M245 0h-46v650l-162 -99v47l165 102h43v-700z" />
    <glyph glyph-name="two" unicode="2" horiz-adv-x="571" 
d="M515 0h-470l1 36l247 239c54 52 92 94 114 127s33 71 33 113c0 91 -69 153 -174 153c-76 0 -145 -33 -206 -99v57c57 57 127 86 210 86c63 0 115 -18 156 -54s61 -83 61 -140c0 -47 -12 -89 -35 -126s-63 -84 -120 -139l-216 -210h399v-43z" />
    <glyph glyph-name="three" unicode="3" horiz-adv-x="566" 
d="M242 -12c-80 0 -147 17 -201 51v50c53 -38 118 -57 197 -57c59 0 109 17 152 50s65 78 65 135c0 53 -19 95 -58 128c-38 33 -89 50 -152 50c-24 0 -47 -3 -70 -8v33l238 237h-340v43h404v-34l-231 -232c69 0 128 -19 179 -58c51 -38 76 -91 76 -159s-25 -123 -74 -166
c-49 -42 -111 -63 -185 -63z" />
    <glyph glyph-name="four" unicode="4" horiz-adv-x="627" 
d="M472 0h-46v203h-387v38l389 459h44v-454h119v-43h-119v-203zM426 634l-330 -388h330v388z" />
    <glyph glyph-name="five" unicode="5" horiz-adv-x="597" 
d="M257 -12c-75 0 -138 15 -191 46v48c53 -33 117 -50 190 -50c65 0 119 17 162 52s64 79 64 132c0 50 -20 92 -60 125c-39 34 -92 51 -157 51c-58 0 -114 -9 -168 -28l46 336h336v-43h-300l-33 -236c36 10 79 15 129 15c73 0 133 -21 181 -62s72 -94 72 -158
c0 -66 -26 -121 -77 -164s-116 -64 -194 -64z" />
    <glyph glyph-name="six" unicode="6" horiz-adv-x="638" 
d="M335 -12c-80 0 -143 29 -190 86s-70 138 -70 241c0 115 27 209 82 284s127 113 217 113c56 0 104 -14 145 -43v-45c-43 29 -91 44 -142 44c-56 0 -104 -17 -143 -51c-79 -67 -113 -174 -113 -303c35 73 119 128 220 128c63 0 116 -21 160 -63c45 -41 67 -94 67 -158
c0 -67 -22 -123 -67 -167c-44 -44 -99 -66 -166 -66zM334 32c53 0 97 18 133 53c37 36 55 81 55 135c0 53 -18 96 -55 129s-82 49 -136 49c-47 0 -89 -15 -127 -44c-37 -29 -64 -66 -79 -110c16 -133 86 -212 209 -212z" />
    <glyph glyph-name="seven" unicode="7" horiz-adv-x="544" 
d="M158 0h-49l333 657h-394v43h448v-34z" />
    <glyph glyph-name="eight" unicode="8" horiz-adv-x="646" 
d="M421 371c100 -24 163 -91 163 -184c0 -59 -25 -107 -75 -144c-49 -37 -111 -55 -186 -55s-137 18 -187 55s-75 85 -75 144c0 93 63 160 164 184c-79 25 -128 85 -128 162c0 53 21 96 64 129s97 50 162 50s118 -17 161 -50s64 -76 64 -129c0 -77 -50 -137 -127 -162z
M144 530c0 -40 17 -73 51 -100c34 -26 77 -39 129 -39c51 0 93 13 127 39c34 27 51 60 51 100c0 41 -17 74 -51 99c-33 26 -76 39 -127 39c-52 0 -95 -13 -129 -38s-51 -59 -51 -100zM322 32c61 0 112 15 153 45c41 31 62 68 62 113c0 47 -21 84 -62 113s-92 44 -153 44
s-112 -15 -153 -44s-61 -67 -61 -113c0 -45 21 -82 62 -113c41 -30 92 -45 152 -45z" />
    <glyph glyph-name="nine" unicode="9" horiz-adv-x="638" 
d="M303 712c80 0 143 -29 190 -86s70 -138 70 -241c0 -115 -27 -210 -82 -285s-127 -112 -217 -112c-56 0 -104 14 -145 43v45c43 -29 91 -44 142 -44c56 0 104 17 143 50c79 68 113 175 113 304c-35 -73 -119 -128 -220 -128c-63 0 -116 21 -161 62c-44 42 -66 95 -66 159
c0 67 22 123 66 167c45 44 100 66 167 66zM304 668c-53 0 -97 -18 -134 -54c-36 -35 -54 -80 -54 -134c0 -53 18 -96 55 -129s82 -49 136 -49c47 0 89 15 126 44c38 29 65 66 80 110c-16 133 -86 212 -209 212z" />
    <glyph glyph-name="colon" unicode=":" horiz-adv-x="222" 
d="M84 397c-36 33 21 90 54 54c36 -33 -21 -90 -54 -54zM84 8c-36 33 21 90 54 54c36 -33 -21 -90 -54 -54z" />
    <glyph glyph-name="semicolon" unicode=";" horiz-adv-x="222" 
d="M62 -152h-39l76 239h56zM86 397c-36 33 21 90 54 54c36 -33 -21 -90 -54 -54z" />
    <glyph glyph-name="less" unicode="&#x3c;" horiz-adv-x="607" 
d="M537 142v-46l-467 203v43l467 203v-45l-414 -180z" />
    <glyph glyph-name="equal" unicode="=" horiz-adv-x="607" 
d="M537 188h-467v41h467v-41zM537 416h-467v41h467v-41z" />
    <glyph glyph-name="greater" unicode="&#x3e;" horiz-adv-x="607" 
d="M537 299l-467 -203v46l415 178l-415 180v45l467 -203v-43z" />
    <glyph glyph-name="question" unicode="?" horiz-adv-x="467" 
d="M228 208h-44v143c48 10 91 30 128 60c37 31 56 67 56 110s-16 77 -47 104s-71 40 -119 40c-60 0 -117 -20 -171 -60v46c48 37 106 56 175 56c57 0 106 -17 147 -52c41 -34 61 -78 61 -133c0 -47 -18 -88 -54 -122c-35 -34 -79 -59 -132 -75v-117zM181 8
c-36 33 21 90 54 54c36 -33 -21 -90 -54 -54z" />
    <glyph glyph-name="at" unicode="@" horiz-adv-x="968" 
d="M485 -162c-119 0 -221 42 -305 126c-83 83 -125 187 -125 311c0 123 42 227 125 311c84 84 186 126 305 126c122 0 224 -40 305 -119c82 -79 123 -177 123 -292c0 -67 -15 -123 -45 -167c-29 -44 -69 -66 -120 -66c-57 0 -96 27 -115 82c-31 -43 -91 -83 -163 -83
c-58 0 -106 20 -143 61s-55 89 -55 146s18 105 55 146s85 61 143 61c68 0 125 -37 157 -77v62h44v-267c0 -69 34 -106 86 -106c39 0 70 20 95 59s37 89 37 150c0 69 -16 132 -49 190c-33 59 -80 106 -143 142c-62 36 -133 54 -212 54c-116 0 -213 -40 -290 -121
c-77 -80 -116 -177 -116 -292s38 -213 115 -293s174 -120 291 -120c75 0 143 16 204 47v-24c-61 -31 -129 -47 -204 -47zM480 110c59 0 118 36 147 87v154c-29 51 -88 87 -147 87c-46 0 -84 -16 -115 -48c-31 -31 -46 -70 -46 -116s15 -85 46 -117c31 -31 69 -47 115 -47z
" />
    <glyph glyph-name="A" unicode="A" horiz-adv-x="743" 
d="M82 0h-49l318 704h43l316 -704h-48l-93 206h-394zM372 644l-181 -398h361z" />
    <glyph glyph-name="B" unicode="B" horiz-adv-x="719" 
d="M433 0h-328v700h294c123 0 196 -64 196 -169c0 -77 -32 -127 -97 -150c100 -15 160 -86 160 -187c0 -117 -84 -194 -225 -194zM151 353v-310h275c116 0 182 56 182 155s-66 155 -182 155h-275zM151 657v-264h242c100 0 157 48 157 132s-57 132 -157 132h-242z" />
    <glyph glyph-name="C" unicode="C" horiz-adv-x="693" 
d="M427 -12c-100 0 -184 34 -251 102c-67 69 -101 155 -101 260s34 191 101 259c67 69 151 103 251 103c76 0 143 -18 200 -55v-50c-61 41 -127 61 -199 61c-86 0 -159 -30 -218 -91c-59 -60 -88 -136 -88 -227s29 -167 88 -228c59 -60 132 -90 219 -90c83 0 154 24 214 73
v-51c-58 -44 -130 -66 -216 -66z" />
    <glyph glyph-name="D" unicode="D" horiz-adv-x="774" 
d="M322 0h-217v700h217c113 0 204 -32 273 -97s104 -149 104 -253s-35 -188 -104 -253s-160 -97 -273 -97zM151 657v-614h163c104 0 186 28 247 84s91 130 91 223s-30 167 -91 223s-143 84 -247 84h-163z" />
    <glyph glyph-name="E" unicode="E" horiz-adv-x="637" 
d="M589 0h-484v700h468v-43h-422v-259h349v-43h-349v-312h438v-43z" />
    <glyph glyph-name="F" unicode="F" horiz-adv-x="617" 
d="M151 0h-46v700h463v-43h-417v-268h346v-43h-346v-346z" />
    <glyph glyph-name="G" unicode="G" horiz-adv-x="782" 
d="M426 -12c-99 0 -183 34 -250 102c-67 69 -101 155 -101 260c0 104 34 190 101 259s151 103 250 103c90 0 166 -24 228 -73v-49c-66 52 -141 78 -225 78c-87 0 -160 -30 -219 -91c-59 -60 -88 -136 -88 -228c0 -91 29 -167 88 -227s131 -90 216 -90c94 0 168 28 221 83
v286h46v-303c-67 -73 -156 -110 -267 -110z" />
    <glyph glyph-name="H" unicode="H" horiz-adv-x="760" 
d="M151 0h-46v700h46v-302h457v302h46v-700h-46v355h-457v-355z" />
    <glyph glyph-name="I" unicode="I" horiz-adv-x="269" 
d="M158 0h-46v700h46v-700z" />
    <glyph glyph-name="J" unicode="J" horiz-adv-x="503" 
d="M195 -12c-62 0 -115 16 -158 47v51c40 -36 90 -54 151 -54c115 0 173 61 173 182v486h46v-493c0 -145 -77 -219 -212 -219z" />
    <glyph glyph-name="K" unicode="K" horiz-adv-x="638" 
d="M151 0h-46v700h46v-309l356 309h65l-369 -321l425 -379h-70l-407 364v-364z" />
    <glyph glyph-name="L" unicode="L" horiz-adv-x="592" 
d="M558 0h-453v700h46v-657h407v-43z" />
    <glyph glyph-name="M" unicode="M" horiz-adv-x="847" 
d="M151 0h-46v700h47l272 -357l272 357h45v-700h-46v629l-256 -336h-30l-258 336v-629z" />
    <glyph glyph-name="N" unicode="N" horiz-adv-x="775" 
d="M151 0h-46v700h41l477 -620v620h46v-700h-40l-478 621v-621z" />
    <glyph glyph-name="O" unicode="O" horiz-adv-x="846" 
d="M209 123c58 -61 129 -91 214 -91s156 30 214 91s87 136 87 227s-29 166 -87 227s-129 91 -214 91s-156 -30 -214 -91s-87 -136 -87 -227s29 -166 87 -227zM423 -12c-99 0 -182 34 -249 103c-66 69 -99 155 -99 259c0 103 33 189 99 258c67 69 150 104 249 104
s181 -35 248 -104s100 -155 100 -258s-33 -190 -100 -259s-149 -103 -248 -103z" />
    <glyph glyph-name="P" unicode="P" horiz-adv-x="665" 
d="M151 0h-46v700h291c136 0 216 -75 216 -188s-80 -189 -216 -189h-245v-323zM151 657v-291h241c111 0 174 53 174 146c0 92 -63 145 -174 145h-241z" />
    <glyph glyph-name="Q" unicode="Q" horiz-adv-x="846" 
d="M423 -12c-99 0 -182 34 -249 103c-66 69 -99 155 -99 259c0 103 33 189 99 258c67 69 150 104 249 104s181 -35 248 -104s100 -155 100 -258c0 -85 -23 -158 -69 -221c-45 -63 -105 -105 -178 -127c47 -49 94 -74 142 -74c33 0 61 8 83 24v-47c-25 -13 -54 -20 -85 -20
c-61 0 -125 36 -192 107c-21 -3 -38 -4 -49 -4zM209 123c58 -61 129 -91 214 -91s156 30 214 91s87 136 87 227s-29 166 -87 227s-129 91 -214 91s-156 -30 -214 -91s-87 -136 -87 -227s29 -166 87 -227z" />
    <glyph glyph-name="R" unicode="R" horiz-adv-x="736" 
d="M151 0h-46v700h310c133 0 213 -73 213 -184c0 -100 -63 -171 -174 -184l230 -332h-54l-229 329h-250v-329zM151 657v-285h260c108 0 171 51 171 143c0 89 -63 142 -171 142h-260z" />
    <glyph glyph-name="S" unicode="S" horiz-adv-x="623" 
d="M304 -12c-104 0 -204 34 -256 75v53c27 -23 62 -42 107 -59s94 -25 145 -25c61 0 110 14 149 41s59 64 59 110c0 40 -19 73 -40 93c-11 10 -27 20 -48 29c-21 10 -40 17 -56 22c-15 5 -37 11 -66 19l-75 22c-18 7 -38 15 -61 26c-62 32 -88 70 -92 145c0 49 20 90 61 123
s98 50 171 50c81 0 152 -20 212 -59v-49c-64 43 -134 64 -210 64c-124 0 -188 -58 -188 -130c-4 -45 28 -77 56 -98c9 -6 22 -12 39 -19c18 -7 32 -12 43 -15l48 -14l21 -6l68 -21c17 -5 37 -14 61 -26c24 -11 42 -23 55 -36c25 -25 48 -68 48 -120c0 -61 -24 -109 -73 -144
c-49 -34 -108 -51 -178 -51z" />
    <glyph glyph-name="T" unicode="T" horiz-adv-x="620" 
d="M333 0h-46v657h-251v43h548v-43h-251v-657z" />
    <glyph glyph-name="U" unicode="U" horiz-adv-x="747" 
d="M374 -12c-84 0 -152 27 -203 81s-77 131 -77 230v401h46v-401c0 -168 89 -267 234 -267c144 0 233 99 233 267v401h46v-401c0 -99 -26 -175 -77 -230c-51 -54 -119 -81 -202 -81z" />
    <glyph glyph-name="V" unicode="V" horiz-adv-x="748" 
d="M395 -4h-42l-314 704h51l285 -639l284 639h50z" />
    <glyph glyph-name="W" unicode="W" horiz-adv-x="1041" 
d="M329 -4h-40l-244 704h52l214 -627l190 629h39l191 -629l214 627h51l-244 -704h-42l-189 622z" />
    <glyph glyph-name="X" unicode="X" horiz-adv-x="698" 
d="M92 0h-54l283 380l-238 320h56l211 -282l211 282h55l-239 -319l286 -381h-57l-257 343z" />
    <glyph glyph-name="Y" unicode="Y" horiz-adv-x="646" 
d="M345 0h-46v324l-273 376h56l241 -332l242 332h53l-273 -375v-325z" />
    <glyph glyph-name="Z" unicode="Z" horiz-adv-x="639" 
d="M585 0h-531v33l454 624h-427v43h488v-33l-450 -624h466v-43z" />
    <glyph glyph-name="bracketleft" unicode="[" horiz-adv-x="370" 
d="M330 -206h-230v912h230v-40h-187v-832h187v-40z" />
    <glyph glyph-name="backslash" unicode="\" horiz-adv-x="498" 
d="M486 -140h-48l-421 932h48z" />
    <glyph glyph-name="bracketright" unicode="]" horiz-adv-x="370" 
d="M40 706h230v-912h-230v40h187v832h-187v40z" />
    <glyph glyph-name="asciicircum" unicode="^" horiz-adv-x="502" 
d="M106 349h-46l169 359h43l169 -359h-44l-146 314z" />
    <glyph glyph-name="underscore" unicode="_" horiz-adv-x="608" 
d="M600 -119h-592v36h592v-36z" />
    <glyph glyph-name="grave" unicode="`" horiz-adv-x="522" 
d="M334 577h-49l-109 130h62z" />
    <glyph glyph-name="a" unicode="a" horiz-adv-x="589" 
d="M246 30c80 0 149 43 188 95v79c-57 37 -115 56 -175 56c-101 0 -163 -46 -163 -115c0 -77 66 -115 150 -115zM233 -12c-50 0 -93 14 -130 41c-36 28 -54 66 -54 115c0 47 19 85 56 113c38 29 85 43 142 43c67 0 130 -17 187 -52v63c0 92 -62 136 -170 136
c-57 0 -111 -17 -162 -51v46c48 31 105 47 170 47c124 0 207 -58 207 -174v-212c0 -41 20 -68 52 -68c11 0 20 2 28 6v-37c-9 -5 -22 -8 -39 -8c-43 0 -78 28 -82 83c-52 -61 -120 -91 -205 -91z" />
    <glyph glyph-name="b" unicode="b" horiz-adv-x="630" 
d="M332 -12c-85 0 -150 32 -197 96v-84h-45v700h45v-308c47 65 113 97 197 97c72 0 130 -25 175 -74s68 -108 68 -177s-23 -128 -68 -177s-103 -73 -175 -73zM324 30c59 0 107 20 146 59c39 40 59 90 59 149s-20 109 -59 149s-87 60 -146 60c-81 0 -157 -50 -189 -119v-180
c31 -69 106 -118 189 -118z" />
    <glyph glyph-name="c" unicode="c" horiz-adv-x="524" 
d="M306 -12c-73 0 -133 24 -180 73s-71 108 -71 178c0 69 24 128 71 177s108 73 181 73c53 0 101 -12 144 -37v-44c-45 26 -91 39 -139 39c-60 0 -110 -20 -151 -60c-40 -40 -60 -90 -60 -149s20 -109 60 -149c41 -39 91 -59 151 -59c56 0 105 15 148 45v-45
c-42 -28 -93 -42 -154 -42z" />
    <glyph glyph-name="d" unicode="d" horiz-adv-x="631" 
d="M298 -12c-72 0 -131 24 -176 73s-67 108 -67 177s22 128 67 177s104 74 176 74c84 0 150 -32 197 -97v308h45v-700h-45v84c-47 -64 -112 -96 -197 -96zM306 30c83 0 158 49 189 118v180c-32 69 -108 119 -189 119c-59 0 -108 -20 -147 -60s-58 -90 -58 -149
s19 -109 58 -149c39 -39 88 -59 147 -59z" />
    <glyph glyph-name="e" unicode="e" horiz-adv-x="567" 
d="M315 -12c-75 0 -137 23 -186 70s-74 107 -74 180c0 72 22 132 66 179c44 48 101 72 171 72c80 0 142 -35 173 -87c32 -51 47 -103 47 -155v-15h-412c1 -60 22 -109 63 -146s94 -56 158 -56c57 0 109 15 154 45v-44c-38 -29 -91 -43 -160 -43zM101 271h366
c0 69 -48 176 -176 176c-56 0 -101 -18 -135 -54c-33 -35 -52 -76 -55 -122z" />
    <glyph glyph-name="f" unicode="f" horiz-adv-x="374" 
d="M172 436v-436h-45v436h-99v41h99v95c0 84 45 135 126 135c35 0 66 -7 93 -20v-43c-29 14 -57 21 -84 21c-57 0 -90 -38 -90 -103v-85h174v-41h-174z" />
    <glyph glyph-name="g" unicode="g" horiz-adv-x="630" 
d="M495 394v83h45v-456c0 -73 -24 -128 -71 -167s-107 -58 -181 -58c-68 0 -129 15 -184 45v46c55 -33 115 -49 181 -49c127 0 210 62 210 183v66c-45 -63 -111 -95 -196 -95c-72 0 -131 24 -176 73s-68 108 -68 176s23 126 68 175s104 73 176 73c85 0 151 -32 196 -95z
M495 151v179c-31 69 -106 117 -187 117c-59 0 -109 -20 -148 -59s-59 -88 -59 -147s20 -109 59 -148s89 -59 148 -59c81 0 156 48 187 117z" />
    <glyph glyph-name="h" unicode="h" horiz-adv-x="604" 
d="M135 336v-336h-45v700h45v-306c43 52 118 95 203 95c121 0 185 -72 185 -199v-290h-45v281c0 68 -21 116 -54 137c-32 21 -62 29 -99 29s-73 -11 -109 -34c-36 -22 -63 -48 -81 -77z" />
    <glyph glyph-name="i" unicode="i" horiz-adv-x="253" 
d="M149 0h-45v477h45v-477zM153 619c-33 -36 -90 21 -54 54c33 36 90 -21 54 -54z" />
    <glyph glyph-name="j" unicode="j" horiz-adv-x="253" 
d="M23 -204c-31 0 -57 6 -77 18v43c22 -13 45 -19 69 -19c59 0 89 34 89 103v536h45v-544c0 -97 -53 -137 -126 -137zM153 619c-33 -36 -90 21 -54 54c33 36 90 -21 54 -54z" />
    <glyph glyph-name="k" unicode="k" horiz-adv-x="516" 
d="M135 0h-45v700h45v-424l251 201h66l-269 -216l305 -261h-68l-285 244v-244z" />
    <glyph glyph-name="l" unicode="l" horiz-adv-x="279" 
d="M193 -12c-57 0 -103 31 -103 111v601h45v-592c0 -52 24 -78 71 -78c19 0 35 5 50 14v-42c-17 -9 -38 -14 -63 -14z" />
    <glyph glyph-name="m" unicode="m" horiz-adv-x="913" 
d="M135 0h-45v477h45v-79c35 52 101 91 181 91c81 0 133 -34 155 -102c37 59 107 102 192 102c108 0 169 -68 169 -191v-298h-45v289c0 67 -19 113 -50 132c-31 20 -54 26 -85 26c-35 0 -68 -11 -100 -33c-31 -22 -55 -49 -70 -80c1 -24 2 -41 2 -50v-284h-45v290
c0 105 -45 157 -134 157c-33 0 -66 -10 -98 -31c-31 -21 -55 -46 -72 -77v-339z" />
    <glyph glyph-name="n" unicode="n" horiz-adv-x="604" 
d="M135 336v-336h-45v477h45v-83c43 52 118 95 203 95c121 0 185 -72 185 -199v-290h-45v281c0 68 -21 116 -54 137c-32 21 -62 29 -99 29s-73 -11 -109 -34c-36 -22 -63 -48 -81 -77z" />
    <glyph glyph-name="o" unicode="o" horiz-adv-x="616" 
d="M160 89c40 -39 89 -59 148 -59s108 20 147 59c40 40 60 90 60 149s-20 109 -60 149c-39 40 -88 60 -147 60s-108 -20 -148 -60c-39 -40 -59 -90 -59 -149s20 -109 59 -149zM490 61c-47 -49 -107 -73 -182 -73s-136 24 -183 73s-70 108 -70 177s23 128 70 177
s108 74 183 74s135 -25 182 -74s71 -108 71 -177s-24 -128 -71 -177z" />
    <glyph glyph-name="p" unicode="p" horiz-adv-x="630" 
d="M332 489c72 0 130 -25 175 -74s68 -107 68 -176s-23 -128 -68 -177s-103 -74 -175 -74c-84 0 -150 32 -197 97v-285h-45v677h45v-84c47 64 112 96 197 96zM324 447c-83 0 -158 -49 -189 -118v-180c32 -69 108 -119 189 -119c59 0 107 20 146 60s59 90 59 149
s-20 109 -59 148c-39 40 -87 60 -146 60z" />
    <glyph glyph-name="q" unicode="q" horiz-adv-x="631" 
d="M298 489c85 0 150 -32 197 -96v84h45v-677h-45v285c-47 -65 -113 -97 -197 -97c-72 0 -131 25 -176 74s-67 108 -67 177s22 127 67 176s104 74 176 74zM306 447c-59 0 -108 -20 -147 -60c-39 -39 -58 -89 -58 -148s19 -109 58 -149s88 -60 147 -60c81 0 157 50 189 119
v180c-31 69 -106 118 -189 118z" />
    <glyph glyph-name="r" unicode="r" horiz-adv-x="345" 
d="M135 0h-45v477h45v-100c35 61 109 111 193 112v-46c-45 0 -85 -13 -119 -39c-34 -25 -59 -55 -74 -88v-316z" />
    <glyph glyph-name="s" unicode="s" horiz-adv-x="500" 
d="M244 -12c-80 0 -158 23 -197 51v49c57 -39 123 -58 196 -58c93 0 153 37 153 94c0 28 -15 48 -44 63s-55 21 -99 33l-20 5c-41 11 -65 17 -98 32c-43 22 -73 51 -73 103c0 79 67 129 184 129c70 0 127 -15 172 -44v-46c-53 32 -109 48 -169 48c-93 0 -141 -35 -141 -87
c0 -24 14 -44 29 -56c7 -5 19 -11 34 -17c31 -12 42 -15 82 -24l56 -14c12 -3 28 -9 49 -17s36 -16 45 -25c20 -17 39 -47 39 -84c0 -41 -19 -74 -57 -99c-37 -24 -84 -36 -141 -36z" />
    <glyph glyph-name="t" unicode="t" horiz-adv-x="422" 
d="M274 -12c-83 0 -124 52 -124 137v311h-122v41h122v154h45v-154h178v-41h-178v-299c0 -77 27 -107 90 -107c28 0 55 7 81 22v-42c-21 -15 -51 -22 -92 -22z" />
    <glyph glyph-name="u" unicode="u" horiz-adv-x="606" 
d="M470 141v336h45v-477h-45v83c-43 -52 -118 -95 -203 -95c-121 0 -185 72 -185 199v290h45v-281c0 -68 21 -116 53 -137c33 -21 63 -29 100 -29s73 11 109 33c36 23 63 49 81 78z" />
    <glyph glyph-name="v" unicode="v" horiz-adv-x="555" 
d="M299 -4h-43l-224 481h51l196 -420l194 420h49z" />
    <glyph glyph-name="w" unicode="w" horiz-adv-x="813" 
d="M259 -4h-40l-175 481h47l150 -411l146 413h39l147 -413l149 411h46l-175 -481h-39l-149 413z" />
    <glyph glyph-name="x" unicode="x" horiz-adv-x="540" 
d="M91 0h-54l209 254l-182 223h56l154 -188l155 188h53l-181 -221l209 -256h-57l-181 221z" />
    <glyph glyph-name="y" unicode="y" horiz-adv-x="542" 
d="M101 -204c-29 0 -52 5 -68 15v43c20 -11 41 -16 63 -16c33 0 59 13 79 39c21 25 45 69 72 130l-221 470h51l193 -415l187 415h49l-241 -531c-44 -99 -92 -150 -164 -150z" />
    <glyph glyph-name="z" unicode="z" horiz-adv-x="492" 
d="M453 0h-415v31l334 405h-310v41h375v-32l-332 -404h348v-41z" />
    <glyph glyph-name="braceleft" unicode="{" horiz-adv-x="347" 
d="M111 250c52 -21 64 -66 64 -149v-178c0 -59 30 -89 91 -89h41v-40h-48c-79 0 -127 47 -127 128v169c0 33 0 47 -5 75c-8 39 -27 58 -72 65v38c29 3 49 17 60 32c5 8 9 19 12 33c5 28 5 42 5 75v169c0 81 48 128 127 128h48v-40h-41c-61 0 -91 -30 -91 -89v-178
c0 -83 -12 -128 -64 -149z" />
    <glyph glyph-name="bar" unicode="|" horiz-adv-x="295" 
d="M169 -111h-43v871h43v-871z" />
    <glyph glyph-name="braceright" unicode="}" horiz-adv-x="347" 
d="M236 250c-52 21 -64 66 -64 149v178c0 59 -30 89 -91 89h-41v40h48c79 0 127 -47 127 -128v-169c0 -33 0 -47 5 -75c7 -39 27 -58 72 -65v-38c-29 -3 -49 -17 -60 -33c-5 -7 -9 -18 -12 -32c-5 -28 -5 -42 -5 -75v-169c0 -81 -48 -128 -127 -128h-48v40h41
c61 0 91 30 91 89v178c0 83 12 128 64 149z" />
    <glyph glyph-name="asciitilde" unicode="~" horiz-adv-x="565" 
d="M394 212c-27 0 -64 8 -112 24c-48 17 -85 25 -111 25c-43 0 -76 -14 -101 -43v46c19 25 52 38 101 38c26 0 63 -8 111 -25c48 -16 85 -24 112 -24c43 0 76 14 101 42v-46c-19 -25 -53 -37 -101 -37z" />
    <glyph glyph-name="nbspace" unicode="&#xa0;" horiz-adv-x="268" 
 />
    <glyph glyph-name="exclamdown" unicode="&#xa1;" horiz-adv-x="264" 
d="M153 268l7 -468h-56l7 468h42zM105 415c-36 33 21 90 54 54c36 -33 -21 -90 -54 -54z" />
    <glyph glyph-name="cent" unicode="&#xa2;" horiz-adv-x="524" 
d="M286 488v106h41v-106c45 -3 86 -15 124 -36v-44c-45 26 -91 39 -139 39c-60 0 -110 -20 -151 -60c-40 -40 -60 -90 -60 -149s20 -109 60 -149c41 -39 91 -59 151 -59c56 0 105 15 148 45v-45c-36 -24 -80 -38 -133 -41v-106h-41v106c-68 5 -124 31 -167 78
c-43 48 -64 105 -64 172c0 65 21 122 64 170s99 74 167 79z" />
    <glyph glyph-name="sterling" unicode="&#xa3;" horiz-adv-x="579" 
d="M521 0h-455v43h24c30 0 45 26 45 77v184h-69v43h69v144c0 140 81 221 220 221c63 0 118 -15 163 -46v-48c-43 33 -96 50 -159 50c-115 0 -178 -64 -178 -183v-138h294v-43h-294v-209c0 -25 -8 -42 -23 -52h363v-43z" />
    <glyph glyph-name="currency" unicode="&#xa4;" horiz-adv-x="557" 
d="M152 197l-64 -64l-29 27l64 65c-29 37 -43 79 -43 126s14 89 43 125l-64 65l29 28l64 -64c35 30 77 45 126 45s91 -15 125 -45l65 64l29 -28l-66 -65c30 -35 45 -77 45 -125c0 -47 -15 -89 -44 -126l65 -65l-29 -27l-65 63c-35 -29 -76 -44 -125 -44s-91 15 -126 45z
M278 192c44 0 81 15 111 46s45 68 45 113s-15 82 -45 113s-67 46 -111 46c-45 0 -82 -15 -112 -46s-45 -68 -45 -113s15 -82 45 -113s67 -46 112 -46z" />
    <glyph glyph-name="yen" unicode="&#xa5;" horiz-adv-x="609" 
d="M327 0h-46v149h-215v43h215v114h-215v43h197l-237 351h54l224 -333l225 333h53l-238 -351h199v-43h-216v-114h216v-43h-216v-149z" />
    <glyph glyph-name="brokenbar" unicode="&#xa6;" horiz-adv-x="295" 
d="M169 -111h-43v353h43v-353zM169 407h-43v353h43v-353z" />
    <glyph glyph-name="section" unicode="&#xa7;" horiz-adv-x="642" 
d="M450 110c59 -31 89 -70 89 -119c0 -83 -79 -143 -218 -143c-79 0 -150 19 -214 57v48c69 -41 142 -61 217 -61c103 0 168 40 168 101c0 35 -26 65 -79 89c-17 7 -58 22 -124 44c-145 48 -219 94 -219 181c0 68 46 118 121 143c-59 31 -89 70 -89 119c0 83 79 143 218 143
c79 0 150 -19 214 -57v-48c-69 41 -142 61 -217 61c-103 0 -168 -40 -168 -101c0 -35 26 -65 79 -89c17 -7 58 -22 124 -44c145 -48 219 -94 219 -181c0 -68 -46 -118 -121 -143zM258 180l60 -20c29 -10 56 -19 83 -27c73 15 125 60 125 117c0 32 -19 60 -42 79
c-11 9 -27 19 -48 28c-21 10 -38 18 -53 23l-60 20c-29 10 -56 19 -83 27c-73 -15 -125 -60 -125 -117c0 -32 19 -60 42 -79c11 -9 27 -19 48 -29c21 -9 38 -17 53 -22z" />
    <glyph glyph-name="dieresis" unicode="&#xa8;" horiz-adv-x="522" 
d="M331 619c-34 32 21 86 51 51c35 -30 -19 -85 -51 -51zM141 619c-34 32 21 86 51 51c35 -30 -19 -85 -51 -51z" />
    <glyph glyph-name="copyright" unicode="&#xa9;" horiz-adv-x="874" 
d="M459 158c-54 0 -99 18 -136 55c-36 37 -54 82 -54 137s18 100 54 137c37 37 82 55 136 55c38 0 72 -9 101 -26v-42c-30 19 -64 29 -101 29c-42 0 -77 -15 -105 -44s-42 -65 -42 -109s14 -81 42 -110c29 -29 64 -43 106 -43c43 0 79 12 110 37v-42
c-29 -23 -66 -34 -111 -34zM436 -12c-101 0 -186 35 -256 105c-70 71 -105 156 -105 257c0 99 35 184 106 255s156 107 256 107c101 0 186 -35 256 -106c71 -71 106 -156 106 -257c0 -99 -36 -184 -107 -255s-156 -106 -256 -106zM436 12c95 0 175 33 240 98
c66 66 99 146 99 239c0 94 -33 174 -99 240c-65 66 -145 99 -239 99s-174 -33 -240 -99c-65 -66 -98 -146 -98 -240c0 -93 33 -173 98 -239c65 -65 145 -98 239 -98z" />
    <glyph glyph-name="ordfeminine" unicode="&#xaa;" horiz-adv-x="528" 
d="M441 360c8 0 15 1 20 4v-35c-7 -3 -16 -5 -29 -5c-35 0 -65 22 -66 62c-41 -46 -92 -69 -153 -69c-38 0 -71 11 -98 33s-41 51 -41 88c0 38 15 67 44 88c30 21 65 31 105 31c49 0 96 -13 139 -38v44c0 70 -42 105 -126 105c-47 0 -88 -13 -122 -38v40c34 23 77 35 129 35
c95 0 160 -45 160 -136v-162c0 -29 15 -47 38 -47zM362 427v56c-38 26 -81 39 -129 39c-73 0 -118 -31 -118 -82c0 -57 48 -86 109 -86c57 0 110 34 138 73z" />
    <glyph glyph-name="guillemotleft" unicode="&#xab;" horiz-adv-x="535" 
d="M262 42h-54l-156 184v26l156 183h54l-167 -197zM485 42h-54l-156 184v26l156 183h54l-167 -197z" />
    <glyph glyph-name="logicalnot" unicode="&#xac;" horiz-adv-x="554" 
d="M484 157h-42v176h-372v41h414v-217z" />
    <glyph glyph-name="uni00AD" unicode="&#xad;" horiz-adv-x="476" 
d="M373 249h-270v41h270v-41z" />
    <glyph glyph-name="registered" unicode="&#xae;" horiz-adv-x="874" 
d="M348 168h-42v371h169c73 0 118 -42 118 -102c0 -52 -32 -90 -87 -99l121 -170h-48l-118 166h-113v-166zM348 503v-133h126c48 0 76 25 76 66c0 43 -28 67 -76 67h-126zM436 -12c-101 0 -186 35 -256 105c-70 71 -105 156 -105 257c0 99 35 184 106 255s156 107 256 107
c101 0 186 -35 256 -106c71 -71 106 -156 106 -257c0 -99 -36 -184 -107 -255s-156 -106 -256 -106zM436 12c95 0 175 33 240 98c66 66 99 146 99 239c0 94 -33 174 -99 240c-65 66 -145 99 -239 99s-174 -33 -240 -99c-65 -66 -98 -146 -98 -240c0 -93 33 -173 98 -239
c65 -65 145 -98 239 -98z" />
    <glyph glyph-name="overscore" unicode="&#xaf;" horiz-adv-x="519" 
d="M374 625h-230v38h230v-38z" />
    <glyph glyph-name="degree" unicode="&#xb0;" horiz-adv-x="441" 
d="M220 673c-60 0 -108 -49 -108 -110c0 -60 48 -109 108 -109c61 0 109 49 109 109c0 61 -48 110 -109 110zM220 712c41 0 77 -15 106 -44s44 -64 44 -105s-15 -76 -44 -105s-65 -43 -106 -43s-76 14 -105 43s-44 64 -44 105s15 76 44 105s64 44 105 44z" />
    <glyph glyph-name="plusminus" unicode="&#xb1;" horiz-adv-x="607" 
d="M325 188h-42v172h-213v42h213v173h42v-173h212v-42h-212v-172zM537 68h-467v41h467v-41z" />
    <glyph glyph-name="twosuperior" unicode="&#xb2;" horiz-adv-x="357" 
d="M306 322h-260v32l128 120c53 49 75 79 75 119c0 43 -33 72 -84 72c-41 0 -78 -16 -111 -47v45c32 28 70 42 115 42c71 0 123 -44 123 -107c0 -51 -25 -89 -84 -144l-99 -95h197v-37z" />
    <glyph glyph-name="threesuperior" unicode="&#xb3;" horiz-adv-x="322" 
d="M138 317c-45 0 -82 10 -112 29v40c33 -21 70 -31 110 -31c56 0 105 35 105 87c0 51 -40 83 -101 83c-16 0 -31 -2 -44 -6v29l116 115h-170v37h228v-31l-114 -112c69 -4 127 -42 127 -115c0 -37 -14 -67 -42 -90c-27 -23 -62 -35 -103 -35z" />
    <glyph glyph-name="acute" unicode="&#xb4;" horiz-adv-x="508" 
d="M242 577h-49l96 130h61z" />
    <glyph glyph-name="mu" unicode="&#xb5;" horiz-adv-x="614" 
d="M135 -200h-45v677h45v-281c0 -68 21 -116 53 -137c33 -21 63 -29 100 -29s73 11 109 33c36 23 63 49 81 78v336h45v-477h-45v83c-43 -52 -118 -95 -203 -95c-61 0 -108 18 -140 54v-242z" />
    <glyph glyph-name="paragraph" unicode="&#xb6;" horiz-adv-x="504" 
d="M398 0h-45v327h-87c-136 0 -215 74 -215 186c0 113 79 187 215 187h132v-700z" />
    <glyph glyph-name="middot" unicode="&#xb7;" horiz-adv-x="222" 
d="M84 353c-36 33 21 90 54 54c36 -33 -21 -90 -54 -54z" />
    <glyph glyph-name="cedilla" unicode="&#xb8;" horiz-adv-x="471" 
d="M204 -127h-56l90 132h40z" />
    <glyph glyph-name="onesuperior" unicode="&#xb9;" horiz-adv-x="234" 
d="M172 322h-43v333l-104 -63v43l107 65h40v-378z" />
    <glyph glyph-name="ordmasculine" unicode="&#xba;" horiz-adv-x="470" 
d="M388 511c0 43 -15 80 -44 109c-29 30 -65 45 -108 45s-80 -15 -109 -45c-29 -29 -44 -66 -44 -109c0 -44 15 -81 44 -111c29 -29 66 -44 109 -44s79 15 108 44c29 30 44 67 44 111zM432 510c0 -53 -18 -99 -55 -137c-36 -37 -83 -56 -141 -56s-106 19 -143 56
c-37 38 -55 84 -55 137s18 99 55 137c37 39 85 58 143 58s105 -19 141 -57c37 -38 55 -84 55 -138z" />
    <glyph glyph-name="guillemotright" unicode="&#xbb;" horiz-adv-x="536" 
d="M484 252v-26l-156 -184h-54l167 196l-167 197h54zM261 252v-26l-156 -184h-54l167 196l-167 197h54z" />
    <glyph glyph-name="onequarter" unicode="&#xbc;" horiz-adv-x="730" 
d="M166 0h-48l407 700h48zM172 322h-43v333l-104 -63v43l107 65h40v-378zM645 0h-42v103h-202v32l204 243h40v-239h62v-36h-62v-103zM603 321l-152 -182h152v182z" />
    <glyph glyph-name="onehalf" unicode="&#xbd;" horiz-adv-x="797" 
d="M166 0h-48l407 700h48zM172 322h-43v333l-104 -63v43l107 65h40v-378zM746 0h-260v32l128 120c53 49 75 79 75 119c0 43 -33 72 -84 72c-41 0 -78 -16 -111 -47v45c32 28 70 42 115 42c71 0 123 -44 123 -107c0 -51 -25 -89 -84 -144l-99 -95h197v-37z" />
    <glyph glyph-name="threequarters" unicode="&#xbe;" horiz-adv-x="783" 
d="M138 317c-45 0 -82 10 -112 29v40c33 -21 70 -31 110 -31c56 0 105 35 105 87c0 51 -40 83 -101 83c-16 0 -31 -2 -44 -6v29l116 115h-170v37h228v-31l-114 -112c69 -4 127 -42 127 -115c0 -37 -14 -67 -42 -90c-27 -23 -62 -35 -103 -35zM698 0h-42v103h-202v32l204 243
h40v-239h62v-36h-62v-103zM656 321l-152 -182h152v182zM218 0h-48l407 700h48z" />
    <glyph glyph-name="questiondown" unicode="&#xbf;" horiz-adv-x="467" 
d="M239 268h45v-125c-49 -11 -92 -30 -129 -59s-55 -64 -55 -107c0 -84 69 -139 165 -139c60 0 117 20 171 60v-46c-48 -37 -108 -56 -179 -56c-57 0 -106 17 -145 50s-59 76 -59 130c0 96 78 161 186 194v98zM233 415c-36 33 21 90 54 54c36 -33 -21 -90 -54 -54z" />
    <glyph glyph-name="Agrave" unicode="&#xc0;" horiz-adv-x="743" 
d="M82 0h-49l318 704h43l316 -704h-48l-93 206h-394zM372 644l-181 -398h361zM396 763h-49l-109 130h62z" />
    <glyph glyph-name="Aacute" unicode="&#xc1;" horiz-adv-x="743" 
d="M82 0h-49l318 704h43l316 -704h-48l-93 206h-394zM372 644l-181 -398h361zM401 763h-49l96 130h61z" />
    <glyph glyph-name="Acircumflex" unicode="&#xc2;" horiz-adv-x="743" 
d="M82 0h-49l318 704h43l316 -704h-48l-93 206h-394zM372 644l-181 -398h361zM290 763h-50l108 130h49l107 -130h-50l-82 99z" />
    <glyph glyph-name="Atilde" unicode="&#xc3;" horiz-adv-x="743" 
d="M82 0h-49l318 704h43l316 -704h-48l-93 206h-394zM372 644l-181 -398h361zM444 776c-19 0 -44 10 -75 31s-53 32 -66 32c-26 0 -40 -19 -43 -57h-36c3 59 31 96 76 96c19 0 44 -10 75 -31c32 -20 54 -30 67 -30c24 0 38 19 42 57h36c-3 -59 -31 -98 -76 -98z" />
    <glyph glyph-name="Adieresis" unicode="&#xc4;" horiz-adv-x="743" 
d="M82 0h-49l318 704h43l316 -704h-48l-93 206h-394zM372 644l-181 -398h361zM441 799c-34 32 21 86 51 51c35 -30 -19 -85 -51 -51zM251 799c-34 32 21 86 51 51c35 -30 -19 -85 -51 -51z" />
    <glyph glyph-name="Aring" unicode="&#xc5;" horiz-adv-x="743" 
d="M82 0h-49l318 704h43l316 -704h-48l-93 206h-394zM372 644l-181 -398h361zM374 736c-52 0 -95 42 -95 93s43 93 95 93c51 0 92 -42 92 -93s-41 -93 -92 -93zM374 769c33 0 60 27 60 60c0 35 -27 61 -60 61c-35 0 -61 -26 -61 -61c0 -33 26 -60 61 -60z" />
    <glyph glyph-name="AE" unicode="&#xc6;" horiz-adv-x="1014" 
d="M2 0l444 700h504v-43h-418v-259h345v-43h-345v-312h434v-43h-480v206h-301l-131 -206h-52zM486 246v411h-13l-263 -411h276z" />
    <glyph glyph-name="Ccedilla" unicode="&#xc7;" horiz-adv-x="693" 
d="M381 -127h-56l79 116c-95 5 -173 42 -236 109c-62 67 -93 151 -93 252c0 105 34 191 101 259c67 69 151 103 251 103c76 0 143 -18 200 -55v-50c-61 41 -127 61 -199 61c-86 0 -159 -30 -218 -91c-59 -60 -88 -136 -88 -227s29 -167 88 -228c59 -60 132 -90 219 -90
c83 0 154 24 214 73v-51c-54 -41 -120 -63 -198 -66z" />
    <glyph glyph-name="Egrave" unicode="&#xc8;" horiz-adv-x="637" 
d="M589 0h-484v700h468v-43h-422v-259h349v-43h-349v-312h438v-43zM373 763h-49l-109 130h62z" />
    <glyph glyph-name="Eacute" unicode="&#xc9;" horiz-adv-x="637" 
d="M589 0h-484v700h468v-43h-422v-259h349v-43h-349v-312h438v-43zM339 763h-49l96 130h61z" />
    <glyph glyph-name="Ecircumflex" unicode="&#xca;" horiz-adv-x="637" 
d="M266 763h-50l108 130h49l107 -130h-50l-82 99zM589 0h-484v700h468v-43h-422v-259h349v-43h-349v-312h438v-43z" />
    <glyph glyph-name="Edieresis" unicode="&#xcb;" horiz-adv-x="637" 
d="M589 0h-484v700h468v-43h-422v-259h349v-43h-349v-312h438v-43zM415 799c-34 32 21 86 51 51c35 -30 -19 -85 -51 -51zM225 799c-34 32 21 86 51 51c35 -30 -19 -85 -51 -51z" />
    <glyph glyph-name="Igrave" unicode="&#xcc;" horiz-adv-x="269" 
d="M157 763h-49l-109 130h62zM158 0h-46v700h46v-700z" />
    <glyph glyph-name="Iacute" unicode="&#xcd;" horiz-adv-x="269" 
d="M158 0h-46v700h46v-700zM155 763h-49l96 130h61z" />
    <glyph glyph-name="Icircumflex" unicode="&#xce;" horiz-adv-x="269" 
d="M53 763h-50l108 130h49l107 -130h-50l-82 99zM158 0h-46v700h46v-700z" />
    <glyph glyph-name="Idieresis" unicode="&#xcf;" horiz-adv-x="268" 
d="M157 0h-46v700h46v-700zM203 799c-34 32 21 86 51 51c35 -30 -19 -85 -51 -51zM13 799c-34 32 21 86 51 51c35 -30 -19 -85 -51 -51z" />
    <glyph glyph-name="Eth" unicode="&#xd0;" horiz-adv-x="818" 
d="M366 0h-217v332h-117v43h117v325h217c113 0 204 -32 273 -97s104 -149 104 -253s-35 -188 -104 -253s-160 -97 -273 -97zM195 332v-289h163c104 0 186 28 247 84s91 130 91 223s-30 167 -91 223s-143 84 -247 84h-163v-282h171v-43h-171z" />
    <glyph glyph-name="Ntilde" unicode="&#xd1;" horiz-adv-x="775" 
d="M151 0h-46v700h41l477 -620v620h46v-700h-40l-478 621v-621zM459 776c-19 0 -44 10 -75 31s-53 32 -66 32c-26 0 -40 -19 -43 -57h-36c3 59 31 96 76 96c19 0 44 -10 75 -31c32 -20 54 -30 67 -30c24 0 38 19 42 57h36c-3 -59 -31 -98 -76 -98z" />
    <glyph glyph-name="Ograve" unicode="&#xd2;" horiz-adv-x="846" 
d="M209 123c58 -61 129 -91 214 -91s156 30 214 91s87 136 87 227s-29 166 -87 227s-129 91 -214 91s-156 -30 -214 -91s-87 -136 -87 -227s29 -166 87 -227zM423 -12c-99 0 -182 34 -249 103c-66 69 -99 155 -99 259c0 103 33 189 99 258c67 69 150 104 249 104
s181 -35 248 -104s100 -155 100 -258s-33 -190 -100 -259s-149 -103 -248 -103zM447 763h-49l-109 130h62z" />
    <glyph glyph-name="Oacute" unicode="&#xd3;" horiz-adv-x="846" 
d="M209 123c58 -61 129 -91 214 -91s156 30 214 91s87 136 87 227s-29 166 -87 227s-129 91 -214 91s-156 -30 -214 -91s-87 -136 -87 -227s29 -166 87 -227zM423 -12c-99 0 -182 34 -249 103c-66 69 -99 155 -99 259c0 103 33 189 99 258c67 69 150 104 249 104
s181 -35 248 -104s100 -155 100 -258s-33 -190 -100 -259s-149 -103 -248 -103zM427 763h-49l96 130h61z" />
    <glyph glyph-name="Ocircumflex" unicode="&#xd4;" horiz-adv-x="846" 
d="M341 763h-50l108 130h49l107 -130h-50l-82 99zM209 123c58 -61 129 -91 214 -91s156 30 214 91s87 136 87 227s-29 166 -87 227s-129 91 -214 91s-156 -30 -214 -91s-87 -136 -87 -227s29 -166 87 -227zM423 -12c-99 0 -182 34 -249 103c-66 69 -99 155 -99 259
c0 103 33 189 99 258c67 69 150 104 249 104s181 -35 248 -104s100 -155 100 -258s-33 -190 -100 -259s-149 -103 -248 -103z" />
    <glyph glyph-name="Otilde" unicode="&#xd5;" horiz-adv-x="846" 
d="M209 123c58 -61 129 -91 214 -91s156 30 214 91s87 136 87 227s-29 166 -87 227s-129 91 -214 91s-156 -30 -214 -91s-87 -136 -87 -227s29 -166 87 -227zM423 -12c-99 0 -182 34 -249 103c-66 69 -99 155 -99 259c0 103 33 189 99 258c67 69 150 104 249 104
s181 -35 248 -104s100 -155 100 -258s-33 -190 -100 -259s-149 -103 -248 -103zM495 776c-19 0 -44 10 -75 31s-53 32 -66 32c-26 0 -40 -19 -43 -57h-36c3 59 31 96 76 96c19 0 44 -10 75 -31c32 -20 54 -30 67 -30c24 0 38 19 42 57h36c-3 -59 -31 -98 -76 -98z" />
    <glyph glyph-name="Odieresis" unicode="&#xd6;" horiz-adv-x="846" 
d="M209 123c58 -61 129 -91 214 -91s156 30 214 91s87 136 87 227s-29 166 -87 227s-129 91 -214 91s-156 -30 -214 -91s-87 -136 -87 -227s29 -166 87 -227zM423 -12c-99 0 -182 34 -249 103c-66 69 -99 155 -99 259c0 103 33 189 99 258c67 69 150 104 249 104
s181 -35 248 -104s100 -155 100 -258s-33 -190 -100 -259s-149 -103 -248 -103zM492 799c-34 32 21 86 51 51c35 -30 -19 -85 -51 -51zM302 799c-34 32 21 86 51 51c35 -30 -19 -85 -51 -51z" />
    <glyph glyph-name="multiply" unicode="&#xd7;" horiz-adv-x="520" 
d="M261 294l-162 -160l-29 29l160 160l-160 161l29 29l161 -160l160 160l30 -29l-162 -161l161 -159l-29 -30z" />
    <glyph glyph-name="Oslash" unicode="&#xd8;" horiz-adv-x="846" 
d="M423 -12c-81 0 -152 24 -215 73l-50 -61h-50l71 86c-69 69 -104 157 -104 264c0 103 33 189 99 258c67 69 150 104 249 104c81 0 153 -25 215 -74l51 62h51l-73 -88c69 -71 104 -158 104 -262c0 -103 -33 -190 -100 -259s-149 -103 -248 -103zM209 122l400 481
c-54 43 -116 65 -186 65c-85 0 -156 -30 -214 -91s-87 -136 -87 -227s29 -167 87 -228zM423 32c85 0 156 30 214 91s87 136 87 227c0 90 -29 166 -87 227l-399 -481c53 -43 115 -64 185 -64z" />
    <glyph glyph-name="Ugrave" unicode="&#xd9;" horiz-adv-x="747" 
d="M374 -12c-84 0 -152 27 -203 81s-77 131 -77 230v401h46v-401c0 -168 89 -267 234 -267c144 0 233 99 233 267v401h46v-401c0 -99 -26 -175 -77 -230c-51 -54 -119 -81 -202 -81zM410 763h-49l-109 130h62z" />
    <glyph glyph-name="Uacute" unicode="&#xda;" horiz-adv-x="747" 
d="M374 -12c-84 0 -152 27 -203 81s-77 131 -77 230v401h46v-401c0 -168 89 -267 234 -267c144 0 233 99 233 267v401h46v-401c0 -99 -26 -175 -77 -230c-51 -54 -119 -81 -202 -81zM392 763h-49l96 130h61z" />
    <glyph glyph-name="Ucircumflex" unicode="&#xdb;" horiz-adv-x="747" 
d="M291 763h-50l108 130h49l107 -130h-50l-82 99zM374 -12c-84 0 -152 27 -203 81s-77 131 -77 230v401h46v-401c0 -168 89 -267 234 -267c144 0 233 99 233 267v401h46v-401c0 -99 -26 -175 -77 -230c-51 -54 -119 -81 -202 -81z" />
    <glyph glyph-name="Udieresis" unicode="&#xdc;" horiz-adv-x="747" 
d="M374 -12c-84 0 -152 27 -203 81s-77 131 -77 230v401h46v-401c0 -168 89 -267 234 -267c144 0 233 99 233 267v401h46v-401c0 -99 -26 -175 -77 -230c-51 -54 -119 -81 -202 -81zM442 799c-34 32 21 86 51 51c35 -30 -19 -85 -51 -51zM252 799c-34 32 21 86 51 51
c35 -30 -19 -85 -51 -51z" />
    <glyph glyph-name="Yacute" unicode="&#xdd;" horiz-adv-x="646" 
d="M345 0h-46v324l-273 376h56l241 -332l242 332h53l-273 -375v-325zM337 763h-49l96 130h61z" />
    <glyph glyph-name="Thorn" unicode="&#xde;" horiz-adv-x="665" 
d="M151 0h-46v700h46v-162h245c136 0 216 -75 216 -188s-80 -189 -216 -189h-245v-161zM151 495v-291h241c111 0 174 53 174 146c0 92 -63 145 -174 145h-241z" />
    <glyph glyph-name="germandbls" unicode="&#xdf;" horiz-adv-x="613" 
d="M339 -12c-39 0 -71 5 -94 15v45c25 -12 54 -18 88 -18c104 0 178 63 178 162c0 53 -19 95 -58 128s-90 50 -153 50h-22v41h22c92 0 149 43 149 122c0 76 -63 132 -152 132c-96 0 -162 -65 -162 -168v-497h-45v497c0 63 19 114 57 152c38 39 88 58 150 58
c58 0 105 -16 142 -49s56 -73 56 -121c0 -75 -41 -124 -106 -144c96 -21 169 -93 169 -205c0 -61 -21 -109 -62 -146c-41 -36 -94 -54 -157 -54z" />
    <glyph glyph-name="agrave" unicode="&#xe0;" horiz-adv-x="589" 
d="M246 30c80 0 149 43 188 95v79c-57 37 -115 56 -175 56c-101 0 -163 -46 -163 -115c0 -77 66 -115 150 -115zM233 -12c-50 0 -93 14 -130 41c-36 28 -54 66 -54 115c0 47 19 85 56 113c38 29 85 43 142 43c67 0 130 -17 187 -52v63c0 92 -62 136 -170 136
c-57 0 -111 -17 -162 -51v46c48 31 105 47 170 47c124 0 207 -58 207 -174v-212c0 -41 20 -68 52 -68c11 0 20 2 28 6v-37c-9 -5 -22 -8 -39 -8c-43 0 -78 28 -82 83c-52 -61 -120 -91 -205 -91zM340 577h-49l-109 130h62z" />
    <glyph glyph-name="aacute" unicode="&#xe1;" horiz-adv-x="589" 
d="M246 30c80 0 149 43 188 95v79c-57 37 -115 56 -175 56c-101 0 -163 -46 -163 -115c0 -77 66 -115 150 -115zM233 -12c-50 0 -93 14 -130 41c-36 28 -54 66 -54 115c0 47 19 85 56 113c38 29 85 43 142 43c67 0 130 -17 187 -52v63c0 92 -62 136 -170 136
c-57 0 -111 -17 -162 -51v46c48 31 105 47 170 47c124 0 207 -58 207 -174v-212c0 -41 20 -68 52 -68c11 0 20 2 28 6v-37c-9 -5 -22 -8 -39 -8c-43 0 -78 28 -82 83c-52 -61 -120 -91 -205 -91zM286 577h-49l96 130h61z" />
    <glyph glyph-name="acircumflex" unicode="&#xe2;" horiz-adv-x="589" 
d="M246 30c80 0 149 43 188 95v79c-57 37 -115 56 -175 56c-101 0 -163 -46 -163 -115c0 -77 66 -115 150 -115zM233 -12c-50 0 -93 14 -130 41c-36 28 -54 66 -54 115c0 47 19 85 56 113c38 29 85 43 142 43c67 0 130 -17 187 -52v63c0 92 -62 136 -170 136
c-57 0 -111 -17 -162 -51v46c48 31 105 47 170 47c124 0 207 -58 207 -174v-212c0 -41 20 -68 52 -68c11 0 20 2 28 6v-37c-9 -5 -22 -8 -39 -8c-43 0 -78 28 -82 83c-52 -61 -120 -91 -205 -91zM196 576h-50l108 130h49l107 -130h-50l-82 99z" />
    <glyph glyph-name="atilde" unicode="&#xe3;" horiz-adv-x="589" 
d="M246 30c80 0 149 43 188 95v79c-57 37 -115 56 -175 56c-101 0 -163 -46 -163 -115c0 -77 66 -115 150 -115zM233 -12c-50 0 -93 14 -130 41c-36 28 -54 66 -54 115c0 47 19 85 56 113c38 29 85 43 142 43c67 0 130 -17 187 -52v63c0 92 -62 136 -170 136
c-57 0 -111 -17 -162 -51v46c48 31 105 47 170 47c124 0 207 -58 207 -174v-212c0 -41 20 -68 52 -68c11 0 20 2 28 6v-37c-9 -5 -22 -8 -39 -8c-43 0 -78 28 -82 83c-52 -61 -120 -91 -205 -91zM353 593c-19 0 -44 10 -76 31c-31 21 -54 32 -67 32c-25 0 -38 -19 -41 -57
h-36c3 59 32 97 76 97c19 0 44 -10 75 -31c32 -21 54 -31 66 -31c24 0 38 19 42 57h36c-3 -59 -31 -98 -75 -98z" />
    <glyph glyph-name="adieresis" unicode="&#xe4;" horiz-adv-x="589" 
d="M246 30c80 0 149 43 188 95v79c-57 37 -115 56 -175 56c-101 0 -163 -46 -163 -115c0 -77 66 -115 150 -115zM233 -12c-50 0 -93 14 -130 41c-36 28 -54 66 -54 115c0 47 19 85 56 113c38 29 85 43 142 43c67 0 130 -17 187 -52v63c0 92 -62 136 -170 136
c-57 0 -111 -17 -162 -51v46c48 31 105 47 170 47c124 0 207 -58 207 -174v-212c0 -41 20 -68 52 -68c11 0 20 2 28 6v-37c-9 -5 -22 -8 -39 -8c-43 0 -78 28 -82 83c-52 -61 -120 -91 -205 -91zM357 619c-34 32 21 86 51 51c35 -30 -19 -85 -51 -51zM167 619
c-34 32 21 86 51 51c35 -30 -19 -85 -51 -51z" />
    <glyph glyph-name="aring" unicode="&#xe5;" horiz-adv-x="589" 
d="M246 30c80 0 149 43 188 95v79c-57 37 -115 56 -175 56c-101 0 -163 -46 -163 -115c0 -77 66 -115 150 -115zM233 -12c-50 0 -93 14 -130 41c-36 28 -54 66 -54 115c0 47 19 85 56 113c38 29 85 43 142 43c67 0 130 -17 187 -52v63c0 92 -62 136 -170 136
c-57 0 -111 -17 -162 -51v46c48 31 105 47 170 47c124 0 207 -58 207 -174v-212c0 -41 20 -68 52 -68c11 0 20 2 28 6v-37c-9 -5 -22 -8 -39 -8c-43 0 -78 28 -82 83c-52 -61 -120 -91 -205 -91zM284 552c-53 0 -95 42 -95 93s42 93 95 93c49 0 91 -42 91 -93
s-42 -93 -91 -93zM284 585c33 0 60 27 60 60c0 35 -27 61 -60 61c-35 0 -62 -26 -62 -61c0 -33 27 -60 62 -60z" />
    <glyph glyph-name="ae" unicode="&#xe6;" horiz-adv-x="945" 
d="M890 247v-15h-412c1 -60 22 -109 63 -146s94 -56 158 -56c58 0 109 15 154 45v-44c-38 -29 -91 -43 -160 -43c-97 0 -181 46 -225 119c-22 -29 -53 -56 -93 -81s-86 -38 -138 -38s-96 14 -133 41c-37 28 -55 66 -55 115c0 47 19 84 56 112c38 29 85 43 142 43
c67 0 130 -17 187 -52v64c0 92 -62 136 -170 136c-57 0 -111 -17 -162 -51v46c48 31 105 47 170 47c97 0 170 -36 197 -111c41 69 113 111 201 111c80 0 142 -35 173 -87c32 -51 47 -103 47 -155zM248 30c78 0 146 37 203 111c-7 18 -13 39 -16 63c-59 38 -118 57 -176 57
c-101 0 -163 -47 -163 -116c0 -77 67 -115 152 -115zM479 271h366c0 69 -48 176 -176 176c-56 0 -101 -18 -135 -54c-33 -35 -52 -76 -55 -122z" />
    <glyph glyph-name="ccedilla" unicode="&#xe7;" horiz-adv-x="524" 
d="M55 239c0 69 24 128 71 177s108 73 181 73c53 0 101 -12 144 -37v-44c-45 26 -91 39 -139 39c-60 0 -110 -20 -151 -60c-40 -40 -60 -90 -60 -149s20 -109 60 -149c41 -39 91 -59 151 -59c56 0 105 15 148 45v-45c-35 -23 -77 -37 -124 -41l-65 -116h-56l78 115
c-69 3 -126 28 -171 76c-45 49 -67 107 -67 175z" />
    <glyph glyph-name="egrave" unicode="&#xe8;" horiz-adv-x="567" 
d="M315 -12c-75 0 -137 23 -186 70s-74 107 -74 180c0 72 22 132 66 179c44 48 101 72 171 72c80 0 142 -35 173 -87c32 -51 47 -103 47 -155v-15h-412c1 -60 22 -109 63 -146s94 -56 158 -56c57 0 109 15 154 45v-44c-38 -29 -91 -43 -160 -43zM101 271h366
c0 69 -48 176 -176 176c-56 0 -101 -18 -135 -54c-33 -35 -52 -76 -55 -122zM357 577h-49l-109 130h62z" />
    <glyph glyph-name="eacute" unicode="&#xe9;" horiz-adv-x="567" 
d="M315 -12c-75 0 -137 23 -186 70s-74 107 -74 180c0 72 22 132 66 179c44 48 101 72 171 72c80 0 142 -35 173 -87c32 -51 47 -103 47 -155v-15h-412c1 -60 22 -109 63 -146s94 -56 158 -56c57 0 109 15 154 45v-44c-38 -29 -91 -43 -160 -43zM101 271h366
c0 69 -48 176 -176 176c-56 0 -101 -18 -135 -54c-33 -35 -52 -76 -55 -122zM291 577h-49l96 130h61z" />
    <glyph glyph-name="ecircumflex" unicode="&#xea;" horiz-adv-x="567" 
d="M315 -12c-75 0 -137 23 -186 70s-74 107 -74 180c0 72 22 132 66 179c44 48 101 72 171 72c80 0 142 -35 173 -87c32 -51 47 -103 47 -155v-15h-412c1 -60 22 -109 63 -146s94 -56 158 -56c57 0 109 15 154 45v-44c-38 -29 -91 -43 -160 -43zM101 271h366
c0 69 -48 176 -176 176c-56 0 -101 -18 -135 -54c-33 -35 -52 -76 -55 -122zM208 576h-50l108 130h49l107 -130h-50l-82 99z" />
    <glyph glyph-name="edieresis" unicode="&#xeb;" horiz-adv-x="567" 
d="M315 -12c-75 0 -137 23 -186 70s-74 107 -74 180c0 72 22 132 66 179c44 48 101 72 171 72c80 0 142 -35 173 -87c32 -51 47 -103 47 -155v-15h-412c1 -60 22 -109 63 -146s94 -56 158 -56c57 0 109 15 154 45v-44c-38 -29 -91 -43 -160 -43zM101 271h366
c0 69 -48 176 -176 176c-56 0 -101 -18 -135 -54c-33 -35 -52 -76 -55 -122zM367 619c-34 32 21 86 51 51c35 -30 -19 -85 -51 -51zM177 619c-34 32 21 86 51 51c35 -30 -19 -85 -51 -51z" />
    <glyph glyph-name="igrave" unicode="&#xec;" horiz-adv-x="253" 
d="M153 577h-49l-109 130h62zM149 0h-45v477h45v-477z" />
    <glyph glyph-name="iacute" unicode="&#xed;" horiz-adv-x="253" 
d="M151 577h-49l96 130h61zM149 0h-45v477h45v-477z" />
    <glyph glyph-name="icircumflex" unicode="&#xee;" horiz-adv-x="253" 
d="M44 576h-50l108 130h49l107 -130h-50l-82 99zM149 0h-45v477h45v-477z" />
    <glyph glyph-name="idieresis" unicode="&#xef;" horiz-adv-x="252" 
d="M195 619c-34 32 21 86 51 51c35 -30 -19 -85 -51 -51zM5 619c-34 32 21 86 51 51c35 -30 -19 -85 -51 -51zM149 0h-45v477h45v-477z" />
    <glyph glyph-name="eth" unicode="&#xf0;" horiz-adv-x="595" 
d="M55 226c0 65 22 120 65 166s99 69 168 69c48 0 88 -9 120 -28l-115 164l-137 -56l-21 30l137 57l-53 72h51l41 -57l120 50l21 -30l-121 -50l145 -212c15 -23 25 -40 32 -53c13 -24 32 -74 32 -119c0 -66 -23 -123 -68 -170s-104 -71 -175 -71s-130 23 -175 70
s-67 103 -67 168zM494 227c0 55 -19 101 -57 138c-37 37 -84 56 -140 56s-103 -19 -140 -56s-56 -83 -56 -138c0 -56 19 -103 56 -141c37 -37 84 -56 140 -56s103 19 140 56c38 38 57 85 57 141z" />
    <glyph glyph-name="ntilde" unicode="&#xf1;" horiz-adv-x="604" 
d="M135 336v-336h-45v477h45v-83c43 52 118 95 203 95c121 0 185 -72 185 -199v-290h-45v281c0 68 -21 116 -54 137c-32 21 -62 29 -99 29s-73 -11 -109 -34c-36 -22 -63 -48 -81 -77zM379 593c-19 0 -44 10 -76 31c-31 21 -54 32 -67 32c-25 0 -38 -19 -41 -57h-36
c3 59 32 97 76 97c19 0 44 -10 75 -31c32 -21 54 -31 66 -31c24 0 38 19 42 57h36c-3 -59 -31 -98 -75 -98z" />
    <glyph glyph-name="ograve" unicode="&#xf2;" horiz-adv-x="616" 
d="M160 89c40 -39 89 -59 148 -59s108 20 147 59c40 40 60 90 60 149s-20 109 -60 149c-39 40 -88 60 -147 60s-108 -20 -148 -60c-39 -40 -59 -90 -59 -149s20 -109 59 -149zM490 61c-47 -49 -107 -73 -182 -73s-136 24 -183 73s-70 108 -70 177s23 128 70 177
s108 74 183 74s135 -25 182 -74s71 -108 71 -177s-24 -128 -71 -177zM353 577h-49l-109 130h62z" />
    <glyph glyph-name="oacute" unicode="&#xf3;" horiz-adv-x="616" 
d="M160 89c40 -39 89 -59 148 -59s108 20 147 59c40 40 60 90 60 149s-20 109 -60 149c-39 40 -88 60 -147 60s-108 -20 -148 -60c-39 -40 -59 -90 -59 -149s20 -109 59 -149zM490 61c-47 -49 -107 -73 -182 -73s-136 24 -183 73s-70 108 -70 177s23 128 70 177
s108 74 183 74s135 -25 182 -74s71 -108 71 -177s-24 -128 -71 -177zM324 577h-49l96 130h61z" />
    <glyph glyph-name="ocircumflex" unicode="&#xf4;" horiz-adv-x="616" 
d="M227 576h-50l108 130h49l107 -130h-50l-82 99zM160 89c40 -39 89 -59 148 -59s108 20 147 59c40 40 60 90 60 149s-20 109 -60 149c-39 40 -88 60 -147 60s-108 -20 -148 -60c-39 -40 -59 -90 -59 -149s20 -109 59 -149zM490 61c-47 -49 -107 -73 -182 -73
s-136 24 -183 73s-70 108 -70 177s23 128 70 177s108 74 183 74s135 -25 182 -74s71 -108 71 -177s-24 -128 -71 -177z" />
    <glyph glyph-name="otilde" unicode="&#xf5;" horiz-adv-x="616" 
d="M381 593c-19 0 -44 10 -76 31c-31 21 -54 32 -67 32c-25 0 -38 -19 -41 -57h-36c3 59 32 97 76 97c19 0 44 -10 75 -31c32 -21 54 -31 66 -31c24 0 38 19 42 57h36c-3 -59 -31 -98 -75 -98zM160 89c40 -39 89 -59 148 -59s108 20 147 59c40 40 60 90 60 149
s-20 109 -60 149c-39 40 -88 60 -147 60s-108 -20 -148 -60c-39 -40 -59 -90 -59 -149s20 -109 59 -149zM490 61c-47 -49 -107 -73 -182 -73s-136 24 -183 73s-70 108 -70 177s23 128 70 177s108 74 183 74s135 -25 182 -74s71 -108 71 -177s-24 -128 -71 -177z" />
    <glyph glyph-name="odieresis" unicode="&#xf6;" horiz-adv-x="616" 
d="M160 89c40 -39 89 -59 148 -59s108 20 147 59c40 40 60 90 60 149s-20 109 -60 149c-39 40 -88 60 -147 60s-108 -20 -148 -60c-39 -40 -59 -90 -59 -149s20 -109 59 -149zM490 61c-47 -49 -107 -73 -182 -73s-136 24 -183 73s-70 108 -70 177s23 128 70 177
s108 74 183 74s135 -25 182 -74s71 -108 71 -177s-24 -128 -71 -177zM377 619c-34 32 21 86 51 51c35 -30 -19 -85 -51 -51zM187 619c-34 32 21 86 51 51c35 -30 -19 -85 -51 -51z" />
    <glyph glyph-name="divide" unicode="&#xf7;" horiz-adv-x="578" 
d="M246 128c-3 56 89 56 85 0c0 -24 -18 -42 -42 -42s-43 18 -43 42zM508 302h-438v42h438v-42zM246 518c-3 56 89 56 85 0c0 -23 -18 -42 -42 -42s-43 19 -43 42z" />
    <glyph glyph-name="oslash" unicode="&#xf8;" horiz-adv-x="616" 
d="M455 444l28 33h49l-47 -57c51 -49 76 -110 76 -182c0 -69 -24 -128 -71 -177s-107 -73 -182 -73c-57 0 -106 15 -148 44l-27 -32h-49l47 56c-51 47 -76 108 -76 182c0 69 23 128 70 177s108 74 183 74c55 0 104 -15 147 -45zM160 90l267 320c-35 25 -75 37 -119 37
c-59 0 -108 -20 -148 -60c-39 -40 -59 -90 -59 -149s20 -109 59 -148zM308 30c59 0 108 20 147 59c40 40 60 90 60 149s-20 109 -59 148l-268 -320c35 -24 75 -36 120 -36z" />
    <glyph glyph-name="ugrave" unicode="&#xf9;" horiz-adv-x="606" 
d="M470 141v336h45v-477h-45v83c-43 -52 -118 -95 -203 -95c-121 0 -185 72 -185 199v290h45v-281c0 -68 21 -116 53 -137c33 -21 63 -29 100 -29s73 11 109 33c36 23 63 49 81 78zM354 577h-49l-109 130h62z" />
    <glyph glyph-name="uacute" unicode="&#xfa;" horiz-adv-x="606" 
d="M470 141v336h45v-477h-45v83c-43 -52 -118 -95 -203 -95c-121 0 -185 72 -185 199v290h45v-281c0 -68 21 -116 53 -137c33 -21 63 -29 100 -29s73 11 109 33c36 23 63 49 81 78zM298 577h-49l96 130h61z" />
    <glyph glyph-name="ucircumflex" unicode="&#xfb;" horiz-adv-x="606" 
d="M216 576h-50l108 130h49l107 -130h-50l-82 99zM470 141v336h45v-477h-45v83c-43 -52 -118 -95 -203 -95c-121 0 -185 72 -185 199v290h45v-281c0 -68 21 -116 53 -137c33 -21 63 -29 100 -29s73 11 109 33c36 23 63 49 81 78z" />
    <glyph glyph-name="udieresis" unicode="&#xfc;" horiz-adv-x="606" 
d="M470 141v336h45v-477h-45v83c-43 -52 -118 -95 -203 -95c-121 0 -185 72 -185 199v290h45v-281c0 -68 21 -116 53 -137c33 -21 63 -29 100 -29s73 11 109 33c36 23 63 49 81 78zM367 619c-34 32 21 86 51 51c35 -30 -19 -85 -51 -51zM177 619c-34 32 21 86 51 51
c35 -30 -19 -85 -51 -51z" />
    <glyph glyph-name="yacute" unicode="&#xfd;" horiz-adv-x="542" 
d="M101 -204c-29 0 -52 5 -68 15v43c20 -11 41 -16 63 -16c33 0 59 13 79 39c21 25 45 69 72 130l-221 470h51l193 -415l187 415h49l-241 -531c-44 -99 -92 -150 -164 -150zM281 577h-49l96 130h61z" />
    <glyph glyph-name="thorn" unicode="&#xfe;" horiz-adv-x="631" 
d="M332 489c72 0 131 -25 176 -74s68 -107 68 -176s-23 -128 -68 -177s-104 -74 -176 -74c-84 0 -150 32 -197 97v-285h-45v900h45v-307c47 64 112 96 197 96zM324 447c-83 0 -158 -49 -189 -118v-180c32 -69 108 -119 189 -119c59 0 107 20 146 60s59 90 59 149
s-20 109 -59 148c-39 40 -87 60 -146 60z" />
    <glyph glyph-name="ydieresis" unicode="&#xff;" horiz-adv-x="542" 
d="M101 -204c-29 0 -52 5 -68 15v43c20 -11 41 -16 63 -16c33 0 59 13 79 39c21 25 45 69 72 130l-221 470h51l193 -415l187 415h49l-241 -531c-44 -99 -92 -150 -164 -150zM335 619c-34 32 21 86 51 51c35 -30 -19 -85 -51 -51zM145 619c-34 32 21 86 51 51
c35 -30 -19 -85 -51 -51z" />
    <glyph glyph-name="Amacron" unicode="&#x100;" horiz-adv-x="743" 
d="M82 0h-49l318 704h43l316 -704h-48l-93 206h-394zM372 644l-181 -398h361zM489 808h-233v40h233v-40z" />
    <glyph glyph-name="amacron" unicode="&#x101;" horiz-adv-x="589" 
d="M246 30c80 0 149 43 188 95v79c-57 37 -115 56 -175 56c-101 0 -163 -46 -163 -115c0 -77 66 -115 150 -115zM233 -12c-50 0 -93 14 -130 41c-36 28 -54 66 -54 115c0 47 19 85 56 113c38 29 85 43 142 43c67 0 130 -17 187 -52v63c0 92 -62 136 -170 136
c-57 0 -111 -17 -162 -51v46c48 31 105 47 170 47c124 0 207 -58 207 -174v-212c0 -41 20 -68 52 -68c11 0 20 2 28 6v-37c-9 -5 -22 -8 -39 -8c-43 0 -78 28 -82 83c-52 -61 -120 -91 -205 -91zM400 625h-230v38h230v-38z" />
    <glyph glyph-name="Abreve" unicode="&#x102;" horiz-adv-x="743" 
d="M82 0h-49l318 704h43l316 -704h-48l-93 206h-394zM372 644l-181 -398h361zM244 893h40c1 -52 39 -92 88 -92s88 40 89 92h39c-1 -37 -13 -68 -38 -93s-55 -37 -90 -37s-65 12 -90 37s-37 56 -38 93z" />
    <glyph glyph-name="abreve" unicode="&#x103;" horiz-adv-x="589" 
d="M246 30c80 0 149 43 188 95v79c-57 37 -115 56 -175 56c-101 0 -163 -46 -163 -115c0 -77 66 -115 150 -115zM233 -12c-50 0 -93 14 -130 41c-36 28 -54 66 -54 115c0 47 19 85 56 113c38 29 85 43 142 43c67 0 130 -17 187 -52v63c0 92 -62 136 -170 136
c-57 0 -111 -17 -162 -51v46c48 31 105 47 170 47c124 0 207 -58 207 -174v-212c0 -41 20 -68 52 -68c11 0 20 2 28 6v-37c-9 -5 -22 -8 -39 -8c-43 0 -78 28 -82 83c-52 -61 -120 -91 -205 -91zM281 578c-35 0 -65 12 -90 37s-37 55 -38 92h40c1 -52 39 -91 88 -91
s88 40 89 91h39c0 -37 -13 -67 -38 -92s-55 -37 -90 -37z" />
    <glyph glyph-name="Aogonek" unicode="&#x104;" horiz-adv-x="743" 
d="M739 -193c-64 0 -106 43 -106 99c0 35 12 66 37 94h-8l-93 206h-394l-93 -206h-49l318 704h43l316 -704c-26 -29 -39 -59 -39 -89c0 -41 32 -70 76 -70c13 0 26 2 40 6v-34c-13 -4 -29 -6 -48 -6zM372 644l-181 -398h361z" />
    <glyph glyph-name="aogonek" unicode="&#x105;" horiz-adv-x="589" 
d="M588 -189c-64 0 -106 43 -106 99c0 31 10 60 30 86c-40 3 -71 31 -74 83c-52 -61 -120 -91 -205 -91c-50 0 -93 14 -130 41c-36 28 -54 66 -54 115c0 47 19 85 56 113c38 29 85 43 142 43c67 0 130 -17 187 -52v63c0 92 -62 136 -170 136c-57 0 -111 -17 -162 -51v46
c48 31 105 47 170 47c124 0 207 -58 207 -174v-212c0 -41 20 -68 52 -68c11 0 20 2 28 6v-37c-26 -29 -39 -59 -39 -89c0 -41 32 -70 76 -70c13 0 26 2 40 6v-34c-13 -4 -29 -6 -48 -6zM246 30c80 0 149 43 188 95v79c-57 37 -115 56 -175 56c-101 0 -163 -46 -163 -115
c0 -77 66 -115 150 -115z" />
    <glyph glyph-name="Cacute" unicode="&#x106;" horiz-adv-x="693" 
d="M427 -12c-100 0 -184 34 -251 102c-67 69 -101 155 -101 260s34 191 101 259c67 69 151 103 251 103c76 0 143 -18 200 -55v-50c-61 41 -127 61 -199 61c-86 0 -159 -30 -218 -91c-59 -60 -88 -136 -88 -227s29 -167 88 -228c59 -60 132 -90 219 -90c83 0 154 24 214 73
v-51c-58 -44 -130 -66 -216 -66zM419 763h-49l96 130h61z" />
    <glyph glyph-name="cacute" unicode="&#x107;" horiz-adv-x="522" 
d="M306 -12c-73 0 -133 24 -180 73s-71 108 -71 178c0 69 24 128 71 177s108 73 181 73c53 0 101 -12 144 -37v-44c-45 26 -91 39 -139 39c-60 0 -110 -20 -151 -60c-40 -40 -60 -90 -60 -149s20 -109 60 -149c41 -39 91 -59 151 -59c56 0 105 15 148 45v-45
c-42 -28 -93 -42 -154 -42zM299 577h-49l96 130h61z" />
    <glyph glyph-name="Ccircumflex" unicode="&#x108;" horiz-adv-x="693" 
d="M325 763h-50l108 130h49l107 -130h-50l-82 99zM427 -12c-100 0 -184 34 -251 102c-67 69 -101 155 -101 260s34 191 101 259c67 69 151 103 251 103c76 0 143 -18 200 -55v-50c-61 41 -127 61 -199 61c-86 0 -159 -30 -218 -91c-59 -60 -88 -136 -88 -227
s29 -167 88 -228c59 -60 132 -90 219 -90c83 0 154 24 214 73v-51c-58 -44 -130 -66 -216 -66z" />
    <glyph glyph-name="ccircumflex" unicode="&#x109;" horiz-adv-x="524" 
d="M306 -12c-73 0 -133 24 -180 73s-71 108 -71 178c0 69 24 128 71 177s108 73 181 73c53 0 101 -12 144 -37v-44c-45 26 -91 39 -139 39c-60 0 -110 -20 -151 -60c-40 -40 -60 -90 -60 -149s20 -109 60 -149c41 -39 91 -59 151 -59c56 0 105 15 148 45v-45
c-42 -28 -93 -42 -154 -42zM205 576h-50l108 130h49l107 -130h-50l-82 99z" />
    <glyph glyph-name="Cdotaccent" unicode="&#x10a;" horiz-adv-x="693" 
d="M427 -12c-100 0 -184 34 -251 102c-67 69 -101 155 -101 260s34 191 101 259c67 69 151 103 251 103c76 0 143 -18 200 -55v-50c-61 41 -127 61 -199 61c-86 0 -159 -30 -218 -91c-59 -60 -88 -136 -88 -227s29 -167 88 -228c59 -60 132 -90 219 -90c83 0 154 24 214 73
v-51c-58 -44 -130 -66 -216 -66zM394 798c-36 33 21 90 54 54c36 -33 -21 -90 -54 -54z" />
    <glyph glyph-name="cdotaccent" unicode="&#x10b;" horiz-adv-x="524" 
d="M306 -12c-73 0 -133 24 -180 73s-71 108 -71 178c0 69 24 128 71 177s108 73 181 73c53 0 101 -12 144 -37v-44c-45 26 -91 39 -139 39c-60 0 -110 -20 -151 -60c-40 -40 -60 -90 -60 -149s20 -109 60 -149c41 -39 91 -59 151 -59c56 0 105 15 148 45v-45
c-42 -28 -93 -42 -154 -42zM278 619c-36 33 21 90 54 54c36 -33 -21 -90 -54 -54z" />
    <glyph glyph-name="Ccaron" unicode="&#x10c;" horiz-adv-x="693" 
d="M442 763h-48l-107 130h49l82 -99l82 99h50zM427 -12c-100 0 -184 34 -251 102c-67 69 -101 155 -101 260s34 191 101 259c67 69 151 103 251 103c76 0 143 -18 200 -55v-50c-61 41 -127 61 -199 61c-86 0 -159 -30 -218 -91c-59 -60 -88 -136 -88 -227s29 -167 88 -228
c59 -60 132 -90 219 -90c83 0 154 24 214 73v-51c-58 -44 -130 -66 -216 -66z" />
    <glyph glyph-name="ccaron" unicode="&#x10d;" horiz-adv-x="522" 
d="M306 -12c-73 0 -133 24 -180 73s-71 108 -71 178c0 69 24 128 71 177s108 73 181 73c53 0 101 -12 144 -37v-44c-45 26 -91 39 -139 39c-60 0 -110 -20 -151 -60c-40 -40 -60 -90 -60 -149s20 -109 60 -149c41 -39 91 -59 151 -59c56 0 105 15 148 45v-45
c-42 -28 -93 -42 -154 -42zM324 577h-48l-107 130h49l82 -99l82 99h50z" />
    <glyph glyph-name="Dcaron" unicode="&#x10e;" horiz-adv-x="774" 
d="M363 763h-48l-107 130h49l82 -99l82 99h50zM322 0h-217v700h217c113 0 204 -32 273 -97s104 -149 104 -253s-35 -188 -104 -253s-160 -97 -273 -97zM151 657v-614h163c104 0 186 28 247 84s91 130 91 223s-30 167 -91 223s-143 84 -247 84h-163z" />
    <glyph glyph-name="dcaron" unicode="&#x10f;" horiz-adv-x="732" 
d="M298 -12c-72 0 -131 24 -176 73s-67 108 -67 177s22 128 67 177s104 74 176 74c84 0 150 -32 197 -97v308h45v-700h-45v84c-47 -64 -112 -96 -197 -96zM306 30c83 0 158 49 189 118v180c-32 69 -108 119 -189 119c-59 0 -108 -20 -147 -60s-58 -90 -58 -149
s19 -109 58 -149c39 -39 88 -59 147 -59zM668 531h-40l55 168h50z" />
    <glyph glyph-name="Dcroat" unicode="&#x110;" horiz-adv-x="818" 
d="M366 0h-217v332h-117v43h117v325h217c113 0 204 -32 273 -97s104 -149 104 -253s-35 -188 -104 -253s-160 -97 -273 -97zM195 332v-289h163c104 0 186 28 247 84s91 130 91 223s-30 167 -91 223s-143 84 -247 84h-163v-282h171v-43h-171z" />
    <glyph glyph-name="dslash" unicode="&#x111;" horiz-adv-x="630" 
d="M496 555h-127v41h127v104h45v-104h100v-41h-100v-555h-45v84c-47 -64 -112 -96 -197 -96c-72 0 -131 24 -176 73s-68 108 -68 177s23 128 68 177s104 74 176 74c84 0 150 -32 197 -97v163zM307 30c83 0 158 49 189 118v180c-32 69 -108 119 -189 119
c-59 0 -108 -20 -147 -60s-58 -90 -58 -149s19 -109 58 -149c39 -39 88 -59 147 -59z" />
    <glyph glyph-name="Emacron" unicode="&#x112;" horiz-adv-x="637" 
d="M589 0h-484v700h468v-43h-422v-259h349v-43h-349v-312h438v-43zM463 808h-233v40h233v-40z" />
    <glyph glyph-name="emacron" unicode="&#x113;" horiz-adv-x="567" 
d="M315 -12c-75 0 -137 23 -186 70s-74 107 -74 180c0 72 22 132 66 179c44 48 101 72 171 72c80 0 142 -35 173 -87c32 -51 47 -103 47 -155v-15h-412c1 -60 22 -109 63 -146s94 -56 158 -56c57 0 109 15 154 45v-44c-38 -29 -91 -43 -160 -43zM101 271h366
c0 69 -48 176 -176 176c-56 0 -101 -18 -135 -54c-33 -35 -52 -76 -55 -122zM406 625h-230v38h230v-38z" />
    <glyph glyph-name="Ebreve" unicode="&#x114;" horiz-adv-x="637" 
d="M589 0h-484v700h468v-43h-422v-259h349v-43h-349v-312h438v-43zM219 893h40c1 -52 39 -92 88 -92s88 40 89 92h39c-1 -37 -13 -68 -38 -93s-55 -37 -90 -37s-65 12 -90 37s-37 56 -38 93z" />
    <glyph glyph-name="ebreve" unicode="&#x115;" horiz-adv-x="567" 
d="M315 -12c-75 0 -137 23 -186 70s-74 107 -74 180c0 72 22 132 66 179c44 48 101 72 171 72c80 0 142 -35 173 -87c32 -51 47 -103 47 -155v-15h-412c1 -60 22 -109 63 -146s94 -56 158 -56c57 0 109 15 154 45v-44c-38 -29 -91 -43 -160 -43zM101 271h366
c0 69 -48 176 -176 176c-56 0 -101 -18 -135 -54c-33 -35 -52 -76 -55 -122zM290 578c-35 0 -65 12 -90 37s-37 55 -38 92h40c1 -52 39 -91 88 -91s88 40 89 91h39c0 -37 -13 -67 -38 -92s-55 -37 -90 -37z" />
    <glyph glyph-name="Edotaccent" unicode="&#x116;" horiz-adv-x="637" 
d="M589 0h-484v700h468v-43h-422v-259h349v-43h-349v-312h438v-43zM319 798c-36 33 21 90 54 54c36 -33 -21 -90 -54 -54z" />
    <glyph glyph-name="edotaccent" unicode="&#x117;" horiz-adv-x="567" 
d="M315 -12c-75 0 -137 23 -186 70s-74 107 -74 180c0 72 22 132 66 179c44 48 101 72 171 72c80 0 142 -35 173 -87c32 -51 47 -103 47 -155v-15h-412c1 -60 22 -109 63 -146s94 -56 158 -56c57 0 109 15 154 45v-44c-38 -29 -91 -43 -160 -43zM101 271h366
c0 69 -48 176 -176 176c-56 0 -101 -18 -135 -54c-33 -35 -52 -76 -55 -122zM257 619c-36 33 21 90 54 54c36 -33 -21 -90 -54 -54z" />
    <glyph glyph-name="Eogonek" unicode="&#x118;" horiz-adv-x="638" 
d="M549 0h-444v700h468v-43h-422v-259h349v-43h-349v-312h438v-43c-26 -29 -39 -59 -39 -89c0 -41 32 -70 76 -70c13 0 26 2 40 6v-34c-13 -4 -29 -6 -48 -6c-64 0 -106 43 -106 99c0 35 12 66 37 94z" />
    <glyph glyph-name="eogonek" unicode="&#x119;" horiz-adv-x="567" 
d="M504 -162c-64 0 -106 43 -106 99c0 24 6 46 17 65c-34 -9 -67 -14 -100 -14c-75 0 -137 23 -186 70s-74 107 -74 180c0 72 22 132 66 179c44 48 101 72 171 72c80 0 142 -35 173 -87c32 -51 47 -103 47 -155v-15h-412c1 -60 22 -109 63 -146s94 -56 158 -56
c57 0 109 15 154 45v-44c-26 -29 -39 -59 -39 -89c0 -41 32 -70 76 -70c13 0 26 2 40 6v-34c-13 -4 -29 -6 -48 -6zM101 271h366c0 69 -48 176 -176 176c-56 0 -101 -18 -135 -54c-33 -35 -52 -76 -55 -122z" />
    <glyph glyph-name="Ecaron" unicode="&#x11a;" horiz-adv-x="637" 
d="M370 763h-48l-107 130h49l82 -99l82 99h50zM589 0h-484v700h468v-43h-422v-259h349v-43h-349v-312h438v-43z" />
    <glyph glyph-name="ecaron" unicode="&#x11b;" horiz-adv-x="567" 
d="M315 -12c-75 0 -137 23 -186 70s-74 107 -74 180c0 72 22 132 66 179c44 48 101 72 171 72c80 0 142 -35 173 -87c32 -51 47 -103 47 -155v-15h-412c1 -60 22 -109 63 -146s94 -56 158 -56c57 0 109 15 154 45v-44c-38 -29 -91 -43 -160 -43zM101 271h366
c0 69 -48 176 -176 176c-56 0 -101 -18 -135 -54c-33 -35 -52 -76 -55 -122zM313 577h-48l-107 130h49l82 -99l82 99h50z" />
    <glyph glyph-name="Gcircumflex" unicode="&#x11c;" horiz-adv-x="782" 
d="M426 -12c-99 0 -183 34 -250 102c-67 69 -101 155 -101 260c0 104 34 190 101 259s151 103 250 103c90 0 166 -24 228 -73v-49c-66 52 -141 78 -225 78c-87 0 -160 -30 -219 -91c-59 -60 -88 -136 -88 -228c0 -91 29 -167 88 -227s131 -90 216 -90c94 0 168 28 221 83
v286h46v-303c-67 -73 -156 -110 -267 -110zM324 763h-50l108 130h49l107 -130h-50l-82 99z" />
    <glyph glyph-name="gcircumflex" unicode="&#x11d;" horiz-adv-x="630" 
d="M495 394v83h45v-456c0 -73 -24 -128 -71 -167s-107 -58 -181 -58c-68 0 -129 15 -184 45v46c55 -33 115 -49 181 -49c127 0 210 62 210 183v66c-45 -63 -111 -95 -196 -95c-72 0 -131 24 -176 73s-68 108 -68 176s23 126 68 175s104 73 176 73c85 0 151 -32 196 -95z
M495 151v179c-31 69 -106 117 -187 117c-59 0 -109 -20 -148 -59s-59 -88 -59 -147s20 -109 59 -148s89 -59 148 -59c81 0 156 48 187 117zM227 576h-50l108 130h49l107 -130h-50l-82 99z" />
    <glyph glyph-name="Gbreve" unicode="&#x11e;" horiz-adv-x="782" 
d="M426 -12c-99 0 -183 34 -250 102c-67 69 -101 155 -101 260c0 104 34 190 101 259s151 103 250 103c90 0 166 -24 228 -73v-49c-66 52 -141 78 -225 78c-87 0 -160 -30 -219 -91c-59 -60 -88 -136 -88 -228c0 -91 29 -167 88 -227s131 -90 216 -90c94 0 168 28 221 83
v286h46v-303c-67 -73 -156 -110 -267 -110zM292 895h40c1 -52 39 -92 88 -92s88 40 89 92h39c-1 -37 -13 -68 -38 -93s-55 -37 -90 -37s-65 12 -90 37s-37 56 -38 93z" />
    <glyph glyph-name="gbreve" unicode="&#x11f;" horiz-adv-x="630" 
d="M495 394v83h45v-456c0 -73 -24 -128 -71 -167s-107 -58 -181 -58c-68 0 -129 15 -184 45v46c55 -33 115 -49 181 -49c127 0 210 62 210 183v66c-45 -63 -111 -95 -196 -95c-72 0 -131 24 -176 73s-68 108 -68 176s23 126 68 175s104 73 176 73c85 0 151 -32 196 -95z
M495 151v179c-31 69 -106 117 -187 117c-59 0 -109 -20 -148 -59s-59 -88 -59 -147s20 -109 59 -148s89 -59 148 -59c81 0 156 48 187 117zM304 578c-35 0 -65 12 -90 37s-37 55 -38 92h40c1 -52 39 -91 88 -91s88 40 89 91h39c0 -37 -13 -67 -38 -92s-55 -37 -90 -37z" />
    <glyph glyph-name="Gdotaccent" unicode="&#x120;" horiz-adv-x="782" 
d="M426 -12c-99 0 -183 34 -250 102c-67 69 -101 155 -101 260c0 104 34 190 101 259s151 103 250 103c90 0 166 -24 228 -73v-49c-66 52 -141 78 -225 78c-87 0 -160 -30 -219 -91c-59 -60 -88 -136 -88 -228c0 -91 29 -167 88 -227s131 -90 216 -90c94 0 168 28 221 83
v286h46v-303c-67 -73 -156 -110 -267 -110zM395 798c-36 33 21 90 54 54c36 -33 -21 -90 -54 -54z" />
    <glyph glyph-name="gdotaccent" unicode="&#x121;" horiz-adv-x="630" 
d="M495 394v83h45v-456c0 -73 -24 -128 -71 -167s-107 -58 -181 -58c-68 0 -129 15 -184 45v46c55 -33 115 -49 181 -49c127 0 210 62 210 183v66c-45 -63 -111 -95 -196 -95c-72 0 -131 24 -176 73s-68 108 -68 176s23 126 68 175s104 73 176 73c85 0 151 -32 196 -95z
M495 151v179c-31 69 -106 117 -187 117c-59 0 -109 -20 -148 -59s-59 -88 -59 -147s20 -109 59 -148s89 -59 148 -59c81 0 156 48 187 117zM281 619c-36 33 21 90 54 54c36 -33 -21 -90 -54 -54z" />
    <glyph glyph-name="uni0122" unicode="&#x122;" horiz-adv-x="782" 
d="M426 -12c-99 0 -183 34 -250 102c-67 69 -101 155 -101 260c0 104 34 190 101 259s151 103 250 103c90 0 166 -24 228 -73v-49c-66 52 -141 78 -225 78c-87 0 -160 -30 -219 -91c-59 -60 -88 -136 -88 -228c0 -91 29 -167 88 -227s131 -90 216 -90c94 0 168 28 221 83
v286h46v-303c-67 -73 -156 -110 -267 -110zM396 -218h-40l55 168h50z" />
    <glyph glyph-name="uni0123" unicode="&#x123;" horiz-adv-x="630" 
d="M495 394v83h45v-456c0 -73 -24 -128 -71 -167s-107 -58 -181 -58c-68 0 -129 15 -184 45v46c55 -33 115 -49 181 -49c127 0 210 62 210 183v66c-45 -63 -111 -95 -196 -95c-72 0 -131 24 -176 73s-68 108 -68 176s23 126 68 175s104 73 176 73c85 0 151 -32 196 -95z
M495 151v179c-31 69 -106 117 -187 117c-59 0 -109 -20 -148 -59s-59 -88 -59 -147s20 -109 59 -148s89 -59 148 -59c81 0 156 48 187 117zM329 720h40l-55 -168h-50z" />
    <glyph glyph-name="Hcircumflex" unicode="&#x124;" horiz-adv-x="760" 
d="M297 763h-50l108 130h49l107 -130h-50l-82 99zM151 0h-46v700h46v-302h457v302h46v-700h-46v355h-457v-355z" />
    <glyph glyph-name="hcircumflex" unicode="&#x125;" horiz-adv-x="602" 
d="M30 763h-50l108 130h49l107 -130h-50l-82 99zM133 336v-336h-45v700h45v-306c43 52 118 95 203 95c121 0 185 -72 185 -199v-290h-45v281c0 68 -21 116 -54 137c-32 21 -62 29 -99 29s-73 -11 -109 -34c-36 -22 -63 -48 -81 -77z" />
    <glyph glyph-name="Hbar" unicode="&#x126;" horiz-adv-x="839" 
d="M191 0h-46v548h-95v37h95v115h46v-115h457v115h46v-115h95v-37h-95v-548h-46v355h-457v-355zM191 548v-150h457v150h-457z" />
    <glyph glyph-name="hbar" unicode="&#x127;" horiz-adv-x="632" 
d="M163 279v-279h-45v545h-102v41h102v114h45v-114h136v-41h-136v-208c43 52 118 95 203 95c121 0 185 -72 185 -199v-233h-45v224c0 68 -21 116 -54 137c-32 21 -62 29 -99 29s-73 -11 -109 -34c-36 -22 -63 -48 -81 -77z" />
    <glyph glyph-name="Itilde" unicode="&#x128;" horiz-adv-x="269" 
d="M207 776c-19 0 -44 10 -75 31s-53 32 -66 32c-26 0 -40 -19 -43 -57h-36c3 59 31 96 76 96c19 0 44 -10 75 -31c32 -20 54 -30 67 -30c24 0 38 19 42 57h36c-3 -59 -31 -98 -76 -98zM158 0h-46v700h46v-700z" />
    <glyph glyph-name="itilde" unicode="&#x129;" horiz-adv-x="244" 
d="M196 593c-19 0 -44 10 -76 31c-31 21 -54 32 -67 32c-25 0 -38 -19 -41 -57h-36c3 59 32 97 76 97c19 0 44 -10 75 -31c32 -21 54 -31 66 -31c24 0 38 19 42 57h36c-3 -59 -31 -98 -75 -98zM149 0h-45v477h45v-477z" />
    <glyph glyph-name="Imacron" unicode="&#x12a;" horiz-adv-x="269" 
d="M158 0h-46v700h46v-700zM252 808h-233v40h233v-40z" />
    <glyph glyph-name="imacron" unicode="&#x12b;" horiz-adv-x="244" 
d="M149 0h-45v477h45v-477zM238 625h-230v38h230v-38z" />
    <glyph glyph-name="Ibreve" unicode="&#x12c;" horiz-adv-x="269" 
d="M7 893h40c1 -52 39 -92 88 -92s88 40 89 92h39c-1 -37 -13 -68 -38 -93s-55 -37 -90 -37s-65 12 -90 37s-37 56 -38 93zM158 0h-46v700h46v-700z" />
    <glyph glyph-name="ibreve" unicode="&#x12d;" horiz-adv-x="244" 
d="M123 578c-35 0 -65 12 -90 37s-37 55 -38 92h40c1 -52 39 -91 88 -91s88 40 89 91h39c0 -37 -13 -67 -38 -92s-55 -37 -90 -37zM149 0h-45v477h45v-477z" />
    <glyph glyph-name="Iogonek" unicode="&#x12e;" horiz-adv-x="269" 
d="M187 -193c-64 0 -106 43 -106 99c0 36 10 67 31 94v700h46v-700c-26 -29 -39 -59 -39 -89c0 -41 32 -70 76 -70c13 0 26 2 40 6v-34c-13 -4 -29 -6 -48 -6z" />
    <glyph glyph-name="iogonek" unicode="&#x12f;" horiz-adv-x="254" 
d="M178 -193c-64 0 -106 43 -106 99c0 35 11 67 32 94v477h45v-477c-26 -29 -39 -59 -39 -89c0 -41 32 -70 76 -70c13 0 26 2 40 6v-34c-13 -4 -29 -6 -48 -6zM153 619c-33 -36 -90 21 -54 54c33 36 90 -21 54 -54z" />
    <glyph glyph-name="Idot" unicode="&#x130;" horiz-adv-x="269" 
d="M107 798c-36 33 21 90 54 54c36 -33 -21 -90 -54 -54zM158 0h-46v700h46v-700z" />
    <glyph glyph-name="dotlessi" unicode="&#x131;" horiz-adv-x="253" 
d="M149 0h-45v477h45v-477z" />
    <glyph glyph-name="IJ" unicode="&#x132;" horiz-adv-x="600" 
d="M158 246h-46v454h46v-454zM279 -12c-66 0 -122 16 -167 48v52c42 -37 96 -55 161 -55c123 0 185 62 185 185v482h46v-489c0 -149 -81 -223 -225 -223z" />
    <glyph glyph-name="Jcircumflex" unicode="&#x134;" horiz-adv-x="502" 
d="M300 763h-50l108 130h49l107 -130h-50l-82 99zM194 -12c-62 0 -115 16 -158 47v51c40 -36 90 -54 151 -54c115 0 173 61 173 182v486h46v-493c0 -145 -77 -219 -212 -219z" />
    <glyph glyph-name="jcircumflex" unicode="&#x135;" horiz-adv-x="253" 
d="M23 -204c-31 0 -57 6 -77 18v43c22 -13 45 -19 69 -19c59 0 89 34 89 103v536h45v-544c0 -97 -53 -137 -126 -137zM45 576h-50l108 130h49l107 -130h-50l-82 99z" />
    <glyph glyph-name="uni0136" unicode="&#x136;" horiz-adv-x="638" 
d="M151 0h-46v700h46v-309l356 309h65l-369 -321l425 -379h-70l-407 364v-364zM322 -218h-40l55 168h50z" />
    <glyph glyph-name="uni0137" unicode="&#x137;" horiz-adv-x="515" 
d="M134 0h-45v700h45v-424l251 201h66l-269 -216l305 -261h-68l-285 244v-244zM245 -218h-40l55 168h50z" />
    <glyph glyph-name="kgreenlandic" unicode="&#x138;" horiz-adv-x="516" 
d="M135 0h-45v477h45v-201l251 201h66l-269 -216l305 -261h-68l-285 244v-244z" />
    <glyph glyph-name="Lacute" unicode="&#x139;" horiz-adv-x="592" 
d="M558 0h-453v700h46v-657h407v-43zM154 763h-49l96 130h61z" />
    <glyph glyph-name="lacute" unicode="&#x13a;" horiz-adv-x="274" 
d="M188 -12c-57 0 -103 31 -103 111v601h45v-592c0 -52 24 -78 71 -78c19 0 35 5 50 14v-42c-17 -9 -38 -14 -63 -14zM137 763h-49l96 130h61z" />
    <glyph glyph-name="uni013B" unicode="&#x13b;" horiz-adv-x="592" 
d="M558 0h-453v700h46v-657h407v-43zM308 -218h-40l55 168h50z" />
    <glyph glyph-name="lcommaaccent" unicode="&#x13c;" horiz-adv-x="274" 
d="M188 -12c-57 0 -103 31 -103 111v601h45v-592c0 -52 24 -78 71 -78c19 0 35 5 50 14v-42c-17 -9 -38 -14 -63 -14zM143 -218h-40l55 168h50z" />
    <glyph glyph-name="Lcaron" unicode="&#x13d;" horiz-adv-x="619" 
d="M558 0h-453v700h46v-657h407v-43zM498 531h-40l55 168h50z" />
    <glyph glyph-name="lcaron" unicode="&#x13e;" horiz-adv-x="346" 
d="M194 -12c-57 0 -103 31 -103 111v601h45v-592c0 -52 24 -78 71 -78c19 0 35 5 50 14v-42c-17 -9 -38 -14 -63 -14zM283 531h-40l55 168h50z" />
    <glyph glyph-name="Ldot" unicode="&#x13f;" horiz-adv-x="592" 
d="M493 352c-36 33 21 90 54 54c36 -33 -21 -90 -54 -54zM558 0h-453v700h46v-657h407v-43z" />
    <glyph glyph-name="ldot" unicode="&#x140;" horiz-adv-x="367" 
d="M197 -12c-57 0 -103 31 -103 111v601h45v-592c0 -52 24 -78 71 -78c19 0 35 5 50 14v-42c-17 -9 -38 -14 -63 -14zM253 352c-36 33 21 90 54 54c36 -33 -21 -90 -54 -54z" />
    <glyph glyph-name="Lslash" unicode="&#x141;" horiz-adv-x="599" 
d="M565 0h-453v344l-95 -56v47l95 57v308h46v-281l160 96v-48l-160 -96v-328h407v-43z" />
    <glyph glyph-name="lslash" unicode="&#x142;" horiz-adv-x="378" 
d="M255 -12c-57 0 -103 31 -103 111v251l-101 -61v47l101 61v303h45v-276l101 61v-47l-101 -61v-269c0 -52 24 -78 71 -78c19 0 35 5 50 14v-42c-17 -9 -38 -14 -63 -14z" />
    <glyph glyph-name="Nacute" unicode="&#x143;" horiz-adv-x="775" 
d="M151 0h-46v700h41l477 -620v620h46v-700h-40l-478 621v-621zM404 763h-49l96 130h61z" />
    <glyph glyph-name="nacute" unicode="&#x144;" horiz-adv-x="604" 
d="M135 336v-336h-45v477h45v-83c43 52 118 95 203 95c121 0 185 -72 185 -199v-290h-45v281c0 68 -21 116 -54 137c-32 21 -62 29 -99 29s-73 -11 -109 -34c-36 -22 -63 -48 -81 -77zM306 577h-49l96 130h61z" />
    <glyph glyph-name="uni0145" unicode="&#x145;" horiz-adv-x="775" 
d="M151 0h-46v700h41l477 -620v620h46v-700h-40l-478 621v-621zM368 -218h-40l55 168h50z" />
    <glyph glyph-name="uni0146" unicode="&#x146;" horiz-adv-x="604" 
d="M135 336v-336h-45v477h45v-83c43 52 118 95 203 95c121 0 185 -72 185 -199v-290h-45v281c0 68 -21 116 -54 137c-32 21 -62 29 -99 29s-73 -11 -109 -34c-36 -22 -63 -48 -81 -77zM278 -218h-40l55 168h50z" />
    <glyph glyph-name="Ncaron" unicode="&#x147;" horiz-adv-x="775" 
d="M410 763h-48l-107 130h49l82 -99l82 99h50zM151 0h-46v700h41l477 -620v620h46v-700h-40l-478 621v-621z" />
    <glyph glyph-name="ncaron" unicode="&#x148;" horiz-adv-x="604" 
d="M331 577h-48l-107 130h49l82 -99l82 99h50zM135 336v-336h-45v477h45v-83c43 52 118 95 203 95c121 0 185 -72 185 -199v-290h-45v281c0 68 -21 116 -54 137c-32 21 -62 29 -99 29s-73 -11 -109 -34c-36 -22 -63 -48 -81 -77z" />
    <glyph glyph-name="napostrophe" unicode="&#x149;" horiz-adv-x="663" 
d="M194 336v-336h-45v477h45v-83c43 52 118 95 203 95c121 0 185 -72 185 -199v-290h-45v281c0 68 -21 116 -54 137c-32 21 -62 29 -99 29s-73 -11 -109 -34c-36 -22 -63 -48 -81 -77zM62 531h-40l55 168h50z" />
    <glyph glyph-name="Eng" unicode="&#x14a;" horiz-adv-x="775" 
d="M496 -204c-43 0 -79 8 -110 24v50c31 -20 65 -30 102 -30c90 0 135 52 135 157v10l-472 614v-621h-46v700h41l477 -620v620h46v-712c0 -128 -58 -192 -173 -192z" />
    <glyph glyph-name="eng" unicode="&#x14b;" horiz-adv-x="604" 
d="M135 336v-336h-45v477h45v-83c43 52 118 95 203 95c121 0 185 -72 185 -199v-357c0 -97 -53 -137 -126 -137c-31 0 -57 6 -77 18v43c22 -13 45 -19 69 -19c59 0 89 34 89 103v340c0 68 -21 116 -54 137c-32 21 -62 29 -99 29s-73 -11 -109 -34c-36 -22 -63 -48 -81 -77z
" />
    <glyph glyph-name="Omacron" unicode="&#x14c;" horiz-adv-x="846" 
d="M209 123c58 -61 129 -91 214 -91s156 30 214 91s87 136 87 227s-29 166 -87 227s-129 91 -214 91s-156 -30 -214 -91s-87 -136 -87 -227s29 -166 87 -227zM423 -12c-99 0 -182 34 -249 103c-66 69 -99 155 -99 259c0 103 33 189 99 258c67 69 150 104 249 104
s181 -35 248 -104s100 -155 100 -258s-33 -190 -100 -259s-149 -103 -248 -103zM540 808h-233v40h233v-40z" />
    <glyph glyph-name="omacron" unicode="&#x14d;" horiz-adv-x="616" 
d="M160 89c40 -39 89 -59 148 -59s108 20 147 59c40 40 60 90 60 149s-20 109 -60 149c-39 40 -88 60 -147 60s-108 -20 -148 -60c-39 -40 -59 -90 -59 -149s20 -109 59 -149zM490 61c-47 -49 -107 -73 -182 -73s-136 24 -183 73s-70 108 -70 177s23 128 70 177
s108 74 183 74s135 -25 182 -74s71 -108 71 -177s-24 -128 -71 -177zM424 625h-230v38h230v-38z" />
    <glyph glyph-name="Obreve" unicode="&#x14e;" horiz-adv-x="846" 
d="M209 123c58 -61 129 -91 214 -91s156 30 214 91s87 136 87 227s-29 166 -87 227s-129 91 -214 91s-156 -30 -214 -91s-87 -136 -87 -227s29 -166 87 -227zM423 -12c-99 0 -182 34 -249 103c-66 69 -99 155 -99 259c0 103 33 189 99 258c67 69 150 104 249 104
s181 -35 248 -104s100 -155 100 -258s-33 -190 -100 -259s-149 -103 -248 -103zM295 895h40c1 -52 39 -92 88 -92s88 40 89 92h39c-1 -37 -13 -68 -38 -93s-55 -37 -90 -37s-65 12 -90 37s-37 56 -38 93z" />
    <glyph glyph-name="obreve" unicode="&#x14f;" horiz-adv-x="616" 
d="M160 89c40 -39 89 -59 148 -59s108 20 147 59c40 40 60 90 60 149s-20 109 -60 149c-39 40 -88 60 -147 60s-108 -20 -148 -60c-39 -40 -59 -90 -59 -149s20 -109 59 -149zM490 61c-47 -49 -107 -73 -182 -73s-136 24 -183 73s-70 108 -70 177s23 128 70 177
s108 74 183 74s135 -25 182 -74s71 -108 71 -177s-24 -128 -71 -177zM309 580c-35 0 -65 12 -90 37s-37 55 -38 92h40c1 -52 39 -91 88 -91s88 40 89 91h39c0 -37 -13 -67 -38 -92s-55 -37 -90 -37z" />
    <glyph glyph-name="Ohungarumlaut" unicode="&#x150;" horiz-adv-x="846" 
d="M209 123c58 -61 129 -91 214 -91s156 30 214 91s87 136 87 227s-29 166 -87 227s-129 91 -214 91s-156 -30 -214 -91s-87 -136 -87 -227s29 -166 87 -227zM423 -12c-99 0 -182 34 -249 103c-66 69 -99 155 -99 259c0 103 33 189 99 258c67 69 150 104 249 104
s181 -35 248 -104s100 -155 100 -258s-33 -190 -100 -259s-149 -103 -248 -103zM513 763h-49l97 130h60zM369 763h-49l96 130h62z" />
    <glyph glyph-name="ohungarumlaut" unicode="&#x151;" horiz-adv-x="616" 
d="M160 89c40 -39 89 -59 148 -59s108 20 147 59c40 40 60 90 60 149s-20 109 -60 149c-39 40 -88 60 -147 60s-108 -20 -148 -60c-39 -40 -59 -90 -59 -149s20 -109 59 -149zM490 61c-47 -49 -107 -73 -182 -73s-136 24 -183 73s-70 108 -70 177s23 128 70 177
s108 74 183 74s135 -25 182 -74s71 -108 71 -177s-24 -128 -71 -177zM399 577h-49l97 130h60zM255 577h-49l96 130h62z" />
    <glyph glyph-name="OE" unicode="&#x152;" horiz-adv-x="1143" 
d="M1095 0h-642c-113 0 -204 32 -274 97c-69 65 -104 149 -104 253s35 188 104 253c70 65 161 97 274 97h626v-43h-418v-259h345v-43h-345v-312h434v-43zM462 43h153v614h-153c-105 0 -188 -28 -249 -84c-60 -56 -90 -130 -90 -223s30 -168 90 -224c60 -55 143 -83 249 -83z
" />
    <glyph glyph-name="oe" unicode="&#x153;" horiz-adv-x="1027" 
d="M775 -12c-107 0 -197 54 -237 142c-40 -85 -123 -142 -230 -142c-75 0 -136 24 -183 73s-70 108 -70 177s23 128 70 177s108 74 183 74c104 0 188 -57 228 -141c37 87 116 141 216 141c80 0 142 -35 173 -87c32 -51 47 -103 47 -155v-15h-412c1 -60 22 -109 63 -146
s94 -56 158 -56c57 0 109 15 154 45v-44c-38 -29 -91 -43 -160 -43zM515 238v9c-3 57 -24 104 -63 142c-39 39 -87 58 -144 58c-59 0 -108 -20 -148 -60c-39 -40 -59 -90 -59 -149s20 -109 59 -149c40 -39 89 -59 148 -59s108 20 147 59c40 40 60 90 60 149zM561 271h366
c0 69 -48 176 -176 176c-56 0 -101 -18 -135 -54c-33 -35 -52 -76 -55 -122z" />
    <glyph glyph-name="Racute" unicode="&#x154;" horiz-adv-x="736" 
d="M151 0h-46v700h310c133 0 213 -73 213 -184c0 -100 -63 -171 -174 -184l230 -332h-54l-229 329h-250v-329zM151 657v-285h260c108 0 171 51 171 143c0 89 -63 142 -171 142h-260zM338 763h-49l96 130h61z" />
    <glyph glyph-name="racute" unicode="&#x155;" horiz-adv-x="345" 
d="M135 0h-45v477h45v-100c35 61 109 111 193 112v-46c-45 0 -85 -13 -119 -39c-34 -25 -59 -55 -74 -88v-316zM185 577h-49l96 130h61z" />
    <glyph glyph-name="uni0156" unicode="&#x156;" horiz-adv-x="736" 
d="M151 0h-46v700h310c133 0 213 -73 213 -184c0 -100 -63 -171 -174 -184l230 -332h-54l-229 329h-250v-329zM151 657v-285h260c108 0 171 51 171 143c0 89 -63 142 -171 142h-260zM333 -218h-40l55 168h50z" />
    <glyph glyph-name="uni0157" unicode="&#x157;" horiz-adv-x="345" 
d="M135 0h-45v477h45v-100c35 61 109 111 193 112v-46c-45 0 -85 -13 -119 -39c-34 -25 -59 -55 -74 -88v-316zM74 -218h-40l55 168h50z" />
    <glyph glyph-name="Rcaron" unicode="&#x158;" horiz-adv-x="736" 
d="M151 0h-46v700h310c133 0 213 -73 213 -184c0 -100 -63 -171 -174 -184l230 -332h-54l-229 329h-250v-329zM151 657v-285h260c108 0 171 51 171 143c0 89 -63 142 -171 142h-260zM362 763h-48l-107 130h49l82 -99l82 99h50z" />
    <glyph glyph-name="rcaron" unicode="&#x159;" horiz-adv-x="343" 
d="M226 577h-48l-107 130h49l82 -99l82 99h50zM133 0h-45v477h45v-100c35 61 109 111 193 112v-46c-45 0 -85 -13 -119 -39c-34 -25 -59 -55 -74 -88v-316z" />
    <glyph glyph-name="Sacute" unicode="&#x15a;" horiz-adv-x="623" 
d="M304 -12c-104 0 -204 34 -256 75v53c27 -23 62 -42 107 -59s94 -25 145 -25c61 0 110 14 149 41s59 64 59 110c0 40 -19 73 -40 93c-11 10 -27 20 -48 29c-21 10 -40 17 -56 22c-15 5 -37 11 -66 19l-75 22c-18 7 -38 15 -61 26c-62 32 -88 70 -92 145c0 49 20 90 61 123
s98 50 171 50c81 0 152 -20 212 -59v-49c-64 43 -134 64 -210 64c-124 0 -188 -58 -188 -130c-4 -45 28 -77 56 -98c9 -6 22 -12 39 -19c18 -7 32 -12 43 -15l48 -14l21 -6l68 -21c17 -5 37 -14 61 -26c24 -11 42 -23 55 -36c25 -25 48 -68 48 -120c0 -61 -24 -109 -73 -144
c-49 -34 -108 -51 -178 -51zM303 763h-49l96 130h61z" />
    <glyph glyph-name="sacute" unicode="&#x15b;" horiz-adv-x="500" 
d="M244 -12c-80 0 -158 23 -197 51v49c57 -39 123 -58 196 -58c93 0 153 37 153 94c0 28 -15 48 -44 63s-55 21 -99 33l-20 5c-41 11 -65 17 -98 32c-43 22 -73 51 -73 103c0 79 67 129 184 129c70 0 127 -15 172 -44v-46c-53 32 -109 48 -169 48c-93 0 -141 -35 -141 -87
c0 -24 14 -44 29 -56c7 -5 19 -11 34 -17c31 -12 42 -15 82 -24l56 -14c12 -3 28 -9 49 -17s36 -16 45 -25c20 -17 39 -47 39 -84c0 -41 -19 -74 -57 -99c-37 -24 -84 -36 -141 -36zM245 577h-49l96 130h61z" />
    <glyph glyph-name="Scircumflex" unicode="&#x15c;" horiz-adv-x="623" 
d="M304 -12c-104 0 -204 34 -256 75v53c27 -23 62 -42 107 -59s94 -25 145 -25c61 0 110 14 149 41s59 64 59 110c0 40 -19 73 -40 93c-11 10 -27 20 -48 29c-21 10 -40 17 -56 22c-15 5 -37 11 -66 19l-75 22c-18 7 -38 15 -61 26c-62 32 -88 70 -92 145c0 49 20 90 61 123
s98 50 171 50c81 0 152 -20 212 -59v-49c-64 43 -134 64 -210 64c-124 0 -188 -58 -188 -130c-4 -45 28 -77 56 -98c9 -6 22 -12 39 -19c18 -7 32 -12 43 -15l48 -14l21 -6l68 -21c17 -5 37 -14 61 -26c24 -11 42 -23 55 -36c25 -25 48 -68 48 -120c0 -61 -24 -109 -73 -144
c-49 -34 -108 -51 -178 -51zM229 763h-50l108 130h49l107 -130h-50l-82 99z" />
    <glyph glyph-name="scircumflex" unicode="&#x15d;" horiz-adv-x="500" 
d="M244 -12c-80 0 -158 23 -197 51v49c57 -39 123 -58 196 -58c93 0 153 37 153 94c0 28 -15 48 -44 63s-55 21 -99 33l-20 5c-41 11 -65 17 -98 32c-43 22 -73 51 -73 103c0 79 67 129 184 129c70 0 127 -15 172 -44v-46c-53 32 -109 48 -169 48c-93 0 -141 -35 -141 -87
c0 -24 14 -44 29 -56c7 -5 19 -11 34 -17c31 -12 42 -15 82 -24l56 -14c12 -3 28 -9 49 -17s36 -16 45 -25c20 -17 39 -47 39 -84c0 -41 -19 -74 -57 -99c-37 -24 -84 -36 -141 -36zM168 576h-50l108 130h49l107 -130h-50l-82 99z" />
    <glyph glyph-name="Scedilla" unicode="&#x15e;" horiz-adv-x="623" 
d="M277 -127h-56l78 115c-103 1 -200 34 -251 75v53c27 -23 62 -42 107 -59s94 -25 145 -25c61 0 110 14 149 41s59 64 59 110c0 40 -19 73 -40 93c-11 10 -27 20 -48 29c-21 10 -40 17 -56 22c-15 5 -37 11 -66 19l-75 22c-18 7 -38 15 -61 26c-62 32 -88 70 -92 145
c0 49 20 90 61 123s98 50 171 50c81 0 152 -20 212 -59v-49c-64 43 -134 64 -210 64c-124 0 -188 -58 -188 -130c-4 -45 28 -77 56 -98c9 -6 22 -12 39 -19c18 -7 32 -12 43 -15l48 -14l21 -6l68 -21c17 -5 37 -14 61 -26c24 -11 42 -23 55 -36c25 -25 48 -68 48 -120
c0 -55 -20 -100 -61 -133c-40 -33 -91 -53 -152 -60z" />
    <glyph glyph-name="scedilla" unicode="&#x15f;" horiz-adv-x="500" 
d="M213 -127h-56l78 115c-76 1 -151 24 -188 51v49c57 -39 123 -58 196 -58c93 0 153 37 153 94c0 28 -15 48 -44 63s-55 21 -99 33l-20 5c-41 11 -65 17 -98 32c-43 22 -73 51 -73 103c0 79 67 129 184 129c70 0 127 -15 172 -44v-46c-53 32 -109 48 -169 48
c-93 0 -141 -35 -141 -87c0 -24 14 -44 29 -56c7 -5 19 -11 34 -17c31 -12 42 -15 82 -24l56 -14c12 -3 28 -9 49 -17s36 -16 45 -25c20 -17 39 -47 39 -84c0 -75 -67 -122 -164 -133z" />
    <glyph glyph-name="Scaron" unicode="&#x160;" horiz-adv-x="623" 
d="M304 -12c-104 0 -204 34 -256 75v53c27 -23 62 -42 107 -59s94 -25 145 -25c61 0 110 14 149 41s59 64 59 110c0 40 -19 73 -40 93c-11 10 -27 20 -48 29c-21 10 -40 17 -56 22c-15 5 -37 11 -66 19l-75 22c-18 7 -38 15 -61 26c-62 32 -88 70 -92 145c0 49 20 90 61 123
s98 50 171 50c81 0 152 -20 212 -59v-49c-64 43 -134 64 -210 64c-124 0 -188 -58 -188 -130c-4 -45 28 -77 56 -98c9 -6 22 -12 39 -19c18 -7 32 -12 43 -15l48 -14l21 -6l68 -21c17 -5 37 -14 61 -26c24 -11 42 -23 55 -36c25 -25 48 -68 48 -120c0 -61 -24 -109 -73 -144
c-49 -34 -108 -51 -178 -51zM321 763h-48l-107 130h49l82 -99l82 99h50z" />
    <glyph glyph-name="scaron" unicode="&#x161;" horiz-adv-x="500" 
d="M244 -12c-80 0 -158 23 -197 51v49c57 -39 123 -58 196 -58c93 0 153 37 153 94c0 28 -15 48 -44 63s-55 21 -99 33l-20 5c-41 11 -65 17 -98 32c-43 22 -73 51 -73 103c0 79 67 129 184 129c70 0 127 -15 172 -44v-46c-53 32 -109 48 -169 48c-93 0 -141 -35 -141 -87
c0 -24 14 -44 29 -56c7 -5 19 -11 34 -17c31 -12 42 -15 82 -24l56 -14c12 -3 28 -9 49 -17s36 -16 45 -25c20 -17 39 -47 39 -84c0 -41 -19 -74 -57 -99c-37 -24 -84 -36 -141 -36zM271 577h-48l-107 130h49l82 -99l82 99h50z" />
    <glyph glyph-name="uni0162" unicode="&#x162;" horiz-adv-x="620" 
d="M257 -127h-56l86 127v657h-251v43h548v-43h-251v-657z" />
    <glyph glyph-name="uni0163" unicode="&#x163;" horiz-adv-x="422" 
d="M150 125v311h-122v41h122v154h45v-154h178v-41h-178v-299c0 -77 27 -107 90 -107c28 0 55 7 81 22v-42c-15 -11 -38 -18 -69 -21l-65 -116h-56l79 116c-70 8 -105 53 -105 136z" />
    <glyph glyph-name="Tcaron" unicode="&#x164;" horiz-adv-x="620" 
d="M334 763h-48l-107 130h49l82 -99l82 99h50zM333 0h-46v657h-251v43h548v-43h-251v-657z" />
    <glyph glyph-name="tcaron" unicode="&#x165;" horiz-adv-x="531" 
d="M286 -12c-83 0 -124 52 -124 137v311h-122v41h122v154h45v-154h178v-41h-178v-299c0 -77 27 -107 90 -107c28 0 55 7 81 22v-42c-21 -15 -51 -22 -92 -22zM467 531h-40l55 168h50z" />
    <glyph glyph-name="Tbar" unicode="&#x166;" horiz-adv-x="620" 
d="M333 0h-46v353h-150v43h150v261h-251v43h548v-43h-251v-261h150v-43h-150v-353z" />
    <glyph glyph-name="tbar" unicode="&#x167;" horiz-adv-x="422" 
d="M274 -12c-83 0 -124 52 -124 137v114h-120v41h120v156h-122v41h122v154h45v-154h178v-41h-178v-156h178v-41h-178v-102c0 -77 27 -107 90 -107c28 0 55 7 81 22v-42c-21 -15 -51 -22 -92 -22z" />
    <glyph glyph-name="Utilde" unicode="&#x168;" horiz-adv-x="747" 
d="M445 776c-19 0 -44 10 -75 31s-53 32 -66 32c-26 0 -40 -19 -43 -57h-36c3 59 31 96 76 96c19 0 44 -10 75 -31c32 -20 54 -30 67 -30c24 0 38 19 42 57h36c-3 -59 -31 -98 -76 -98zM374 -12c-84 0 -152 27 -203 81s-77 131 -77 230v401h46v-401c0 -168 89 -267 234 -267
c144 0 233 99 233 267v401h46v-401c0 -99 -26 -175 -77 -230c-51 -54 -119 -81 -202 -81z" />
    <glyph glyph-name="utilde" unicode="&#x169;" horiz-adv-x="606" 
d="M470 141v336h45v-477h-45v83c-43 -52 -118 -95 -203 -95c-121 0 -185 72 -185 199v290h45v-281c0 -68 21 -116 53 -137c33 -21 63 -29 100 -29s73 11 109 33c36 23 63 49 81 78zM372 593c-19 0 -44 10 -76 31c-31 21 -54 32 -67 32c-25 0 -38 -19 -41 -57h-36
c3 59 32 97 76 97c19 0 44 -10 75 -31c32 -21 54 -31 66 -31c24 0 38 19 42 57h36c-3 -59 -31 -98 -75 -98z" />
    <glyph glyph-name="Umacron" unicode="&#x16a;" horiz-adv-x="747" 
d="M374 -12c-84 0 -152 27 -203 81s-77 131 -77 230v401h46v-401c0 -168 89 -267 234 -267c144 0 233 99 233 267v401h46v-401c0 -99 -26 -175 -77 -230c-51 -54 -119 -81 -202 -81zM490 808h-233v40h233v-40z" />
    <glyph glyph-name="umacron" unicode="&#x16b;" horiz-adv-x="606" 
d="M470 141v336h45v-477h-45v83c-43 -52 -118 -95 -203 -95c-121 0 -185 72 -185 199v290h45v-281c0 -68 21 -116 53 -137c33 -21 63 -29 100 -29s73 11 109 33c36 23 63 49 81 78zM414 625h-230v38h230v-38z" />
    <glyph glyph-name="Ubreve" unicode="&#x16c;" horiz-adv-x="747" 
d="M374 -12c-84 0 -152 27 -203 81s-77 131 -77 230v401h46v-401c0 -168 89 -267 234 -267c144 0 233 99 233 267v401h46v-401c0 -99 -26 -175 -77 -230c-51 -54 -119 -81 -202 -81zM245 893h40c1 -52 39 -92 88 -92s88 40 89 92h39c-1 -37 -13 -68 -38 -93s-55 -37 -90 -37
s-65 12 -90 37s-37 56 -38 93z" />
    <glyph glyph-name="ubreve" unicode="&#x16d;" horiz-adv-x="606" 
d="M470 141v336h45v-477h-45v83c-43 -52 -118 -95 -203 -95c-121 0 -185 72 -185 199v290h45v-281c0 -68 21 -116 53 -137c33 -21 63 -29 100 -29s73 11 109 33c36 23 63 49 81 78zM299 578c-35 0 -65 12 -90 37s-37 55 -38 92h40c1 -52 39 -91 88 -91s88 40 89 91h39
c0 -37 -13 -67 -38 -92s-55 -37 -90 -37z" />
    <glyph glyph-name="Uring" unicode="&#x16e;" horiz-adv-x="747" 
d="M375 736c-52 0 -95 42 -95 93s43 93 95 93c51 0 92 -42 92 -93s-41 -93 -92 -93zM375 769c33 0 60 27 60 60c0 35 -27 61 -60 61c-35 0 -61 -26 -61 -61c0 -33 26 -60 61 -60zM374 -12c-84 0 -152 27 -203 81s-77 131 -77 230v401h46v-401c0 -168 89 -267 234 -267
c144 0 233 99 233 267v401h46v-401c0 -99 -26 -175 -77 -230c-51 -54 -119 -81 -202 -81z" />
    <glyph glyph-name="uring" unicode="&#x16f;" horiz-adv-x="606" 
d="M300 552c-53 0 -95 42 -95 93s42 93 95 93c49 0 91 -42 91 -93s-42 -93 -91 -93zM300 585c33 0 60 27 60 60c0 35 -27 61 -60 61c-35 0 -62 -26 -62 -61c0 -33 27 -60 62 -60zM470 141v336h45v-477h-45v83c-43 -52 -118 -95 -203 -95c-121 0 -185 72 -185 199v290h45
v-281c0 -68 21 -116 53 -137c33 -21 63 -29 100 -29s73 11 109 33c36 23 63 49 81 78z" />
    <glyph glyph-name="Uhungarumlaut" unicode="&#x170;" horiz-adv-x="747" 
d="M374 -12c-84 0 -152 27 -203 81s-77 131 -77 230v401h46v-401c0 -168 89 -267 234 -267c144 0 233 99 233 267v401h46v-401c0 -99 -26 -175 -77 -230c-51 -54 -119 -81 -202 -81zM459 763h-49l97 130h60zM315 763h-49l96 130h62z" />
    <glyph glyph-name="uhungarumlaut" unicode="&#x171;" horiz-adv-x="606" 
d="M470 141v336h45v-477h-45v83c-43 -52 -118 -95 -203 -95c-121 0 -185 72 -185 199v290h45v-281c0 -68 21 -116 53 -137c33 -21 63 -29 100 -29s73 11 109 33c36 23 63 49 81 78zM387 577h-49l97 130h60zM243 577h-49l96 130h62z" />
    <glyph glyph-name="Uogonek" unicode="&#x172;" horiz-adv-x="747" 
d="M495 -186c-64 0 -106 43 -106 99c0 29 8 55 24 78c-13 -2 -26 -3 -39 -3c-84 0 -152 27 -203 81s-77 131 -77 230v401h46v-401c0 -168 89 -267 234 -267c144 0 233 99 233 267v401h46v-401c0 -80 -14 -142 -43 -185s-67 -76 -114 -101c-46 -25 -69 -56 -69 -95
c0 -41 32 -70 76 -70c13 0 26 2 40 6v-34c-13 -4 -29 -6 -48 -6z" />
    <glyph glyph-name="uogonek" unicode="&#x173;" horiz-adv-x="606" 
d="M544 -193c-64 0 -106 43 -106 99c0 35 11 66 32 94v83c-43 -52 -118 -95 -203 -95c-121 0 -185 72 -185 199v290h45v-281c0 -68 21 -116 53 -137c33 -21 63 -29 100 -29s73 11 109 33c36 23 63 49 81 78v336h45v-477c-26 -29 -39 -59 -39 -89c0 -41 32 -70 76 -70
c13 0 26 2 40 6v-34c-13 -4 -29 -6 -48 -6z" />
    <glyph glyph-name="Wcircumflex" unicode="&#x174;" horiz-adv-x="1041" 
d="M329 -4h-40l-244 704h52l214 -627l190 629h39l191 -629l214 627h51l-244 -704h-42l-189 622zM437 763h-50l108 130h49l107 -130h-50l-82 99z" />
    <glyph glyph-name="wcircumflex" unicode="&#x175;" horiz-adv-x="816" 
d="M259 -4h-40l-175 481h47l150 -411l146 413h39l147 -413l149 411h46l-175 -481h-39l-149 413zM324 576h-50l108 130h49l107 -130h-50l-82 99z" />
    <glyph glyph-name="Ycircumflex" unicode="&#x176;" horiz-adv-x="646" 
d="M345 0h-46v324l-273 376h56l241 -332l242 332h53l-273 -375v-325zM240 763h-50l108 130h49l107 -130h-50l-82 99z" />
    <glyph glyph-name="ycircumflex" unicode="&#x177;" horiz-adv-x="542" 
d="M101 -204c-29 0 -52 5 -68 15v43c20 -11 41 -16 63 -16c33 0 59 13 79 39c21 25 45 69 72 130l-221 470h51l193 -415l187 415h49l-241 -531c-44 -99 -92 -150 -164 -150zM196 576h-50l108 130h49l107 -130h-50l-82 99z" />
    <glyph glyph-name="Ydieresis" unicode="&#x178;" horiz-adv-x="646" 
d="M345 0h-46v324l-273 376h56l241 -332l242 332h53l-273 -375v-325zM392 799c-34 32 21 86 51 51c35 -30 -19 -85 -51 -51zM202 799c-34 32 21 86 51 51c35 -30 -19 -85 -51 -51z" />
    <glyph glyph-name="Zacute" unicode="&#x179;" horiz-adv-x="639" 
d="M585 0h-531v33l454 624h-427v43h488v-33l-450 -624h466v-43zM333 763h-49l96 130h61z" />
    <glyph glyph-name="zacute" unicode="&#x17a;" horiz-adv-x="492" 
d="M453 0h-415v31l334 405h-310v41h375v-32l-332 -404h348v-41zM250 577h-49l96 130h61z" />
    <glyph glyph-name="Zdotaccent" unicode="&#x17b;" horiz-adv-x="639" 
d="M585 0h-531v33l454 624h-427v43h488v-33l-450 -624h466v-43zM292 798c-36 33 21 90 54 54c36 -33 -21 -90 -54 -54z" />
    <glyph glyph-name="zdotaccent" unicode="&#x17c;" horiz-adv-x="492" 
d="M453 0h-415v31l334 405h-310v41h375v-32l-332 -404h348v-41zM219 619c-36 33 21 90 54 54c36 -33 -21 -90 -54 -54z" />
    <glyph glyph-name="Zcaron" unicode="&#x17d;" horiz-adv-x="639" 
d="M343 763h-48l-107 130h49l82 -99l82 99h50zM585 0h-531v33l454 624h-427v43h488v-33l-450 -624h466v-43z" />
    <glyph glyph-name="zcaron" unicode="&#x17e;" horiz-adv-x="492" 
d="M269 577h-48l-107 130h49l82 -99l82 99h50zM453 0h-415v31l334 405h-310v41h375v-32l-332 -404h348v-41z" />
    <glyph glyph-name="longs" unicode="&#x17f;" horiz-adv-x="315" 
d="M172 562v-562h-45v436h-99v41h99v80c0 100 42 150 125 150c35 0 66 -7 93 -20v-43c-29 14 -57 21 -83 21c-59 0 -90 -38 -90 -103z" />
    <glyph glyph-name="florin" unicode="&#x192;" horiz-adv-x="469" 
d="M-4 -204c-29 0 -56 6 -80 17v42c25 -11 49 -17 74 -17c77 0 127 55 142 156l54 358h-139v41h145l20 128c19 124 78 186 178 186c33 0 61 -5 83 -16v-44c-24 12 -49 18 -76 18c-77 0 -124 -45 -141 -154l-18 -118h170v-41h-176l-57 -368c-19 -113 -78 -188 -179 -188z" />
    <glyph glyph-name="uni0218" unicode="&#x218;" horiz-adv-x="623" 
d="M304 -12c-104 0 -204 34 -256 75v53c27 -23 62 -42 107 -59s94 -25 145 -25c61 0 110 14 149 41s59 64 59 110c0 40 -19 73 -40 93c-11 10 -27 20 -48 29c-21 10 -40 17 -56 22c-15 5 -37 11 -66 19l-75 22c-18 7 -38 15 -61 26c-62 32 -88 70 -92 145c0 49 20 90 61 123
s98 50 171 50c81 0 152 -20 212 -59v-49c-64 43 -134 64 -210 64c-124 0 -188 -58 -188 -130c-4 -45 28 -77 56 -98c9 -6 22 -12 39 -19c18 -7 32 -12 43 -15l48 -14l21 -6l68 -21c17 -5 37 -14 61 -26c24 -11 42 -23 55 -36c25 -25 48 -68 48 -120c0 -61 -24 -109 -73 -144
c-49 -34 -108 -51 -178 -51zM276 -218h-40l55 168h50z" />
    <glyph glyph-name="uni0219" unicode="&#x219;" horiz-adv-x="500" 
d="M244 -12c-80 0 -158 23 -197 51v49c57 -39 123 -58 196 -58c93 0 153 37 153 94c0 28 -15 48 -44 63s-55 21 -99 33l-20 5c-41 11 -65 17 -98 32c-43 22 -73 51 -73 103c0 79 67 129 184 129c70 0 127 -15 172 -44v-46c-53 32 -109 48 -169 48c-93 0 -141 -35 -141 -87
c0 -24 14 -44 29 -56c7 -5 19 -11 34 -17c31 -12 42 -15 82 -24l56 -14c12 -3 28 -9 49 -17s36 -16 45 -25c20 -17 39 -47 39 -84c0 -41 -19 -74 -57 -99c-37 -24 -84 -36 -141 -36zM213 -218h-40l55 168h50z" />
    <glyph glyph-name="uni021A" unicode="&#x21a;" horiz-adv-x="620" 
d="M333 0h-46v657h-251v43h548v-43h-251v-657zM268 -218h-40l55 168h50z" />
    <glyph glyph-name="uni021B" unicode="&#x21b;" horiz-adv-x="422" 
d="M274 -12c-83 0 -124 52 -124 137v311h-122v41h122v154h45v-154h178v-41h-178v-299c0 -77 27 -107 90 -107c28 0 55 7 81 22v-42c-21 -15 -51 -22 -92 -22zM235 -218h-40l55 168h50z" />
    <glyph glyph-name="circumflex" unicode="&#x2c6;" horiz-adv-x="527" 
d="M182 576h-50l108 130h49l107 -130h-50l-82 99z" />
    <glyph glyph-name="caron" unicode="&#x2c7;" horiz-adv-x="521" 
d="M278 577h-48l-107 130h49l82 -99l82 99h50z" />
    <glyph glyph-name="uni02C9" unicode="&#x2c9;" horiz-adv-x="518" 
d="M424 625h-330v38h330v-38z" />
    <glyph glyph-name="breve" unicode="&#x2d8;" horiz-adv-x="512" 
d="M255 578c-35 0 -65 12 -90 37s-37 55 -38 92h40c1 -52 39 -91 88 -91s88 40 89 91h39c0 -37 -13 -67 -38 -92s-55 -37 -90 -37z" />
    <glyph glyph-name="dotaccent" unicode="&#x2d9;" horiz-adv-x="534" 
d="M240 619c-36 33 21 90 54 54c36 -33 -21 -90 -54 -54z" />
    <glyph glyph-name="ring" unicode="&#x2da;" horiz-adv-x="530" 
d="M262 552c-53 0 -95 42 -95 93s42 93 95 93c49 0 91 -42 91 -93s-42 -93 -91 -93zM262 585c33 0 60 27 60 60c0 35 -27 61 -60 61c-35 0 -62 -26 -62 -61c0 -33 27 -60 62 -60z" />
    <glyph glyph-name="ogonek" unicode="&#x2db;" horiz-adv-x="516" 
d="M308 -186c-64 0 -106 43 -106 99c0 35 12 66 37 94h40c-26 -29 -39 -59 -39 -89c0 -41 32 -70 76 -70c13 0 26 2 40 6v-34c-13 -4 -29 -6 -48 -6z" />
    <glyph glyph-name="tilde" unicode="&#x2dc;" horiz-adv-x="519" 
d="M332 593c-19 0 -44 10 -76 31c-31 21 -54 32 -67 32c-25 0 -38 -19 -41 -57h-36c3 59 32 97 76 97c19 0 44 -10 75 -31c32 -21 54 -31 66 -31c24 0 38 19 42 57h36c-3 -59 -31 -98 -75 -98z" />
    <glyph glyph-name="hungarumlaut" unicode="&#x2dd;" horiz-adv-x="550" 
d="M326 577h-49l97 130h60zM182 577h-49l96 130h62z" />
    <glyph glyph-name="acutecomb" unicode="&#x301;" horiz-adv-x="20" 
d="M-257 577h-49l96 130h61z" />
    <glyph glyph-name="uni037E" unicode="&#x37e;" horiz-adv-x="222" 
d="M62 -152h-39l76 239h56zM86 397c-36 33 21 90 54 54c36 -33 -21 -90 -54 -54z" />
    <glyph glyph-name="uni0394" unicode="&#x394;" horiz-adv-x="743" 
d="M710 0h-677l318 700h43zM372 643l-273 -600h545z" />
    <glyph glyph-name="uni03A9" unicode="&#x3a9;" horiz-adv-x="805" 
d="M299 0h-186v43h125c-76 76 -129 192 -129 320c0 102 27 186 82 251s125 98 211 98c87 0 158 -33 213 -98s82 -148 82 -251c0 -128 -54 -244 -130 -320h125v-43h-186v37c40 34 74 80 102 137s42 118 42 183c0 92 -23 167 -70 224c-47 58 -106 87 -178 87
c-71 0 -129 -29 -176 -87c-47 -57 -70 -132 -70 -224c0 -65 14 -126 41 -183c28 -57 62 -102 102 -137v-37z" />
    <glyph glyph-name="uni03BC" unicode="&#x3bc;" horiz-adv-x="614" 
d="M135 -200h-45v677h45v-281c0 -68 21 -116 53 -137c33 -21 63 -29 100 -29s73 11 109 33c36 23 63 49 81 78v336h45v-477h-45v83c-43 -52 -118 -95 -203 -95c-61 0 -108 18 -140 54v-242z" />
    <glyph glyph-name="pi" unicode="&#x3c0;" horiz-adv-x="673" 
d="M561 -5c-65 0 -97 41 -97 122v319h-282v-436h-45v436h-92v41h562v-41h-98v-306c0 -67 19 -93 63 -93c14 0 26 2 35 7v-40c-11 -6 -27 -9 -46 -9z" />
    <glyph glyph-name="uni0401" unicode="&#x401;" horiz-adv-x="637" 
d="M589 0h-484v700h468v-43h-422v-259h349v-43h-349v-312h438v-43zM415 799c-34 32 21 86 51 51c35 -30 -19 -85 -51 -51zM225 799c-34 32 21 86 51 51c35 -30 -19 -85 -51 -51z" />
    <glyph glyph-name="uni0402" unicode="&#x402;" horiz-adv-x="746" 
d="M478 -12c-41 0 -79 6 -114 19v45c33 -13 70 -20 109 -20c107 0 174 65 174 162c0 46 -18 86 -55 119c-36 33 -86 50 -150 50c-75 0 -145 -16 -211 -49v-314h-46v657h-149v43h473v-43h-278v-296c67 31 140 46 219 46c72 0 130 -20 175 -60s68 -91 68 -154
c0 -61 -20 -110 -59 -148s-91 -57 -156 -57z" />
    <glyph glyph-name="uni0403" unicode="&#x403;" horiz-adv-x="596" 
d="M151 0h-46v700h454v-43h-408v-657zM335 763h-49l96 130h61z" />
    <glyph glyph-name="uni0404" unicode="&#x404;" horiz-adv-x="691" 
d="M426 -12c-100 0 -184 34 -251 103s-100 155 -100 259c0 103 33 189 100 258s151 104 251 104c75 0 141 -18 198 -55v-50c-61 41 -127 61 -199 61c-81 0 -149 -27 -206 -82c-57 -54 -88 -123 -93 -207h349v-43h-351c3 -87 33 -160 91 -218c58 -57 128 -86 211 -86
c85 0 156 24 215 73v-51c-57 -44 -128 -66 -215 -66z" />
    <glyph glyph-name="uni0405" unicode="&#x405;" horiz-adv-x="623" 
d="M304 -12c-104 0 -204 34 -256 75v53c27 -23 62 -42 107 -59s94 -25 145 -25c61 0 110 14 149 41s59 64 59 110c0 40 -19 73 -40 93c-11 10 -27 20 -48 29c-21 10 -40 17 -56 22c-15 5 -37 11 -66 19l-75 22c-18 7 -38 15 -61 26c-62 32 -88 70 -92 145c0 49 20 90 61 123
s98 50 171 50c81 0 152 -20 212 -59v-49c-64 43 -134 64 -210 64c-124 0 -188 -58 -188 -130c-4 -45 28 -77 56 -98c9 -6 22 -12 39 -19c18 -7 32 -12 43 -15l48 -14l21 -6l68 -21c17 -5 37 -14 61 -26c24 -11 42 -23 55 -36c25 -25 48 -68 48 -120c0 -61 -24 -109 -73 -144
c-49 -34 -108 -51 -178 -51z" />
    <glyph glyph-name="uni0406" unicode="&#x406;" horiz-adv-x="269" 
d="M158 0h-46v700h46v-700z" />
    <glyph glyph-name="uni0407" unicode="&#x407;" horiz-adv-x="268" 
d="M157 0h-46v700h46v-700zM203 799c-34 32 21 86 51 51c35 -30 -19 -85 -51 -51zM13 799c-34 32 21 86 51 51c35 -30 -19 -85 -51 -51z" />
    <glyph glyph-name="uni0408" unicode="&#x408;" horiz-adv-x="503" 
d="M195 -12c-62 0 -115 16 -158 47v51c40 -36 90 -54 151 -54c115 0 173 61 173 182v486h46v-493c0 -145 -77 -219 -212 -219z" />
    <glyph glyph-name="uni0409" unicode="&#x409;" horiz-adv-x="1117" 
d="M821 0h-258v657h-314l-5 -166c-1 -55 -4 -104 -7 -145c-5 -81 -17 -165 -37 -218c-31 -82 -77 -129 -162 -129c-11 0 -19 0 -24 1v44c5 -1 14 -1 27 -1c67 -5 107 59 128 138c7 25 13 58 17 98c4 41 7 78 8 113c2 35 4 79 5 130l4 178h406v-275h212c77 0 136 -20 179 -59
s64 -90 64 -153c0 -129 -90 -213 -243 -213zM609 382v-339h209c127 0 200 62 200 170c0 107 -73 169 -200 169h-209z" />
    <glyph glyph-name="uni040A" unicode="&#x40a;" horiz-adv-x="1142" 
d="M151 0h-46v700h46v-275h437v275h46v-275h213c76 0 135 -20 178 -59s64 -90 64 -153c0 -129 -89 -213 -242 -213h-259v382h-437v-382zM634 382v-339h209c128 0 200 62 200 170c0 107 -72 169 -200 169h-209z" />
    <glyph glyph-name="uni040B" unicode="&#x40b;" horiz-adv-x="768" 
d="M231 0h-46v657h-149v43h473v-43h-278v-291c74 27 148 41 222 41c157 0 239 -56 239 -209v-198h-46v183c0 68 -16 115 -48 141c-31 26 -85 39 -160 39c-69 0 -138 -14 -207 -43v-320z" />
    <glyph glyph-name="uni040C" unicode="&#x40c;" horiz-adv-x="638" 
d="M151 0h-46v700h46v-309l356 309h65l-369 -321l425 -379h-70l-407 364v-364zM325 763h-49l96 130h61z" />
    <glyph glyph-name="uni040E" unicode="&#x40e;" horiz-adv-x="633" 
d="M169 -12c-29 0 -55 4 -78 13v44c22 -9 46 -13 71 -13c64 0 102 47 147 148l4 9l-285 511h53l256 -461l212 461h51l-258 -553c-55 -117 -104 -159 -173 -159zM316 755c-95 0 -156 56 -157 143h41c0 -63 45 -105 116 -105c68 0 114 44 114 105h41
c-1 -85 -66 -143 -155 -143z" />
    <glyph glyph-name="uni040F" unicode="&#x40f;" horiz-adv-x="741" 
d="M391 -161h-44v161h-242v700h46v-657h438v657h46v-700h-244v-161z" />
    <glyph glyph-name="uni0410" unicode="&#x410;" horiz-adv-x="743" 
d="M82 0h-49l318 704h43l316 -704h-48l-93 206h-394zM372 644l-181 -398h361z" />
    <glyph glyph-name="uni0411" unicode="&#x411;" horiz-adv-x="698" 
d="M385 0h-280v700h467v-43h-421v-233h234c76 0 135 -20 178 -59s64 -90 64 -153c0 -128 -89 -212 -242 -212zM151 381v-338h230c127 0 199 61 199 169c0 107 -74 169 -199 169h-230z" />
    <glyph glyph-name="uni0412" unicode="&#x412;" horiz-adv-x="719" 
d="M433 0h-328v700h294c123 0 196 -64 196 -169c0 -77 -32 -127 -97 -150c100 -15 160 -86 160 -187c0 -117 -84 -194 -225 -194zM151 353v-310h275c116 0 182 56 182 155s-66 155 -182 155h-275zM151 657v-264h242c100 0 157 48 157 132s-57 132 -157 132h-242z" />
    <glyph glyph-name="uni0413" unicode="&#x413;" horiz-adv-x="596" 
d="M151 0h-46v700h454v-43h-408v-657z" />
    <glyph glyph-name="uni0414" unicode="&#x414;" horiz-adv-x="770" 
d="M62 -161h-44v204h65c47 65 81 140 102 224s32 204 32 360v73h409v-657h110v-204h-44v161h-630v-161zM137 43h443v614h-317v-47c0 -267 -35 -443 -126 -567z" />
    <glyph glyph-name="uni0415" unicode="&#x415;" horiz-adv-x="637" 
d="M589 0h-484v700h468v-43h-422v-259h349v-43h-349v-312h438v-43z" />
    <glyph glyph-name="uni0416" unicode="&#x416;" horiz-adv-x="940" 
d="M88 0h-63l374 371l-334 329h61l320 -317v317h46v-319l322 319h61l-335 -329l375 -371h-63l-360 356v-356h-46v355z" />
    <glyph glyph-name="uni0417" unicode="&#x417;" horiz-adv-x="613" 
d="M277 -12c-87 0 -164 17 -229 51v48c66 -37 140 -55 221 -55c145 0 235 67 235 168c0 46 -19 84 -58 115c-38 31 -89 46 -154 46h-86v43h91c107 0 174 50 174 134c0 83 -78 130 -187 130c-69 0 -136 -15 -203 -46v45c68 30 136 45 205 45c67 0 122 -15 165 -46
s65 -73 65 -127c0 -44 -13 -79 -40 -104c-26 -25 -54 -42 -85 -50c66 -17 161 -72 161 -187c0 -61 -25 -112 -74 -151s-116 -59 -201 -59z" />
    <glyph glyph-name="uni0418" unicode="&#x418;" horiz-adv-x="772" 
d="M145 0h-40v700h46v-622l473 622h42v-700h-46v624z" />
    <glyph glyph-name="uni0419" unicode="&#x419;" horiz-adv-x="772" 
d="M145 0h-40v700h46v-622l473 622h42v-700h-46v624zM386 755c-95 0 -156 56 -157 143h41c0 -63 45 -105 116 -105c68 0 114 44 114 105h41c-1 -85 -66 -143 -155 -143z" />
    <glyph glyph-name="uni041A" unicode="&#x41a;" horiz-adv-x="638" 
d="M151 0h-46v700h46v-309l356 309h65l-369 -321l425 -379h-70l-407 364v-364z" />
    <glyph glyph-name="uni041B" unicode="&#x41b;" horiz-adv-x="725" 
d="M199 522l4 178h416v-700h-46v657h-324l-5 -166c-1 -56 -4 -104 -7 -145c-5 -80 -17 -165 -37 -218c-29 -82 -78 -129 -162 -129c-11 0 -19 0 -24 1v44c6 -1 15 -1 27 -1c67 -5 107 59 128 138c7 25 13 58 17 98c4 41 7 78 8 113c2 35 4 79 5 130z" />
    <glyph glyph-name="uni041C" unicode="&#x41c;" horiz-adv-x="847" 
d="M151 0h-46v700h47l272 -357l272 357h45v-700h-46v629l-256 -336h-30l-258 336v-629z" />
    <glyph glyph-name="uni041D" unicode="&#x41d;" horiz-adv-x="760" 
d="M151 0h-46v700h46v-302h457v302h46v-700h-46v355h-457v-355z" />
    <glyph glyph-name="uni041E" unicode="&#x41e;" horiz-adv-x="846" 
d="M209 123c58 -61 129 -91 214 -91s156 30 214 91s87 136 87 227s-29 166 -87 227s-129 91 -214 91s-156 -30 -214 -91s-87 -136 -87 -227s29 -166 87 -227zM423 -12c-99 0 -182 34 -249 103c-66 69 -99 155 -99 259c0 103 33 189 99 258c67 69 150 104 249 104
s181 -35 248 -104s100 -155 100 -258s-33 -190 -100 -259s-149 -103 -248 -103z" />
    <glyph glyph-name="uni041F" unicode="&#x41f;" horiz-adv-x="746" 
d="M151 0h-46v700h535v-700h-46v657h-443v-657z" />
    <glyph glyph-name="uni0420" unicode="&#x420;" horiz-adv-x="665" 
d="M151 0h-46v700h291c136 0 216 -75 216 -188s-80 -189 -216 -189h-245v-323zM151 657v-291h241c111 0 174 53 174 146c0 92 -63 145 -174 145h-241z" />
    <glyph glyph-name="uni0421" unicode="&#x421;" horiz-adv-x="693" 
d="M427 -12c-100 0 -184 34 -251 102c-67 69 -101 155 -101 260s34 191 101 259c67 69 151 103 251 103c76 0 143 -18 200 -55v-50c-61 41 -127 61 -199 61c-86 0 -159 -30 -218 -91c-59 -60 -88 -136 -88 -227s29 -167 88 -228c59 -60 132 -90 219 -90c83 0 154 24 214 73
v-51c-58 -44 -130 -66 -216 -66z" />
    <glyph glyph-name="uni0422" unicode="&#x422;" horiz-adv-x="620" 
d="M333 0h-46v657h-251v43h548v-43h-251v-657z" />
    <glyph glyph-name="uni0423" unicode="&#x423;" horiz-adv-x="629" 
d="M165 -12c-29 0 -55 4 -78 13v44c22 -9 46 -13 71 -13c64 0 102 47 147 148l4 9l-285 511h53l256 -461l212 461h51l-258 -553c-55 -117 -104 -159 -173 -159z" />
    <glyph glyph-name="uni0424" unicode="&#x424;" horiz-adv-x="901" 
d="M474 -18h-46v69c-248 2 -354 143 -353 298c0 84 30 155 89 213c59 59 147 88 264 89v64h46v-64c247 -1 352 -147 352 -300c0 -155 -105 -297 -352 -300v-69zM428 94v514c-109 0 -194 -33 -239 -85c-45 -51 -67 -108 -67 -172s22 -122 67 -173s130 -84 239 -84zM474 608
v-514c109 0 194 33 239 84s66 109 66 173s-21 121 -66 172c-45 52 -130 85 -239 85z" />
    <glyph glyph-name="uni0425" unicode="&#x425;" horiz-adv-x="698" 
d="M92 0h-54l283 380l-238 320h56l211 -282l211 282h55l-239 -319l286 -381h-57l-257 343z" />
    <glyph glyph-name="uni0426" unicode="&#x426;" horiz-adv-x="779" 
d="M745 -161h-44v161h-596v700h46v-657h438v657h46v-657h110v-204z" />
    <glyph glyph-name="uni0427" unicode="&#x427;" horiz-adv-x="689" 
d="M583 0h-46v332c-73 -27 -147 -41 -222 -41c-157 0 -240 57 -240 210v199h46v-184c0 -68 16 -115 48 -142c32 -26 85 -39 160 -39c67 0 137 15 208 44v321h46v-700z" />
    <glyph glyph-name="uni0428" unicode="&#x428;" horiz-adv-x="1011" 
d="M859 700h46v-700h-800v700h46v-657h331v657h46v-657h331v657z" />
    <glyph glyph-name="uni0429" unicode="&#x429;" horiz-adv-x="1050" 
d="M1016 -161h-44v161h-867v700h46v-657h331v657h46v-657h331v657h46v-657h111v-204z" />
    <glyph glyph-name="uni042A" unicode="&#x42a;" horiz-adv-x="785" 
d="M489 0h-277v657h-198v43h244v-275h231c77 0 136 -20 179 -59s64 -90 64 -153c0 -128 -90 -213 -243 -213zM258 382v-339h227c127 0 200 62 200 170c0 107 -73 169 -200 169h-227z" />
    <glyph glyph-name="uni042B" unicode="&#x42b;" horiz-adv-x="869" 
d="M358 0h-253v700h46v-275h207c77 0 136 -20 179 -59s64 -90 64 -153c0 -129 -90 -213 -243 -213zM151 382v-339h204c127 0 200 62 200 170c0 107 -73 169 -200 169h-204zM763 0h-46v700h46v-700z" />
    <glyph glyph-name="uni042C" unicode="&#x42c;" horiz-adv-x="678" 
d="M382 0h-277v700h46v-275h231c77 0 136 -20 179 -59s64 -90 64 -153c0 -129 -90 -213 -243 -213zM151 382v-339h228c127 0 200 62 200 170c0 107 -73 169 -200 169h-228z" />
    <glyph glyph-name="uni042D" unicode="&#x42d;" horiz-adv-x="691" 
d="M265 -12c-86 0 -158 22 -215 66v51c59 -49 130 -73 215 -73c83 0 153 29 211 86c58 58 88 131 91 218h-351v43h349c-5 84 -36 153 -93 207c-57 55 -125 82 -206 82c-72 0 -138 -20 -199 -61v50c57 37 123 55 198 55c100 0 183 -35 250 -104s101 -155 101 -258
c0 -104 -34 -190 -101 -259s-150 -103 -250 -103z" />
    <glyph glyph-name="uni042E" unicode="&#x42e;" horiz-adv-x="1036" 
d="M636 -12c-91 0 -167 33 -228 99c-60 67 -92 150 -95 251h-162v-338h-46v700h46v-319h163c6 95 39 174 100 237s135 94 222 94c93 0 170 -35 232 -104s93 -155 93 -258s-31 -190 -93 -259s-139 -103 -232 -103zM636 32c78 0 144 29 198 88s81 135 81 230s-27 171 -81 230
s-120 88 -198 88c-77 0 -143 -29 -197 -88c-53 -59 -80 -135 -80 -230s27 -171 80 -230c54 -59 120 -88 197 -88z" />
    <glyph glyph-name="uni042F" unicode="&#x42f;" horiz-adv-x="735" 
d="M105 0h-53l229 332c-111 13 -174 84 -174 184c0 112 80 184 213 184h309v-700h-46v329h-250zM323 372h260v285h-260c-107 0 -170 -53 -170 -142c0 -92 62 -143 170 -143z" />
    <glyph glyph-name="uni0430" unicode="&#x430;" horiz-adv-x="589" 
d="M246 30c80 0 149 43 188 95v79c-57 37 -115 56 -175 56c-101 0 -163 -46 -163 -115c0 -77 66 -115 150 -115zM233 -12c-50 0 -93 14 -130 41c-36 28 -54 66 -54 115c0 47 19 85 56 113c38 29 85 43 142 43c67 0 130 -17 187 -52v63c0 92 -62 136 -170 136
c-57 0 -111 -17 -162 -51v46c48 31 105 47 170 47c124 0 207 -58 207 -174v-212c0 -41 20 -68 52 -68c11 0 20 2 28 6v-37c-9 -5 -22 -8 -39 -8c-43 0 -78 28 -82 83c-52 -61 -120 -91 -205 -91z" />
    <glyph glyph-name="uni0431" unicode="&#x431;" horiz-adv-x="614" 
d="M322 -12c-79 0 -142 28 -188 85s-69 135 -69 234c0 136 36 233 108 291c46 37 121 67 226 90l109 22v-45l-168 -36c-76 -17 -133 -49 -172 -94c-38 -45 -58 -114 -59 -206c40 77 122 128 226 128c63 0 116 -21 159 -63s65 -96 65 -162c0 -71 -23 -130 -69 -176
c-46 -45 -102 -68 -168 -68zM323 30c52 0 97 19 134 56c38 37 57 85 57 144c0 55 -19 100 -56 134s-81 51 -132 51c-49 0 -93 -15 -132 -44c-38 -29 -65 -64 -81 -103c7 -147 83 -238 210 -238z" />
    <glyph glyph-name="uni0432" unicode="&#x432;" horiz-adv-x="571" 
d="M353 0h-263v477h243c89 0 140 -48 140 -120c0 -53 -21 -89 -62 -106c63 -18 94 -59 94 -124c0 -77 -56 -127 -152 -127zM135 225v-184h209c73 0 115 33 115 92s-42 92 -115 92h-209zM135 436v-170h186c68 0 106 30 106 85s-38 85 -106 85h-186z" />
    <glyph glyph-name="uni0433" unicode="&#x433;" horiz-adv-x="481" 
d="M135 0h-45v477h349v-41h-304v-436z" />
    <glyph glyph-name="uni0434" unicode="&#x434;" horiz-adv-x="633" 
d="M65 -149h-44v190h59c61 75 91 201 91 378l1 58h336v-436h92v-190h-44v149h-491v-149zM132 41h331v395h-248v-34c0 -159 -28 -279 -83 -361z" />
    <glyph glyph-name="uni0435" unicode="&#x435;" horiz-adv-x="567" 
d="M315 -12c-75 0 -137 23 -186 70s-74 107 -74 180c0 72 22 132 66 179c44 48 101 72 171 72c80 0 142 -35 173 -87c32 -51 47 -103 47 -155v-15h-412c1 -60 22 -109 63 -146s94 -56 158 -56c57 0 109 15 154 45v-44c-38 -29 -91 -43 -160 -43zM101 271h366
c0 69 -48 176 -176 176c-56 0 -101 -18 -135 -54c-33 -35 -52 -76 -55 -122z" />
    <glyph glyph-name="uni0436" unicode="&#x436;" horiz-adv-x="722" 
d="M90 0h-62l266 256l-241 221h60l226 -210v210h44v-209l226 209h60l-240 -221l265 -256h-63l-248 240v-240h-44v241z" />
    <glyph glyph-name="uni0437" unicode="&#x437;" horiz-adv-x="516" 
d="M236 -12c-65 0 -123 11 -172 34v45c51 -25 106 -37 167 -37c105 0 175 40 175 105c0 61 -60 98 -148 98h-80v41h80c87 0 129 39 129 84c0 59 -58 89 -149 89c-55 0 -108 -11 -159 -32v44c49 20 104 30 166 30c108 0 187 -48 187 -124c0 -52 -30 -88 -89 -109
c73 -20 109 -61 109 -124c0 -87 -84 -144 -216 -144z" />
    <glyph glyph-name="uni0438" unicode="&#x438;" horiz-adv-x="609" 
d="M132 0h-42v477h45v-409l342 409h41v-477h-45v408z" />
    <glyph glyph-name="uni0439" unicode="&#x439;" horiz-adv-x="609" 
d="M132 0h-42v477h45v-409l342 409h41v-477h-45v408zM303 558c-93 0 -155 58 -155 142h41c0 -60 45 -104 114 -104c67 0 112 44 112 104h41c0 -41 -15 -75 -44 -102s-66 -40 -109 -40z" />
    <glyph glyph-name="uni043A" unicode="&#x43a;" horiz-adv-x="516" 
d="M135 0h-45v477h45v-201l251 201h66l-269 -216l305 -261h-68l-285 244v-244z" />
    <glyph glyph-name="uni043B" unicode="&#x43b;" horiz-adv-x="587" 
d="M156 324l4 153h336v-477h-45v436h-247l-3 -101c-1 -49 -4 -90 -8 -123s-11 -67 -22 -103c-21 -72 -66 -110 -133 -110c-7 0 -13 0 -18 1v42c5 -1 12 -1 20 -1c45 0 77 33 92 93c16 60 21 113 24 190z" />
    <glyph glyph-name="uni043C" unicode="&#x43c;" horiz-adv-x="691" 
d="M135 0h-45v477h43l212 -240l212 240h43v-477h-45v413l-202 -229h-17l-201 229v-413z" />
    <glyph glyph-name="uni043D" unicode="&#x43d;" horiz-adv-x="604" 
d="M135 0h-45v477h45v-211h333v211h45v-477h-45v225h-333v-225z" />
    <glyph glyph-name="uni043E" unicode="&#x43e;" horiz-adv-x="616" 
d="M160 89c40 -39 89 -59 148 -59s108 20 147 59c40 40 60 90 60 149s-20 109 -60 149c-39 40 -88 60 -147 60s-108 -20 -148 -60c-39 -40 -59 -90 -59 -149s20 -109 59 -149zM490 61c-47 -49 -107 -73 -182 -73s-136 24 -183 73s-70 108 -70 177s23 128 70 177
s108 74 183 74s135 -25 182 -74s71 -108 71 -177s-24 -128 -71 -177z" />
    <glyph glyph-name="uni043F" unicode="&#x43f;" horiz-adv-x="596" 
d="M135 0h-45v477h415v-477h-45v436h-325v-436z" />
    <glyph glyph-name="uni0440" unicode="&#x440;" horiz-adv-x="630" 
d="M332 489c72 0 130 -25 175 -74s68 -107 68 -176s-23 -128 -68 -177s-103 -74 -175 -74c-84 0 -150 32 -197 97v-285h-45v677h45v-84c47 64 112 96 197 96zM324 447c-83 0 -158 -49 -189 -118v-180c32 -69 108 -119 189 -119c59 0 107 20 146 60s59 90 59 149
s-20 109 -59 148c-39 40 -87 60 -146 60z" />
    <glyph glyph-name="uni0441" unicode="&#x441;" horiz-adv-x="524" 
d="M306 -12c-73 0 -133 24 -180 73s-71 108 -71 178c0 69 24 128 71 177s108 73 181 73c53 0 101 -12 144 -37v-44c-45 26 -91 39 -139 39c-60 0 -110 -20 -151 -60c-40 -40 -60 -90 -60 -149s20 -109 60 -149c41 -39 91 -59 151 -59c56 0 105 15 148 45v-45
c-42 -28 -93 -42 -154 -42z" />
    <glyph glyph-name="uni0442" unicode="&#x442;" horiz-adv-x="467" 
d="M256 0h-45v436h-182v41h409v-41h-182v-436z" />
    <glyph glyph-name="uni0443" unicode="&#x443;" horiz-adv-x="542" 
d="M101 -204c-29 0 -52 5 -68 15v43c20 -11 41 -16 63 -16c33 0 59 13 79 39c21 25 45 69 72 130l-221 470h51l193 -415l187 415h49l-241 -531c-44 -99 -92 -150 -164 -150z" />
    <glyph glyph-name="uni0444" unicode="&#x444;" horiz-adv-x="714" 
d="M379 -196h-45v187c-85 1 -153 23 -204 68c-50 45 -75 104 -75 179s25 135 75 179c50 45 118 68 204 69v214h45v-214c86 -1 154 -24 204 -69c51 -44 76 -104 76 -179c0 -74 -25 -134 -76 -179s-119 -67 -204 -68v-187zM379 445v-413c68 0 124 18 168 53
c45 35 67 86 67 153s-22 118 -67 153c-44 36 -100 54 -168 54zM334 32v413c-67 0 -123 -18 -168 -54c-45 -35 -67 -86 -67 -153s22 -118 67 -153s101 -53 168 -53z" />
    <glyph glyph-name="uni0445" unicode="&#x445;" horiz-adv-x="543" 
d="M91 0h-54l209 254l-182 223h56l154 -188l155 188h53l-181 -221l209 -256h-57l-181 221z" />
    <glyph glyph-name="uni0446" unicode="&#x446;" horiz-adv-x="626" 
d="M593 -149h-44v149h-459v477h45v-436h321v436h45v-436h92v-190z" />
    <glyph glyph-name="uni0447" unicode="&#x447;" horiz-adv-x="556" 
d="M465 0h-45v205c-52 -23 -107 -34 -166 -34c-127 0 -189 52 -189 184v122h45v-118c0 -108 45 -146 156 -146c55 0 106 12 154 36v228h45v-477z" />
    <glyph glyph-name="uni0448" unicode="&#x448;" horiz-adv-x="812" 
d="M721 0h-631v477h45v-436h248v436h45v-436h248v436h45v-477z" />
    <glyph glyph-name="uni0449" unicode="&#x449;" horiz-adv-x="847" 
d="M814 -149h-42v149h-682v477h45v-436h248v436h45v-436h248v436h45v-436h93v-190z" />
    <glyph glyph-name="uni044A" unicode="&#x44a;" horiz-adv-x="629" 
d="M401 0h-235v436h-150v41h195v-173h189c109 0 174 -59 174 -151s-62 -153 -173 -153zM211 263v-222h183c85 0 134 40 134 111s-49 111 -134 111h-183z" />
    <glyph glyph-name="uni044B" unicode="&#x44b;" horiz-adv-x="695" 
d="M604 0h-45v477h45v-477zM297 0h-207v477h45v-173h161c109 0 174 -59 174 -151s-62 -153 -173 -153zM135 263v-222h154c85 0 135 40 135 111s-50 111 -135 111h-154z" />
    <glyph glyph-name="uni044C" unicode="&#x44c;" horiz-adv-x="553" 
d="M325 0h-235v477h45v-173h188c109 0 175 -59 175 -151s-64 -153 -173 -153zM135 263v-222h182c85 0 135 42 135 111s-50 111 -135 111h-182z" />
    <glyph glyph-name="uni044D" unicode="&#x44d;" horiz-adv-x="522" 
d="M216 -12c-59 0 -110 14 -153 42v45c43 -30 92 -45 148 -45c57 0 106 18 145 54c40 36 62 81 65 136h-254v41h254c-5 54 -28 98 -67 133s-86 53 -143 53c-47 0 -93 -13 -138 -38v43c41 25 89 37 143 37c73 0 133 -24 180 -73s71 -108 71 -177c0 -70 -24 -129 -71 -178
s-107 -73 -180 -73z" />
    <glyph glyph-name="uni044E" unicode="&#x44e;" horiz-adv-x="790" 
d="M501 -12c-64 0 -118 22 -161 65c-43 44 -67 99 -72 166h-133v-219h-45v477h45v-217h134c4 66 28 121 71 164s97 65 161 65c68 0 124 -24 168 -72c44 -47 66 -107 66 -179c0 -71 -22 -131 -67 -179c-44 -47 -100 -71 -167 -71zM501 30c55 0 100 20 135 59
c36 40 54 90 54 149c0 60 -18 110 -54 149c-35 40 -80 60 -135 60s-101 -20 -137 -60c-35 -39 -53 -89 -53 -149c0 -59 18 -109 53 -149c36 -39 82 -59 137 -59z" />
    <glyph glyph-name="uni044F" unicode="&#x44f;" horiz-adv-x="567" 
d="M107 0h-54l151 195c-85 8 -133 61 -133 141c0 84 59 141 164 141h241v-477h-45v189h-179zM241 230h190v206h-190c-79 0 -124 -38 -124 -103c0 -64 45 -103 124 -103z" />
    <glyph glyph-name="uni0451" unicode="&#x451;" horiz-adv-x="567" 
d="M315 -12c-75 0 -137 23 -186 70s-74 107 -74 180c0 72 22 132 66 179c44 48 101 72 171 72c80 0 142 -35 173 -87c32 -51 47 -103 47 -155v-15h-412c1 -60 22 -109 63 -146s94 -56 158 -56c57 0 109 15 154 45v-44c-38 -29 -91 -43 -160 -43zM101 271h366
c0 69 -48 176 -176 176c-56 0 -101 -18 -135 -54c-33 -35 -52 -76 -55 -122zM360 595c-34 32 21 86 51 51c35 -30 -19 -85 -51 -51zM170 595c-34 32 21 86 51 51c35 -30 -19 -85 -51 -51z" />
    <glyph glyph-name="uni0452" unicode="&#x452;" horiz-adv-x="632" 
d="M299 586v-41h-136v-208c43 52 118 95 203 95c121 0 185 -72 185 -199v-233h-45v224c0 68 -21 116 -54 137c-32 21 -62 29 -99 29s-73 -11 -109 -34c-36 -22 -63 -48 -81 -77v-279h-45v545h-102v41h102v114h45v-114h136zM551 0v-67c0 -97 -53 -137 -126 -137
c-31 0 -57 6 -77 18v43c22 -13 45 -19 69 -19c59 0 89 34 89 103v59h45z" />
    <glyph glyph-name="uni0453" unicode="&#x453;" horiz-adv-x="481" 
d="M135 0h-45v477h349v-41h-304v-436zM263 577h-49l96 130h61z" />
    <glyph glyph-name="uni0454" unicode="&#x454;" horiz-adv-x="523" 
d="M306 -12c-73 0 -133 24 -180 73s-71 108 -71 178c0 69 24 128 71 177s107 73 180 73c54 0 102 -12 143 -37v-43c-45 25 -91 38 -138 38c-57 0 -105 -18 -144 -53s-61 -79 -66 -133h254v-41h-254c3 -55 25 -100 64 -136c40 -36 89 -54 146 -54c56 0 105 15 148 45v-45
c-43 -28 -94 -42 -153 -42z" />
    <glyph glyph-name="uni0455" unicode="&#x455;" horiz-adv-x="497" 
d="M243 -12c-80 0 -158 23 -197 51v49c57 -39 123 -58 196 -58c93 0 153 37 153 94c0 28 -15 48 -44 63s-55 21 -99 33l-20 5c-41 11 -65 17 -98 32c-43 22 -73 51 -73 103c0 79 67 129 184 129c70 0 127 -15 172 -44v-46c-53 32 -109 48 -169 48c-93 0 -141 -35 -141 -87
c0 -24 14 -44 29 -56c7 -5 19 -11 34 -17c31 -12 42 -15 82 -24l56 -14c12 -3 28 -9 49 -17s36 -16 45 -25c20 -17 39 -47 39 -84c0 -41 -19 -74 -57 -99c-37 -24 -84 -36 -141 -36z" />
    <glyph glyph-name="uni0456" unicode="&#x456;" horiz-adv-x="249" 
d="M149 0h-45v477h45v-477zM153 619c-33 -36 -90 21 -54 54c33 36 90 -21 54 -54z" />
    <glyph glyph-name="uni0457" unicode="&#x457;" horiz-adv-x="252" 
d="M195 619c-34 32 21 86 51 51c35 -30 -19 -85 -51 -51zM5 619c-34 32 21 86 51 51c35 -30 -19 -85 -51 -51zM149 0h-45v477h45v-477z" />
    <glyph glyph-name="uni0458" unicode="&#x458;" horiz-adv-x="253" 
d="M23 -204c-31 0 -57 6 -77 18v43c22 -13 45 -19 69 -19c59 0 89 34 89 103v536h45v-544c0 -97 -53 -137 -126 -137zM153 619c-33 -36 -90 21 -54 54c33 36 90 -21 54 -54z" />
    <glyph glyph-name="uni0459" unicode="&#x459;" horiz-adv-x="900" 
d="M672 0h-226v436h-242l-3 -101c-1 -49 -4 -90 -8 -123s-11 -67 -22 -103c-21 -72 -66 -110 -133 -110c-7 0 -13 0 -18 1v42c5 -1 12 -1 20 -1c45 0 77 33 92 93c16 60 21 113 24 190l4 153h331v-173h179c109 0 175 -59 175 -151s-64 -153 -173 -153zM491 263v-222h173
c85 0 135 42 135 111s-50 111 -135 111h-173z" />
    <glyph glyph-name="uni045A" unicode="&#x45a;" horiz-adv-x="894" 
d="M676 0h-220v244h-320v-244h-46v477h46v-192h320v192h45v-192h173c103 0 165 -54 165 -141s-60 -144 -163 -144zM501 244v-203h168c77 0 124 38 124 102s-45 101 -124 101h-168z" />
    <glyph glyph-name="uni045B" unicode="&#x45b;" horiz-adv-x="632" 
d="M163 279v-279h-45v545h-102v41h102v114h45v-114h136v-41h-136v-208c43 52 118 95 203 95c121 0 185 -72 185 -199v-233h-45v224c0 68 -21 116 -54 137c-32 21 -62 29 -99 29s-73 -11 -109 -34c-36 -22 -63 -48 -81 -77z" />
    <glyph glyph-name="uni045C" unicode="&#x45c;" horiz-adv-x="516" 
d="M135 0h-45v477h45v-201l251 201h66l-269 -216l305 -261h-68l-285 244v-244zM271 577h-49l96 130h61z" />
    <glyph glyph-name="uni045E" unicode="&#x45e;" horiz-adv-x="542" 
d="M101 -204c-29 0 -52 5 -68 15v43c20 -11 41 -16 63 -16c33 0 59 13 79 39c21 25 45 69 72 130l-221 470h51l193 -415l187 415h49l-241 -531c-44 -99 -92 -150 -164 -150zM271 558c-93 0 -155 58 -155 142h41c0 -60 45 -104 114 -104c67 0 112 44 112 104h41
c0 -41 -15 -75 -44 -102s-66 -40 -109 -40z" />
    <glyph glyph-name="uni045F" unicode="&#x45f;" horiz-adv-x="592" 
d="M318 -149h-45v149h-183v477h45v-436h321v436h45v-477h-183v-149z" />
    <glyph glyph-name="uni0490" unicode="&#x490;" horiz-adv-x="590" 
d="M151 0h-46v700h405v148h43v-191h-402v-657z" />
    <glyph glyph-name="uni0491" unicode="&#x491;" horiz-adv-x="481" 
d="M135 0h-45v477h306v134h43v-175h-304v-436z" />
    <glyph glyph-name="uni1E02" unicode="&#x1e02;" horiz-adv-x="719" 
d="M433 0h-328v700h294c123 0 196 -64 196 -169c0 -77 -32 -127 -97 -150c100 -15 160 -86 160 -187c0 -117 -84 -194 -225 -194zM151 353v-310h275c116 0 182 56 182 155s-66 155 -182 155h-275zM151 657v-264h242c100 0 157 48 157 132s-57 132 -157 132h-242zM314 798
c-36 33 21 90 54 54c36 -33 -21 -90 -54 -54z" />
    <glyph glyph-name="uni1E03" unicode="&#x1e03;" horiz-adv-x="630" 
d="M332 -12c-85 0 -150 32 -197 96v-84h-45v700h45v-308c47 65 113 97 197 97c72 0 130 -25 175 -74s68 -108 68 -177s-23 -128 -68 -177s-103 -73 -175 -73zM324 30c59 0 107 20 146 59c39 40 59 90 59 149s-20 109 -59 149s-87 60 -146 60c-81 0 -157 -50 -189 -119v-180
c31 -69 106 -118 189 -118zM294 798c-36 33 21 90 54 54c36 -33 -21 -90 -54 -54z" />
    <glyph glyph-name="uni1E0A" unicode="&#x1e0a;" horiz-adv-x="774" 
d="M322 0h-217v700h217c113 0 204 -32 273 -97s104 -149 104 -253s-35 -188 -104 -253s-160 -97 -273 -97zM151 657v-614h163c104 0 186 28 247 84s91 130 91 223s-30 167 -91 223s-143 84 -247 84h-163zM308 798c-36 33 21 90 54 54c36 -33 -21 -90 -54 -54z" />
    <glyph glyph-name="uni1E0B" unicode="&#x1e0b;" horiz-adv-x="631" 
d="M298 -12c-72 0 -131 24 -176 73s-67 108 -67 177s22 128 67 177s104 74 176 74c84 0 150 -32 197 -97v308h45v-700h-45v84c-47 -64 -112 -96 -197 -96zM306 30c83 0 158 49 189 118v180c-32 69 -108 119 -189 119c-59 0 -108 -20 -147 -60s-58 -90 -58 -149
s19 -109 58 -149c39 -39 88 -59 147 -59zM283 798c-36 33 21 90 54 54c36 -33 -21 -90 -54 -54z" />
    <glyph glyph-name="uni1E1E" unicode="&#x1e1e;" horiz-adv-x="617" 
d="M151 0h-46v700h463v-43h-417v-268h346v-43h-346v-346zM309 798c-36 33 21 90 54 54c36 -33 -21 -90 -54 -54z" />
    <glyph glyph-name="uni1E1F" unicode="&#x1e1f;" horiz-adv-x="374" 
d="M127 0v436h-99v41h99v95c0 84 45 135 126 135c35 0 66 -7 93 -20v-43c-29 14 -57 21 -84 21c-57 0 -90 -38 -90 -103v-85h174v-41h-174v-436h-45zM211 798c-36 33 21 90 54 54c36 -33 -21 -90 -54 -54z" />
    <glyph glyph-name="uni1E40" unicode="&#x1e40;" horiz-adv-x="847" 
d="M151 0h-46v700h47l272 -357l272 357h45v-700h-46v629l-256 -336h-30l-258 336v-629zM396 798c-36 33 21 90 54 54c36 -33 -21 -90 -54 -54z" />
    <glyph glyph-name="uni1E41" unicode="&#x1e41;" horiz-adv-x="913" 
d="M135 0h-45v477h45v-79c35 52 101 91 181 91c81 0 133 -34 155 -102c37 59 107 102 192 102c108 0 169 -68 169 -191v-298h-45v289c0 67 -19 113 -50 132c-31 20 -54 26 -85 26c-35 0 -68 -11 -100 -33c-31 -22 -55 -49 -70 -80c1 -24 2 -41 2 -50v-284h-45v290
c0 105 -45 157 -134 157c-33 0 -66 -10 -98 -31c-31 -21 -55 -46 -72 -77v-339zM435 619c-36 33 21 90 54 54c36 -33 -21 -90 -54 -54z" />
    <glyph glyph-name="uni1E56" unicode="&#x1e56;" horiz-adv-x="665" 
d="M151 0h-46v700h291c136 0 216 -75 216 -188s-80 -189 -216 -189h-245v-323zM151 657v-291h241c111 0 174 53 174 146c0 92 -63 145 -174 145h-241zM305 798c-36 33 21 90 54 54c36 -33 -21 -90 -54 -54z" />
    <glyph glyph-name="uni1E57" unicode="&#x1e57;" horiz-adv-x="630" 
d="M332 489c72 0 130 -25 175 -74s68 -107 68 -176s-23 -128 -68 -177s-103 -74 -175 -74c-84 0 -150 32 -197 97v-285h-45v677h45v-84c47 64 112 96 197 96zM324 447c-83 0 -158 -49 -189 -118v-180c32 -69 108 -119 189 -119c59 0 107 20 146 60s59 90 59 149
s-20 109 -59 148c-39 40 -87 60 -146 60zM297 619c-36 33 21 90 54 54c36 -33 -21 -90 -54 -54z" />
    <glyph glyph-name="uni1E60" unicode="&#x1e60;" horiz-adv-x="623" 
d="M304 -12c-104 0 -204 34 -256 75v53c27 -23 62 -42 107 -59s94 -25 145 -25c61 0 110 14 149 41s59 64 59 110c0 40 -19 73 -40 93c-11 10 -27 20 -48 29c-21 10 -40 17 -56 22c-15 5 -37 11 -66 19l-75 22c-18 7 -38 15 -61 26c-62 32 -88 70 -92 145c0 49 20 90 61 123
s98 50 171 50c81 0 152 -20 212 -59v-49c-64 43 -134 64 -210 64c-124 0 -188 -58 -188 -130c-4 -45 28 -77 56 -98c9 -6 22 -12 39 -19c18 -7 32 -12 43 -15l48 -14l21 -6l68 -21c17 -5 37 -14 61 -26c24 -11 42 -23 55 -36c25 -25 48 -68 48 -120c0 -61 -24 -109 -73 -144
c-49 -34 -108 -51 -178 -51zM266 798c-36 33 21 90 54 54c36 -33 -21 -90 -54 -54z" />
    <glyph glyph-name="uni1E61" unicode="&#x1e61;" horiz-adv-x="500" 
d="M244 -12c-80 0 -158 23 -197 51v49c57 -39 123 -58 196 -58c93 0 153 37 153 94c0 28 -15 48 -44 63s-55 21 -99 33l-20 5c-41 11 -65 17 -98 32c-43 22 -73 51 -73 103c0 79 67 129 184 129c70 0 127 -15 172 -44v-46c-53 32 -109 48 -169 48c-93 0 -141 -35 -141 -87
c0 -24 14 -44 29 -56c7 -5 19 -11 34 -17c31 -12 42 -15 82 -24l56 -14c12 -3 28 -9 49 -17s36 -16 45 -25c20 -17 39 -47 39 -84c0 -41 -19 -74 -57 -99c-37 -24 -84 -36 -141 -36zM216 619c-36 33 21 90 54 54c36 -33 -21 -90 -54 -54z" />
    <glyph glyph-name="uni1E6A" unicode="&#x1e6a;" horiz-adv-x="620" 
d="M333 0h-46v657h-251v43h548v-43h-251v-657zM283 798c-36 33 21 90 54 54c36 -33 -21 -90 -54 -54z" />
    <glyph glyph-name="uni1E6B" unicode="&#x1e6b;" horiz-adv-x="422" 
d="M274 -12c-83 0 -124 52 -124 137v311h-122v41h122v154h45v-154h178v-41h-178v-299c0 -77 27 -107 90 -107c28 0 55 7 81 22v-42c-21 -15 -51 -22 -92 -22zM146 702c-36 33 21 90 54 54c36 -33 -21 -90 -54 -54z" />
    <glyph glyph-name="Wgrave" unicode="&#x1e80;" horiz-adv-x="1041" 
d="M329 -4h-40l-244 704h52l214 -627l190 629h39l191 -629l214 627h51l-244 -704h-42l-189 622zM544 763h-49l-109 130h62z" />
    <glyph glyph-name="wgrave" unicode="&#x1e81;" horiz-adv-x="816" 
d="M259 -4h-40l-175 481h47l150 -411l146 413h39l147 -413l149 411h46l-175 -481h-39l-149 413zM435 577h-49l-109 130h62z" />
    <glyph glyph-name="Wacute" unicode="&#x1e82;" horiz-adv-x="1041" 
d="M329 -4h-40l-244 704h52l214 -627l190 629h39l191 -629l214 627h51l-244 -704h-42l-189 622zM541 763h-49l96 130h61z" />
    <glyph glyph-name="wacute" unicode="&#x1e83;" horiz-adv-x="816" 
d="M259 -4h-40l-175 481h47l150 -411l146 413h39l147 -413l149 411h46l-175 -481h-39l-149 413zM428 577h-49l96 130h61z" />
    <glyph glyph-name="Wdieresis" unicode="&#x1e84;" horiz-adv-x="1041" 
d="M329 -4h-40l-244 704h52l214 -627l190 629h39l191 -629l214 627h51l-244 -704h-42l-189 622zM589 799c-34 32 21 86 51 51c35 -30 -19 -85 -51 -51zM399 799c-34 32 21 86 51 51c35 -30 -19 -85 -51 -51z" />
    <glyph glyph-name="wdieresis" unicode="&#x1e85;" horiz-adv-x="816" 
d="M259 -4h-40l-175 481h47l150 -411l146 413h39l147 -413l149 411h46l-175 -481h-39l-149 413zM475 619c-34 32 21 86 51 51c35 -30 -19 -85 -51 -51zM285 619c-34 32 21 86 51 51c35 -30 -19 -85 -51 -51z" />
    <glyph glyph-name="Ygrave" unicode="&#x1ef2;" horiz-adv-x="646" 
d="M345 0h-46v324l-273 376h56l241 -332l242 332h53l-273 -375v-325zM362 763h-49l-109 130h62z" />
    <glyph glyph-name="ygrave" unicode="&#x1ef3;" horiz-adv-x="542" 
d="M101 -204c-29 0 -52 5 -68 15v43c20 -11 41 -16 63 -16c33 0 59 13 79 39c21 25 45 69 72 130l-221 470h51l193 -415l187 415h49l-241 -531c-44 -99 -92 -150 -164 -150zM317 577h-49l-109 130h62z" />
    <glyph glyph-name="endash" unicode="&#x2013;" horiz-adv-x="717" 
d="M614 249h-511v41h511v-41z" />
    <glyph glyph-name="emdash" unicode="&#x2014;" horiz-adv-x="904" 
d="M801 249h-698v41h698v-41z" />
    <glyph glyph-name="uni2015" unicode="&#x2015;" horiz-adv-x="717" 
d="M614 249h-511v41h511v-41z" />
    <glyph glyph-name="quoteleft" unicode="&#x2018;" horiz-adv-x="177" 
d="M112 700h39l-76 -239h-56z" />
    <glyph glyph-name="quoteright" unicode="&#x2019;" horiz-adv-x="177" 
d="M63 463h-39l76 239h56z" />
    <glyph glyph-name="quotesinglbase" unicode="&#x201a;" horiz-adv-x="222" 
d="M62 -152h-39l76 239h56z" />
    <glyph glyph-name="quotedblleft" unicode="&#x201c;" horiz-adv-x="304" 
d="M239 700h39l-76 -239h-56zM112 700h39l-76 -239h-56z" />
    <glyph glyph-name="quotedblright" unicode="&#x201d;" horiz-adv-x="304" 
d="M190 463h-39l76 239h56zM63 463h-39l76 239h56z" />
    <glyph glyph-name="quotedblbase" unicode="&#x201e;" horiz-adv-x="349" 
d="M189 -152h-39l76 239h56zM62 -152h-39l76 239h56z" />
    <glyph glyph-name="dagger" unicode="&#x2020;" horiz-adv-x="528" 
d="M286 0h-45v436h-183v41h183v223h45v-223h184v-41h-184v-436z" />
    <glyph glyph-name="daggerdbl" unicode="&#x2021;" horiz-adv-x="528" 
d="M286 0h-45v223h-183v41h183v172h-183v41h183v223h45v-223h184v-41h-184v-172h184v-41h-184v-223z" />
    <glyph glyph-name="bullet" unicode="&#x2022;" horiz-adv-x="405" 
d="M202 282c-53 0 -98 44 -98 97s45 98 98 98c55 0 99 -43 99 -98c0 -53 -44 -97 -99 -97z" />
    <glyph glyph-name="ellipsis" unicode="&#x2026;" horiz-adv-x="631" 
d="M84 8c-36 33 21 90 54 54c36 -33 -21 -90 -54 -54zM288 8c-36 33 21 90 54 54c36 -33 -21 -90 -54 -54zM493 8c-36 33 21 90 54 54c36 -33 -21 -90 -54 -54z" />
    <glyph glyph-name="perthousand" unicode="&#x2030;" horiz-adv-x="1204" 
d="M219 416c71 0 122 56 122 129s-51 129 -122 129c-72 0 -123 -56 -123 -129s51 -129 123 -129zM219 378c-47 0 -87 16 -118 48c-31 33 -46 72 -46 119s15 86 46 118c31 33 71 49 118 49s85 -16 116 -49c31 -32 47 -71 47 -118s-16 -86 -47 -119c-31 -32 -69 -48 -116 -48z
M232 0h-48l407 700h48zM604 26c71 0 122 56 122 129s-51 129 -122 129c-72 0 -123 -56 -123 -129s51 -129 123 -129zM604 -12c-47 0 -87 16 -118 48c-31 33 -46 72 -46 119s15 86 46 118c31 33 71 49 118 49s85 -16 116 -49c31 -32 47 -71 47 -118s-16 -86 -47 -119
c-31 -32 -69 -48 -116 -48zM986 26c71 0 122 56 122 129s-51 129 -122 129c-72 0 -123 -56 -123 -129s51 -129 123 -129zM986 -12c-47 0 -87 16 -118 48c-31 33 -46 72 -46 119s15 86 46 118c31 33 71 49 118 49s85 -16 116 -49c31 -32 47 -71 47 -118s-16 -86 -47 -119
c-31 -32 -69 -48 -116 -48z" />
    <glyph glyph-name="guilsinglleft" unicode="&#x2039;" horiz-adv-x="312" 
d="M262 42h-54l-156 184v26l156 183h54l-167 -197z" />
    <glyph glyph-name="guilsinglright" unicode="&#x203a;" horiz-adv-x="313" 
d="M261 252v-26l-156 -184h-54l167 196l-167 197h54z" />
    <glyph glyph-name="fraction" unicode="&#x2044;" horiz-adv-x="166" 
d="M-89 0h-48l407 700h48z" />
    <glyph glyph-name="zerosuperior" unicode="&#x2070;" horiz-adv-x="390" 
d="M38 511c0 55 15 101 44 138s67 56 113 56s84 -19 113 -56s44 -83 44 -138s-15 -102 -44 -139s-67 -55 -113 -55s-84 18 -113 55s-44 84 -44 139zM195 355c65 0 114 67 114 156s-49 156 -114 156c-33 0 -61 -15 -82 -45c-21 -29 -32 -66 -32 -111s11 -82 32 -112
c21 -29 49 -44 82 -44z" />
    <glyph glyph-name="foursuperior" unicode="&#x2074;" horiz-adv-x="352" 
d="M267 322h-42v103h-202v32l204 243h40v-239h62v-36h-62v-103zM225 643l-152 -182h152v182z" />
    <glyph glyph-name="fivesuperior" unicode="&#x2075;" horiz-adv-x="336" 
d="M145 317c-40 0 -76 9 -107 26v41c33 -19 68 -29 105 -29c63 0 109 37 109 88c0 48 -41 84 -105 84c-33 0 -65 -5 -94 -15l25 188h192v-37h-160l-13 -107c14 4 33 6 58 6c80 0 140 -48 140 -119c0 -37 -15 -67 -44 -91c-29 -23 -64 -35 -106 -35z" />
    <glyph glyph-name="sixsuperior" unicode="&#x2076;" horiz-adv-x="354" 
d="M186 317c-93 0 -145 72 -145 177c0 61 15 111 44 151c30 40 70 60 121 60c33 0 61 -7 84 -22v-40c-23 16 -50 24 -79 24c-75 0 -128 -62 -129 -155c26 35 63 53 111 53c69 0 123 -49 123 -121c0 -73 -57 -127 -130 -127zM184 354c52 0 90 38 90 90c0 51 -39 86 -90 86
c-43 0 -79 -26 -99 -65c3 -65 40 -111 99 -111z" />
    <glyph glyph-name="sevensuperior" unicode="&#x2077;" horiz-adv-x="311" 
d="M105 322h-47l175 341h-203v37h251v-33z" />
    <glyph glyph-name="eightsuperior" unicode="&#x2078;" horiz-adv-x="361" 
d="M34 426c0 47 26 79 77 98c-38 15 -57 43 -57 82c0 59 54 99 126 99c73 0 127 -40 127 -99c0 -39 -19 -67 -57 -82c51 -19 77 -51 77 -98c0 -67 -63 -109 -147 -109s-146 42 -146 109zM284 429c0 47 -43 76 -104 76s-103 -29 -103 -76c0 -44 43 -76 103 -76s104 32 104 76
zM180 538c51 0 87 25 87 64c0 41 -36 67 -87 67s-86 -26 -86 -67c0 -39 37 -64 86 -64z" />
    <glyph glyph-name="ninesuperior" unicode="&#x2079;" horiz-adv-x="354" 
d="M171 705c93 0 145 -72 145 -177c0 -61 -15 -111 -45 -151s-70 -60 -121 -60c-33 0 -60 7 -83 22v40c23 -16 50 -24 79 -24c75 0 127 62 128 155c-25 -35 -62 -53 -110 -53c-69 0 -123 49 -123 121c0 73 55 127 130 127zM173 668c-52 0 -90 -37 -90 -90
c0 -51 39 -86 90 -86c43 0 79 26 99 65c-4 65 -40 111 -99 111z" />
    <glyph glyph-name="zeroinferior" unicode="&#x2080;" horiz-adv-x="390" 
d="M38 189c0 55 15 101 44 138s67 56 113 56s84 -19 113 -56s44 -83 44 -138s-15 -102 -44 -139s-67 -55 -113 -55s-84 18 -113 55s-44 84 -44 139zM195 33c65 0 114 67 114 156s-49 156 -114 156c-33 0 -61 -15 -82 -45c-21 -29 -32 -66 -32 -111s11 -82 32 -112
c21 -29 49 -44 82 -44z" />
    <glyph glyph-name="oneinferior" unicode="&#x2081;" horiz-adv-x="234" 
d="M172 0h-43v333l-104 -63v43l107 65h40v-378z" />
    <glyph glyph-name="twoinferior" unicode="&#x2082;" horiz-adv-x="357" 
d="M306 0h-260v32l128 120c53 49 75 79 75 119c0 43 -33 72 -84 72c-41 0 -78 -16 -111 -47v45c32 28 70 42 115 42c71 0 123 -44 123 -107c0 -51 -25 -89 -84 -144l-99 -95h197v-37z" />
    <glyph glyph-name="threeinferior" unicode="&#x2083;" horiz-adv-x="322" 
d="M138 -5c-45 0 -82 10 -112 29v40c33 -21 70 -31 110 -31c56 0 105 35 105 87c0 51 -40 83 -101 83c-16 0 -31 -2 -44 -6v29l116 115h-170v37h228v-31l-114 -112c69 -4 127 -42 127 -115c0 -37 -14 -67 -42 -90c-27 -23 -62 -35 -103 -35z" />
    <glyph glyph-name="fourinferior" unicode="&#x2084;" horiz-adv-x="352" 
d="M267 0h-42v103h-202v32l204 243h40v-239h62v-36h-62v-103zM225 321l-152 -182h152v182z" />
    <glyph glyph-name="fiveinferior" unicode="&#x2085;" horiz-adv-x="336" 
d="M145 -5c-40 0 -76 9 -107 26v41c33 -19 68 -29 105 -29c63 0 109 37 109 88c0 48 -41 84 -105 84c-33 0 -65 -5 -94 -15l25 188h192v-37h-160l-13 -107c14 4 33 6 58 6c80 0 140 -48 140 -119c0 -37 -15 -67 -44 -91c-29 -23 -64 -35 -106 -35z" />
    <glyph glyph-name="sixinferior" unicode="&#x2086;" horiz-adv-x="354" 
d="M186 -5c-93 0 -145 72 -145 177c0 61 15 111 44 151c30 40 70 60 121 60c33 0 61 -7 84 -22v-40c-23 16 -50 24 -79 24c-75 0 -128 -62 -129 -155c26 35 63 53 111 53c69 0 123 -49 123 -121c0 -73 -57 -127 -130 -127zM184 32c52 0 90 38 90 90c0 51 -39 86 -90 86
c-43 0 -79 -26 -99 -65c3 -65 40 -111 99 -111z" />
    <glyph glyph-name="seveninferior" unicode="&#x2087;" horiz-adv-x="311" 
d="M105 0h-47l175 341h-203v37h251v-33z" />
    <glyph glyph-name="eightinferior" unicode="&#x2088;" horiz-adv-x="361" 
d="M34 104c0 47 26 79 77 98c-38 15 -57 43 -57 82c0 59 54 99 126 99c73 0 127 -40 127 -99c0 -39 -19 -67 -57 -82c51 -19 77 -51 77 -98c0 -67 -63 -109 -147 -109s-146 42 -146 109zM284 107c0 47 -43 76 -104 76s-103 -29 -103 -76c0 -44 43 -76 103 -76s104 32 104 76
zM180 216c51 0 87 25 87 64c0 41 -36 67 -87 67s-86 -26 -86 -67c0 -39 37 -64 86 -64z" />
    <glyph glyph-name="nineinferior" unicode="&#x2089;" horiz-adv-x="354" 
d="M171 383c93 0 145 -72 145 -177c0 -61 -15 -111 -45 -151s-70 -60 -121 -60c-33 0 -60 7 -83 22v40c23 -16 50 -24 79 -24c75 0 127 62 128 155c-25 -35 -62 -53 -110 -53c-69 0 -123 49 -123 121c0 73 55 127 130 127zM173 346c-52 0 -90 -37 -90 -90
c0 -51 39 -86 90 -86c43 0 79 26 99 65c-4 65 -40 111 -99 111z" />
    <glyph glyph-name="franc" unicode="&#x20a3;" horiz-adv-x="626" 
d="M160 0h-46v165h-119v43h119v492h463v-43h-417v-268h346v-43h-346v-138h183v-43h-183v-165z" />
    <glyph glyph-name="lira" unicode="&#x20a4;" horiz-adv-x="580" 
d="M522 0h-456v43h24c30 0 45 26 45 77v103h-69v43h69v114h-69v43h69v68c0 140 83 221 220 221c63 0 118 -15 163 -46v-48c-43 33 -96 50 -159 50c-115 0 -178 -64 -178 -183v-62h284v-43h-284v-114h284v-43h-284v-128c0 -24 -7 -41 -22 -52h363v-43z" />
    <glyph glyph-name="peseta" unicode="&#x20a7;" horiz-adv-x="703" 
d="M155 0h-46v489h-87v43h87v168h291c128 0 206 -65 215 -168h79v-43h-80c-11 -101 -87 -166 -214 -166h-245v-323zM155 657v-291h241c111 0 174 53 174 146c0 92 -63 145 -174 145h-241z" />
    <glyph glyph-name="Euro" unicode="&#x20ac;" horiz-adv-x="692" 
d="M448 -12c-81 0 -150 25 -206 74c-55 50 -90 117 -103 201h-93v43h88c-1 11 -2 27 -2 49c0 25 1 46 4 65h-90v43h98c17 75 53 136 107 181s120 68 197 68c69 0 129 -17 178 -52v-49c-51 38 -110 57 -175 57c-128 0 -226 -78 -259 -205h276v-43h-284c-4 -21 -6 -43 -6 -65
c0 -13 1 -29 2 -49h288v-43h-281c25 -143 124 -231 264 -231c77 0 140 24 191 71v-51c-51 -43 -116 -64 -194 -64z" />
    <glyph glyph-name="uni20B4" unicode="&#x20b4;" horiz-adv-x="607" 
d="M323 -12c-140 0 -218 57 -218 149c0 53 23 96 70 131h-109v43h473v-43h-296c-61 -34 -91 -75 -91 -124c0 -72 60 -112 175 -112c64 0 121 13 172 38v-46c-48 -24 -107 -36 -176 -36zM539 407h-473v43h325c47 29 71 66 71 110c0 72 -56 108 -169 108
c-59 0 -114 -12 -165 -36v46c47 23 103 34 168 34c139 0 214 -59 214 -148c0 -45 -19 -83 -57 -114h86v-43z" />
    <glyph glyph-name="uni20B6" unicode="&#x20b6;" horiz-adv-x="664" 
d="M164 0h-46v165h-94v43h94v115h-94v43h94v334h291c136 0 216 -75 216 -188s-80 -189 -216 -189h-245v-115h307v-43h-307v-165zM164 657v-291h241c111 0 174 53 174 146c0 92 -63 145 -174 145h-241z" />
    <glyph glyph-name="uni20B6" unicode="&#x20cf;" horiz-adv-x="664" 
d="M164 0h-46v165h-94v43h94v115h-94v43h94v334h291c136 0 216 -75 216 -188s-80 -189 -216 -189h-245v-115h307v-43h-307v-165zM164 657v-291h241c111 0 174 53 174 146c0 92 -63 145 -174 145h-241z" />
    <glyph glyph-name="uni20B6" unicode="&#x20ce;" horiz-adv-x="664" 
d="M164 0h-46v165h-94v43h94v115h-94v43h94v334h291c136 0 216 -75 216 -188s-80 -189 -216 -189h-245v-115h307v-43h-307v-165zM164 657v-291h241c111 0 174 53 174 146c0 92 -63 145 -174 145h-241z" />
    <glyph glyph-name="uni20B6" unicode="&#x20cd;" horiz-adv-x="664" 
d="M164 0h-46v165h-94v43h94v115h-94v43h94v334h291c136 0 216 -75 216 -188s-80 -189 -216 -189h-245v-115h307v-43h-307v-165zM164 657v-291h241c111 0 174 53 174 146c0 92 -63 145 -174 145h-241z" />
    <glyph glyph-name="uni20B6" unicode="&#x20cc;" horiz-adv-x="664" 
d="M164 0h-46v165h-94v43h94v115h-94v43h94v334h291c136 0 216 -75 216 -188s-80 -189 -216 -189h-245v-115h307v-43h-307v-165zM164 657v-291h241c111 0 174 53 174 146c0 92 -63 145 -174 145h-241z" />
    <glyph glyph-name="uni20B6" unicode="&#x20cb;" horiz-adv-x="664" 
d="M164 0h-46v165h-94v43h94v115h-94v43h94v334h291c136 0 216 -75 216 -188s-80 -189 -216 -189h-245v-115h307v-43h-307v-165zM164 657v-291h241c111 0 174 53 174 146c0 92 -63 145 -174 145h-241z" />
    <glyph glyph-name="uni20B6" unicode="&#x20ca;" horiz-adv-x="664" 
d="M164 0h-46v165h-94v43h94v115h-94v43h94v334h291c136 0 216 -75 216 -188s-80 -189 -216 -189h-245v-115h307v-43h-307v-165zM164 657v-291h241c111 0 174 53 174 146c0 92 -63 145 -174 145h-241z" />
    <glyph glyph-name="uni20B6" unicode="&#x20c9;" horiz-adv-x="664" 
d="M164 0h-46v165h-94v43h94v115h-94v43h94v334h291c136 0 216 -75 216 -188s-80 -189 -216 -189h-245v-115h307v-43h-307v-165zM164 657v-291h241c111 0 174 53 174 146c0 92 -63 145 -174 145h-241z" />
    <glyph glyph-name="uni20B6" unicode="&#x20c8;" horiz-adv-x="664" 
d="M164 0h-46v165h-94v43h94v115h-94v43h94v334h291c136 0 216 -75 216 -188s-80 -189 -216 -189h-245v-115h307v-43h-307v-165zM164 657v-291h241c111 0 174 53 174 146c0 92 -63 145 -174 145h-241z" />
    <glyph glyph-name="uni20B6" unicode="&#x20c7;" horiz-adv-x="664" 
d="M164 0h-46v165h-94v43h94v115h-94v43h94v334h291c136 0 216 -75 216 -188s-80 -189 -216 -189h-245v-115h307v-43h-307v-165zM164 657v-291h241c111 0 174 53 174 146c0 92 -63 145 -174 145h-241z" />
    <glyph glyph-name="uni20B6" unicode="&#x20c6;" horiz-adv-x="664" 
d="M164 0h-46v165h-94v43h94v115h-94v43h94v334h291c136 0 216 -75 216 -188s-80 -189 -216 -189h-245v-115h307v-43h-307v-165zM164 657v-291h241c111 0 174 53 174 146c0 92 -63 145 -174 145h-241z" />
    <glyph glyph-name="uni20B6" unicode="&#x20c5;" horiz-adv-x="664" 
d="M164 0h-46v165h-94v43h94v115h-94v43h94v334h291c136 0 216 -75 216 -188s-80 -189 -216 -189h-245v-115h307v-43h-307v-165zM164 657v-291h241c111 0 174 53 174 146c0 92 -63 145 -174 145h-241z" />
    <glyph glyph-name="uni20B6" unicode="&#x20c4;" horiz-adv-x="664" 
d="M164 0h-46v165h-94v43h94v115h-94v43h94v334h291c136 0 216 -75 216 -188s-80 -189 -216 -189h-245v-115h307v-43h-307v-165zM164 657v-291h241c111 0 174 53 174 146c0 92 -63 145 -174 145h-241z" />
    <glyph glyph-name="uni20B6" unicode="&#x20c3;" horiz-adv-x="664" 
d="M164 0h-46v165h-94v43h94v115h-94v43h94v334h291c136 0 216 -75 216 -188s-80 -189 -216 -189h-245v-115h307v-43h-307v-165zM164 657v-291h241c111 0 174 53 174 146c0 92 -63 145 -174 145h-241z" />
    <glyph glyph-name="uni20B6" unicode="&#x20c2;" horiz-adv-x="664" 
d="M164 0h-46v165h-94v43h94v115h-94v43h94v334h291c136 0 216 -75 216 -188s-80 -189 -216 -189h-245v-115h307v-43h-307v-165zM164 657v-291h241c111 0 174 53 174 146c0 92 -63 145 -174 145h-241z" />
    <glyph glyph-name="uni20B6" unicode="&#x20c1;" horiz-adv-x="664" 
d="M164 0h-46v165h-94v43h94v115h-94v43h94v334h291c136 0 216 -75 216 -188s-80 -189 -216 -189h-245v-115h307v-43h-307v-165zM164 657v-291h241c111 0 174 53 174 146c0 92 -63 145 -174 145h-241z" />
    <glyph glyph-name="uni20B6" unicode="&#x20c0;" horiz-adv-x="664" 
d="M164 0h-46v165h-94v43h94v115h-94v43h94v334h291c136 0 216 -75 216 -188s-80 -189 -216 -189h-245v-115h307v-43h-307v-165zM164 657v-291h241c111 0 174 53 174 146c0 92 -63 145 -174 145h-241z" />
    <glyph glyph-name="uni20B6" unicode="&#x20bf;" horiz-adv-x="664" 
d="M164 0h-46v165h-94v43h94v115h-94v43h94v334h291c136 0 216 -75 216 -188s-80 -189 -216 -189h-245v-115h307v-43h-307v-165zM164 657v-291h241c111 0 174 53 174 146c0 92 -63 145 -174 145h-241z" />
    <glyph glyph-name="uni20B6" unicode="&#x20be;" horiz-adv-x="664" 
d="M164 0h-46v165h-94v43h94v115h-94v43h94v334h291c136 0 216 -75 216 -188s-80 -189 -216 -189h-245v-115h307v-43h-307v-165zM164 657v-291h241c111 0 174 53 174 146c0 92 -63 145 -174 145h-241z" />
    <glyph glyph-name="uni20B6" unicode="&#x20bd;" horiz-adv-x="664" 
d="M164 0h-46v165h-94v43h94v115h-94v43h94v334h291c136 0 216 -75 216 -188s-80 -189 -216 -189h-245v-115h307v-43h-307v-165zM164 657v-291h241c111 0 174 53 174 146c0 92 -63 145 -174 145h-241z" />
    <glyph glyph-name="uni20B6" unicode="&#x20bc;" horiz-adv-x="664" 
d="M164 0h-46v165h-94v43h94v115h-94v43h94v334h291c136 0 216 -75 216 -188s-80 -189 -216 -189h-245v-115h307v-43h-307v-165zM164 657v-291h241c111 0 174 53 174 146c0 92 -63 145 -174 145h-241z" />
    <glyph glyph-name="uni20B6" unicode="&#x20bb;" horiz-adv-x="664" 
d="M164 0h-46v165h-94v43h94v115h-94v43h94v334h291c136 0 216 -75 216 -188s-80 -189 -216 -189h-245v-115h307v-43h-307v-165zM164 657v-291h241c111 0 174 53 174 146c0 92 -63 145 -174 145h-241z" />
    <glyph glyph-name="uni20B6" unicode="&#x20ba;" horiz-adv-x="664" 
d="M164 0h-46v165h-94v43h94v115h-94v43h94v334h291c136 0 216 -75 216 -188s-80 -189 -216 -189h-245v-115h307v-43h-307v-165zM164 657v-291h241c111 0 174 53 174 146c0 92 -63 145 -174 145h-241z" />
    <glyph glyph-name="uni20B6" unicode="&#x20b9;" horiz-adv-x="664" 
d="M164 0h-46v165h-94v43h94v115h-94v43h94v334h291c136 0 216 -75 216 -188s-80 -189 -216 -189h-245v-115h307v-43h-307v-165zM164 657v-291h241c111 0 174 53 174 146c0 92 -63 145 -174 145h-241z" />
    <glyph glyph-name="uni20B6" unicode="&#x20b7;" horiz-adv-x="664" 
d="M164 0h-46v165h-94v43h94v115h-94v43h94v334h291c136 0 216 -75 216 -188s-80 -189 -216 -189h-245v-115h307v-43h-307v-165zM164 657v-291h241c111 0 174 53 174 146c0 92 -63 145 -174 145h-241z" />
    <glyph glyph-name="uni2113" unicode="&#x2113;" horiz-adv-x="422" 
d="M217 -12c-87 0 -135 50 -135 141v374c0 128 62 204 151 204c77 0 123 -54 123 -146c0 -117 -76 -244 -229 -380v-53c0 -65 32 -98 97 -98c31 0 61 9 91 28v-43c-23 -18 -56 -27 -98 -27zM127 505v-266c122 120 183 228 183 324c0 68 -26 102 -77 102
c-56 0 -106 -55 -106 -160z" />
    <glyph glyph-name="uni2116" unicode="&#x2116;" horiz-adv-x="1136" 
d="M1050 270h-290v38h290v-38zM905 416c71 0 122 56 122 129s-51 129 -122 129c-72 0 -123 -56 -123 -129s51 -129 123 -129zM905 378c-47 0 -87 16 -118 48c-31 33 -46 72 -46 119s15 86 46 118c31 33 71 49 118 49s85 -16 116 -49c31 -32 47 -71 47 -118s-16 -86 -47 -119
c-31 -32 -69 -48 -116 -48zM151 0h-46v700h41l477 -620v620h46v-700h-40l-478 621v-621z" />
    <glyph glyph-name="trademark" unicode="&#x2122;" horiz-adv-x="687" 
d="M367 392h-37v308h34l114 -143l112 143h34v-308h-37v250l-100 -124h-19l-101 124v-250zM164 392h-37v275h-102v33h246v-33h-107v-275z" />
    <glyph glyph-name="Omega" unicode="&#x2126;" horiz-adv-x="805" 
d="M299 0h-186v43h125c-76 76 -129 192 -129 320c0 102 27 186 82 251s125 98 211 98c87 0 158 -33 213 -98s82 -148 82 -251c0 -128 -54 -244 -130 -320h125v-43h-186v37c40 34 74 80 102 137s42 118 42 183c0 92 -23 167 -70 224c-47 58 -106 87 -178 87
c-71 0 -129 -29 -176 -87c-47 -57 -70 -132 -70 -224c0 -65 14 -126 41 -183c28 -57 62 -102 102 -137v-37z" />
    <glyph glyph-name="estimated" unicode="&#x212e;" horiz-adv-x="809" 
d="M405 -12c-94 0 -173 31 -236 93c-63 63 -94 141 -94 234s31 171 93 234c63 63 142 95 237 95s173 -32 234 -95s93 -139 95 -228h-573v-196c59 -77 141 -116 244 -116c129 0 238 73 283 185h24c-23 -61 -62 -111 -117 -149s-118 -57 -190 -57zM161 507v-165h488v165
c-56 73 -144 116 -244 116c-103 0 -185 -39 -244 -116z" />
    <glyph glyph-name="onethird" unicode="&#x2153;" horiz-adv-x="774" 
d="M166 0h-48l407 700h48zM172 322h-43v333l-104 -63v43l107 65h40v-378zM590 -5c-45 0 -82 10 -112 29v40c33 -21 70 -31 110 -31c56 0 105 35 105 87c0 51 -40 83 -101 83c-16 0 -31 -2 -44 -6v29l116 115h-170v37h228v-31l-114 -112c69 -4 127 -42 127 -115
c0 -37 -14 -67 -42 -90c-27 -23 -62 -35 -103 -35z" />
    <glyph glyph-name="twothirds" unicode="&#x2154;" horiz-adv-x="887" 
d="M279 0h-48l407 700h48zM306 322h-260v32l128 120c53 49 75 79 75 119c0 43 -33 72 -84 72c-41 0 -78 -16 -111 -47v45c32 28 70 42 115 42c71 0 123 -44 123 -107c0 -51 -25 -89 -84 -144l-99 -95h197v-37zM703 -5c-45 0 -82 10 -112 29v40c33 -21 70 -31 110 -31
c56 0 105 35 105 87c0 51 -40 83 -101 83c-17 0 -31 -2 -44 -6v29l116 115h-170v37h228v-31l-114 -112c69 -4 127 -42 127 -115c0 -37 -14 -67 -42 -90c-27 -23 -62 -35 -103 -35z" />
    <glyph glyph-name="uni2155" unicode="&#x2155;" horiz-adv-x="755" 
d="M166 0h-48l407 700h48zM172 322h-43v333l-104 -63v43l107 65h40v-378zM564 -5c-40 0 -76 9 -107 26v41c33 -19 68 -29 105 -29c63 0 109 37 109 88c0 48 -41 84 -105 84c-33 0 -65 -5 -94 -15l25 188h192v-37h-160l-13 -107c14 4 33 6 58 6c80 0 140 -48 140 -119
c0 -37 -15 -67 -44 -91c-29 -23 -64 -35 -106 -35z" />
    <glyph glyph-name="uni2156" unicode="&#x2156;" horiz-adv-x="868" 
d="M279 0h-48l407 700h48zM306 322h-260v32l128 120c53 49 75 79 75 119c0 43 -33 72 -84 72c-41 0 -78 -16 -111 -47v45c32 28 70 42 115 42c71 0 123 -44 123 -107c0 -51 -25 -89 -84 -144l-99 -95h197v-37zM677 -5c-40 0 -76 9 -107 26v41c33 -19 68 -29 105 -29
c63 0 109 37 109 88c0 48 -41 84 -105 84c-34 0 -65 -5 -94 -15l25 188h192v-37h-160l-13 -107c14 4 33 6 58 6c80 0 140 -48 140 -119c0 -37 -15 -67 -44 -91c-29 -23 -64 -35 -106 -35z" />
    <glyph glyph-name="uni2157" unicode="&#x2157;" horiz-adv-x="808" 
d="M218 0h-48l407 700h48zM617 -5c-40 0 -76 9 -107 26v41c33 -19 68 -29 105 -29c63 0 109 37 109 88c0 48 -41 84 -105 84c-34 0 -65 -5 -94 -15l25 188h192v-37h-160l-13 -107c14 4 33 6 58 6c80 0 140 -48 140 -119c0 -37 -15 -67 -44 -91c-29 -23 -64 -35 -106 -35z
M138 317c-45 0 -82 10 -112 29v40c33 -21 70 -31 110 -31c56 0 105 35 105 87c0 51 -40 83 -101 83c-16 0 -31 -2 -44 -6v29l116 115h-170v37h228v-31l-114 -112c69 -4 127 -42 127 -115c0 -37 -14 -67 -42 -90c-27 -23 -62 -35 -103 -35z" />
    <glyph glyph-name="uni2158" unicode="&#x2158;" horiz-adv-x="850" 
d="M260 0h-48l407 700h48zM659 -5c-40 0 -76 9 -107 26v41c33 -19 68 -29 105 -29c63 0 109 37 109 88c0 48 -41 84 -105 84c-34 0 -65 -5 -94 -15l25 188h192v-37h-160l-13 -107c14 4 33 6 58 6c80 0 140 -48 140 -119c0 -37 -15 -67 -44 -91c-29 -23 -64 -35 -106 -35z
M267 322h-42v103h-202v32l204 243h40v-239h62v-36h-62v-103zM225 643l-152 -182h152v182z" />
    <glyph glyph-name="uni2159" unicode="&#x2159;" horiz-adv-x="759" 
d="M166 0h-48l407 700h48zM172 322h-43v333l-104 -63v43l107 65h40v-378zM591 -5c-93 0 -145 72 -145 177c0 61 15 111 44 151c30 40 70 60 121 60c33 0 61 -7 84 -22v-40c-23 16 -50 24 -79 24c-75 0 -128 -62 -129 -155c26 35 63 53 111 53c69 0 123 -49 123 -121
c0 -73 -57 -127 -130 -127zM589 32c52 0 90 38 90 90c0 51 -39 86 -90 86c-43 0 -79 -26 -99 -65c3 -65 40 -111 99 -111z" />
    <glyph glyph-name="uni215A" unicode="&#x215a;" horiz-adv-x="824" 
d="M145 317c-40 0 -76 9 -107 26v41c33 -19 68 -29 105 -29c63 0 109 37 109 88c0 48 -41 84 -105 84c-33 0 -65 -5 -94 -15l25 188h192v-37h-160l-13 -107c14 4 33 6 58 6c80 0 140 -48 140 -119c0 -37 -15 -67 -44 -91c-29 -23 -64 -35 -106 -35zM656 -5
c-93 0 -145 72 -145 177c0 61 15 111 44 151c30 40 70 60 121 60c33 0 61 -7 84 -22v-40c-23 16 -50 24 -79 24c-75 0 -128 -62 -129 -155c26 35 63 53 111 53c69 0 123 -49 123 -121c0 -73 -57 -127 -130 -127zM654 32c52 0 90 38 90 90c0 51 -39 86 -90 86
c-43 0 -79 -26 -99 -65c3 -65 40 -111 99 -111zM230 0h-48l407 700h48z" />
    <glyph glyph-name="oneeighth" unicode="&#x215b;" horiz-adv-x="775" 
d="M166 0h-48l407 700h48zM172 322h-43v333l-104 -63v43l107 65h40v-378zM448 104c0 47 26 79 77 98c-38 15 -57 43 -57 82c0 59 54 99 126 99c73 0 127 -40 127 -99c0 -39 -19 -67 -57 -82c51 -19 77 -51 77 -98c0 -67 -63 -109 -147 -109s-146 42 -146 109zM698 107
c0 47 -43 76 -104 76s-103 -29 -103 -76c0 -44 43 -76 103 -76s104 32 104 76zM594 216c51 0 87 25 87 64c0 41 -36 67 -87 67s-86 -26 -86 -67c0 -39 37 -64 86 -64z" />
    <glyph glyph-name="threeeighths" unicode="&#x215c;" horiz-adv-x="828" 
d="M501 104c0 47 26 79 77 98c-38 15 -57 43 -57 82c0 59 54 99 126 99c73 0 127 -40 127 -99c0 -39 -19 -67 -57 -82c51 -19 77 -51 77 -98c0 -67 -63 -109 -147 -109s-146 42 -146 109zM751 107c0 47 -43 76 -104 76s-103 -29 -103 -76c0 -44 43 -76 103 -76
s104 32 104 76zM647 216c51 0 87 25 87 64c0 41 -36 67 -87 67s-86 -26 -86 -67c0 -39 37 -64 86 -64zM138 317c-45 0 -82 10 -112 29v40c33 -21 70 -31 110 -31c56 0 105 35 105 87c0 51 -40 83 -101 83c-16 0 -31 -2 -44 -6v29l116 115h-170v37h228v-31l-114 -112
c69 -4 127 -42 127 -115c0 -37 -14 -67 -42 -90c-27 -23 -62 -35 -103 -35zM218 0h-48l407 700h48z" />
    <glyph glyph-name="fiveeighths" unicode="&#x215d;" horiz-adv-x="840" 
d="M513 104c0 47 26 79 77 98c-38 15 -57 43 -57 82c0 59 54 99 126 99c73 0 127 -40 127 -99c0 -39 -19 -67 -57 -82c51 -19 77 -51 77 -98c0 -67 -63 -109 -147 -109s-146 42 -146 109zM763 107c0 47 -43 76 -104 76s-103 -29 -103 -76c0 -44 43 -76 103 -76
s104 32 104 76zM659 216c51 0 87 25 87 64c0 41 -36 67 -87 67s-86 -26 -86 -67c0 -39 37 -64 86 -64zM145 317c-40 0 -76 9 -107 26v41c33 -19 68 -29 105 -29c63 0 109 37 109 88c0 48 -41 84 -105 84c-33 0 -65 -5 -94 -15l25 188h192v-37h-160l-13 -107c14 4 33 6 58 6
c80 0 140 -48 140 -119c0 -37 -15 -67 -44 -91c-29 -23 -64 -35 -106 -35zM230 0h-48l407 700h48z" />
    <glyph glyph-name="seveneighths" unicode="&#x215e;" horiz-adv-x="767" 
d="M440 104c0 47 26 79 77 98c-38 15 -57 43 -57 82c0 59 54 99 126 99c73 0 127 -40 127 -99c0 -39 -19 -67 -57 -82c51 -19 77 -51 77 -98c0 -67 -63 -109 -147 -109s-146 42 -146 109zM690 107c0 47 -43 76 -104 76s-103 -29 -103 -76c0 -44 43 -76 103 -76
s104 32 104 76zM586 216c51 0 87 25 87 64c0 41 -36 67 -87 67s-86 -26 -86 -67c0 -39 37 -64 86 -64zM105 322h-47l175 341h-203v37h251v-33zM157 0h-48l407 700h48z" />
    <glyph glyph-name="uni215F" unicode="&#x215f;" horiz-adv-x="408" 
d="M172 322h-43v333l-104 -63v43l107 65h40v-378zM166 0h-48l407 700h48z" />
    <glyph glyph-name="arrowleft" unicode="&#x2190;" horiz-adv-x="726" 
d="M303 469l-164 -181h503v-40h-503l164 -182h-52l-184 202l184 201h52z" />
    <glyph glyph-name="arrowup" unicode="&#x2191;" horiz-adv-x="571" 
d="M487 339l-181 164v-503h-40v503l-182 -164v52l202 184l201 -184v-52z" />
    <glyph glyph-name="arrowright" unicode="&#x2192;" horiz-adv-x="726" 
d="M84 248v40h503l-164 181h52l184 -201l-184 -202h-52l164 182h-503z" />
    <glyph glyph-name="arrowdown" unicode="&#x2193;" horiz-adv-x="571" 
d="M84 228l182 -165v504h40v-504l181 165v-52l-201 -184l-202 184v52z" />
    <glyph glyph-name="partialdiff" unicode="&#x2202;" horiz-adv-x="629" 
d="M273 -12c-63 0 -115 20 -156 60s-62 91 -62 154c0 67 23 124 69 171c47 47 104 71 172 71c101 0 180 -58 211 -127c2 13 3 28 3 45c4 153 -80 303 -231 303c-51 0 -98 -14 -143 -42v43c41 27 89 41 146 41c83 0 149 -32 198 -96c49 -63 74 -147 74 -252
c0 -91 -19 -174 -62 -249c-41 -73 -119 -122 -219 -122zM275 30c116 0 200 87 224 220c-27 89 -105 152 -198 152c-54 0 -101 -19 -141 -56c-39 -37 -59 -83 -59 -138c0 -52 16 -95 49 -128s75 -50 125 -50z" />
    <glyph glyph-name="increment" unicode="&#x2206;" horiz-adv-x="743" 
d="M710 0h-677l318 700h43zM372 643l-273 -600h545z" />
    <glyph glyph-name="product" unicode="&#x220f;" horiz-adv-x="751" 
d="M232 -126h-46v783h-114v43h608v-43h-115v-783h-46v783h-287v-783z" />
    <glyph glyph-name="summation" unicode="&#x2211;" horiz-adv-x="593" 
d="M545 0h-481v34l268 316l-266 316v34h478v-43h-413l248 -295v-24l-249 -295h415v-43z" />
    <glyph glyph-name="minus" unicode="&#x2212;" horiz-adv-x="580" 
d="M510 302h-440v42h440v-42z" />
    <glyph glyph-name="uni2215" unicode="&#x2215;" horiz-adv-x="501" 
d="M77 0h-48l408 700h48z" />
    <glyph glyph-name="uni2219" unicode="&#x2219;" horiz-adv-x="219" 
d="M82 197c-36 33 21 90 54 54c36 -33 -21 -90 -54 -54z" />
    <glyph glyph-name="radical" unicode="&#x221a;" horiz-adv-x="654" 
d="M359 0h-40l-192 430h-140v41h170l182 -411l241 640h46z" />
    <glyph glyph-name="infinity" unicode="&#x221e;" horiz-adv-x="797" 
d="M217 159c-92 0 -156 66 -156 158c0 46 15 84 44 113c29 30 67 45 112 45c72 0 125 -46 181 -121c18 24 34 43 48 58c28 31 80 63 132 63c47 0 84 -15 112 -46c29 -30 43 -67 43 -112s-14 -82 -43 -113c-28 -30 -65 -45 -112 -45c-72 0 -124 45 -181 121
c-56 -75 -107 -121 -180 -121zM221 199c31 0 59 12 86 39c28 28 39 43 66 79c-27 37 -38 52 -66 79c-27 28 -55 40 -87 40c-152 4 -153 -242 1 -237zM574 199c153 -5 153 241 0 237c-59 0 -100 -43 -153 -119c27 -37 39 -52 66 -79c28 -27 55 -39 87 -39z" />
    <glyph glyph-name="integral" unicode="&#x222b;" horiz-adv-x="492" 
d="M-4 -204c-29 0 -56 6 -80 17v42c25 -11 49 -17 74 -17c78 0 125 52 142 156l80 527c19 124 78 186 178 186c33 0 61 -5 83 -16v-44c-24 12 -49 18 -76 18c-77 0 -124 -45 -141 -154l-81 -527c-17 -113 -78 -188 -179 -188z" />
    <glyph glyph-name="approxequal" unicode="&#x2248;" horiz-adv-x="664" 
d="M469 155c-33 0 -79 10 -138 29s-104 29 -137 29c-52 0 -93 -16 -124 -48v44c20 25 72 44 124 44c33 0 78 -10 137 -29s105 -29 138 -29c53 0 94 16 125 48v-44c-21 -25 -72 -44 -125 -44zM469 384c-33 0 -79 10 -138 29s-104 29 -137 29c-52 0 -93 -16 -124 -48v44
c20 25 72 44 124 44c33 0 78 -10 137 -29s105 -28 138 -28c53 0 94 16 125 48v-45c-21 -25 -72 -44 -125 -44z" />
    <glyph glyph-name="notequal" unicode="&#x2260;" horiz-adv-x="607" 
d="M188 63h-43l65 125h-140v41h162l98 187h-260v41h282l66 124h43l-66 -124h142v-41h-164l-98 -187h262v-41h-284z" />
    <glyph glyph-name="lessequal" unicode="&#x2264;" horiz-adv-x="607" 
d="M537 213v-46l-467 190v40l467 188v-46l-414 -163zM536 68h-466v41h466v-41z" />
    <glyph glyph-name="greaterequal" unicode="&#x2265;" horiz-adv-x="607" 
d="M537 357l-467 -190v46l415 163l-415 163v46l467 -188v-40zM537 68h-467v41h467v-41z" />
    <glyph glyph-name="dotmath" unicode="&#x22c5;" horiz-adv-x="222" 
d="M84 353c-36 33 21 90 54 54c36 -33 -21 -90 -54 -54z" />
    <glyph glyph-name="lozenge" unicode="&#x25ca;" horiz-adv-x="559" 
d="M302 0h-45l-206 350l206 350h45l205 -350zM104 350l176 -301l175 301l-176 301z" />
    <glyph glyph-name="uniF401" unicode="&#xf401;" horiz-adv-x="20" 
d="M-361 763h-49l96 130h61z" />
    <glyph glyph-name="uniF639" unicode="&#xf639;" 
d="M315 -13c-78 0 -141 34 -190 103c-48 69 -72 156 -72 260c0 103 24 190 72 259c49 69 112 104 190 104c77 0 139 -35 188 -104s73 -156 73 -259s-24 -190 -73 -259s-111 -104 -188 -104zM315 30c63 0 114 30 154 91c41 61 61 137 61 229s-20 168 -61 229
c-40 61 -91 91 -154 91s-115 -30 -156 -91c-40 -61 -60 -137 -60 -229s20 -168 60 -229c41 -61 93 -91 156 -91z" />
    <glyph glyph-name="uniF63A" unicode="&#xf63a;" 
d="M549 0h-470l1 36l247 239c54 52 92 94 114 127s33 71 33 113c0 91 -69 153 -174 153c-76 0 -145 -33 -206 -99v57c57 57 127 86 210 86c63 0 115 -18 156 -54s61 -83 61 -140c0 -47 -12 -89 -35 -126s-63 -84 -120 -139l-216 -210h399v-43z" />
    <glyph glyph-name="uniF63B" unicode="&#xf63b;" 
d="M278 -12c-80 0 -147 17 -201 51v50c53 -38 118 -57 197 -57c59 0 109 17 152 50s65 78 65 135c0 53 -19 95 -58 128c-38 33 -89 50 -152 50c-24 0 -47 -3 -70 -8v33l238 237h-340v43h404v-34l-231 -232c69 0 128 -19 179 -58c51 -38 76 -91 76 -159s-25 -123 -74 -166
c-49 -42 -111 -63 -185 -63z" />
    <glyph glyph-name="uniF63C" unicode="&#xf63c;" 
d="M472 0h-46v203h-387v38l389 459h44v-454h119v-43h-119v-203zM426 634l-330 -388h330v388z" />
    <glyph glyph-name="uniF63D" unicode="&#xf63d;" 
d="M271 -12c-75 0 -138 15 -191 46v48c53 -33 117 -50 190 -50c65 0 119 17 162 52s64 79 64 132c0 50 -20 92 -60 125c-39 34 -92 51 -157 51c-58 0 -114 -9 -168 -28l46 336h336v-43h-300l-33 -236c36 10 79 15 129 15c73 0 133 -21 181 -62s72 -94 72 -158
c0 -66 -26 -121 -77 -164s-116 -64 -194 -64z" />
    <glyph glyph-name="uniF63E" unicode="&#xf63e;" 
d="M334 -12c-80 0 -143 29 -190 86s-70 138 -70 241c0 115 27 209 82 284s127 113 217 113c56 0 104 -14 145 -43v-45c-43 29 -91 44 -142 44c-56 0 -104 -17 -143 -51c-79 -67 -113 -174 -113 -303c35 73 119 128 220 128c63 0 116 -21 160 -63c45 -41 67 -94 67 -158
c0 -67 -22 -123 -67 -167c-44 -44 -99 -66 -166 -66zM333 32c53 0 97 18 133 53c37 36 55 81 55 135c0 53 -18 96 -55 129s-82 49 -136 49c-47 0 -89 -15 -127 -44c-37 -29 -64 -66 -79 -110c16 -133 86 -212 209 -212z" />
    <glyph glyph-name="uniF63F" unicode="&#xf63f;" 
d="M206 0h-49l333 657h-394v43h448v-34z" />
    <glyph glyph-name="uniF640" unicode="&#xf640;" 
d="M412 371c100 -24 163 -91 163 -184c0 -59 -25 -107 -75 -144c-49 -37 -111 -55 -186 -55s-137 18 -187 55s-75 85 -75 144c0 93 63 160 164 184c-79 25 -128 85 -128 162c0 53 21 96 64 129s97 50 162 50s118 -17 161 -50s64 -76 64 -129c0 -77 -50 -137 -127 -162z
M135 530c0 -40 17 -73 51 -100c34 -26 77 -39 129 -39c51 0 93 13 127 39c34 27 51 60 51 100c0 41 -17 74 -51 99c-33 26 -76 39 -127 39c-52 0 -95 -13 -129 -38s-51 -59 -51 -100zM313 32c61 0 112 15 153 45c41 31 62 68 62 113c0 47 -21 84 -62 113s-92 44 -153 44
s-112 -15 -153 -44s-61 -67 -61 -113c0 -45 21 -82 62 -113c41 -30 92 -45 152 -45z" />
    <glyph glyph-name="uniF641" unicode="&#xf641;" 
d="M294 712c80 0 143 -29 190 -86s70 -138 70 -241c0 -115 -27 -210 -82 -285s-127 -112 -217 -112c-56 0 -104 14 -145 43v45c43 -29 91 -44 142 -44c56 0 104 17 143 50c79 68 113 175 113 304c-35 -73 -119 -128 -220 -128c-63 0 -116 21 -161 62c-44 42 -66 95 -66 159
c0 67 22 123 66 167c45 44 100 66 167 66zM295 668c-53 0 -97 -18 -134 -54c-36 -35 -54 -80 -54 -134c0 -53 18 -96 55 -129s82 -49 136 -49c47 0 89 15 126 44c38 29 65 66 80 110c-16 133 -86 212 -209 212z" />
    <glyph glyph-name="uniF643" unicode="&#xf643;" 
d="M166 89c40 -39 89 -59 148 -59s108 20 147 59c40 40 60 90 60 149s-20 109 -60 149c-39 40 -88 60 -147 60s-108 -20 -148 -60c-39 -40 -59 -90 -59 -149s20 -109 59 -149zM496 61c-47 -49 -107 -73 -182 -73s-136 24 -183 73s-70 108 -70 177s23 128 70 177
s108 74 183 74s135 -25 182 -74s71 -108 71 -177s-24 -128 -71 -177z" />
    <glyph glyph-name="uniF644" unicode="&#xf644;" 
d="M545 0h-439v43h200v383l-161 -98v46l164 103h43v-434h193v-43z" />
    <glyph glyph-name="uniF645" unicode="&#xf645;" 
d="M530 0h-437v35c114 65 189 109 224 132c40 25 56 36 88 64c33 28 49 59 49 94c0 72 -60 120 -152 120c-70 0 -137 -29 -200 -87v52c57 53 124 79 203 79c59 0 106 -15 141 -45c36 -29 54 -67 54 -113c0 -83 -62 -140 -157 -196l-61 -35l-103 -57h351v-43z" />
    <glyph glyph-name="uniF646" unicode="&#xf646;" 
d="M272 -204c-79 0 -146 17 -200 51v50c53 -38 119 -57 198 -57c59 0 109 16 152 48c43 31 64 75 64 131c0 104 -82 170 -210 170c-27 0 -50 -2 -69 -7v33l235 219h-338v43h403v-34l-229 -215c43 0 84 -7 121 -21c75 -28 133 -96 133 -188c0 -67 -25 -121 -75 -162
c-49 -41 -111 -61 -185 -61z" />
    <glyph glyph-name="uniF647" unicode="&#xf647;" 
d="M471 -200h-45v200h-387v37l389 440h43v-434h120v-43h-120v-200zM426 412l-328 -369h328v369z" />
    <glyph glyph-name="uniF648" unicode="&#xf648;" 
d="M268 -204c-74 0 -137 15 -190 46v48c53 -33 116 -50 189 -50c65 0 119 18 162 53s64 79 64 131c0 49 -20 90 -60 122c-39 32 -92 48 -157 48c-59 0 -115 -10 -168 -29l44 312h336v-43h-299l-30 -211c38 10 80 15 127 15c73 0 133 -20 181 -60c48 -39 72 -91 72 -154
c0 -66 -26 -120 -78 -163c-51 -43 -116 -65 -193 -65z" />
    <glyph glyph-name="uniF649" unicode="&#xf649;" 
d="M334 -12c-80 0 -143 29 -190 86s-70 138 -70 241c0 115 27 209 82 284s127 113 217 113c56 0 104 -14 145 -43v-45c-43 29 -91 44 -142 44c-56 0 -104 -17 -143 -51c-79 -67 -113 -174 -113 -303c35 73 119 128 220 128c63 0 116 -21 160 -63c45 -41 67 -94 67 -158
c0 -67 -22 -123 -67 -167c-44 -44 -99 -66 -166 -66zM333 32c53 0 97 18 133 53c37 36 55 81 55 135c0 53 -18 96 -55 129s-82 49 -136 49c-47 0 -89 -15 -127 -44c-37 -29 -64 -66 -79 -110c16 -133 86 -212 209 -212z" />
    <glyph glyph-name="uniF64A" unicode="&#xf64a;" 
d="M210 -200h-47l321 634h-397v43h448v-35z" />
    <glyph glyph-name="uniF64B" unicode="&#xf64b;" 
d="M412 371c100 -24 163 -91 163 -184c0 -59 -25 -107 -75 -144c-49 -37 -111 -55 -186 -55s-137 18 -187 55s-75 85 -75 144c0 93 63 160 164 184c-79 25 -128 85 -128 162c0 53 21 96 64 129s97 50 162 50s118 -17 161 -50s64 -76 64 -129c0 -77 -50 -137 -127 -162z
M135 530c0 -40 17 -73 51 -100c34 -26 77 -39 129 -39c51 0 93 13 127 39c34 27 51 60 51 100c0 41 -17 74 -51 99c-33 26 -76 39 -127 39c-52 0 -95 -13 -129 -38s-51 -59 -51 -100zM313 32c61 0 112 15 153 45c41 31 62 68 62 113c0 47 -21 84 -62 113s-92 44 -153 44
s-112 -15 -153 -44s-61 -67 -61 -113c0 -45 21 -82 62 -113c41 -30 92 -45 152 -45z" />
    <glyph glyph-name="uniF64C" unicode="&#xf64c;" 
d="M295 489c80 0 143 -29 190 -86s70 -138 70 -241c0 -113 -27 -202 -81 -267c-53 -66 -126 -99 -218 -99c-56 0 -104 14 -145 43v45c43 -29 91 -44 142 -44c84 0 148 30 191 89s65 137 65 234c-35 -73 -119 -128 -220 -128c-63 0 -116 21 -161 62c-44 42 -66 95 -66 159
c0 67 22 123 66 167c45 44 100 66 167 66zM296 445c-53 0 -97 -18 -134 -54c-36 -35 -54 -80 -54 -134c0 -53 18 -96 55 -129s82 -49 136 -49c47 0 89 15 126 44c38 29 65 66 80 110c-16 133 -86 212 -209 212z" />
    <glyph glyph-name="uniF64E" unicode="&#xf64e;" horiz-adv-x="572" 
d="M112 159h-77v37h68c-2 14 -3 28 -3 43c0 11 1 23 3 36h-68v37h76c13 53 42 96 85 128c44 33 96 49 157 49c53 0 101 -12 144 -37v-44c-133 80 -303 30 -338 -96h234v-37h-243c-2 -12 -3 -24 -3 -37c0 -11 1 -25 4 -42h242v-37h-232c27 -80 104 -129 197 -129
c56 0 105 15 148 45v-45c-42 -28 -93 -42 -154 -42c-119 0 -211 67 -240 171z" />
    <glyph glyph-name="uniF653" unicode="&#xf653;" horiz-adv-x="493" 
d="M221 594h44v-106c63 -3 114 -18 153 -43v-46c-53 32 -109 48 -169 48c-93 0 -141 -35 -141 -87c0 -24 14 -44 29 -56c7 -5 19 -11 34 -17c31 -12 42 -15 82 -24l56 -14c12 -3 28 -9 49 -17s36 -16 45 -25c20 -17 39 -47 39 -84c0 -79 -74 -127 -177 -134v-106h-44v106
c-75 4 -133 21 -174 50v49c57 -39 123 -58 196 -58c93 0 153 37 153 94c0 28 -15 48 -44 63s-55 21 -99 33l-20 5c-41 11 -65 17 -98 32c-43 22 -73 51 -73 103c0 72 58 121 159 128v106z" />
    <glyph glyph-name="commaaccent" unicode="&#xf6c3;" horiz-adv-x="226" 
d="M106 -218h-40l55 168h50z" />
    <glyph glyph-name="cyrbreve" unicode="&#xf6d4;" horiz-adv-x="504" 
d="M256 558c-93 0 -155 58 -155 142h41c0 -60 45 -104 114 -104c67 0 112 44 112 104h41c0 -41 -15 -75 -44 -102s-66 -40 -109 -40z" />
    <glyph glyph-name="uniF6DC" unicode="&#xf6dc;" 
d="M549 0h-449v43h206v607l-161 -99v47l165 102h42v-657h197v-43z" />
    <glyph glyph-name="uniF721" unicode="&#xf721;" horiz-adv-x="528" 
d="M285 -12c-115 0 -183 37 -183 104c0 31 16 57 47 76h-81v37h390v-37h-246c-33 -12 -62 -39 -62 -68c0 -44 47 -70 139 -70c57 0 107 9 148 27v-43c-45 -17 -96 -26 -152 -26zM458 280h-390v37h265c37 16 55 37 55 63c0 45 -45 67 -136 67c-53 0 -101 -10 -143 -29v43
c43 19 93 28 152 28c108 0 173 -37 173 -102c0 -31 -13 -55 -40 -70h64v-37z" />
    <glyph glyph-name="uniF722" unicode="&#xf722;" horiz-adv-x="577" 
d="M117 215v262h233c109 0 173 -61 173 -152s-66 -151 -174 -151h-187v-70h215v-37h-215v-67h-45v67h-74v37h74v70h-74v41h74zM342 436h-180v-221h180c85 0 135 39 135 110s-50 111 -135 111z" />
    <glyph glyph-name="uniF725" unicode="&#xf725;" horiz-adv-x="547" 
d="M482 0h-419v41h27c12 0 21 5 27 14c12 19 12 34 12 65v59h-66v41h66v74c0 128 72 195 201 195c56 0 106 -13 149 -40v-45c-44 29 -92 43 -144 43c-107 0 -161 -53 -161 -160v-67h250v-41h-250v-87c0 -23 -7 -40 -21 -51h329v-41z" />
    <glyph glyph-name="uniF727" unicode="&#xf727;" horiz-adv-x="545" 
d="M295 0h-45v90h-161v37h161v78h-161v37h147l-187 235h54l170 -214l170 214h53l-188 -235h147v-37h-160v-78h160v-37h-160v-90z" />
    <glyph glyph-name="uniF730" unicode="&#xf730;" horiz-adv-x="616" 
d="M160 89c40 -39 89 -59 148 -59s108 20 147 59c40 40 60 90 60 149s-20 109 -60 149c-39 40 -88 60 -147 60s-108 -20 -148 -60c-39 -40 -59 -90 -59 -149s20 -109 59 -149zM490 61c-47 -49 -107 -73 -182 -73s-136 24 -183 73s-70 108 -70 177s23 128 70 177
s108 74 183 74s135 -25 182 -74s71 -108 71 -177s-24 -128 -71 -177z" />
    <glyph glyph-name="uniF731" unicode="&#xf731;" horiz-adv-x="353" 
d="M245 0h-46v426l-161 -98v46l164 103h43v-477z" />
    <glyph glyph-name="uniF732" unicode="&#xf732;" horiz-adv-x="560" 
d="M496 0h-437v35c114 65 189 109 224 132c40 25 56 36 88 64c33 28 49 59 49 94c0 72 -60 120 -152 120c-70 0 -137 -29 -200 -87v52c57 53 124 79 203 79c59 0 106 -15 141 -45c36 -29 54 -67 54 -113c0 -83 -62 -140 -157 -196l-61 -35l-103 -57h351v-43z" />
    <glyph glyph-name="uniF733" unicode="&#xf733;" horiz-adv-x="549" 
d="M229 -204c-79 0 -146 17 -200 51v50c53 -38 119 -57 198 -57c59 0 109 16 152 48c43 31 64 75 64 131c0 104 -82 170 -210 170c-27 0 -50 -2 -69 -7v33l235 219h-338v43h403v-34l-229 -215c43 0 84 -7 121 -21c75 -28 133 -96 133 -188c0 -67 -25 -121 -75 -162
c-49 -41 -111 -61 -185 -61z" />
    <glyph glyph-name="uniF734" unicode="&#xf734;" horiz-adv-x="627" 
d="M471 -200h-45v200h-387v37l389 440h43v-434h120v-43h-120v-200zM426 412l-328 -369h328v369z" />
    <glyph glyph-name="uniF735" unicode="&#xf735;" horiz-adv-x="592" 
d="M259 -204c-74 0 -137 15 -190 46v48c53 -33 116 -50 189 -50c65 0 119 18 162 53s64 79 64 131c0 49 -20 90 -60 122c-39 32 -92 48 -157 48c-59 0 -115 -10 -168 -29l44 312h336v-43h-299l-30 -211c38 10 80 15 127 15c73 0 133 -20 181 -60c48 -39 72 -91 72 -154
c0 -66 -26 -120 -78 -163c-51 -43 -116 -65 -193 -65z" />
    <glyph glyph-name="uniF736" unicode="&#xf736;" horiz-adv-x="638" 
d="M335 -12c-80 0 -143 29 -190 86s-70 138 -70 241c0 115 27 209 82 284s127 113 217 113c56 0 104 -14 145 -43v-45c-43 29 -91 44 -142 44c-56 0 -104 -17 -143 -51c-79 -67 -113 -174 -113 -303c35 73 119 128 220 128c63 0 116 -21 160 -63c45 -41 67 -94 67 -158
c0 -67 -22 -123 -67 -167c-44 -44 -99 -66 -166 -66zM334 32c53 0 97 18 133 53c37 36 55 81 55 135c0 53 -18 96 -55 129s-82 49 -136 49c-47 0 -89 -15 -127 -44c-37 -29 -64 -66 -79 -110c16 -133 86 -212 209 -212z" />
    <glyph glyph-name="uniF737" unicode="&#xf737;" horiz-adv-x="529" 
d="M168 -200h-47l321 634h-397v43h448v-35z" />
    <glyph glyph-name="uniF738" unicode="&#xf738;" horiz-adv-x="646" 
d="M421 371c100 -24 163 -91 163 -184c0 -59 -25 -107 -75 -144c-49 -37 -111 -55 -186 -55s-137 18 -187 55s-75 85 -75 144c0 93 63 160 164 184c-79 25 -128 85 -128 162c0 53 21 96 64 129s97 50 162 50s118 -17 161 -50s64 -76 64 -129c0 -77 -50 -137 -127 -162z
M144 530c0 -40 17 -73 51 -100c34 -26 77 -39 129 -39c51 0 93 13 127 39c34 27 51 60 51 100c0 41 -17 74 -51 99c-33 26 -76 39 -127 39c-52 0 -95 -13 -129 -38s-51 -59 -51 -100zM322 32c61 0 112 15 153 45c41 31 62 68 62 113c0 47 -21 84 -62 113s-92 44 -153 44
s-112 -15 -153 -44s-61 -67 -61 -113c0 -45 21 -82 62 -113c41 -30 92 -45 152 -45z" />
    <glyph glyph-name="uniF739" unicode="&#xf739;" horiz-adv-x="638" 
d="M302 489c80 0 143 -29 190 -86s70 -138 70 -241c0 -113 -27 -202 -81 -267c-53 -66 -126 -99 -218 -99c-56 0 -104 14 -145 43v45c43 -29 91 -44 142 -44c84 0 148 30 191 89s65 137 65 234c-35 -73 -119 -128 -220 -128c-63 0 -116 21 -161 62c-44 42 -66 95 -66 159
c0 67 22 123 66 167c45 44 100 66 167 66zM303 445c-53 0 -97 -18 -134 -54c-36 -35 -54 -80 -54 -134c0 -53 18 -96 55 -129s82 -49 136 -49c47 0 89 15 126 44c38 29 65 66 80 110c-16 133 -86 212 -209 212z" />
    <glyph glyph-name="dotaccent.cap" horiz-adv-x="496" 
d="M219 798c-36 33 21 90 54 54c36 -33 -21 -90 -54 -54z" />
    <glyph glyph-name="pesolow.mono" 
d="M109 304h-87v42h87v131h234c100 0 163 -52 172 -131h83v-42h-83c-8 -80 -73 -131 -173 -131h-188v-173h-45v304zM336 436h-182v-223h182c85 0 135 41 135 112c0 69 -50 111 -135 111z" />
    <glyph glyph-name="uniF727.mono" 
d="M337 0h-45v90h-161v37h161v78h-161v37h147l-187 235h54l170 -214l170 214h53l-188 -235h147v-37h-160v-78h160v-37h-160v-90z" />
    <glyph glyph-name="gbreve.alt" horiz-adv-x="615" 
d="M292 489c62 0 114 -20 155 -59l129 59v-40l-103 -49c23 -34 34 -70 34 -109c0 -41 -11 -77 -34 -109c45 -43 68 -96 68 -159c0 -62 -23 -115 -69 -160c-45 -45 -104 -67 -176 -67c-69 0 -126 20 -172 61s-71 91 -74 152h46c3 -49 24 -89 62 -122s84 -49 138 -49
c57 0 104 18 142 54c38 35 57 79 57 131c0 49 -17 91 -50 126c-41 -38 -92 -57 -153 -57c-64 0 -116 19 -156 58s-60 86 -60 141c0 54 20 100 60 139s92 59 156 59zM461 290c0 45 -16 83 -48 112c-32 30 -72 45 -121 45s-89 -15 -121 -45c-32 -29 -48 -67 -48 -112
s16 -82 48 -112c32 -29 72 -44 121 -44s89 15 121 44c32 30 48 67 48 112zM291 578c-35 0 -65 12 -90 37s-37 55 -38 92h40c1 -52 39 -91 88 -91s88 40 89 91h39c0 -37 -13 -67 -38 -92s-55 -37 -90 -37z" />
    <glyph glyph-name="uniF653.mono" 
d="M283 594h44v-106c63 -3 114 -18 153 -43v-46c-53 32 -109 48 -169 48c-93 0 -141 -35 -141 -87c0 -24 14 -44 29 -56c7 -5 19 -11 34 -17c31 -12 42 -15 82 -24l56 -14c12 -3 28 -9 49 -17s36 -16 45 -25c20 -17 39 -47 39 -84c0 -79 -74 -127 -177 -134v-106h-44v106
c-75 4 -133 21 -174 50v49c57 -39 123 -58 196 -58c93 0 153 37 153 94c0 28 -15 48 -44 63s-55 21 -99 33l-20 5c-41 11 -65 17 -98 32c-43 22 -73 51 -73 103c0 72 58 121 159 128v106z" />
    <glyph glyph-name="uniF725.mono" 
d="M505 0h-419v41h27c12 0 21 5 27 14c12 19 12 34 12 65v59h-66v41h66v74c0 128 72 195 201 195c56 0 106 -13 149 -40v-45c-44 29 -92 43 -144 43c-107 0 -161 -53 -161 -160v-67h250v-41h-250v-87c0 -23 -7 -40 -21 -51h329v-41z" />
    <glyph glyph-name="gcommaaccent.alt" horiz-adv-x="615" 
d="M292 489c62 0 114 -20 155 -59l129 59v-40l-103 -49c23 -34 34 -70 34 -109c0 -41 -11 -77 -34 -109c45 -43 68 -96 68 -159c0 -62 -23 -115 -69 -160c-45 -45 -104 -67 -176 -67c-69 0 -126 20 -172 61s-71 91 -74 152h46c3 -49 24 -89 62 -122s84 -49 138 -49
c57 0 104 18 142 54c38 35 57 79 57 131c0 49 -17 91 -50 126c-41 -38 -92 -57 -153 -57c-64 0 -116 19 -156 58s-60 86 -60 141c0 54 20 100 60 139s92 59 156 59zM461 290c0 45 -16 83 -48 112c-32 30 -72 45 -121 45s-89 -15 -121 -45c-32 -29 -48 -67 -48 -112
s16 -82 48 -112c32 -29 72 -44 121 -44s89 15 121 44c32 30 48 67 48 112zM311 720h40l-55 -168h-50z" />
    <glyph glyph-name="uniF722.mono" 
d="M138 215v262h233c109 0 173 -61 173 -152s-66 -151 -174 -151h-187v-70h215v-37h-215v-67h-45v67h-74v37h74v70h-74v41h74zM363 436h-180v-221h180c85 0 135 39 135 110s-50 111 -135 111z" />
    <glyph glyph-name="gcircumflex.alt" horiz-adv-x="615" 
d="M292 489c62 0 114 -20 155 -59l129 59v-40l-103 -49c23 -34 34 -70 34 -109c0 -41 -11 -77 -34 -109c45 -43 68 -96 68 -159c0 -62 -23 -115 -69 -160c-45 -45 -104 -67 -176 -67c-69 0 -126 20 -172 61s-71 91 -74 152h46c3 -49 24 -89 62 -122s84 -49 138 -49
c57 0 104 18 142 54c38 35 57 79 57 131c0 49 -17 91 -50 126c-41 -38 -92 -57 -153 -57c-64 0 -116 19 -156 58s-60 86 -60 141c0 54 20 100 60 139s92 59 156 59zM461 290c0 45 -16 83 -48 112c-32 30 -72 45 -121 45s-89 -15 -121 -45c-32 -29 -48 -67 -48 -112
s16 -82 48 -112c32 -29 72 -44 121 -44s89 15 121 44c32 30 48 67 48 112zM215 576h-50l108 130h49l107 -130h-50l-82 99z" />
    <glyph glyph-name="abreve.alt" horiz-adv-x="632" 
d="M299 -12c-72 0 -131 24 -176 73s-68 108 -68 177s23 128 68 177s104 74 176 74c84 0 150 -32 197 -97v85h45v-477h-45v84c-47 -64 -112 -96 -197 -96zM307 30c83 0 158 49 189 118v180c-32 69 -108 119 -189 119c-59 0 -108 -20 -147 -60s-58 -90 -58 -149
s19 -109 58 -149c39 -39 88 -59 147 -59zM311 578c-35 0 -65 12 -90 37s-37 55 -38 92h40c1 -52 39 -91 88 -91s88 40 89 91h39c0 -37 -13 -67 -38 -92s-55 -37 -90 -37z" />
    <glyph glyph-name="aogonek.alt" horiz-adv-x="632" 
d="M570 -193c-64 0 -106 43 -106 99c0 35 11 66 32 94v84c-47 -64 -112 -96 -197 -96c-72 0 -131 24 -176 73s-68 108 -68 177s23 128 68 177s104 74 176 74c84 0 150 -32 197 -97v85h45v-477c-26 -29 -39 -59 -39 -89c0 -41 32 -70 76 -70c13 0 26 2 40 6v-34
c-13 -4 -29 -6 -48 -6zM307 30c83 0 158 49 189 118v180c-32 69 -108 119 -189 119c-59 0 -108 -20 -147 -60s-58 -90 -58 -149s19 -109 58 -149c39 -39 88 -59 147 -59z" />
    <glyph glyph-name="amacron.alt" horiz-adv-x="632" 
d="M299 -12c-72 0 -131 24 -176 73s-68 108 -68 177s23 128 68 177s104 74 176 74c84 0 150 -32 197 -97v85h45v-477h-45v84c-47 -64 -112 -96 -197 -96zM307 30c83 0 158 49 189 118v180c-32 69 -108 119 -189 119c-59 0 -108 -20 -147 -60s-58 -90 -58 -149
s19 -109 58 -149c39 -39 88 -59 147 -59zM430 625h-230v38h230v-38z" />
    <glyph glyph-name="uniF721.mono" 
d="M325 -12c-115 0 -183 37 -183 104c0 31 16 57 47 76h-81v37h390v-37h-246c-33 -12 -62 -39 -62 -68c0 -44 47 -70 139 -70c57 0 107 9 148 27v-43c-45 -17 -96 -26 -152 -26zM498 280h-390v37h265c37 16 55 37 55 63c0 45 -45 67 -136 67c-53 0 -101 -10 -143 -29v43
c43 19 93 28 152 28c108 0 173 -37 173 -102c0 -31 -13 -55 -40 -70h64v-37z" />
    <glyph glyph-name="uni20B4.mono" 
d="M330 -12c-140 0 -218 57 -218 149c0 53 23 96 70 131h-109v43h473v-43h-296c-61 -34 -91 -75 -91 -124c0 -72 60 -112 175 -112c64 0 121 13 172 38v-46c-48 -24 -107 -36 -176 -36zM546 407h-473v43h325c47 29 71 66 71 110c0 72 -56 108 -169 108
c-59 0 -114 -12 -165 -36v46c47 23 103 34 168 34c139 0 214 -59 214 -148c0 -45 -19 -83 -57 -114h86v-43z" />
    <glyph glyph-name="breve.cap" horiz-adv-x="520" 
d="M131 893h40c1 -52 39 -92 88 -92s88 40 89 92h39c-1 -37 -13 -68 -38 -93s-55 -37 -90 -37s-65 12 -90 37s-37 56 -38 93z" />
    <glyph glyph-name="Q.alt01" horiz-adv-x="849" 
d="M423 -12c-99 0 -182 34 -249 103c-66 69 -99 155 -99 259c0 103 33 189 99 258c67 69 150 104 249 104s181 -35 248 -104s100 -155 100 -258c0 -99 -31 -184 -94 -253l87 -97h-56l-61 69c-63 -54 -138 -81 -224 -81zM423 32c74 0 138 24 193 71l-189 214h55l164 -185
c52 61 78 133 78 218c0 91 -29 166 -87 227s-129 91 -214 91s-156 -30 -214 -91s-87 -136 -87 -227s29 -166 87 -227s129 -91 214 -91z" />
    <glyph glyph-name="hungarumlaut.cap" horiz-adv-x="550" 
d="M326 763h-49l97 130h60zM182 763h-49l96 130h62z" />
    <glyph glyph-name="gdotaccent.alt" horiz-adv-x="615" 
d="M292 489c62 0 114 -20 155 -59l129 59v-40l-103 -49c23 -34 34 -70 34 -109c0 -41 -11 -77 -34 -109c45 -43 68 -96 68 -159c0 -62 -23 -115 -69 -160c-45 -45 -104 -67 -176 -67c-69 0 -126 20 -172 61s-71 91 -74 152h46c3 -49 24 -89 62 -122s84 -49 138 -49
c57 0 104 18 142 54c38 35 57 79 57 131c0 49 -17 91 -50 126c-41 -38 -92 -57 -153 -57c-64 0 -116 19 -156 58s-60 86 -60 141c0 54 20 100 60 139s92 59 156 59zM461 290c0 45 -16 83 -48 112c-32 30 -72 45 -121 45s-89 -15 -121 -45c-32 -29 -48 -67 -48 -112
s16 -82 48 -112c32 -29 72 -44 121 -44s89 15 121 44c32 30 48 67 48 112zM265 619c-36 33 21 90 54 54c36 -33 -21 -90 -54 -54z" />
    <glyph glyph-name="cyrbreve.cap" horiz-adv-x="541" 
d="M260 755c-95 0 -156 56 -157 143h41c0 -63 45 -105 116 -105c68 0 114 44 114 105h41c-1 -85 -66 -143 -155 -143z" />
    <glyph glyph-name="idieresis_idieresis" horiz-adv-x="476" 
d="M149 0h-45v477h45v-477zM372 0h-45v477h45v-477zM419 619c-34 32 21 86 51 51c35 -30 -19 -85 -51 -51zM5 619c-34 32 21 86 51 51c35 -30 -19 -85 -51 -51zM212 619c-34 32 21 86 51 51c35 -30 -19 -85 -51 -51z" />
    <glyph glyph-name="caron.cap" horiz-adv-x="527" 
d="M287 763h-48l-107 130h49l82 -99l82 99h50z" />
    <glyph glyph-name="ring.cap" horiz-adv-x="521" 
d="M260 736c-52 0 -95 42 -95 93s43 93 95 93c51 0 92 -42 92 -93s-41 -93 -92 -93zM260 769c33 0 60 27 60 60c0 35 -27 61 -60 61c-35 0 -61 -26 -61 -61c0 -33 26 -60 61 -60z" />
    <glyph glyph-name="grave.cap" horiz-adv-x="518" 
d="M322 763h-49l-109 130h62z" />
    <glyph glyph-name="acute.cap" horiz-adv-x="504" 
d="M216 763h-49l96 130h61z" />
    <glyph glyph-name="macron.cap" horiz-adv-x="528" 
d="M379 808h-233v40h233v-40z" />
    <glyph glyph-name="dieresis.cap" horiz-adv-x="517" 
d="M331 799c-34 32 21 86 51 51c35 -30 -19 -85 -51 -51zM141 799c-34 32 21 86 51 51c35 -30 -19 -85 -51 -51z" />
    <glyph glyph-name="circumflex.cap" horiz-adv-x="521" 
d="M177 763h-50l108 130h49l107 -130h-50l-82 99z" />
    <glyph glyph-name="franc.mono" 
d="M161 0h-46v165h-119v43h119v492h463v-43h-417v-268h346v-43h-346v-138h183v-43h-183v-165z" />
    <glyph glyph-name="aacute.alt" horiz-adv-x="632" 
d="M299 -12c-72 0 -131 24 -176 73s-68 108 -68 177s23 128 68 177s104 74 176 74c84 0 150 -32 197 -97v85h45v-477h-45v84c-47 -64 -112 -96 -197 -96zM307 30c83 0 158 49 189 118v180c-32 69 -108 119 -189 119c-59 0 -108 -20 -147 -60s-58 -90 -58 -149
s19 -109 58 -149c39 -39 88 -59 147 -59zM308 577h-49l96 130h61z" />
    <glyph glyph-name="agrave.alt" horiz-adv-x="632" 
d="M299 -12c-72 0 -131 24 -176 73s-68 108 -68 177s23 128 68 177s104 74 176 74c84 0 150 -32 197 -97v85h45v-477h-45v84c-47 -64 -112 -96 -197 -96zM307 30c83 0 158 49 189 118v180c-32 69 -108 119 -189 119c-59 0 -108 -20 -147 -60s-58 -90 -58 -149
s19 -109 58 -149c39 -39 88 -59 147 -59zM365 577h-49l-109 130h62z" />
    <glyph glyph-name="acircumflex.alt" horiz-adv-x="632" 
d="M299 -12c-72 0 -131 24 -176 73s-68 108 -68 177s23 128 68 177s104 74 176 74c84 0 150 -32 197 -97v85h45v-477h-45v84c-47 -64 -112 -96 -197 -96zM307 30c83 0 158 49 189 118v180c-32 69 -108 119 -189 119c-59 0 -108 -20 -147 -60s-58 -90 -58 -149
s19 -109 58 -149c39 -39 88 -59 147 -59zM227 576h-50l108 130h49l107 -130h-50l-82 99z" />
    <glyph glyph-name="adieresis.alt" horiz-adv-x="632" 
d="M299 -12c-72 0 -131 24 -176 73s-68 108 -68 177s23 128 68 177s104 74 176 74c84 0 150 -32 197 -97v85h45v-477h-45v84c-47 -64 -112 -96 -197 -96zM307 30c83 0 158 49 189 118v180c-32 69 -108 119 -189 119c-59 0 -108 -20 -147 -60s-58 -90 -58 -149
s19 -109 58 -149c39 -39 88 -59 147 -59zM377 619c-34 32 21 86 51 51c35 -30 -19 -85 -51 -51zM187 619c-34 32 21 86 51 51c35 -30 -19 -85 -51 -51z" />
    <glyph glyph-name="atilde.alt" horiz-adv-x="632" 
d="M299 -12c-72 0 -131 24 -176 73s-68 108 -68 177s23 128 68 177s104 74 176 74c84 0 150 -32 197 -97v85h45v-477h-45v84c-47 -64 -112 -96 -197 -96zM307 30c83 0 158 49 189 118v180c-32 69 -108 119 -189 119c-59 0 -108 -20 -147 -60s-58 -90 -58 -149
s19 -109 58 -149c39 -39 88 -59 147 -59zM384 593c-19 0 -44 10 -76 31c-31 21 -54 32 -67 32c-25 0 -38 -19 -41 -57h-36c3 59 32 97 76 97c19 0 44 -10 75 -31c32 -21 54 -31 66 -31c24 0 38 19 42 57h36c-3 -59 -31 -98 -75 -98z" />
    <glyph glyph-name="lira.mono" 
d="M536 0h-456v43h24c30 0 45 26 45 77v103h-69v43h69v114h-69v43h69v68c0 140 83 221 220 221c63 0 118 -15 163 -46v-48c-43 33 -96 50 -159 50c-115 0 -178 -64 -178 -183v-62h284v-43h-284v-114h284v-43h-284v-128c0 -24 -7 -41 -22 -52h363v-43z" />
    <glyph glyph-name="aring.alt" horiz-adv-x="632" 
d="M299 -12c-72 0 -131 24 -176 73s-68 108 -68 177s23 128 68 177s104 74 176 74c84 0 150 -32 197 -97v85h45v-477h-45v84c-47 -64 -112 -96 -197 -96zM307 30c83 0 158 49 189 118v180c-32 69 -108 119 -189 119c-59 0 -108 -20 -147 -60s-58 -90 -58 -149
s19 -109 58 -149c39 -39 88 -59 147 -59zM309 552c-53 0 -95 42 -95 93s42 93 95 93c49 0 91 -42 91 -93s-42 -93 -91 -93zM309 585c33 0 60 27 60 60c0 35 -27 61 -60 61c-35 0 -62 -26 -62 -61c0 -33 27 -60 62 -60z" />
    <glyph glyph-name="Q.alt02" horiz-adv-x="850" 
d="M342 -3c-79 17 -144 58 -193 123s-74 141 -74 230c0 103 33 189 99 258c67 69 150 104 249 104s181 -35 248 -104s100 -155 100 -258c0 -95 -29 -177 -86 -244s-130 -105 -218 -115c18 -6 43 -17 76 -34c67 -35 126 -59 181 -59c30 0 56 8 77 23v-47
c-22 -13 -48 -20 -78 -20c-107 -4 -245 110 -327 106c-59 0 -109 -22 -152 -67v52c27 25 59 43 98 52zM209 123c58 -61 129 -91 214 -91s156 30 214 91s87 136 87 227s-29 166 -87 227s-129 91 -214 91s-156 -30 -214 -91s-87 -136 -87 -227s29 -166 87 -227z" />
    <glyph glyph-name="T_h" horiz-adv-x="1083" 
d="M614 336v-336h-45v657h-236v-657h-46v657h-251v43h578v-306c43 52 118 95 203 95c121 0 185 -72 185 -199v-290h-45v281c0 68 -21 116 -54 137c-32 21 -62 29 -99 29s-73 -11 -109 -34c-36 -22 -63 -48 -81 -77z" />
    <glyph glyph-name="f_j" horiz-adv-x="565" 
d="M335 -204c-31 0 -57 6 -77 18v43c22 -13 45 -19 69 -19c59 0 89 34 89 103v495h-244v-436h-45v436h-99v41h99v95c0 84 45 135 126 135c35 0 66 -7 93 -20v-43c-29 14 -57 21 -84 21c-57 0 -90 -38 -90 -103v-85h289v-544c0 -97 -53 -137 -126 -137zM465 619
c-33 -36 -90 21 -54 54c33 36 90 -21 54 -54z" />
    <glyph glyph-name="f.alt01" horiz-adv-x="337" 
d="M135 436v-436h-45v572c0 84 45 135 126 135c35 0 66 -7 93 -20v-43c-29 14 -57 21 -84 21c-57 0 -90 -38 -90 -103v-85h174v-41h-174z" />
    <glyph glyph-name="t.alt" horiz-adv-x="354" 
d="M206 -12c-83 0 -124 52 -124 137v506h45v-154h178v-41h-178v-299c0 -77 27 -107 90 -107c28 0 55 7 81 22v-42c-21 -15 -51 -22 -92 -22z" />
    <glyph glyph-name="f_f_t" horiz-adv-x="977" 
d="M172 436v-436h-45v436h-99v41h99v95c0 84 45 135 126 135c35 0 66 -7 93 -20v-43c-29 14 -57 21 -84 21c-57 0 -90 -38 -90 -103v-85h244v95c0 84 45 135 126 135c35 0 66 -7 93 -20v-43c-29 14 -57 21 -84 21c-57 0 -90 -38 -90 -103v-85h244v154h45v-154h178v-41h-178
v-299c0 -77 27 -107 90 -107c28 0 55 7 81 22v-42c-21 -15 -51 -22 -92 -22c-83 0 -124 52 -124 137v311h-244v-436h-45v436h-244z" />
    <glyph glyph-name="uni043F_uni0438" horiz-adv-x="979" 
d="M135 0h-45v477h415v-409l342 409h41v-477h-45v408l-341 -408h-42v436h-325v-436z" />
    <glyph glyph-name="uni041F_uni0418" horiz-adv-x="1261" 
d="M151 0h-46v700h535v-622l473 622h42v-700h-46v624l-475 -624h-40v657h-443v-657z" />
    <glyph glyph-name="uni041D_uni0418" horiz-adv-x="1275" 
d="M648 0h-40v355h-457v-355h-46v700h46v-302h457v302h46v-622l473 622h42v-700h-46v624z" />
    <glyph glyph-name="uni043D_uni0438" horiz-adv-x="987" 
d="M510 0h-42v225h-333v-225h-45v477h45v-211h333v211h45v-409l342 409h41v-477h-45v408z" />
    <glyph glyph-name="uni0418_uni041D" horiz-adv-x="1275" 
d="M145 0h-40v700h46v-622l473 622h42v-302h457v302h46v-700h-46v355h-457v-355h-46v624z" />
    <glyph glyph-name="uni0438_uni043D" horiz-adv-x="987" 
d="M132 0h-42v477h45v-409l342 409h41v-211h333v211h45v-477h-45v225h-333v-225h-45v408z" />
    <glyph glyph-name="uni0438_uni0439" horiz-adv-x="992" 
d="M132 0h-42v477h45v-409l342 409h41v-409l342 409h41v-477h-45v408l-341 -408h-42v408zM687 558c-93 0 -155 58 -155 142h41c0 -60 45 -104 114 -104c67 0 112 44 112 104h41c0 -41 -15 -75 -44 -102s-66 -40 -109 -40z" />
    <glyph glyph-name="uni0418_uni0419" horiz-adv-x="1287" 
d="M145 0h-40v700h46v-622l473 622h42v-622l473 622h42v-700h-46v624l-475 -624h-40v624zM901 755c-95 0 -156 56 -157 143h41c0 -63 45 -105 116 -105c68 0 114 44 114 105h41c-1 -85 -66 -143 -155 -143z" />
    <glyph glyph-name="tilde.cap" horiz-adv-x="519" 
d="M334 776c-19 0 -44 10 -75 31s-53 32 -66 32c-26 0 -40 -19 -43 -57h-36c3 59 31 96 76 96c19 0 44 -10 75 -31c32 -20 54 -30 67 -30c24 0 38 19 42 57h36c-3 -59 -31 -98 -76 -98z" />
    <glyph glyph-name="Euro.mono" 
d="M417 -12c-81 0 -150 25 -206 74c-55 50 -90 117 -103 201h-93v43h88c-1 11 -2 27 -2 49c0 25 1 46 4 65h-90v43h98c17 75 53 136 107 181s120 68 197 68c69 0 129 -17 178 -52v-49c-51 38 -110 57 -175 57c-128 0 -226 -78 -259 -205h276v-43h-284c-4 -21 -6 -43 -6 -65
c0 -13 1 -29 2 -49h288v-43h-281c25 -143 124 -231 264 -231c77 0 140 24 191 71v-51c-51 -43 -116 -64 -194 -64z" />
    <glyph glyph-name="sterling.mono" 
d="M535 0h-455v43h24c30 0 45 26 45 77v184h-69v43h69v144c0 140 81 221 220 221c63 0 118 -15 163 -46v-48c-43 33 -96 50 -159 50c-115 0 -178 -64 -178 -183v-138h294v-43h-294v-209c0 -25 -8 -42 -23 -52h363v-43z" />
    <glyph glyph-name="yen.mono" 
d="M337 0h-46v149h-215v43h215v114h-215v43h197l-237 351h54l224 -333l225 333h53l-238 -351h199v-43h-216v-114h216v-43h-216v-149z" />
    <glyph glyph-name="t_t" horiz-adv-x="711" 
d="M274 -12c-83 0 -124 52 -124 137v311h-122v41h122v154h45v-154h244v154h45v-154h178v-41h-178v-299c0 -77 27 -107 90 -107c28 0 55 7 81 22v-42c-21 -15 -51 -22 -92 -22c-83 0 -124 52 -124 137v311h-244v-299c0 -77 27 -107 90 -107c28 0 55 7 81 22v-42
c-21 -15 -51 -22 -92 -22z" />
    <glyph glyph-name="dollar.mono" 
d="M280 814h47v-103c71 -4 133 -23 187 -58v-49c-64 43 -134 64 -210 64c-124 0 -188 -58 -188 -130c-4 -45 28 -77 56 -98c9 -6 22 -12 39 -19c18 -7 32 -12 43 -15l48 -14l21 -6l68 -21c17 -5 37 -14 61 -26c24 -11 42 -23 55 -36c25 -25 48 -68 48 -120
c0 -57 -22 -103 -66 -137c-43 -34 -97 -53 -162 -57v-103h-47v103c-96 5 -185 37 -232 74v53c27 -23 62 -42 107 -59s94 -25 145 -25c61 0 110 14 149 41s59 64 59 110c0 40 -19 73 -40 93c-11 10 -27 20 -48 29c-21 10 -40 17 -56 22c-15 5 -37 11 -66 19l-75 22
c-18 7 -38 15 -61 26c-62 32 -88 70 -92 145c0 47 18 86 54 118c37 33 89 51 156 54v103z" />
    <glyph glyph-name="franclow.mono" 
d="M185 0h-45v68h-80v37h80v372h375v-42h-330v-184h267v-40h-267v-106h141v-37h-141v-68z" />
    <glyph glyph-name="uniF64E.mono" 
d="M137 159h-77v37h68c-2 14 -3 28 -3 43c0 11 1 23 3 36h-68v37h76c13 53 42 96 85 128c44 33 96 49 157 49c53 0 101 -12 144 -37v-44c-133 80 -303 30 -338 -96h234v-37h-243c-2 -12 -3 -24 -3 -37c0 -11 1 -25 4 -42h242v-37h-232c27 -80 104 -129 197 -129
c56 0 105 15 148 45v-45c-42 -28 -93 -42 -154 -42c-119 0 -211 67 -240 171z" />
    <glyph glyph-name="peseta.mono" 
d="M108 0h-46v489h-87v43h87v168h291c128 0 206 -65 215 -168h79v-43h-80c-11 -101 -87 -166 -214 -166h-245v-323zM108 657v-291h241c111 0 174 53 174 146c0 92 -63 145 -174 145h-241z" />
    <glyph glyph-name="uni2156.mono" horiz-adv-x="832" 
d="M259 0h-48l407 700h48zM313 322h-260v32l128 120c53 49 75 79 75 119c0 43 -33 72 -84 72c-41 0 -78 -16 -111 -47v45c32 28 70 42 115 42c71 0 123 -44 123 -107c0 -51 -25 -89 -84 -144l-99 -95h197v-37zM631 -5c-40 0 -76 9 -107 26v41c33 -19 68 -29 105 -29
c63 0 109 37 109 88c0 48 -41 84 -105 84c-34 0 -65 -5 -94 -15l25 188h192v-37h-160l-13 -107c14 4 33 6 58 6c80 0 140 -48 140 -119c0 -37 -15 -67 -44 -91c-29 -23 -64 -35 -106 -35z" />
    <glyph glyph-name="uni2157.mono" horiz-adv-x="832" 
d="M237 0h-48l407 700h48zM636 -5c-40 0 -76 9 -107 26v41c33 -19 68 -29 105 -29c63 0 109 37 109 88c0 48 -41 84 -105 84c-33 0 -65 -5 -94 -15l25 188h192v-37h-160l-13 -107c14 4 33 6 58 6c80 0 140 -48 140 -119c0 -37 -15 -67 -44 -91c-29 -23 -64 -35 -106 -35z
M157 317c-45 0 -82 10 -112 29v40c33 -21 70 -31 110 -31c56 0 105 35 105 87c0 51 -40 83 -101 83c-17 0 -31 -2 -44 -6v29l116 115h-170v37h228v-31l-114 -112c69 -4 127 -42 127 -115c0 -37 -14 -67 -42 -90c-27 -23 -62 -35 -103 -35z" />
    <glyph glyph-name="uni2158.mono" horiz-adv-x="832" 
d="M261 0h-48l407 700h48zM633 -5c-40 0 -76 9 -107 26v41c33 -19 68 -29 105 -29c63 0 109 37 109 88c0 48 -41 84 -105 84c-34 0 -65 -5 -94 -15l25 188h192v-37h-160l-13 -107c14 4 33 6 58 6c80 0 140 -48 140 -119c0 -37 -15 -67 -44 -91c-29 -23 -64 -35 -106 -35z
M294 322h-42v103h-202v32l204 243h40v-239h62v-36h-62v-103zM252 643l-152 -182h152v182z" />
    <glyph glyph-name="uni2159.mono" horiz-adv-x="832" 
d="M211 0h-48l407 700h48zM217 322h-43v333l-104 -63v43l107 65h40v-378zM636 -5c-93 0 -145 72 -145 177c0 61 15 111 44 151c30 40 70 60 121 60c33 0 61 -7 84 -22v-40c-23 16 -50 24 -79 24c-75 0 -128 -62 -129 -155c26 35 63 53 111 53c69 0 123 -49 123 -121
c0 -73 -57 -127 -130 -127zM634 32c52 0 90 38 90 90c0 51 -39 86 -90 86c-43 0 -79 -26 -99 -65c3 -65 40 -111 99 -111z" />
    <glyph glyph-name="uni215A.mono" horiz-adv-x="832" 
d="M150 317c-40 0 -76 9 -107 26v41c33 -19 68 -29 105 -29c63 0 109 37 109 88c0 48 -41 84 -105 84c-33 0 -65 -5 -94 -15l25 188h192v-37h-160l-13 -107c14 4 33 6 58 6c80 0 140 -48 140 -119c0 -37 -15 -67 -44 -91c-29 -23 -64 -35 -106 -35zM660 -5
c-93 0 -145 72 -145 177c0 61 15 111 44 151c30 40 70 60 121 60c33 0 61 -7 84 -22v-40c-23 16 -50 24 -79 24c-75 0 -128 -62 -129 -155c26 35 63 53 111 53c69 0 123 -49 123 -121c0 -73 -57 -127 -130 -127zM658 32c52 0 90 38 90 90c0 51 -39 86 -90 86
c-43 0 -79 -26 -99 -65c3 -65 40 -111 99 -111zM235 0h-48l407 700h48z" />
    <glyph glyph-name="uni2155.mono" horiz-adv-x="832" 
d="M213 0h-48l407 700h48zM220 322h-43v333l-104 -63v43l107 65h40v-378zM611 -5c-40 0 -76 9 -107 26v41c33 -19 68 -29 105 -29c63 0 109 37 109 88c0 48 -41 84 -105 84c-34 0 -65 -5 -94 -15l25 188h192v-37h-160l-13 -107c14 4 33 6 58 6c80 0 140 -48 140 -119
c0 -37 -15 -67 -44 -91c-29 -23 -64 -35 -106 -35z" />
    <glyph glyph-name="twothirds.mono" horiz-adv-x="832" 
d="M304 322h-260v32l128 120c53 49 75 79 75 119c0 43 -33 72 -84 72c-41 0 -78 -16 -111 -47v45c32 28 70 42 115 42c71 0 123 -44 123 -107c0 -51 -25 -89 -84 -144l-99 -95h197v-37zM648 -5c-45 0 -82 10 -112 29v40c33 -21 70 -31 110 -31c56 0 105 35 105 87
c0 51 -40 83 -101 83c-16 0 -31 -2 -44 -6v29l116 115h-170v37h228v-31l-114 -112c69 -4 127 -42 127 -115c0 -37 -14 -67 -42 -90c-27 -23 -62 -35 -103 -35zM250 0h-48l407 700h48z" />
    <glyph glyph-name="onethird.mono" horiz-adv-x="832" 
d="M203 0h-48l407 700h48zM209 322h-43v333l-104 -63v43l107 65h40v-378zM626 -5c-45 0 -82 10 -112 29v40c33 -21 70 -31 110 -31c56 0 105 35 105 87c0 51 -40 83 -101 83c-16 0 -31 -2 -44 -6v29l116 115h-170v37h228v-31l-114 -112c69 -4 127 -42 127 -115
c0 -37 -14 -67 -42 -90c-27 -23 -62 -35 -103 -35z" />
    <glyph glyph-name="seveneighths.mono" horiz-adv-x="844" 
d="M483 104c0 47 26 79 77 98c-38 15 -57 43 -57 82c0 59 54 99 126 99c73 0 127 -40 127 -99c0 -39 -19 -67 -57 -82c51 -19 77 -51 77 -98c0 -67 -63 -109 -147 -109s-146 42 -146 109zM733 107c0 47 -43 76 -104 76s-103 -29 -103 -76c0 -44 43 -76 103 -76
s104 32 104 76zM629 216c51 0 87 25 87 64c0 41 -36 67 -87 67s-86 -26 -86 -67c0 -39 37 -64 86 -64zM149 322h-47l175 341h-203v37h251v-33zM201 0h-48l407 700h48z" />
    <glyph glyph-name="fiveeighths.mono" horiz-adv-x="844" 
d="M511 104c0 47 26 79 77 98c-38 15 -57 43 -57 82c0 59 54 99 126 99c73 0 127 -40 127 -99c0 -39 -19 -67 -57 -82c51 -19 77 -51 77 -98c0 -67 -63 -109 -147 -109s-146 42 -146 109zM761 107c0 47 -43 76 -104 76s-103 -29 -103 -76c0 -44 43 -76 103 -76
s104 32 104 76zM657 216c51 0 87 25 87 64c0 41 -36 67 -87 67s-86 -26 -86 -67c0 -39 37 -64 86 -64zM150 317c-40 0 -76 9 -107 26v41c33 -19 68 -29 105 -29c63 0 109 37 109 88c0 48 -41 84 -105 84c-33 0 -65 -5 -94 -15l25 188h192v-37h-160l-13 -107c14 4 33 6 58 6
c80 0 140 -48 140 -119c0 -37 -15 -67 -44 -91c-29 -23 -64 -35 -106 -35zM229 0h-48l407 700h48z" />
    <glyph glyph-name="threeeighths.mono" horiz-adv-x="844" 
d="M511 104c0 47 26 79 77 98c-38 15 -57 43 -57 82c0 59 54 99 126 99c73 0 127 -40 127 -99c0 -39 -19 -67 -57 -82c51 -19 77 -51 77 -98c0 -67 -63 -109 -147 -109s-146 42 -146 109zM761 107c0 47 -43 76 -104 76s-103 -29 -103 -76c0 -44 43 -76 103 -76
s104 32 104 76zM657 216c51 0 87 25 87 64c0 41 -36 67 -87 67s-86 -26 -86 -67c0 -39 37 -64 86 -64zM148 317c-45 0 -82 10 -112 29v40c33 -21 70 -31 110 -31c56 0 105 35 105 87c0 51 -40 83 -101 83c-16 0 -31 -2 -44 -6v29l116 115h-170v37h228v-31l-114 -112
c69 -4 127 -42 127 -115c0 -37 -14 -67 -42 -90c-27 -23 -62 -35 -103 -35zM229 0h-48l407 700h48z" />
    <glyph glyph-name="oneeighth.mono" horiz-adv-x="844" 
d="M485 104c0 47 26 79 77 98c-38 15 -57 43 -57 82c0 59 54 99 126 99c73 0 127 -40 127 -99c0 -39 -19 -67 -57 -82c51 -19 77 -51 77 -98c0 -67 -63 -109 -147 -109s-146 42 -146 109zM735 107c0 47 -43 76 -104 76s-103 -29 -103 -76c0 -44 43 -76 103 -76
s104 32 104 76zM631 216c51 0 87 25 87 64c0 41 -36 67 -87 67s-86 -26 -86 -67c0 -39 37 -64 86 -64zM209 322h-43v333l-104 -63v43l107 65h40v-378zM202 0h-48l407 700h48z" />
    <glyph glyph-name="onequarter.mono" horiz-adv-x="832" 
d="M696 0h-42v103h-202v32l204 243h40v-239h62v-36h-62v-103zM654 321l-152 -182h152v182zM223 322h-43v333l-104 -63v43l107 65h40v-378zM216 0h-48l407 700h48z" />
    <glyph glyph-name="onehalf.mono" horiz-adv-x="832" 
d="M196 0h-48l407 700h48zM202 322h-43v333l-104 -63v43l107 65h40v-378zM777 0h-260v32l128 120c53 49 75 79 75 119c0 43 -33 72 -84 72c-41 0 -78 -16 -111 -47v45c32 28 70 42 115 42c71 0 123 -44 123 -107c0 -51 -25 -89 -84 -144l-99 -95h197v-37z" />
    <glyph glyph-name="threequarters.mono" horiz-adv-x="832" 
d="M239 0h-48l407 700h48zM718 0h-42v103h-202v32l204 243h40v-239h62v-36h-62v-103zM676 321l-152 -182h152v182zM159 317c-45 0 -82 10 -112 29v40c33 -21 70 -31 110 -31c56 0 105 35 105 87c0 51 -40 83 -101 83c-17 0 -31 -2 -44 -6v29l116 115h-170v37h228v-31
l-114 -112c69 -4 127 -42 127 -115c0 -37 -14 -67 -42 -90c-27 -23 -62 -35 -103 -35z" />
    <glyph glyph-name="Idieresis_Idieresis" horiz-adv-x="509" 
d="M157 0h-46v700h46v-700zM398 0h-46v700h46v-700zM444 799c-34 32 21 86 51 51c35 -30 -19 -85 -51 -51zM13 799c-34 32 21 86 51 51c35 -30 -19 -85 -51 -51zM228 799c-34 32 21 86 51 51c35 -30 -19 -85 -51 -51z" />
    <glyph glyph-name="O_C" horiz-adv-x="1342" 
d="M1076 -12c-75 0 -143 20 -202 61s-101 95 -127 164c-25 -68 -67 -123 -126 -164c-58 -41 -124 -61 -198 -61c-99 0 -182 34 -249 103c-66 69 -99 155 -99 259c0 103 33 189 99 258c67 69 150 104 249 104c74 0 140 -21 198 -62c59 -41 101 -96 126 -164
c25 69 67 123 126 164s127 62 203 62s143 -18 200 -55v-50c-61 41 -127 61 -199 61c-86 0 -159 -30 -218 -91c-59 -60 -88 -136 -88 -227s29 -167 88 -228c59 -60 132 -90 219 -90c83 0 154 24 214 73v-51c-58 -44 -130 -66 -216 -66zM209 123c58 -61 129 -91 214 -91
s156 30 214 91s87 136 87 227s-29 166 -87 227s-129 91 -214 91s-156 -30 -214 -91s-87 -136 -87 -227s29 -166 87 -227z" />
    <glyph glyph-name="O_O" horiz-adv-x="1495" 
d="M1072 -12c-75 0 -142 20 -200 61s-100 96 -125 164c-25 -68 -67 -123 -126 -164c-58 -41 -124 -61 -198 -61c-99 0 -182 34 -249 103c-66 69 -99 155 -99 259c0 103 33 189 99 258c67 69 150 104 249 104c74 0 140 -21 198 -62c59 -41 101 -96 126 -164
c25 69 67 123 125 164s125 62 200 62c99 0 181 -35 248 -104s100 -155 100 -258s-33 -190 -100 -259s-149 -103 -248 -103zM858 123c58 -61 129 -91 214 -91s156 30 214 91s87 136 87 227s-29 166 -87 227s-129 91 -214 91s-156 -30 -214 -91s-87 -136 -87 -227
s29 -166 87 -227zM209 123c58 -61 129 -91 214 -91s156 30 214 91s87 136 87 227s-29 166 -87 227s-129 91 -214 91s-156 -30 -214 -91s-87 -136 -87 -227s29 -166 87 -227z" />
    <glyph glyph-name="o_c" horiz-adv-x="984" 
d="M766 -12c-104 0 -188 56 -228 143c-40 -87 -123 -143 -230 -143c-75 0 -136 24 -183 73s-70 108 -70 177s23 128 70 177s108 74 183 74c107 0 190 -57 230 -144c39 87 124 144 229 144c53 0 101 -12 144 -37v-44c-45 26 -91 39 -139 39c-60 0 -110 -20 -151 -60
c-40 -40 -60 -90 -60 -149s20 -109 60 -149c41 -39 91 -59 151 -59c56 0 105 15 148 45v-45c-42 -28 -93 -42 -154 -42zM160 89c40 -39 89 -59 148 -59s108 20 147 59c40 40 60 90 60 149s-20 109 -60 149c-39 40 -88 60 -147 60s-108 -20 -148 -60
c-39 -40 -59 -90 -59 -149s20 -109 59 -149z" />
    <glyph glyph-name="g.alt" horiz-adv-x="615" 
d="M292 489c62 0 114 -20 155 -59l129 59v-40l-103 -49c23 -34 34 -70 34 -109c0 -41 -11 -77 -34 -109c45 -43 68 -96 68 -159c0 -62 -23 -115 -69 -160c-45 -45 -104 -67 -176 -67c-69 0 -126 20 -172 61s-71 91 -74 152h46c3 -49 24 -89 62 -122s84 -49 138 -49
c57 0 104 18 142 54c38 35 57 79 57 131c0 49 -17 91 -50 126c-41 -38 -92 -57 -153 -57c-64 0 -116 19 -156 58s-60 86 -60 141c0 54 20 100 60 139s92 59 156 59zM461 290c0 45 -16 83 -48 112c-32 30 -72 45 -121 45s-89 -15 -121 -45c-32 -29 -48 -67 -48 -112
s16 -82 48 -112c32 -29 72 -44 121 -44s89 15 121 44c32 30 48 67 48 112z" />
    <glyph glyph-name="a.alt" horiz-adv-x="632" 
d="M299 -12c-72 0 -131 24 -176 73s-68 108 -68 177s23 128 68 177s104 74 176 74c84 0 150 -32 197 -97v85h45v-477h-45v84c-47 -64 -112 -96 -197 -96zM307 30c83 0 158 49 189 118v180c-32 69 -108 119 -189 119c-59 0 -108 -20 -147 -60s-58 -90 -58 -149
s19 -109 58 -149c39 -39 88 -59 147 -59z" />
    <glyph glyph-name="o_o" horiz-adv-x="1076" 
d="M768 -12c-108 0 -191 56 -230 143c-40 -87 -123 -143 -230 -143c-75 0 -136 24 -183 73s-70 108 -70 177s23 128 70 177s108 74 183 74c107 0 190 -57 230 -144c40 87 123 144 230 144c75 0 135 -25 182 -74s71 -108 71 -177s-24 -128 -71 -177s-107 -73 -182 -73z
M768 447c-58 0 -107 -20 -147 -60c-40 -39 -60 -89 -60 -149c0 -59 20 -109 59 -149c40 -39 89 -59 148 -59s108 20 147 59c40 40 60 90 60 149s-20 109 -60 149c-39 40 -88 60 -147 60zM515 238c0 59 -20 109 -60 149c-39 40 -88 60 -147 60s-108 -20 -148 -60
c-39 -40 -59 -90 -59 -149s20 -109 59 -149c40 -39 89 -59 148 -59s108 19 147 58c40 39 60 89 60 150z" />
    <glyph glyph-name="liralow" horiz-adv-x="547" 
d="M482 0h-419v41h27c26 0 39 22 39 65v41h-66v37h66v78h-66v37h66c0 123 72 190 201 190c56 0 106 -13 149 -40v-45c-45 29 -94 43 -147 43c-105 0 -157 -49 -158 -148h248v-37h-248v-78h248v-37h-248v-55c0 -23 -7 -40 -21 -51h329v-41z" />
    <glyph glyph-name="franclow" horiz-adv-x="529" 
d="M151 0h-45v68h-80v37h80v372h375v-42h-330v-184h267v-40h-267v-106h141v-37h-141v-68z" />
    <glyph glyph-name="pesolow" horiz-adv-x="607" 
d="M109 304h-87v42h87v131h234c100 0 163 -52 172 -131h83v-42h-83c-8 -80 -73 -131 -173 -131h-188v-173h-45v304zM336 436h-182v-223h182c85 0 135 41 135 112c0 69 -50 111 -135 111z" />
    <glyph glyph-name="H_B" horiz-adv-x="1222" 
d="M151 0h-46v700h46v-302h457v302h294c123 0 196 -64 196 -169c0 -77 -32 -127 -97 -150c100 -15 160 -86 160 -187c0 -117 -84 -194 -225 -194h-328v355h-457v-355zM654 353v-310h275c116 0 182 56 182 155s-66 155 -182 155h-275zM654 657v-264h242c100 0 157 48 157 132
s-57 132 -157 132h-242z" />
    </font>
</defs>
</svg>
