<?xml version="1.0" standalone="no"?>
<!DOCTYPE svg PUBLIC "-//W3C//DTD SVG 1.1//EN" "http://www.w3.org/Graphics/SVG/1.1/DTD/svg11.dtd" >
<svg xmlns="http://www.w3.org/2000/svg" xmlns:xlink="http://www.w3.org/1999/xlink" version="1.1">
<metadata>
Created by FontForge 20170910 at Wed Dec 11 00:50:23 2013
 By Jimmy Wärting
Copyright (c) 2012 by Vyacheslav Kirilenko, Gayane Bagdasaryan. All rights reserved.
</metadata>
<defs>
<font id="Geometria-Medium" horiz-adv-x="644" >
  <font-face 
    font-family="Geometria"
    font-weight="500"
    font-stretch="normal"
    units-per-em="1000"
    panose-1="2 11 6 3 2 2 4 2 2 4"
    ascent="777"
    descent="-223"
    x-height="491"
    cap-height="700"
    bbox="-453 -251 1431 932"
    underline-thickness="50"
    underline-position="-100"
    unicode-range="U+0020-FB04"
  />
<missing-glyph horiz-adv-x="727" 
d="M555 0h-471v700h471v-700zM168 627v-554h303v554h-303z" />
    <glyph glyph-name="ij" unicode="ij" horiz-adv-x="559" 
d="M194 0h-108v491h108v-491zM140 579c-39 0 -68 29 -68 68s29 69 68 69c37 0 67 -30 67 -69s-30 -68 -67 -68zM310 -205c-43 0 -75 7 -98 20v94c22 -13 46 -19 72 -19c54 0 81 29 81 87v514h108v-526c0 -111 -64 -170 -163 -170zM466 598c-27 -25 -69 -25 -96 0
c-27 27 -26 71 -1 98c27 27 72 27 97 0c27 -27 27 -71 0 -98z" />
    <glyph glyph-name="f_f" unicode="ff" horiz-adv-x="744" 
d="M223 396v-396h-108v396h-92v95h92v64c0 93 54 155 154 155c43 0 81 -7 115 -21v-91c-31 12 -60 18 -85 18c-51 0 -76 -27 -76 -80v-45h227v64c0 93 54 155 154 155c43 0 81 -7 115 -21v-91c-31 12 -60 18 -85 18c-51 0 -76 -27 -76 -80v-45h161v-95h-161v-396h-108v396
h-227z" />
    <glyph glyph-name="fi" unicode="fi" 
d="M223 491h335v-491h-108v396h-227v-396h-108v396h-92v95h92v64c0 93 54 155 154 155c43 0 81 -7 115 -21v-91c-31 12 -60 18 -85 18c-51 0 -76 -27 -76 -80v-45zM504 579c-39 0 -68 29 -68 68s29 69 68 69c37 0 67 -30 67 -69s-30 -68 -67 -68z" />
    <glyph glyph-name="fl" unicode="fl" horiz-adv-x="680" 
d="M450 700h108v-554c0 -40 18 -60 55 -60c14 0 28 3 41 10v-93c-21 -11 -48 -16 -81 -16c-71 0 -123 36 -123 129v280h-227v-396h-108v396h-92v95h92v64c0 93 54 155 154 155c43 0 81 -7 115 -21v-91c-31 12 -60 18 -85 18c-51 0 -76 -27 -76 -80v-45h227v209z" />
    <glyph glyph-name="f_f_i" unicode="ffi" horiz-adv-x="975" 
d="M115 0v396h-92v95h92v64c0 93 54 155 154 155c43 0 81 -7 115 -21v-91c-31 12 -60 18 -85 18c-51 0 -76 -27 -76 -80v-45h227v64c0 93 54 155 154 155c43 0 81 -7 115 -21v-91c-31 12 -60 18 -85 18c-51 0 -76 -27 -76 -80v-45h335v-491h-108v396h-227v-396h-108v396
h-227v-396h-108zM839 579c-39 0 -68 29 -68 68s29 69 68 69c37 0 67 -30 67 -69s-30 -68 -67 -68z" />
    <glyph glyph-name="f_f_l" unicode="ffl" horiz-adv-x="1014" 
d="M223 396v-396h-108v396h-92v95h92v64c0 93 54 155 154 155c43 0 81 -7 115 -21v-91c-31 12 -60 18 -85 18c-51 0 -76 -27 -76 -80v-45h227v64c0 93 54 155 154 155c43 0 81 -7 115 -21v-91c-31 12 -60 18 -85 18c-51 0 -76 -27 -76 -80v-45h227v209h108v-554
c0 -40 18 -60 54 -60c15 0 29 3 41 10v-93c-21 -11 -48 -16 -80 -16c-71 0 -123 36 -123 129v280h-227v-396h-108v396h-227z" />
    <glyph glyph-name=".notdef" horiz-adv-x="727" 
d="M555 0h-471v700h471v-700zM168 627v-554h303v554h-303z" />
    <glyph glyph-name="NULL" horiz-adv-x="0" 
 />
    <glyph glyph-name="CR" horiz-adv-x="333" 
 />
    <glyph glyph-name="space" unicode=" " horiz-adv-x="260" 
 />
    <glyph glyph-name="exclam" unicode="!" horiz-adv-x="310" 
d="M203 12c-27 -27 -71 -27 -99 0c-27 28 -27 72 0 100c28 28 72 28 99 0c28 -28 28 -72 0 -100zM203 225h-97l-22 475h142z" />
    <glyph glyph-name="quotedbl" unicode="&#x22;" horiz-adv-x="376" 
d="M139 424h-94v276h94v-276zM332 424h-94v276h94v-276z" />
    <glyph glyph-name="numbersign" unicode="#" horiz-adv-x="750" 
d="M234 0h-86l29 179h-142l13 83h141l29 175h-142l13 84h141l29 179h86l-29 -179h173l28 179h85l-28 -179h142l-14 -84h-141l-28 -175h142l-13 -83h-142l-29 -179h-85l29 179h-174zM302 437l-27 -175h173l28 175h-174z" />
    <glyph glyph-name="dollar" unicode="$" horiz-adv-x="630" 
d="M364 -9v-102h-108v101c-85 8 -155 32 -210 72v118c27 -25 65 -46 112 -64c48 -18 96 -27 145 -27c92 0 162 40 162 105c0 28 -14 50 -31 65c-8 7 -20 14 -36 21c-32 15 -51 20 -96 33l-14 4c-39 11 -70 21 -91 29s-44 20 -70 35c-51 32 -72 77 -72 141
c0 101 74 172 201 188v101h108v-101c62 -7 118 -26 169 -55v-109c-71 43 -145 65 -222 65c-96 0 -143 -38 -143 -90c0 -49 64 -79 144 -102c41 -11 81 -24 121 -39c81 -29 145 -92 145 -184c0 -56 -20 -102 -60 -138c-39 -36 -91 -58 -154 -67z" />
    <glyph glyph-name="percent" unicode="%" horiz-adv-x="819" 
d="M245 0h-84l414 700h83zM207 713c50 0 91 -16 124 -49s49 -73 49 -121s-16 -88 -49 -121c-33 -32 -74 -48 -124 -48c-49 0 -90 16 -123 48c-32 33 -48 73 -48 121s16 88 48 121c33 33 74 49 123 49zM207 447c55 0 94 41 94 96c0 56 -38 96 -94 96c-53 0 -92 -41 -92 -96
s39 -96 92 -96zM610 326c50 0 91 -16 124 -49s49 -73 49 -120c0 -48 -16 -88 -49 -121s-74 -49 -124 -49c-49 0 -90 16 -123 49c-32 33 -48 73 -48 121c0 47 16 87 48 120c33 33 74 49 123 49zM610 61c56 0 94 40 94 96c0 55 -39 96 -94 96c-53 0 -92 -41 -92 -96
s39 -96 92 -96z" />
    <glyph glyph-name="ampersand" unicode="&#x26;" horiz-adv-x="737" 
d="M506 661v-108c-49 43 -103 65 -160 65c-68 0 -110 -34 -110 -90c0 -17 5 -35 16 -54s22 -35 32 -46c11 -11 25 -26 44 -44l182 -178c29 45 45 103 47 172h104c0 -95 -25 -177 -75 -246l136 -132h-140l-64 61c-61 -49 -133 -74 -214 -74c-73 0 -135 20 -186 60
c-51 41 -76 97 -76 168c0 47 13 88 39 123c27 35 56 60 87 74c-27 38 -40 80 -40 125c0 51 19 93 56 126s85 50 143 50c67 0 127 -17 179 -52zM307 82c54 0 100 16 138 49l-213 208c-43 -16 -83 -63 -83 -122c0 -85 70 -135 158 -135z" />
    <glyph glyph-name="quotesingle" unicode="'" horiz-adv-x="183" 
d="M139 424h-94v276h94v-276z" />
    <glyph glyph-name="parenleft" unicode="(" horiz-adv-x="375" 
d="M340 -206h-111c-98 123 -147 275 -147 456s49 333 147 456h111c-105 -135 -158 -287 -158 -456c0 -171 53 -323 158 -456z" />
    <glyph glyph-name="parenright" unicode=")" horiz-adv-x="375" 
d="M146 -206h-111c105 133 158 285 158 456c0 169 -53 321 -158 456h111c98 -123 147 -275 147 -456s-49 -333 -147 -456z" />
    <glyph glyph-name="asterisk" unicode="*" horiz-adv-x="423" 
d="M249 332h-74l2 123l-106 -63l-38 64l108 61l-108 60l38 64l106 -64l-2 123h74l-2 -123l106 64l37 -64l-109 -60l109 -61l-37 -64l-106 63z" />
    <glyph glyph-name="plus" unicode="+" horiz-adv-x="631" 
d="M364 81h-98v199h-198v97h198v199h98v-199h199v-97h-199v-199z" />
    <glyph glyph-name="comma" unicode="," horiz-adv-x="254" 
d="M93 -152h-85l83 280h124z" />
    <glyph glyph-name="hyphen" unicode="-" horiz-adv-x="491" 
d="M393 227h-295v97h295v-97z" />
    <glyph glyph-name="period" unicode="." horiz-adv-x="250" 
d="M126 -8c-40 0 -71 31 -71 71c0 39 31 70 71 70c37 0 70 -31 70 -70c0 -40 -31 -71 -70 -71z" />
    <glyph glyph-name="slash" unicode="/" horiz-adv-x="523" 
d="M102 -140h-110l421 932h110z" />
    <glyph glyph-name="zero" unicode="0" horiz-adv-x="706" 
d="M353 -13c-89 0 -160 35 -214 105c-53 71 -80 157 -80 258s27 186 80 257c54 71 125 106 214 106s161 -35 214 -106c54 -71 81 -156 81 -257s-27 -187 -81 -258c-53 -70 -125 -105 -214 -105zM353 90c55 0 100 25 134 75s51 112 51 185s-17 135 -51 185s-79 75 -134 75
s-99 -25 -133 -76c-34 -50 -51 -111 -51 -184s17 -134 51 -185c34 -50 78 -75 133 -75z" />
    <glyph glyph-name="one" unicode="1" horiz-adv-x="382" 
d="M287 0h-108v582l-153 -82v107l165 93h96v-700z" />
    <glyph glyph-name="two" unicode="2" horiz-adv-x="577" 
d="M527 0h-487v80l220 206c49 45 83 83 103 112c20 30 30 62 30 96c0 71 -56 118 -139 118c-69 0 -135 -29 -196 -87v115c58 49 127 73 207 73c66 0 122 -19 168 -57c47 -38 70 -88 70 -149c0 -48 -12 -91 -35 -129c-23 -37 -62 -83 -118 -136l-151 -144h328v-98z" />
    <glyph glyph-name="three" unicode="3" horiz-adv-x="574" 
d="M249 -13c-83 0 -153 18 -209 53v107c57 -41 125 -62 203 -62c47 0 86 13 119 38c33 26 50 61 50 104c0 80 -63 136 -162 136c-31 0 -61 -5 -89 -16v75l188 182h-283v96h429v-83l-179 -172c57 -6 105 -29 146 -68s61 -89 61 -150c0 -72 -26 -130 -79 -174
c-52 -44 -117 -66 -195 -66z" />
    <glyph glyph-name="four" unicode="4" horiz-adv-x="637" 
d="M500 0h-108v183h-363v84l363 433h108v-423h109v-94h-109v-183zM392 559l-238 -282h238v282z" />
    <glyph glyph-name="five" unicode="5" horiz-adv-x="592" 
d="M251 -13c-75 0 -141 16 -197 48v103c57 -35 121 -53 192 -53c51 0 93 13 127 38c35 26 52 60 52 103c0 81 -69 139 -176 139c-54 0 -110 -10 -168 -30l46 365h360v-96h-280l-20 -161c26 7 55 11 88 11c76 0 138 -21 187 -63s74 -97 74 -165c0 -73 -27 -131 -82 -174
c-54 -43 -122 -65 -203 -65z" />
    <glyph glyph-name="six" unicode="6" horiz-adv-x="639" 
d="M333 -13c-85 0 -152 29 -201 87c-48 58 -72 138 -72 241c0 113 28 207 83 283c55 77 132 115 230 115c59 0 110 -15 154 -44v-100c-43 29 -91 44 -142 44c-67 0 -119 -23 -155 -70c-35 -47 -54 -103 -57 -170c41 53 101 79 181 79c64 0 117 -21 160 -62s65 -94 65 -161
c0 -71 -24 -130 -71 -175s-105 -67 -175 -67zM326 84c41 0 76 13 103 40s41 62 41 103s-14 73 -42 98c-27 25 -62 38 -103 38c-35 0 -67 -11 -97 -32c-29 -21 -49 -48 -58 -79c8 -104 64 -168 156 -168z" />
    <glyph glyph-name="seven" unicode="7" horiz-adv-x="561" 
d="M208 0h-118l303 601h-353v99h478v-85z" />
    <glyph glyph-name="eight" unicode="8" horiz-adv-x="643" 
d="M456 372c84 -28 139 -93 139 -177c0 -64 -26 -115 -79 -152c-52 -37 -117 -56 -194 -56s-142 19 -195 56s-79 88 -79 152c0 84 56 149 140 177c-65 28 -106 83 -106 152c0 56 23 101 68 136s103 53 172 53s126 -18 171 -53s68 -80 68 -136c0 -69 -41 -124 -105 -152z
M322 408c76 0 134 44 134 107s-58 107 -134 107c-77 0 -135 -44 -135 -107s58 -107 135 -107zM482 202c0 35 -15 64 -46 87c-30 23 -68 34 -114 34s-84 -11 -115 -34s-46 -52 -46 -87s15 -64 46 -87s70 -35 115 -35s83 12 114 35s46 52 46 87z" />
    <glyph glyph-name="nine" unicode="9" horiz-adv-x="639" 
d="M306 713c85 0 152 -29 200 -87c49 -58 73 -138 73 -241c0 -113 -28 -207 -83 -284c-55 -76 -132 -114 -230 -114c-59 0 -110 15 -154 44v100c43 -29 91 -44 142 -44c67 0 119 23 154 70c36 47 55 103 58 170c-41 -53 -101 -79 -181 -79c-64 0 -118 20 -161 61
s-64 95 -64 162c0 71 23 129 70 174s106 68 176 68zM313 616c-41 0 -76 -14 -103 -41s-41 -61 -41 -102s14 -74 41 -99c28 -25 63 -37 104 -37c35 0 67 11 96 32c30 21 50 48 59 79c-8 104 -64 168 -156 168z" />
    <glyph glyph-name="colon" unicode=":" horiz-adv-x="250" 
d="M126 342c-40 0 -71 31 -71 71c0 39 31 70 71 70c37 0 70 -31 70 -70c0 -40 -31 -71 -70 -71zM126 -8c-40 0 -71 31 -71 71c0 39 31 70 71 70c37 0 70 -31 70 -70c0 -40 -31 -71 -70 -71z" />
    <glyph glyph-name="semicolon" unicode=";" horiz-adv-x="261" 
d="M93 -152h-85l83 280h124zM152 342c-40 0 -71 31 -71 71c0 39 31 70 71 70c37 0 70 -31 70 -70c0 -40 -31 -71 -70 -71z" />
    <glyph glyph-name="less" unicode="&#x3c;" horiz-adv-x="631" 
d="M563 176v-105l-495 205v101l495 207v-106l-383 -151z" />
    <glyph glyph-name="equal" unicode="=" horiz-adv-x="631" 
d="M563 394h-495v97h495v-97zM563 166h-495v97h495v-97z" />
    <glyph glyph-name="greater" unicode="&#x3e;" horiz-adv-x="631" 
d="M563 276l-495 -205v105l382 151l-382 151v106l495 -207v-101z" />
    <glyph glyph-name="question" unicode="?" horiz-adv-x="484" 
d="M216 -8c-40 0 -70 31 -70 71c0 39 30 70 70 70c39 0 70 -31 70 -70c0 -40 -31 -71 -70 -71zM265 225h-104v145c47 9 87 26 122 51s53 55 53 89c0 65 -53 103 -133 103c-59 0 -117 -19 -175 -57v95c53 39 118 59 193 59c63 0 116 -17 160 -52s66 -82 66 -141
c0 -49 -18 -90 -54 -125c-35 -34 -78 -59 -128 -75v-92z" />
    <glyph glyph-name="at" unicode="@" horiz-adv-x="951" 
d="M475 -163c-121 0 -223 42 -307 125s-126 188 -126 313c0 123 42 227 126 311c84 85 186 127 307 127c123 0 226 -40 309 -120c83 -79 125 -177 125 -292c0 -73 -17 -131 -50 -176s-76 -67 -129 -67c-65 0 -113 31 -136 75c-28 -40 -84 -78 -155 -78
c-59 0 -107 21 -144 63s-55 94 -55 156s18 114 55 156s85 63 143 63s106 -23 143 -68v55h101v-279c0 -68 24 -102 73 -102c33 0 61 18 84 55c24 37 36 87 36 148c0 104 -37 193 -111 268s-170 112 -289 112c-115 0 -210 -40 -286 -119c-75 -79 -113 -175 -113 -288
c0 -114 38 -210 113 -289s171 -118 286 -118c73 0 144 19 214 58v-35c-65 -36 -136 -54 -214 -54zM468 145c47 0 90 28 113 65v128c-23 37 -66 65 -113 65c-71 0 -122 -56 -122 -129s51 -129 122 -129z" />
    <glyph glyph-name="A" unicode="A" horiz-adv-x="762" 
d="M139 0h-117l306 704h106l306 -704h-118l-76 174h-332zM380 565l-128 -294h256z" />
    <glyph glyph-name="B" unicode="B" horiz-adv-x="721" 
d="M431 0h-344v700h318c125 0 206 -64 206 -172c0 -72 -40 -124 -93 -144c85 -16 149 -84 149 -187c0 -59 -21 -107 -64 -143c-42 -36 -99 -54 -172 -54zM197 321v-220h214c85 0 137 41 137 112c0 69 -50 108 -137 108h-214zM197 599v-181h189c73 0 116 32 116 91
s-43 90 -116 90h-189z" />
    <glyph glyph-name="C" unicode="C" horiz-adv-x="684" 
d="M431 -13c-105 0 -193 34 -264 102c-70 69 -105 156 -105 261s35 192 105 260c70 69 158 103 264 103c72 0 135 -16 190 -47v-111c-57 37 -120 55 -189 55c-73 0 -135 -25 -184 -74s-73 -111 -73 -186s25 -138 74 -187c50 -49 112 -73 187 -73c79 0 146 21 200 64v-111
c-58 -37 -126 -56 -205 -56z" />
    <glyph glyph-name="D" unicode="D" horiz-adv-x="778" 
d="M334 0h-247v700h247c113 0 204 -33 275 -98s107 -149 107 -252s-36 -188 -107 -253s-162 -97 -275 -97zM197 599v-498h127c87 0 156 22 205 67s74 105 74 182s-25 137 -74 182s-118 67 -205 67h-127z" />
    <glyph glyph-name="E" unicode="E" horiz-adv-x="641" 
d="M598 0h-511v700h498v-101h-388v-175h316v-101h-316v-222h401v-101z" />
    <glyph glyph-name="F" unicode="F" horiz-adv-x="625" 
d="M197 0h-110v700h497v-101h-387v-183h307v-101h-307v-315z" />
    <glyph glyph-name="G" unicode="G" horiz-adv-x="774" 
d="M426 -13c-103 0 -190 34 -260 102c-69 69 -104 156 -104 261s35 192 105 260c70 69 158 103 263 103c85 0 157 -20 216 -60v-109c-64 44 -134 66 -209 66c-76 0 -139 -24 -188 -73s-74 -111 -74 -188s24 -140 72 -188c49 -47 108 -71 179 -71s128 20 169 59v255h110v-300
c-57 -68 -162 -117 -279 -117z" />
    <glyph glyph-name="H" unicode="H" horiz-adv-x="759" 
d="M197 0h-110v700h110v-276h365v276h110v-700h-110v323h-365v-323z" />
    <glyph glyph-name="I" unicode="I" horiz-adv-x="295" 
d="M202 0h-110v700h110v-700z" />
    <glyph glyph-name="J" unicode="J" horiz-adv-x="509" 
d="M196 -13c-67 0 -122 14 -164 43v109c40 -33 88 -49 143 -49c97 0 145 46 145 150v460h110v-478c0 -164 -91 -235 -234 -235z" />
    <glyph glyph-name="K" unicode="K" horiz-adv-x="682" 
d="M197 0h-110v700h110v-286l287 286h141l-324 -320l376 -380h-150l-330 336v-336z" />
    <glyph glyph-name="L" unicode="L" horiz-adv-x="600" 
d="M570 0h-483v700h111v-599h372v-101z" />
    <glyph glyph-name="M" unicode="M" horiz-adv-x="848" 
d="M197 0h-110v700h112l227 -315l225 315h110v-700h-110v532l-195 -264h-64l-195 264v-532z" />
    <glyph glyph-name="N" unicode="N" horiz-adv-x="773" 
d="M195 0h-108v700h96l395 -507v507h108v-700h-93l-398 509v-509z" />
    <glyph glyph-name="O" unicode="O" horiz-adv-x="839" 
d="M245 164c47 -49 105 -74 174 -74s127 25 174 74c47 50 71 112 71 186s-24 136 -71 185c-47 50 -105 75 -174 75s-127 -25 -174 -75c-47 -49 -70 -111 -70 -185s23 -136 70 -186zM675 91c-68 -69 -153 -104 -256 -104s-188 35 -256 104c-67 70 -101 156 -101 259
s34 189 101 258c68 70 153 105 256 105s188 -35 256 -105c68 -69 102 -155 102 -258s-34 -189 -102 -259z" />
    <glyph glyph-name="P" unicode="P" horiz-adv-x="662" 
d="M197 0h-110v700h301c73 0 130 -19 171 -57c42 -37 63 -86 63 -146c0 -61 -21 -111 -63 -150c-41 -39 -98 -58 -171 -58h-191v-289zM197 599v-209h182c83 0 132 38 132 105s-49 104 -132 104h-182z" />
    <glyph glyph-name="Q" unicode="Q" horiz-adv-x="839" 
d="M430 -13h-11c-103 0 -188 35 -256 104c-67 70 -101 156 -101 259s34 189 101 258c68 70 153 105 256 105s188 -35 256 -105c68 -69 102 -155 102 -258c0 -77 -20 -146 -61 -207c-40 -61 -94 -104 -161 -131c37 -38 74 -57 112 -57c32 0 60 7 83 22v-101
c-29 -15 -63 -22 -100 -22c-77 0 -140 44 -220 133zM245 164c47 -49 105 -74 174 -74s127 25 174 74c47 50 71 112 71 186s-24 136 -71 185c-47 50 -105 75 -174 75s-127 -25 -174 -75c-47 -49 -70 -111 -70 -185s23 -136 70 -186z" />
    <glyph glyph-name="R" unicode="R" horiz-adv-x="733" 
d="M197 0h-110v700h319c71 0 128 -18 169 -55s62 -85 62 -144c0 -96 -56 -170 -152 -193l220 -308h-133l-211 296h-164v-296zM197 599v-206h202c80 0 127 37 127 104c0 64 -47 102 -127 102h-202z" />
    <glyph glyph-name="S" unicode="S" horiz-adv-x="630" 
d="M308 -13c-107 0 -194 25 -263 75v119c28 -25 66 -46 113 -64c48 -18 96 -27 144 -27c92 0 162 39 162 104c0 28 -14 50 -31 65c-8 7 -20 14 -36 21c-32 15 -51 20 -96 33l-14 4c-39 11 -70 21 -91 29s-44 20 -70 35c-51 32 -72 77 -72 141c0 116 97 191 254 191
c84 0 159 -19 224 -58v-110c-71 43 -145 65 -222 65c-96 0 -143 -37 -143 -89c0 -30 17 -46 41 -63c13 -8 45 -18 62 -25l80 -23c53 -16 84 -28 128 -52c62 -33 95 -83 99 -162c0 -65 -26 -116 -77 -153s-115 -56 -192 -56z" />
    <glyph glyph-name="T" unicode="T" horiz-adv-x="639" 
d="M33 599v101h573v-101h-232v-599h-110v599h-231z" />
    <glyph glyph-name="U" unicode="U" horiz-adv-x="742" 
d="M78 296v404h110v-408c0 -131 72 -202 183 -202s184 71 184 202v408h110v-404c0 -98 -27 -174 -82 -228s-125 -81 -212 -81s-157 27 -212 80c-54 54 -81 130 -81 229z" />
    <glyph glyph-name="V" unicode="V" horiz-adv-x="757" 
d="M431 -4h-104l-301 704h122l232 -552l232 552h119z" />
    <glyph glyph-name="W" unicode="W" horiz-adv-x="1065" 
d="M366 -4h-98l-238 704h123l167 -526l170 527h87l170 -527l167 526h121l-239 -704h-97l-166 521z" />
    <glyph glyph-name="X" unicode="X" horiz-adv-x="717" 
d="M145 0h-128l277 379l-233 321h130l169 -232l169 232h128l-234 -319l278 -381h-131l-212 291z" />
    <glyph glyph-name="Y" unicode="Y" horiz-adv-x="684" 
d="M397 0h-110v317l-271 383h128l200 -283l200 283h124l-271 -380v-320z" />
    <glyph glyph-name="Z" unicode="Z" horiz-adv-x="642" 
d="M601 0h-560v78l394 521h-374v101h524v-77l-393 -522h409v-101z" />
    <glyph glyph-name="bracketleft" unicode="[" horiz-adv-x="409" 
d="M371 -206h-284v912h284v-85h-186v-742h186v-85z" />
    <glyph glyph-name="backslash" unicode="\" horiz-adv-x="522" 
d="M530 -140h-108l-421 932h108z" />
    <glyph glyph-name="bracketright" unicode="]" horiz-adv-x="409" 
d="M38 706h284v-912h-284v85h186v742h-186v85z" />
    <glyph glyph-name="asciicircum" unicode="^" horiz-adv-x="535" 
d="M147 342h-103l172 386h103l172 -386h-103l-120 291z" />
    <glyph glyph-name="underscore" unicode="_" horiz-adv-x="634" 
d="M628 -139h-622v74h622v-74z" />
    <glyph glyph-name="grave" unicode="`" horiz-adv-x="522" 
d="M148 715h134l95 -140h-98z" />
    <glyph glyph-name="a" unicode="a" horiz-adv-x="597" 
d="M538 84c11 0 20 2 29 7v-82c-15 -11 -36 -16 -63 -16c-55 0 -90 23 -103 70c-45 -51 -105 -76 -181 -76c-53 0 -97 15 -132 44s-52 70 -52 121c0 52 19 92 57 120c38 29 85 43 140 43c59 0 112 -13 157 -38v27c0 71 -48 107 -144 107c-56 0 -108 -15 -155 -44v95
c49 28 108 42 179 42c136 0 227 -68 227 -188v-183c0 -31 17 -49 41 -49zM390 139v60c-41 23 -85 35 -131 35c-72 0 -115 -28 -115 -76c0 -52 43 -78 106 -78c56 0 109 26 140 59z" />
    <glyph glyph-name="b" unicode="b" horiz-adv-x="640" 
d="M360 -13c-76 0 -134 27 -175 80v-67h-108v700h108v-276c41 53 99 80 175 80c69 0 126 -25 171 -75s67 -111 67 -183c0 -73 -22 -134 -67 -184s-102 -75 -171 -75zM331 82c45 0 83 16 113 47c30 32 45 71 45 117c0 45 -15 84 -45 115c-30 32 -68 48 -113 48
c-64 0 -119 -38 -146 -87v-152c27 -51 82 -88 146 -88z" />
    <glyph glyph-name="c" unicode="c" horiz-adv-x="520" 
d="M307 -13c-73 0 -136 24 -188 73c-51 49 -77 111 -77 187c0 75 26 137 77 185c52 48 115 72 189 72c55 0 105 -11 148 -34v-93c-44 21 -88 32 -132 32c-49 0 -90 -15 -124 -46c-33 -31 -50 -70 -50 -117s17 -87 50 -118c34 -31 75 -46 124 -46c52 0 99 12 140 37v-92
c-47 -27 -99 -40 -157 -40z" />
    <glyph glyph-name="d" unicode="d" horiz-adv-x="640" 
d="M280 -13c-69 0 -126 25 -171 75s-67 111 -67 184c0 72 22 133 67 183s102 75 171 75c76 0 134 -27 175 -80v276h108v-700h-108v67c-41 -53 -99 -80 -175 -80zM309 82c64 0 119 37 146 88v152c-27 49 -82 87 -146 87c-45 0 -83 -16 -113 -48c-30 -31 -45 -70 -45 -115
c0 -46 15 -85 45 -117c30 -31 68 -47 113 -47z" />
    <glyph glyph-name="e" unicode="e" horiz-adv-x="572" 
d="M42 246c0 73 23 135 70 184s107 74 182 74c50 0 93 -13 129 -40c73 -52 104 -133 104 -222v-28h-376c13 -83 85 -132 185 -132c57 0 109 15 158 44v-91c-45 -32 -105 -48 -181 -48s-140 24 -193 72c-52 48 -78 110 -78 187zM152 296h266c-1 30 -12 57 -35 81
s-54 36 -94 36c-79 0 -130 -53 -137 -117z" />
    <glyph glyph-name="f" unicode="f" horiz-adv-x="409" 
d="M223 396v-396h-108v396h-92v95h92v64c0 93 54 155 154 155c43 0 81 -7 115 -21v-91c-31 12 -60 18 -85 18c-51 0 -76 -27 -76 -80v-45h161v-95h-161z" />
    <glyph glyph-name="g" unicode="g" horiz-adv-x="637" 
d="M455 427v64h108v-447c0 -81 -27 -142 -81 -185c-53 -43 -118 -64 -195 -64s-141 15 -192 44v99c53 -32 113 -48 180 -48c104 0 180 47 180 152v37c-41 -51 -100 -77 -175 -77c-69 0 -126 24 -171 73s-67 108 -67 179c0 70 22 129 67 177c45 49 102 73 171 73
c77 0 135 -26 175 -77zM309 97c64 0 121 35 146 84v143c-25 51 -82 85 -146 85c-45 0 -83 -15 -113 -45s-45 -67 -45 -111s15 -81 45 -111s68 -45 113 -45z" />
    <glyph glyph-name="h" unicode="h" horiz-adv-x="614" 
d="M185 323v-323h-108v700h108v-274c48 52 108 78 180 78c116 0 182 -77 182 -204v-300h-108v276c0 47 -11 80 -34 99s-50 28 -81 28c-55 0 -111 -35 -139 -80z" />
    <glyph glyph-name="i" unicode="i" horiz-adv-x="280" 
d="M194 0h-108v491h108v-491zM140 579c-39 0 -68 29 -68 68s29 69 68 69c37 0 67 -30 67 -69s-30 -68 -67 -68z" />
    <glyph glyph-name="j" unicode="j" horiz-adv-x="280" 
d="M31 -205c-43 0 -75 7 -98 20v94c22 -13 46 -19 72 -19c54 0 81 29 81 87v514h108v-526c0 -111 -64 -170 -163 -170zM187 598c-25 -25 -70 -25 -97 0c-25 27 -25 71 0 98c27 27 72 27 97 0c27 -27 27 -71 0 -98z" />
    <glyph glyph-name="k" unicode="k" horiz-adv-x="571" 
d="M185 0h-108v700h108v-395l194 186h138l-233 -220l268 -271h-148l-219 222v-222z" />
    <glyph glyph-name="l" unicode="l" horiz-adv-x="306" 
d="M200 -13c-71 0 -123 36 -123 129v584h108v-554c0 -40 18 -60 54 -60c15 0 29 3 41 10v-93c-21 -11 -48 -16 -80 -16z" />
    <glyph glyph-name="m" unicode="m" horiz-adv-x="922" 
d="M185 0h-108v491h108v-64c37 51 91 77 162 77c77 0 134 -36 155 -88c35 51 100 88 179 88c108 0 174 -69 174 -197v-307h-108v282c0 81 -33 121 -100 121c-52 0 -105 -35 -126 -82v-321h-108v282c0 81 -34 121 -101 121c-51 0 -103 -34 -127 -79v-324z" />
    <glyph glyph-name="n" unicode="n" horiz-adv-x="614" 
d="M185 323v-323h-108v491h108v-65c48 52 108 78 180 78c116 0 182 -77 182 -204v-300h-108v276c0 96 -51 127 -115 127c-55 0 -111 -35 -139 -80z" />
    <glyph glyph-name="o" unicode="o" horiz-adv-x="623" 
d="M312 82c46 0 84 16 115 47s46 70 46 117c0 46 -15 85 -46 116s-69 47 -115 47s-85 -16 -116 -47s-46 -70 -46 -116c0 -47 15 -86 46 -117s69 -47 116 -47zM312 -13c-79 0 -143 25 -194 75s-76 111 -76 184c0 72 25 133 76 183s115 75 194 75c78 0 142 -25 193 -75
s76 -111 76 -183s-25 -133 -76 -184c-51 -50 -115 -75 -193 -75z" />
    <glyph glyph-name="p" unicode="p" horiz-adv-x="640" 
d="M360 504c69 0 126 -25 171 -75s67 -111 67 -184c0 -72 -22 -133 -67 -183s-102 -75 -171 -75c-76 0 -134 27 -175 80v-267h-108v691h108v-67c41 53 99 80 175 80zM331 409c-64 0 -119 -37 -146 -88v-152c27 -49 82 -87 146 -87c45 0 83 16 113 47c30 32 45 71 45 116
c0 46 -15 85 -45 116c-30 32 -68 48 -113 48z" />
    <glyph glyph-name="q" unicode="q" horiz-adv-x="640" 
d="M280 504c76 0 134 -27 175 -80v67h108v-691h-108v267c-41 -53 -99 -80 -175 -80c-69 0 -126 25 -171 75s-67 111 -67 183c0 73 22 134 67 184s102 75 171 75zM309 409c-45 0 -83 -16 -113 -48c-30 -31 -45 -70 -45 -116c0 -45 15 -84 45 -116c30 -31 68 -47 113 -47
c64 0 119 38 146 87v152c-27 51 -82 88 -146 88z" />
    <glyph glyph-name="r" unicode="r" horiz-adv-x="397" 
d="M185 0h-108v491h108v-85c33 57 105 98 181 98c4 0 7 0 10 -1v-108c-9 1 -19 2 -30 2c-77 0 -138 -45 -161 -96v-301z" />
    <glyph glyph-name="s" unicode="s" horiz-adv-x="512" 
d="M252 -13c-83 0 -162 21 -205 50v102c57 -39 124 -59 200 -59c68 0 108 22 108 58c0 19 -12 30 -30 39c-11 5 -32 11 -47 15l-61 15c-112 28 -165 68 -165 153c0 89 77 144 208 144c75 0 136 -15 181 -44v-99c-59 33 -118 50 -177 50c-67 0 -101 -22 -101 -54
c0 -19 13 -30 31 -39c11 -5 34 -11 47 -15l57 -12c112 -25 168 -77 168 -155c0 -89 -86 -149 -214 -149z" />
    <glyph glyph-name="t" unicode="t" horiz-adv-x="436" 
d="M128 134v262h-105v95h105v143h108v-143h155v-95h-155v-231c0 -56 25 -79 77 -79c27 0 51 6 74 18v-93c-23 -16 -60 -24 -109 -24c-92 0 -150 51 -150 147z" />
    <glyph glyph-name="u" unicode="u" horiz-adv-x="615" 
d="M430 168v323h108v-491h-108v65c-48 -52 -108 -78 -180 -78c-116 0 -182 77 -182 204v300h108v-276c0 -96 51 -127 115 -127c55 0 111 35 139 80z" />
    <glyph glyph-name="v" unicode="v" horiz-adv-x="579" 
d="M338 -4h-98l-220 495h119l153 -355l151 355h115z" />
    <glyph glyph-name="w" unicode="w" horiz-adv-x="823" 
d="M292 -4h-93l-171 495h110l115 -334l114 336h89l116 -336l114 334h109l-172 -495h-94l-119 339z" />
    <glyph glyph-name="x" unicode="x" horiz-adv-x="568" 
d="M45 491h125l116 -152l117 152h123l-178 -232l198 -259h-125l-137 179l-137 -179h-122l198 257z" />
    <glyph glyph-name="y" unicode="y" horiz-adv-x="571" 
d="M127 -205c-41 0 -70 5 -89 16v95c22 -11 46 -16 71 -16c56 0 90 40 127 128l-215 473h120l148 -346l143 346h117l-235 -544c-44 -101 -106 -152 -187 -152z" />
    <glyph glyph-name="z" unicode="z" horiz-adv-x="516" 
d="M480 0h-445v72l273 324h-255v95h411v-74l-273 -322h289v-95z" />
    <glyph glyph-name="braceleft" unicode="{" horiz-adv-x="389" 
d="M52 208v84c23 2 40 9 51 22c24 27 26 52 26 104v135c0 95 58 153 153 153h69v-85h-47c-48 0 -76 -31 -76 -78v-155c0 -75 -25 -121 -75 -138c50 -17 75 -63 75 -138v-155c0 -47 28 -78 76 -78h47v-85h-69c-95 0 -153 58 -153 153v135c0 26 -1 46 -4 61
c-5 31 -28 61 -73 65z" />
    <glyph glyph-name="bar" unicode="|" horiz-adv-x="334" 
d="M216 -111h-98v871h98v-871z" />
    <glyph glyph-name="braceright" unicode="}" horiz-adv-x="389" 
d="M337 292v-84c-23 -2 -40 -10 -52 -23c-23 -25 -25 -51 -25 -103v-135c0 -95 -58 -153 -153 -153h-69v85h47c48 0 76 31 76 78v155c0 75 25 121 75 138c-50 17 -75 63 -75 138v155c0 47 -28 78 -76 78h-47v85h69c95 0 153 -58 153 -153v-135c0 -26 1 -47 4 -62
c5 -29 28 -60 73 -64z" />
    <glyph glyph-name="asciitilde" unicode="~" horiz-adv-x="608" 
d="M427 184c-30 0 -71 9 -123 26c-52 18 -93 27 -124 27c-47 0 -85 -15 -112 -46v98c17 25 64 42 112 42c31 0 72 -9 124 -27c52 -17 93 -26 123 -26c48 0 86 15 113 46v-99c-21 -27 -58 -41 -113 -41z" />
    <glyph glyph-name="nbspace" unicode="&#xa0;" horiz-adv-x="260" 
 />
    <glyph glyph-name="exclamdown" unicode="&#xa1;" horiz-adv-x="310" 
d="M106 478c28 28 72 28 99 0c28 -27 28 -71 0 -99c-27 -28 -71 -28 -99 0c-27 28 -27 72 0 99zM107 270h97l22 -470h-142z" />
    <glyph glyph-name="cent" unicode="&#xa2;" horiz-adv-x="520" 
d="M349 -11v-106h-91v109c-62 10 -114 38 -155 84c-41 47 -61 104 -61 171c0 66 20 122 61 168s92 74 155 85v108h91v-106c36 -3 72 -14 107 -32v-93c-44 21 -88 32 -132 32c-49 0 -90 -15 -124 -46c-33 -31 -50 -70 -50 -117s17 -87 50 -118c34 -31 75 -46 124 -46
c52 0 99 12 140 37v-92c-35 -21 -74 -33 -115 -38z" />
    <glyph glyph-name="sterling" unicode="&#xa3;" horiz-adv-x="585" 
d="M542 0h-491v99h15c45 0 61 19 61 63v127h-76v89h76v103c0 145 91 232 242 232c62 0 116 -13 161 -39v-104c-42 27 -90 40 -144 40c-96 0 -149 -50 -149 -145v-87h249v-89h-249v-130c0 -26 -9 -46 -27 -60h332v-99z" />
    <glyph glyph-name="currency" unicode="&#xa4;" horiz-adv-x="569" 
d="M162 181l-65 -65l-48 47l65 66c-26 35 -39 76 -39 122s13 87 39 122l-65 65l48 48l65 -65c35 27 76 40 122 40s87 -13 122 -40l65 65l49 -48l-66 -65c26 -35 39 -76 39 -122s-13 -87 -39 -122l66 -66l-49 -47l-65 64c-36 -26 -77 -39 -122 -39c-46 0 -87 13 -122 40z
M194 260c25 -25 55 -37 90 -37s65 12 89 37c25 25 37 56 37 91s-12 65 -37 90c-24 25 -54 38 -89 38s-65 -13 -90 -38c-24 -25 -36 -55 -36 -90s12 -66 36 -91z" />
    <glyph glyph-name="yen" unicode="&#xa5;" horiz-adv-x="652" 
d="M68 135v78h203v83h-203v78h167l-219 326h128l183 -283l185 283h123l-218 -326h167v-78h-203v-83h203v-78h-203v-135h-110v135h-203z" />
    <glyph glyph-name="brokenbar" unicode="&#xa6;" horiz-adv-x="334" 
d="M216 -111h-98v353h98v-353zM216 407h-98v353h98v-353z" />
    <glyph glyph-name="section" unicode="&#xa7;" horiz-adv-x="646" 
d="M489 121c47 -31 70 -71 70 -118c0 -100 -94 -165 -242 -165c-81 0 -155 18 -221 54v108c76 -41 151 -61 225 -61c81 0 126 26 126 69c0 21 -15 41 -42 52c-16 7 -24 11 -47 18l-28 8c-13 4 -47 14 -63 18c-140 41 -218 90 -218 189c0 63 36 109 108 137
c-47 31 -70 71 -70 118c0 100 94 165 242 165c79 0 153 -18 221 -54v-108c-76 41 -151 61 -225 61c-80 0 -126 -28 -126 -68c0 -23 16 -36 38 -51c12 -7 45 -18 61 -23l40 -11l41 -12c140 -41 218 -90 218 -189c0 -64 -43 -112 -108 -137zM409 163c56 13 84 41 84 84
c0 31 -20 55 -59 72c-19 9 -39 17 -58 23c-19 7 -42 14 -71 23c-28 9 -51 16 -68 23c-52 -11 -84 -41 -84 -84c0 -31 19 -54 58 -73c20 -9 39 -16 58 -23l71 -23c29 -9 52 -16 69 -22z" />
    <glyph glyph-name="dieresis" unicode="&#xa8;" horiz-adv-x="522" 
d="M120 605c-24 24 -24 62 0 85c24 24 62 24 85 0c23 -23 23 -61 0 -85c-23 -23 -61 -23 -85 0zM327 605c-24 24 -24 62 0 85c24 24 62 24 85 0c23 -23 23 -61 0 -85c-23 -23 -61 -23 -85 0z" />
    <glyph glyph-name="copyright" unicode="&#xa9;" horiz-adv-x="848" 
d="M62 350c0 99 35 185 106 256s156 107 256 107c101 0 186 -36 256 -107c71 -71 106 -156 106 -256c0 -99 -35 -185 -106 -256s-156 -107 -257 -107s-186 35 -256 106s-105 157 -105 257zM445 153c-57 0 -106 19 -145 57s-58 85 -58 140s19 102 58 139c39 38 87 57 145 57
c38 0 72 -8 101 -23v-73c-30 19 -64 29 -101 29c-73 0 -128 -54 -128 -129c0 -76 56 -129 132 -129c41 0 77 11 106 34v-73c-31 -19 -67 -29 -110 -29zM752 350c0 92 -32 170 -96 235c-63 65 -141 98 -232 98s-169 -33 -233 -98s-96 -144 -96 -235c0 -92 32 -171 95 -236
c64 -65 142 -97 233 -97s169 33 233 98s96 144 96 235z" />
    <glyph glyph-name="ordfeminine" unicode="&#xaa;" horiz-adv-x="481" 
d="M212 504c-56 0 -90 -23 -90 -60c0 -41 34 -63 83 -63c44 0 87 21 110 48v46c-31 19 -65 29 -103 29zM422 384c8 0 15 2 21 6v-59c-11 -7 -25 -11 -44 -11c-42 0 -67 18 -76 54c-35 -39 -81 -58 -139 -58c-80 0 -140 47 -140 124s66 122 150 122c45 0 85 -10 121 -31v24
c0 57 -37 86 -111 86c-41 0 -80 -12 -117 -35v67c38 22 83 33 134 33c101 0 170 -49 170 -140v-143c0 -24 12 -39 31 -39z" />
    <glyph glyph-name="guillemotleft" unicode="&#xab;" horiz-adv-x="563" 
d="M289 38h-110l-144 180v55l144 181h110l-163 -208zM528 38h-110l-144 180v55l144 181h110l-162 -208z" />
    <glyph glyph-name="logicalnot" unicode="&#xac;" horiz-adv-x="582" 
d="M514 145h-97v166h-349v97h446v-263z" />
    <glyph glyph-name="uni00AD" unicode="&#xad;" horiz-adv-x="491" 
d="M393 227h-295v97h295v-97z" />
    <glyph glyph-name="registered" unicode="&#xae;" horiz-adv-x="848" 
d="M62 350c0 99 35 185 106 256s156 107 256 107c101 0 186 -36 256 -107c71 -71 106 -156 106 -256c0 -99 -35 -185 -106 -256s-156 -107 -257 -107s-186 35 -256 106s-105 157 -105 257zM347 168h-72v380h176c80 0 128 -45 128 -112c0 -51 -29 -90 -80 -103l119 -165h-81
l-113 156h-77v-156zM347 486v-102h100c37 0 59 19 59 50c0 35 -20 52 -59 52h-100zM752 350c0 92 -32 170 -96 235c-63 65 -141 98 -232 98s-169 -33 -233 -98s-96 -144 -96 -235c0 -92 32 -171 95 -236c64 -65 142 -97 233 -97s169 33 233 98s96 144 96 235z" />
    <glyph glyph-name="overscore" unicode="&#xaf;" horiz-adv-x="513" 
d="M395 608h-281v77h281v-77z" />
    <glyph glyph-name="degree" unicode="&#xb0;" horiz-adv-x="410" 
d="M268 622c-35 36 -91 36 -126 0c-35 -35 -35 -93 0 -128s91 -35 126 0s35 93 0 128zM95 667c31 31 68 46 110 46s78 -15 109 -46s47 -67 47 -109s-16 -78 -47 -109c-31 -30 -67 -45 -109 -45s-79 15 -110 45c-31 31 -46 67 -46 109s15 78 46 109z" />
    <glyph glyph-name="plusminus" unicode="&#xb1;" horiz-adv-x="631" 
d="M364 202h-98v167h-198v97h198v169h98v-169h199v-97h-199v-167zM563 36h-495v96h495v-96z" />
    <glyph glyph-name="twosuperior" unicode="&#xb2;" horiz-adv-x="359" 
d="M319 322h-279v64l111 96c49 41 66 67 66 96c0 28 -23 47 -59 47c-35 0 -70 -13 -105 -40v88c31 23 69 34 112 34c38 0 71 -11 99 -33c29 -21 43 -50 43 -85c0 -52 -22 -87 -82 -143l-54 -50h148v-74z" />
    <glyph glyph-name="threesuperior" unicode="&#xb3;" horiz-adv-x="330" 
d="M145 315c-47 0 -87 10 -121 30v82c37 -23 75 -34 113 -34c43 0 77 23 77 56c0 32 -26 54 -70 54c-23 0 -43 -4 -59 -11v55l91 79h-141v74h251v-66l-85 -75c53 -9 102 -43 102 -112c0 -39 -15 -71 -46 -96c-31 -24 -68 -36 -112 -36z" />
    <glyph glyph-name="acute" unicode="&#xb4;" horiz-adv-x="476" 
d="M256 575h-98l95 140h135z" />
    <glyph glyph-name="mu" unicode="&#xb5;" horiz-adv-x="624" 
d="M439 168v323h108v-491h-108v65c-47 -52 -103 -78 -168 -78c-34 0 -62 8 -85 23v-210h-109v691h109v-276c0 -47 11 -80 33 -99c23 -19 50 -28 81 -28c55 0 111 36 139 80z" />
    <glyph glyph-name="paragraph" unicode="&#xb6;" horiz-adv-x="550" 
d="M462 0h-110v302h-81c-72 0 -129 18 -170 55s-61 85 -61 144s20 107 61 144s98 55 170 55h191v-700z" />
    <glyph glyph-name="middot" unicode="&#xb7;" horiz-adv-x="250" 
d="M126 315c-40 0 -71 31 -71 71c0 39 31 70 71 70c37 0 70 -33 70 -70c0 -40 -31 -71 -70 -71z" />
    <glyph glyph-name="cedilla" unicode="&#xb8;" horiz-adv-x="493" 
d="M248 -138h-125l107 146h88z" />
    <glyph glyph-name="onesuperior" unicode="&#xb9;" horiz-adv-x="253" 
d="M210 322h-89v287l-102 -53v88l106 56h85v-378z" />
    <glyph glyph-name="ordmasculine" unicode="&#xba;" horiz-adv-x="456" 
d="M346 512c0 68 -49 119 -117 119s-118 -51 -118 -119c0 -69 50 -121 118 -121s117 52 117 121zM374 372c-37 -37 -86 -56 -145 -56s-108 19 -147 56c-38 37 -57 84 -57 139s19 102 57 139c39 37 88 56 147 56s108 -19 145 -56c38 -37 57 -84 57 -139s-19 -102 -57 -139z
" />
    <glyph glyph-name="guillemotright" unicode="&#xbb;" horiz-adv-x="563" 
d="M528 273v-55l-144 -180h-110l163 208l-163 208h110zM289 273v-55l-144 -180h-110l162 208l-162 208h110z" />
    <glyph glyph-name="onequarter" unicode="&#xbc;" horiz-adv-x="759" 
d="M196 0h-91l418 700h91zM210 322h-89v287l-102 -53v88l106 56h85v-378zM687 0h-86v92h-191v63l187 223h90v-217h55v-69h-55v-92zM601 279l-101 -118h101v118z" />
    <glyph glyph-name="onehalf" unicode="&#xbd;" horiz-adv-x="806" 
d="M196 0h-91l418 700h91zM210 322h-89v287l-102 -53v88l106 56h85v-378zM766 0h-279v64l111 96c49 41 66 67 66 96c0 28 -23 47 -59 47c-35 0 -70 -13 -105 -40v88c31 23 69 34 112 34c38 0 71 -11 99 -33c29 -21 43 -50 43 -85c0 -52 -22 -87 -82 -143l-54 -50h148v-74z
" />
    <glyph glyph-name="threequarters" unicode="&#xbe;" horiz-adv-x="805" 
d="M242 0h-91l418 700h91zM733 0h-86v92h-191v63l187 223h90v-217h55v-69h-55v-92zM647 279l-101 -118h101v118zM145 315c-47 0 -87 10 -121 30v82c37 -23 75 -34 113 -34c43 0 77 23 77 56c0 32 -26 54 -70 54c-23 0 -43 -4 -59 -11v55l91 79h-141v74h251v-66l-85 -75
c53 -9 102 -43 102 -112c0 -39 -15 -71 -46 -96c-31 -24 -68 -36 -112 -36z" />
    <glyph glyph-name="questiondown" unicode="&#xbf;" horiz-adv-x="484" 
d="M268 499c40 0 70 -31 70 -71c0 -39 -30 -70 -70 -70c-39 0 -70 31 -70 70c0 40 31 71 70 71zM219 270h104v-139c-47 -9 -88 -26 -123 -51s-52 -54 -52 -87c0 -64 53 -101 133 -101c57 0 116 19 175 56v-95c-54 -39 -118 -58 -193 -58c-63 0 -116 17 -160 52
c-44 34 -66 81 -66 141c0 48 18 89 53 122s78 58 129 74v86z" />
    <glyph glyph-name="Agrave" unicode="&#xc0;" horiz-adv-x="762" 
d="M139 0h-117l306 704h106l306 -704h-118l-76 174h-332zM380 565l-128 -294h256zM204 902h135l95 -140h-99z" />
    <glyph glyph-name="Aacute" unicode="&#xc1;" horiz-adv-x="762" 
d="M139 0h-117l306 704h106l306 -704h-118l-76 174h-332zM380 565l-128 -294h256zM430 762h-99l95 140h135z" />
    <glyph glyph-name="Acircumflex" unicode="&#xc2;" horiz-adv-x="762" 
d="M139 0h-117l306 704h106l306 -704h-118l-76 174h-332zM380 565l-128 -294h256zM214 762l114 140h112l114 -140h-101l-69 85l-69 -85h-101z" />
    <glyph glyph-name="Atilde" unicode="&#xc3;" horiz-adv-x="762" 
d="M139 0h-117l306 704h106l306 -704h-118l-76 174h-332zM380 565l-128 -294h256zM275 770h-65c1 71 42 127 102 127c19 0 44 -8 73 -25c29 -16 50 -24 63 -24c21 0 35 15 40 46h65c-1 -71 -42 -127 -102 -127c-19 0 -43 8 -72 24c-29 17 -50 25 -63 25
c-22 0 -36 -15 -41 -46z" />
    <glyph glyph-name="Adieresis" unicode="&#xc4;" horiz-adv-x="762" 
d="M139 0h-117l306 704h106l306 -704h-118l-76 174h-332zM380 565l-128 -294h256zM236 788c-24 24 -24 62 0 85c24 24 62 24 85 0c23 -23 23 -61 0 -85c-23 -23 -61 -23 -85 0zM443 788c-24 24 -24 62 0 85c24 24 62 24 85 0c23 -23 23 -61 0 -85c-23 -23 -61 -23 -85 0z
" />
    <glyph glyph-name="Aring" unicode="&#xc5;" horiz-adv-x="762" 
d="M139 0h-117l306 704h106l306 -704h-118l-76 174h-332zM380 565l-128 -294h256zM382 735c-55 0 -99 43 -99 98s44 99 99 99c53 0 98 -46 98 -99s-45 -98 -98 -98zM382 783c27 0 50 22 50 50s-23 51 -50 51c-66 3 -66 -105 0 -101z" />
    <glyph glyph-name="AE" unicode="&#xc6;" horiz-adv-x="1048" 
d="M1005 0h-504v174h-270l-102 -174h-122l411 700h574v-101h-381v-175h309v-101h-309v-222h394v-101zM501 599h-21l-192 -328h213v328z" />
    <glyph glyph-name="Ccedilla" unicode="&#xc7;" horiz-adv-x="684" 
d="M416 -138h-125l93 128c-94 10 -171 48 -232 114c-60 67 -90 149 -90 246c0 105 35 192 105 260c70 69 158 103 264 103c72 0 135 -16 190 -47v-111c-57 37 -120 55 -189 55c-73 0 -135 -25 -184 -74s-73 -111 -73 -186s25 -138 74 -187c50 -49 112 -73 187 -73
c79 0 146 21 200 64v-111c-45 -29 -98 -47 -159 -53z" />
    <glyph glyph-name="Egrave" unicode="&#xc8;" horiz-adv-x="641" 
d="M598 0h-511v700h498v-101h-388v-175h316v-101h-316v-222h401v-101zM174 902h135l95 -140h-99z" />
    <glyph glyph-name="Eacute" unicode="&#xc9;" horiz-adv-x="641" 
d="M598 0h-511v700h498v-101h-388v-175h316v-101h-316v-222h401v-101zM358 762h-99l95 140h135z" />
    <glyph glyph-name="Ecircumflex" unicode="&#xca;" horiz-adv-x="641" 
d="M175 762l114 140h112l114 -140h-101l-69 85l-69 -85h-101zM598 0h-511v700h498v-101h-388v-175h316v-101h-316v-222h401v-101z" />
    <glyph glyph-name="Edieresis" unicode="&#xcb;" horiz-adv-x="641" 
d="M598 0h-511v700h498v-101h-388v-175h316v-101h-316v-222h401v-101zM190 788c-24 24 -24 62 0 85c24 24 62 24 85 0c23 -23 23 -61 0 -85c-23 -23 -61 -23 -85 0zM397 788c-24 24 -24 62 0 85c24 24 62 24 85 0c23 -23 23 -61 0 -85c-23 -23 -61 -23 -85 0z" />
    <glyph glyph-name="Igrave" unicode="&#xcc;" horiz-adv-x="295" 
d="M202 0h-110v700h110v-700zM-32 902h135l95 -140h-99z" />
    <glyph glyph-name="Iacute" unicode="&#xcd;" horiz-adv-x="295" 
d="M202 0h-110v700h110v-700zM196 762h-99l95 140h135z" />
    <glyph glyph-name="Icircumflex" unicode="&#xce;" horiz-adv-x="295" 
d="M-20 762l114 140h112l114 -140h-101l-69 85l-69 -85h-101zM202 0h-110v700h110v-700z" />
    <glyph glyph-name="Idieresis" unicode="&#xcf;" horiz-adv-x="293" 
d="M202 0h-110v700h110v-700zM1 788c-24 24 -24 62 0 85c24 24 62 24 85 0c23 -23 23 -61 0 -85c-23 -23 -61 -23 -85 0zM208 788c-24 24 -24 62 0 85c24 24 62 24 85 0c23 -23 23 -61 0 -85c-23 -23 -61 -23 -85 0z" />
    <glyph glyph-name="Eth" unicode="&#xd0;" horiz-adv-x="828" 
d="M384 0h-247v312h-103v99h103v289h247c113 0 204 -33 275 -98s107 -149 107 -252s-36 -188 -107 -253s-162 -97 -275 -97zM247 312v-211h127c87 0 156 22 205 67s74 105 74 182s-25 137 -74 182s-118 67 -205 67h-127v-188h151v-99h-151z" />
    <glyph glyph-name="Ntilde" unicode="&#xd1;" horiz-adv-x="773" 
d="M195 0h-108v700h96l395 -507v507h108v-700h-93l-398 509v-509zM280 770h-65c1 71 42 127 102 127c19 0 44 -8 73 -25c29 -16 50 -24 63 -24c21 0 35 15 40 46h65c-1 -71 -42 -127 -102 -127c-19 0 -43 8 -72 24c-29 17 -50 25 -63 25c-22 0 -36 -15 -41 -46z" />
    <glyph glyph-name="Ograve" unicode="&#xd2;" horiz-adv-x="839" 
d="M245 164c47 -49 105 -74 174 -74s127 25 174 74c47 50 71 112 71 186s-24 136 -71 185c-47 50 -105 75 -174 75s-127 -25 -174 -75c-47 -49 -70 -111 -70 -185s23 -136 70 -186zM675 91c-68 -69 -153 -104 -256 -104s-188 35 -256 104c-67 70 -101 156 -101 259
s34 189 101 258c68 70 153 105 256 105s188 -35 256 -105c68 -69 102 -155 102 -258s-34 -189 -102 -259zM249 902h135l95 -140h-99z" />
    <glyph glyph-name="Oacute" unicode="&#xd3;" horiz-adv-x="839" 
d="M245 164c47 -49 105 -74 174 -74s127 25 174 74c47 50 71 112 71 186s-24 136 -71 185c-47 50 -105 75 -174 75s-127 -25 -174 -75c-47 -49 -70 -111 -70 -185s23 -136 70 -186zM675 91c-68 -69 -153 -104 -256 -104s-188 35 -256 104c-67 70 -101 156 -101 259
s34 189 101 258c68 70 153 105 256 105s188 -35 256 -105c68 -69 102 -155 102 -258s-34 -189 -102 -259zM454 762h-99l95 140h135z" />
    <glyph glyph-name="Ocircumflex" unicode="&#xd4;" horiz-adv-x="839" 
d="M252 762l114 140h112l114 -140h-101l-69 85l-69 -85h-101zM245 164c47 -49 105 -74 174 -74s127 25 174 74c47 50 71 112 71 186s-24 136 -71 185c-47 50 -105 75 -174 75s-127 -25 -174 -75c-47 -49 -70 -111 -70 -185s23 -136 70 -186zM675 91
c-68 -69 -153 -104 -256 -104s-188 35 -256 104c-67 70 -101 156 -101 259s34 189 101 258c68 70 153 105 256 105s188 -35 256 -105c68 -69 102 -155 102 -258s-34 -189 -102 -259z" />
    <glyph glyph-name="Otilde" unicode="&#xd5;" horiz-adv-x="839" 
d="M245 164c47 -49 105 -74 174 -74s127 25 174 74c47 50 71 112 71 186s-24 136 -71 185c-47 50 -105 75 -174 75s-127 -25 -174 -75c-47 -49 -70 -111 -70 -185s23 -136 70 -186zM675 91c-68 -69 -153 -104 -256 -104s-188 35 -256 104c-67 70 -101 156 -101 259
s34 189 101 258c68 70 153 105 256 105s188 -35 256 -105c68 -69 102 -155 102 -258s-34 -189 -102 -259zM313 770h-65c1 71 42 127 102 127c19 0 44 -8 73 -25c29 -16 50 -24 63 -24c21 0 35 15 40 46h65c-1 -71 -42 -127 -102 -127c-19 0 -43 8 -72 24
c-29 17 -50 25 -63 25c-22 0 -36 -15 -41 -46z" />
    <glyph glyph-name="Odieresis" unicode="&#xd6;" horiz-adv-x="839" 
d="M245 164c47 -49 105 -74 174 -74s127 25 174 74c47 50 71 112 71 186s-24 136 -71 185c-47 50 -105 75 -174 75s-127 -25 -174 -75c-47 -49 -70 -111 -70 -185s23 -136 70 -186zM675 91c-68 -69 -153 -104 -256 -104s-188 35 -256 104c-67 70 -101 156 -101 259
s34 189 101 258c68 70 153 105 256 105s188 -35 256 -105c68 -69 102 -155 102 -258s-34 -189 -102 -259zM274 788c-24 24 -24 62 0 85c24 24 62 24 85 0c23 -23 23 -61 0 -85c-23 -23 -61 -23 -85 0zM481 788c-24 24 -24 62 0 85c24 24 62 24 85 0c23 -23 23 -61 0 -85
c-23 -23 -61 -23 -85 0z" />
    <glyph glyph-name="multiply" unicode="&#xd7;" horiz-adv-x="574" 
d="M288 260l-151 -150l-69 68l151 150l-151 152l69 68l150 -151l151 151l68 -68l-150 -152l150 -150l-68 -68z" />
    <glyph glyph-name="Oslash" unicode="&#xd8;" horiz-adv-x="839" 
d="M419 -13c-77 0 -145 20 -204 61l-39 -48h-90l76 93c-67 69 -100 154 -100 257s34 189 101 258c68 70 153 105 256 105c74 0 142 -20 203 -61l40 48h91l-77 -93c67 -69 101 -155 101 -257c0 -103 -34 -189 -102 -259c-68 -69 -153 -104 -256 -104zM419 90
c69 0 127 25 174 74c47 50 71 112 71 186c0 67 -19 124 -58 172l-322 -391c40 -27 85 -41 135 -41zM175 350c0 -67 19 -125 57 -172l322 391c-40 27 -85 41 -135 41c-69 0 -127 -25 -174 -75c-47 -49 -70 -111 -70 -185z" />
    <glyph glyph-name="Ugrave" unicode="&#xd9;" horiz-adv-x="742" 
d="M78 296v404h110v-408c0 -131 72 -202 183 -202s184 71 184 202v408h110v-404c0 -98 -27 -174 -82 -228s-125 -81 -212 -81s-157 27 -212 80c-54 54 -81 130 -81 229zM200 902h135l95 -140h-99z" />
    <glyph glyph-name="Uacute" unicode="&#xda;" horiz-adv-x="742" 
d="M78 296v404h110v-408c0 -131 72 -202 183 -202s184 71 184 202v408h110v-404c0 -98 -27 -174 -82 -228s-125 -81 -212 -81s-157 27 -212 80c-54 54 -81 130 -81 229zM415 762h-99l95 140h135z" />
    <glyph glyph-name="Ucircumflex" unicode="&#xdb;" horiz-adv-x="742" 
d="M204 762l114 140h112l114 -140h-101l-69 85l-69 -85h-101zM78 296v404h110v-408c0 -131 72 -202 183 -202s184 71 184 202v408h110v-404c0 -98 -27 -174 -82 -228s-125 -81 -212 -81s-157 27 -212 80c-54 54 -81 130 -81 229z" />
    <glyph glyph-name="Udieresis" unicode="&#xdc;" horiz-adv-x="742" 
d="M78 296v404h110v-408c0 -131 72 -202 183 -202s184 71 184 202v408h110v-404c0 -98 -27 -174 -82 -228s-125 -81 -212 -81s-157 27 -212 80c-54 54 -81 130 -81 229zM227 788c-24 24 -24 62 0 85c24 24 62 24 85 0c23 -23 23 -61 0 -85c-23 -23 -61 -23 -85 0zM434 788
c-24 24 -24 62 0 85c24 24 62 24 85 0c23 -23 23 -61 0 -85c-23 -23 -61 -23 -85 0z" />
    <glyph glyph-name="Yacute" unicode="&#xdd;" horiz-adv-x="684" 
d="M397 0h-110v317l-271 383h128l200 -283l200 283h124l-271 -380v-320zM383 762h-99l95 140h135z" />
    <glyph glyph-name="Thorn" unicode="&#xde;" horiz-adv-x="662" 
d="M197 0h-110v700h110v-146h191c145 0 234 -82 234 -203c0 -61 -21 -111 -63 -150c-41 -39 -98 -58 -171 -58h-191v-143zM197 453v-209h182c83 0 132 38 132 105c0 68 -48 104 -132 104h-182z" />
    <glyph glyph-name="germandbls" unicode="&#xdf;" horiz-adv-x="621" 
d="M362 -13c-40 0 -70 5 -91 14v95c21 -9 44 -14 71 -14c79 0 133 46 133 118c0 80 -65 133 -166 133h-19v92h19c71 0 113 36 113 95c0 57 -46 96 -114 96c-72 0 -123 -50 -123 -134v-482h-108v481c0 70 21 126 63 167c43 41 98 62 166 62c67 0 121 -17 160 -52
s59 -78 59 -131c0 -75 -42 -126 -98 -142c42 -9 78 -31 107 -65c30 -33 45 -76 45 -129c0 -63 -20 -113 -61 -150c-41 -36 -93 -54 -156 -54z" />
    <glyph glyph-name="agrave" unicode="&#xe0;" horiz-adv-x="597" 
d="M538 84c11 0 20 2 29 7v-82c-15 -11 -36 -16 -63 -16c-55 0 -90 23 -103 70c-45 -51 -105 -76 -181 -76c-53 0 -97 15 -132 44s-52 70 -52 121c0 52 19 92 57 120c38 29 85 43 140 43c59 0 112 -13 157 -38v27c0 71 -48 107 -144 107c-56 0 -108 -15 -155 -44v95
c49 28 108 42 179 42c136 0 227 -68 227 -188v-183c0 -31 17 -49 41 -49zM390 199c-41 23 -85 35 -131 35c-72 0 -115 -28 -115 -76c0 -52 43 -78 106 -78c56 0 109 26 140 59v60zM128 715h134l95 -140h-98z" />
    <glyph glyph-name="aacute" unicode="&#xe1;" horiz-adv-x="597" 
d="M538 84c11 0 20 2 29 7v-82c-15 -11 -36 -16 -63 -16c-55 0 -90 23 -103 70c-45 -51 -105 -76 -181 -76c-53 0 -97 15 -132 44s-52 70 -52 121c0 52 19 92 57 120c38 29 85 43 140 43c59 0 112 -13 157 -38v27c0 71 -48 107 -144 107c-56 0 -108 -15 -155 -44v95
c49 28 108 42 179 42c136 0 227 -68 227 -188v-183c0 -31 17 -49 41 -49zM390 199c-41 23 -85 35 -131 35c-72 0 -115 -28 -115 -76c0 -52 43 -78 106 -78c56 0 109 26 140 59v60zM302 575h-98l95 140h135z" />
    <glyph glyph-name="acircumflex" unicode="&#xe2;" horiz-adv-x="597" 
d="M538 84c11 0 20 2 29 7v-82c-15 -11 -36 -16 -63 -16c-55 0 -90 23 -103 70c-45 -51 -105 -76 -181 -76c-53 0 -97 15 -132 44s-52 70 -52 121c0 52 19 92 57 120c38 29 85 43 140 43c59 0 112 -13 157 -38v27c0 71 -48 107 -144 107c-56 0 -108 -15 -155 -44v95
c49 28 108 42 179 42c136 0 227 -68 227 -188v-183c0 -31 17 -49 41 -49zM390 199c-41 23 -85 35 -131 35c-72 0 -115 -28 -115 -76c0 -52 43 -78 106 -78c56 0 109 26 140 59v60zM110 575l114 140h112l114 -140h-101l-69 85l-69 -85h-101z" />
    <glyph glyph-name="atilde" unicode="&#xe3;" horiz-adv-x="597" 
d="M538 84c11 0 20 2 29 7v-82c-15 -11 -36 -16 -63 -16c-55 0 -90 23 -103 70c-45 -51 -105 -76 -181 -76c-53 0 -97 15 -132 44s-52 70 -52 121c0 52 19 92 57 120c38 29 85 43 140 43c59 0 112 -13 157 -38v27c0 71 -48 107 -144 107c-56 0 -108 -15 -155 -44v95
c49 28 108 42 179 42c136 0 227 -68 227 -188v-183c0 -31 17 -49 41 -49zM390 199c-41 23 -85 35 -131 35c-72 0 -115 -28 -115 -76c0 -52 43 -78 106 -78c56 0 109 26 140 59v60zM182 585h-65c1 72 42 128 102 128c19 0 43 -8 72 -25c29 -16 50 -24 63 -24
c22 0 36 15 41 46h65c-1 -71 -42 -128 -102 -128c-19 0 -43 8 -72 24c-29 17 -51 25 -64 25c-21 0 -35 -15 -40 -46z" />
    <glyph glyph-name="adieresis" unicode="&#xe4;" horiz-adv-x="597" 
d="M538 84c11 0 20 2 29 7v-82c-15 -11 -36 -16 -63 -16c-55 0 -90 23 -103 70c-45 -51 -105 -76 -181 -76c-53 0 -97 15 -132 44s-52 70 -52 121c0 52 19 92 57 120c38 29 85 43 140 43c59 0 112 -13 157 -38v27c0 71 -48 107 -144 107c-56 0 -108 -15 -155 -44v95
c49 28 108 42 179 42c136 0 227 -68 227 -188v-183c0 -31 17 -49 41 -49zM390 199c-41 23 -85 35 -131 35c-72 0 -115 -28 -115 -76c0 -52 43 -78 106 -78c56 0 109 26 140 59v60zM139 605c-24 24 -24 62 0 85c24 24 62 24 85 0c23 -23 23 -61 0 -85c-23 -23 -61 -23 -85 0z
M346 605c-24 24 -24 62 0 85c24 24 62 24 85 0c23 -23 23 -61 0 -85c-23 -23 -61 -23 -85 0z" />
    <glyph glyph-name="aring" unicode="&#xe5;" horiz-adv-x="597" 
d="M538 84c11 0 20 2 29 7v-82c-15 -11 -36 -16 -63 -16c-55 0 -90 23 -103 70c-45 -51 -105 -76 -181 -76c-53 0 -97 15 -132 44s-52 70 -52 121c0 52 19 92 57 120c38 29 85 43 140 43c59 0 112 -13 157 -38v27c0 71 -48 107 -144 107c-56 0 -108 -15 -155 -44v95
c49 28 108 42 179 42c136 0 227 -68 227 -188v-183c0 -31 17 -49 41 -49zM390 199c-41 23 -85 35 -131 35c-72 0 -115 -28 -115 -76c0 -52 43 -78 106 -78c56 0 109 26 140 59v60zM355 579c-39 -39 -99 -39 -139 0c-39 39 -39 99 0 138c40 40 100 40 139 0
c40 -39 40 -99 0 -138zM337 648c3 66 -105 66 -102 0c0 -27 23 -50 51 -50s51 23 51 50z" />
    <glyph glyph-name="ae" unicode="&#xe6;" horiz-adv-x="916" 
d="M871 242v-28h-376c13 -83 86 -132 186 -132c56 0 108 15 157 44v-91c-43 -32 -103 -48 -180 -48c-91 0 -171 37 -219 101c-62 -67 -135 -101 -218 -101c-108 0 -185 62 -185 165c0 52 19 92 57 120c38 29 85 43 140 43c59 0 112 -13 157 -38v27c0 71 -48 107 -144 107
c-56 0 -108 -15 -155 -44v95c49 28 108 42 179 42c75 0 144 -30 185 -81c47 54 109 81 184 81c50 0 93 -13 129 -40c72 -52 103 -133 103 -222zM403 152c-5 15 -9 31 -12 48c-43 23 -86 34 -131 34c-72 0 -116 -28 -116 -76c0 -52 39 -78 106 -78c63 0 121 31 153 72z
M496 296h266c-1 30 -12 57 -35 81c-22 24 -53 36 -93 36c-79 0 -131 -52 -138 -117z" />
    <glyph glyph-name="ccedilla" unicode="&#xe7;" horiz-adv-x="520" 
d="M305 -138h-125l93 127c-66 8 -121 35 -165 82s-66 106 -66 176c0 75 26 137 77 185c52 48 115 72 189 72c55 0 105 -11 148 -34v-93c-44 21 -88 32 -132 32c-49 0 -90 -15 -124 -46c-33 -31 -50 -70 -50 -117s17 -87 50 -118c34 -31 75 -46 124 -46c52 0 99 12 140 37
v-92c-30 -17 -62 -29 -97 -35z" />
    <glyph glyph-name="egrave" unicode="&#xe8;" horiz-adv-x="572" 
d="M42 246c0 73 23 135 70 184s107 74 182 74c50 0 93 -13 129 -40c73 -52 104 -133 104 -222v-28h-376c13 -83 85 -132 185 -132c57 0 109 15 158 44v-91c-45 -32 -105 -48 -181 -48s-140 24 -193 72c-52 48 -78 110 -78 187zM152 296h266c-1 30 -12 57 -35 81
s-54 36 -94 36c-79 0 -130 -53 -137 -117zM150 715h134l95 -140h-98z" />
    <glyph glyph-name="eacute" unicode="&#xe9;" horiz-adv-x="572" 
d="M42 246c0 73 23 135 70 184s107 74 182 74c50 0 93 -13 129 -40c73 -52 104 -133 104 -222v-28h-376c13 -83 85 -132 185 -132c57 0 109 15 158 44v-91c-45 -32 -105 -48 -181 -48s-140 24 -193 72c-52 48 -78 110 -78 187zM152 296h266c-1 30 -12 57 -35 81
s-54 36 -94 36c-79 0 -130 -53 -137 -117zM313 575h-98l95 140h135z" />
    <glyph glyph-name="ecircumflex" unicode="&#xea;" horiz-adv-x="572" 
d="M42 246c0 73 23 135 70 184s107 74 182 74c50 0 93 -13 129 -40c73 -52 104 -133 104 -222v-28h-376c13 -83 85 -132 185 -132c57 0 109 15 158 44v-91c-45 -32 -105 -48 -181 -48s-140 24 -193 72c-52 48 -78 110 -78 187zM152 296h266c-1 30 -12 57 -35 81
s-54 36 -94 36c-79 0 -130 -53 -137 -117zM127 575l114 140h112l114 -140h-101l-69 85l-69 -85h-101z" />
    <glyph glyph-name="edieresis" unicode="&#xeb;" horiz-adv-x="572" 
d="M42 246c0 73 23 135 70 184s107 74 182 74c50 0 93 -13 129 -40c73 -52 104 -133 104 -222v-28h-376c13 -83 85 -132 185 -132c57 0 109 15 158 44v-91c-45 -32 -105 -48 -181 -48s-140 24 -193 72c-52 48 -78 110 -78 187zM152 296h266c-1 30 -12 57 -35 81
s-54 36 -94 36c-79 0 -130 -53 -137 -117zM153 605c-24 24 -24 62 0 85c24 24 62 24 85 0c23 -23 23 -61 0 -85c-23 -23 -61 -23 -85 0zM360 605c-24 24 -24 62 0 85c24 24 62 24 85 0c23 -23 23 -61 0 -85c-23 -23 -61 -23 -85 0z" />
    <glyph glyph-name="igrave" unicode="&#xec;" horiz-adv-x="281" 
d="M195 0h-109v491h109v-491zM-46 715h134l95 -140h-98z" />
    <glyph glyph-name="iacute" unicode="&#xed;" horiz-adv-x="281" 
d="M184 576h-97l94 140h135zM195 0h-109v491h109v-491z" />
    <glyph glyph-name="icircumflex" unicode="&#xee;" horiz-adv-x="281" 
d="M-30 575l114 140h112l114 -140h-101l-69 85l-69 -85h-101zM195 0h-109v491h109v-491z" />
    <glyph glyph-name="idieresis" unicode="&#xef;" horiz-adv-x="281" 
d="M-5 605c-24 24 -24 62 0 85c24 24 62 24 85 0c23 -23 23 -61 0 -85c-23 -23 -61 -23 -85 0zM202 605c-24 24 -24 62 0 85c24 24 62 24 85 0c23 -23 23 -61 0 -85c-23 -23 -61 -23 -85 0zM195 0h-109v491h109v-491z" />
    <glyph glyph-name="eth" unicode="&#xf0;" horiz-adv-x="599" 
d="M268 459c42 0 77 -8 105 -24l-93 123l-118 -48l-41 55l118 47l-66 88h111l40 -54l95 38l41 -54l-95 -38l107 -144c60 -80 85 -134 85 -210c0 -69 -24 -129 -73 -178s-110 -73 -185 -73s-136 24 -185 71c-48 47 -72 104 -72 171s21 122 63 165c43 43 97 65 163 65z
M192 125c29 -29 64 -43 107 -43s78 14 107 43s44 64 44 106s-15 77 -44 106s-64 44 -107 44s-78 -15 -107 -44s-43 -64 -43 -106s14 -77 43 -106z" />
    <glyph glyph-name="ntilde" unicode="&#xf1;" horiz-adv-x="614" 
d="M77 0v491h108v-65c48 52 108 78 180 78c116 0 182 -77 182 -204v-300h-108v276c0 96 -51 127 -115 127c-55 0 -111 -35 -139 -80v-323h-108zM216 585h-65c1 72 42 128 102 128c19 0 43 -8 72 -25c29 -16 50 -24 63 -24c22 0 36 15 41 46h65c-1 -71 -42 -128 -102 -128
c-19 0 -43 8 -72 24c-29 17 -51 25 -64 25c-21 0 -35 -15 -40 -46z" />
    <glyph glyph-name="ograve" unicode="&#xf2;" horiz-adv-x="623" 
d="M312 82c46 0 84 16 115 47s46 70 46 117c0 46 -15 85 -46 116s-69 47 -115 47s-85 -16 -116 -47s-46 -70 -46 -116c0 -47 15 -86 46 -117s69 -47 116 -47zM312 -13c-79 0 -143 25 -194 75s-76 111 -76 184c0 72 25 133 76 183s115 75 194 75c78 0 142 -25 193 -75
s76 -111 76 -183s-25 -133 -76 -184c-51 -50 -115 -75 -193 -75zM145 715h134l95 -140h-98z" />
    <glyph glyph-name="oacute" unicode="&#xf3;" horiz-adv-x="623" 
d="M312 82c46 0 84 16 115 47s46 70 46 117c0 46 -15 85 -46 116s-69 47 -115 47s-85 -16 -116 -47s-46 -70 -46 -116c0 -47 15 -86 46 -117s69 -47 116 -47zM312 -13c-79 0 -143 25 -194 75s-76 111 -76 184c0 72 25 133 76 183s115 75 194 75c78 0 142 -25 193 -75
s76 -111 76 -183s-25 -133 -76 -184c-51 -50 -115 -75 -193 -75zM351 575h-98l95 140h135z" />
    <glyph glyph-name="ocircumflex" unicode="&#xf4;" horiz-adv-x="623" 
d="M142 575l114 140h112l114 -140h-101l-69 85l-69 -85h-101zM312 82c46 0 84 16 115 47s46 70 46 117c0 46 -15 85 -46 116s-69 47 -115 47s-85 -16 -116 -47s-46 -70 -46 -116c0 -47 15 -86 46 -117s69 -47 116 -47zM312 -13c-79 0 -143 25 -194 75s-76 111 -76 184
c0 72 25 133 76 183s115 75 194 75c78 0 142 -25 193 -75s76 -111 76 -183s-25 -133 -76 -184c-51 -50 -115 -75 -193 -75z" />
    <glyph glyph-name="otilde" unicode="&#xf5;" horiz-adv-x="623" 
d="M312 82c46 0 84 16 115 47s46 70 46 117c0 46 -15 85 -46 116s-69 47 -115 47s-85 -16 -116 -47s-46 -70 -46 -116c0 -47 15 -86 46 -117s69 -47 116 -47zM312 -13c-79 0 -143 25 -194 75s-76 111 -76 184c0 72 25 133 76 183s115 75 194 75c78 0 142 -25 193 -75
s76 -111 76 -183s-25 -133 -76 -184c-51 -50 -115 -75 -193 -75zM205 585h-65c1 72 42 128 102 128c19 0 43 -8 72 -25c29 -16 50 -24 63 -24c22 0 36 15 41 46h65c-1 -71 -42 -128 -102 -128c-19 0 -44 8 -73 24c-29 17 -50 25 -63 25c-21 0 -35 -15 -40 -46z" />
    <glyph glyph-name="odieresis" unicode="&#xf6;" horiz-adv-x="623" 
d="M312 82c46 0 84 16 115 47s46 70 46 117c0 46 -15 85 -46 116s-69 47 -115 47s-85 -16 -116 -47s-46 -70 -46 -116c0 -47 15 -86 46 -117s69 -47 116 -47zM312 -13c-79 0 -143 25 -194 75s-76 111 -76 184c0 72 25 133 76 183s115 75 194 75c78 0 142 -25 193 -75
s76 -111 76 -183s-25 -133 -76 -184c-51 -50 -115 -75 -193 -75zM166 605c-24 24 -24 62 0 85c24 24 62 24 85 0c23 -23 23 -61 0 -85c-23 -23 -61 -23 -85 0zM373 605c-24 24 -24 62 0 85c24 24 62 24 85 0c23 -23 23 -61 0 -85c-23 -23 -61 -23 -85 0z" />
    <glyph glyph-name="divide" unicode="&#xf7;" horiz-adv-x="615" 
d="M235 545c0 40 32 72 73 72s72 -32 72 -72c0 -41 -31 -73 -72 -73s-73 32 -73 73zM547 280h-479v97h479v-97zM235 114c0 40 32 73 73 73c40 0 72 -33 72 -73c0 -41 -31 -72 -72 -72s-73 31 -73 72z" />
    <glyph glyph-name="oslash" unicode="&#xf8;" horiz-adv-x="623" 
d="M312 -13c-54 0 -103 13 -146 38l-22 -25h-82l54 64c-49 49 -74 110 -74 182s25 133 76 183s115 75 194 75c55 0 103 -13 146 -39l22 26h82l-55 -65c49 -48 74 -108 74 -180s-25 -133 -76 -184c-51 -50 -115 -75 -193 -75zM150 246c0 -40 11 -74 34 -103l208 245
c-25 14 -51 21 -80 21c-46 0 -85 -16 -116 -47s-46 -70 -46 -116zM312 82c46 0 84 16 115 47s46 70 46 117c0 37 -11 71 -34 101l-208 -245c25 -13 52 -20 81 -20z" />
    <glyph glyph-name="ugrave" unicode="&#xf9;" horiz-adv-x="615" 
d="M538 491v-491h-108v65c-48 -52 -108 -78 -180 -78c-116 0 -182 77 -182 204v300h108v-276c0 -96 51 -127 115 -127c55 0 111 35 139 80v323h108zM151 715h134l95 -140h-98z" />
    <glyph glyph-name="uacute" unicode="&#xfa;" horiz-adv-x="615" 
d="M538 491v-491h-108v65c-48 -52 -108 -78 -180 -78c-116 0 -182 77 -182 204v300h108v-276c0 -96 51 -127 115 -127c55 0 111 35 139 80v323h108zM328 575h-98l95 140h135z" />
    <glyph glyph-name="ucircumflex" unicode="&#xfb;" horiz-adv-x="615" 
d="M538 491v-491h-108v65c-48 -52 -108 -78 -180 -78c-116 0 -182 77 -182 204v300h108v-276c0 -96 51 -127 115 -127c55 0 111 35 139 80v323h108zM134 575l114 140h112l114 -140h-101l-69 85l-69 -85h-101z" />
    <glyph glyph-name="udieresis" unicode="&#xfc;" horiz-adv-x="615" 
d="M538 491v-491h-108v65c-48 -52 -108 -78 -180 -78c-116 0 -182 77 -182 204v300h108v-276c0 -96 51 -127 115 -127c55 0 111 35 139 80v323h108zM158 605c-24 24 -24 62 0 85c24 24 62 24 85 0c23 -23 23 -61 0 -85c-23 -23 -61 -23 -85 0zM365 605c-24 24 -24 62 0 85
c24 24 62 24 85 0c23 -23 23 -61 0 -85c-23 -23 -61 -23 -85 0z" />
    <glyph glyph-name="yacute" unicode="&#xfd;" horiz-adv-x="571" 
d="M127 -205c-41 0 -70 5 -89 16v95c22 -11 46 -16 71 -16c56 0 90 40 127 128l-215 473h120l148 -346l143 346h117l-235 -544c-44 -101 -106 -152 -187 -152zM320 575h-98l95 140h135z" />
    <glyph glyph-name="thorn" unicode="&#xfe;" horiz-adv-x="640" 
d="M360 504c69 0 126 -25 171 -75s67 -111 67 -184c0 -72 -22 -133 -67 -183s-102 -75 -171 -75c-76 0 -134 27 -175 80v-267h-108v900h108v-276c41 53 99 80 175 80zM331 409c-64 0 -119 -37 -146 -88v-152c27 -49 82 -87 146 -87c45 0 83 16 113 47c30 32 45 71 45 116
c0 46 -15 85 -45 116c-30 32 -68 48 -113 48z" />
    <glyph glyph-name="ydieresis" unicode="&#xff;" horiz-adv-x="571" 
d="M127 -205c-41 0 -70 5 -89 16v95c22 -11 46 -16 71 -16c56 0 90 40 127 128l-215 473h120l148 -346l143 346h117l-235 -544c-44 -101 -106 -152 -187 -152zM137 605c-24 24 -24 62 0 85c24 24 62 24 85 0c23 -23 23 -61 0 -85c-23 -23 -61 -23 -85 0zM344 605
c-24 24 -24 62 0 85c24 24 62 24 85 0c23 -23 23 -61 0 -85c-23 -23 -61 -23 -85 0z" />
    <glyph glyph-name="Amacron" unicode="&#x100;" horiz-adv-x="762" 
d="M139 0h-117l306 704h106l306 -704h-118l-76 174h-332zM380 565l-128 -294h256zM522 793h-281v77h281v-77z" />
    <glyph glyph-name="amacron" unicode="&#x101;" horiz-adv-x="597" 
d="M538 84c11 0 20 2 29 7v-82c-15 -11 -36 -16 -63 -16c-55 0 -90 23 -103 70c-45 -51 -105 -76 -181 -76c-53 0 -97 15 -132 44s-52 70 -52 121c0 52 19 92 57 120c38 29 85 43 140 43c59 0 112 -13 157 -38v27c0 71 -48 107 -144 107c-56 0 -108 -15 -155 -44v95
c49 28 108 42 179 42c136 0 227 -68 227 -188v-183c0 -31 17 -49 41 -49zM390 199c-41 23 -85 35 -131 35c-72 0 -115 -28 -115 -76c0 -52 43 -78 106 -78c56 0 109 26 140 59v60zM431 608h-281v77h281v-77z" />
    <glyph glyph-name="Abreve" unicode="&#x102;" horiz-adv-x="762" 
d="M139 0h-117l306 704h106l306 -704h-118l-76 174h-332zM380 565l-128 -294h256zM382 748c-43 0 -79 14 -108 42c-29 29 -45 66 -46 112h80c3 -45 33 -79 74 -79s70 34 73 79h80c-1 -46 -16 -83 -46 -112c-29 -28 -65 -42 -107 -42z" />
    <glyph glyph-name="abreve" unicode="&#x103;" horiz-adv-x="597" 
d="M538 84c11 0 20 2 29 7v-82c-15 -11 -36 -16 -63 -16c-55 0 -90 23 -103 70c-45 -51 -105 -76 -181 -76c-53 0 -97 15 -132 44s-52 70 -52 121c0 52 19 92 57 120c38 29 85 43 140 43c59 0 112 -13 157 -38v27c0 71 -48 107 -144 107c-56 0 -108 -15 -155 -44v95
c49 28 108 42 179 42c136 0 227 -68 227 -188v-183c0 -31 17 -49 41 -49zM390 199c-41 23 -85 35 -131 35c-72 0 -115 -28 -115 -76c0 -52 43 -78 106 -78c56 0 109 26 140 59v60zM285 561c-43 0 -79 14 -108 42c-29 29 -45 66 -46 112h80c3 -45 33 -79 74 -79s71 34 74 79
h79c-1 -46 -16 -83 -46 -112c-29 -28 -65 -42 -107 -42z" />
    <glyph glyph-name="Aogonek" unicode="&#x104;" horiz-adv-x="762" 
d="M748 -199c-73 0 -121 44 -121 101c0 36 15 69 44 98h-49l-76 174h-332l-75 -174h-117l306 704h106l306 -704c-24 -24 -36 -49 -36 -76c0 -35 25 -57 62 -57c13 0 25 2 38 7v-66c-14 -5 -33 -7 -56 -7zM380 565l-128 -294h256z" />
    <glyph glyph-name="aogonek" unicode="&#x105;" horiz-adv-x="586" 
d="M575 -190c-73 0 -121 44 -121 101c0 31 10 58 31 83c-45 5 -73 28 -84 69c-45 -51 -105 -76 -181 -76c-53 0 -97 15 -132 44s-52 70 -52 121c0 52 19 92 57 120c38 29 85 43 140 43c59 0 112 -13 157 -38v27c0 71 -48 107 -144 107c-56 0 -108 -15 -155 -44v95
c49 28 108 42 179 42c136 0 227 -68 227 -188v-183c0 -31 17 -49 41 -49c11 0 20 2 29 7v-82c-24 -24 -36 -49 -36 -76c0 -35 25 -57 62 -57c13 0 25 2 38 7v-66c-14 -5 -33 -7 -56 -7zM390 139v60c-41 23 -85 35 -131 35c-72 0 -115 -28 -115 -76c0 -52 43 -78 106 -78
c56 0 109 26 140 59z" />
    <glyph glyph-name="Cacute" unicode="&#x106;" horiz-adv-x="684" 
d="M431 -13c-105 0 -193 34 -264 102c-70 69 -105 156 -105 261s35 192 105 260c70 69 158 103 264 103c72 0 135 -16 190 -47v-111c-57 37 -120 55 -189 55c-73 0 -135 -25 -184 -74s-73 -111 -73 -186s25 -138 74 -187c50 -49 112 -73 187 -73c79 0 146 21 200 64v-111
c-58 -37 -126 -56 -205 -56zM434 762h-99l95 140h135z" />
    <glyph glyph-name="cacute" unicode="&#x107;" horiz-adv-x="518" 
d="M307 -13c-73 0 -136 24 -188 73c-51 49 -77 111 -77 187c0 75 26 137 77 185c52 48 115 72 189 72c55 0 105 -11 148 -34v-93c-44 21 -88 32 -132 32c-49 0 -90 -15 -124 -46c-33 -31 -50 -70 -50 -117s17 -87 50 -118c34 -31 75 -46 124 -46c52 0 99 12 140 37v-92
c-47 -27 -99 -40 -157 -40zM310 575h-98l95 140h135z" />
    <glyph glyph-name="Ccircumflex" unicode="&#x108;" horiz-adv-x="684" 
d="M232 762l114 140h112l114 -140h-101l-69 85l-69 -85h-101zM431 -13c-105 0 -193 34 -264 102c-70 69 -105 156 -105 261s35 192 105 260c70 69 158 103 264 103c72 0 135 -16 190 -47v-111c-57 37 -120 55 -189 55c-73 0 -135 -25 -184 -74s-73 -111 -73 -186
s25 -138 74 -187c50 -49 112 -73 187 -73c79 0 146 21 200 64v-111c-58 -37 -126 -56 -205 -56z" />
    <glyph glyph-name="ccircumflex" unicode="&#x109;" horiz-adv-x="518" 
d="M112 575l114 140h112l114 -140h-101l-69 85l-69 -85h-101zM307 -13c-73 0 -136 24 -188 73c-51 49 -77 111 -77 187c0 75 26 137 77 185c52 48 115 72 189 72c55 0 105 -11 148 -34v-93c-44 21 -88 32 -132 32c-49 0 -90 -15 -124 -46c-33 -31 -50 -70 -50 -117
s17 -87 50 -118c34 -31 75 -46 124 -46c52 0 99 12 140 37v-92c-47 -27 -99 -40 -157 -40z" />
    <glyph glyph-name="Cdotaccent" unicode="&#x10a;" horiz-adv-x="684" 
d="M431 -13c-105 0 -193 34 -264 102c-70 69 -105 156 -105 261s35 192 105 260c70 69 158 103 264 103c72 0 135 -16 190 -47v-111c-57 37 -120 55 -189 55c-73 0 -135 -25 -184 -74s-73 -111 -73 -186s25 -138 74 -187c50 -49 112 -73 187 -73c79 0 146 21 200 64v-111
c-58 -37 -126 -56 -205 -56zM353 831c0 33 27 61 62 61s62 -26 62 -61s-27 -63 -62 -63s-62 28 -62 63z" />
    <glyph glyph-name="cdotaccent" unicode="&#x10b;" horiz-adv-x="520" 
d="M307 -13c-73 0 -136 24 -188 73c-51 49 -77 111 -77 187c0 75 26 137 77 185c52 48 115 72 189 72c55 0 105 -11 148 -34v-93c-44 21 -88 32 -132 32c-49 0 -90 -15 -124 -46c-33 -31 -50 -70 -50 -117s17 -87 50 -118c34 -31 75 -46 124 -46c52 0 99 12 140 37v-92
c-47 -27 -99 -40 -157 -40zM238 648c0 33 27 61 62 61s62 -26 62 -61s-27 -62 -62 -62s-62 27 -62 62z" />
    <glyph glyph-name="Ccaron" unicode="&#x10c;" horiz-adv-x="684" 
d="M578 902l-114 -140h-112l-114 140h101l69 -85l69 85h101zM431 -13c-105 0 -193 34 -264 102c-70 69 -105 156 -105 261s35 192 105 260c70 69 158 103 264 103c72 0 135 -16 190 -47v-111c-57 37 -120 55 -189 55c-73 0 -135 -25 -184 -74s-73 -111 -73 -186
s25 -138 74 -187c50 -49 112 -73 187 -73c79 0 146 21 200 64v-111c-58 -37 -126 -56 -205 -56z" />
    <glyph glyph-name="ccaron" unicode="&#x10d;" horiz-adv-x="518" 
d="M459 715l-114 -140h-112l-114 140h101l69 -85l69 85h101zM307 -13c-73 0 -136 24 -188 73c-51 49 -77 111 -77 187c0 75 26 137 77 185c52 48 115 72 189 72c55 0 105 -11 148 -34v-93c-44 21 -88 32 -132 32c-49 0 -90 -15 -124 -46c-33 -31 -50 -70 -50 -117
s17 -87 50 -118c34 -31 75 -46 124 -46c52 0 99 12 140 37v-92c-47 -27 -99 -40 -157 -40z" />
    <glyph glyph-name="Dcaron" unicode="&#x10e;" horiz-adv-x="778" 
d="M517 902l-114 -140h-112l-114 140h101l69 -85l69 85h101zM334 0h-247v700h247c113 0 204 -33 275 -98s107 -149 107 -252s-36 -188 -107 -253s-162 -97 -275 -97zM197 599v-498h127c87 0 156 22 205 67s74 105 74 182s-25 137 -74 182s-118 67 -205 67h-127z" />
    <glyph glyph-name="dcaron" unicode="&#x10f;" horiz-adv-x="792" 
d="M280 -13c-69 0 -126 25 -171 75s-67 111 -67 184c0 72 22 133 67 183s102 75 171 75c76 0 134 -27 175 -80v276h108v-700h-108v67c-41 -53 -99 -80 -175 -80zM309 82c64 0 119 37 146 88v152c-27 49 -82 87 -146 87c-45 0 -83 -16 -113 -48c-30 -31 -45 -70 -45 -115
c0 -46 15 -85 45 -117c30 -31 68 -47 113 -47zM720 509h-82l58 191h108z" />
    <glyph glyph-name="Dcroat" unicode="&#x110;" horiz-adv-x="828" 
d="M384 0h-247v312h-103v99h103v289h247c113 0 204 -33 275 -98s107 -149 107 -252s-36 -188 -107 -253s-162 -97 -275 -97zM247 312v-211h127c87 0 156 22 205 67s74 105 74 182s-25 137 -74 182s-118 67 -205 67h-127v-188h151v-99h-151z" />
    <glyph glyph-name="dslash" unicode="&#x111;" horiz-adv-x="636" 
d="M455 555h-124v69h124v76h108v-76h96v-69h-96v-555h-108v67c-41 -53 -99 -80 -175 -80c-69 0 -126 25 -171 75s-67 111 -67 184c0 72 22 133 67 183s102 75 171 75c76 0 134 -27 175 -80v131zM309 82c64 0 119 37 146 88v152c-27 49 -82 87 -146 87
c-45 0 -83 -16 -113 -48c-30 -31 -45 -70 -45 -115c0 -46 15 -85 45 -117c30 -31 68 -47 113 -47z" />
    <glyph glyph-name="Emacron" unicode="&#x112;" horiz-adv-x="641" 
d="M598 0h-511v700h498v-101h-388v-175h316v-101h-316v-222h401v-101zM483 793h-281v77h281v-77z" />
    <glyph glyph-name="emacron" unicode="&#x113;" horiz-adv-x="572" 
d="M42 246c0 73 23 135 70 184s107 74 182 74c50 0 93 -13 129 -40c73 -52 104 -133 104 -222v-28h-376c13 -83 85 -132 185 -132c57 0 109 15 158 44v-91c-45 -32 -105 -48 -181 -48s-140 24 -193 72c-52 48 -78 110 -78 187zM152 296h266c-1 30 -12 57 -35 81
s-54 36 -94 36c-79 0 -130 -53 -137 -117zM439 608h-281v77h281v-77z" />
    <glyph glyph-name="Ebreve" unicode="&#x114;" horiz-adv-x="641" 
d="M598 0h-511v700h498v-101h-388v-175h316v-101h-316v-222h401v-101zM343 748c-43 0 -79 14 -108 42c-29 29 -45 66 -46 112h80c3 -45 33 -79 74 -79s70 34 73 79h80c-1 -46 -16 -83 -46 -112c-29 -28 -65 -42 -107 -42z" />
    <glyph glyph-name="ebreve" unicode="&#x115;" horiz-adv-x="572" 
d="M42 246c0 73 23 135 70 184s107 74 182 74c50 0 93 -13 129 -40c73 -52 104 -133 104 -222v-28h-376c13 -83 85 -132 185 -132c57 0 109 15 158 44v-91c-45 -32 -105 -48 -181 -48s-140 24 -193 72c-52 48 -78 110 -78 187zM152 296h266c-1 30 -12 57 -35 81
s-54 36 -94 36c-79 0 -130 -53 -137 -117zM298 561c-43 0 -79 14 -108 42c-29 29 -45 66 -46 112h80c3 -45 33 -79 74 -79s71 34 74 79h79c-1 -46 -16 -83 -46 -112c-29 -28 -65 -42 -107 -42z" />
    <glyph glyph-name="Edotaccent" unicode="&#x116;" horiz-adv-x="641" 
d="M598 0h-511v700h498v-101h-388v-175h316v-101h-316v-222h401v-101zM280 831c0 33 27 61 62 61s62 -26 62 -61s-27 -63 -62 -63s-62 28 -62 63z" />
    <glyph glyph-name="edotaccent" unicode="&#x117;" horiz-adv-x="572" 
d="M42 246c0 73 23 135 70 184s107 74 182 74c50 0 93 -13 129 -40c73 -52 104 -133 104 -222v-28h-376c13 -83 85 -132 185 -132c57 0 109 15 158 44v-91c-45 -32 -105 -48 -181 -48s-140 24 -193 72c-52 48 -78 110 -78 187zM152 296h266c-1 30 -12 57 -35 81
s-54 36 -94 36c-79 0 -130 -53 -137 -117zM299 586c-33 0 -62 27 -62 62c-4 52 71 83 106 43c39 -34 10 -109 -44 -105z" />
    <glyph glyph-name="Eogonek" unicode="&#x118;" 
d="M529 0h-442v700h498v-101h-388v-175h316v-101h-316v-222h401v-101c-24 -24 -36 -49 -36 -76c0 -35 25 -57 62 -57c13 0 25 2 38 7v-66c-14 -5 -33 -7 -56 -7c-73 0 -121 44 -121 101c0 36 15 69 44 98z" />
    <glyph glyph-name="eogonek" unicode="&#x119;" horiz-adv-x="572" 
d="M502 -164c-73 0 -121 44 -121 101c0 21 5 40 15 59c-26 -6 -54 -9 -83 -9c-76 0 -140 24 -193 72c-52 48 -78 110 -78 187c0 73 23 135 70 184s107 74 182 74c50 0 93 -13 129 -40c73 -52 104 -133 104 -222v-28h-376c13 -83 85 -132 185 -132c57 0 109 15 158 44v-91
c-24 -24 -36 -49 -36 -76c0 -35 25 -57 62 -57c13 0 25 2 38 7v-66c-14 -5 -33 -7 -56 -7zM152 296h266c-1 30 -12 57 -35 81s-54 36 -94 36c-79 0 -130 -53 -137 -117z" />
    <glyph glyph-name="Ecaron" unicode="&#x11a;" horiz-adv-x="641" 
d="M513 902l-114 -140h-112l-114 140h101l69 -85l69 85h101zM598 0h-511v700h498v-101h-388v-175h316v-101h-316v-222h401v-101z" />
    <glyph glyph-name="ecaron" unicode="&#x11b;" horiz-adv-x="572" 
d="M42 246c0 73 23 135 70 184s107 74 182 74c50 0 93 -13 129 -40c73 -52 104 -133 104 -222v-28h-376c13 -83 85 -132 185 -132c57 0 109 15 158 44v-91c-45 -32 -105 -48 -181 -48s-140 24 -193 72c-52 48 -78 110 -78 187zM152 296h266c-1 30 -12 57 -35 81
s-54 36 -94 36c-79 0 -130 -53 -137 -117zM467 715l-114 -140h-112l-114 140h101l69 -85l69 85h101z" />
    <glyph glyph-name="Gcircumflex" unicode="&#x11c;" horiz-adv-x="774" 
d="M426 -13c-103 0 -190 34 -260 102c-69 69 -104 156 -104 261s35 192 105 260c70 69 158 103 263 103c85 0 157 -20 216 -60v-109c-64 44 -134 66 -209 66c-76 0 -139 -24 -188 -73s-74 -111 -74 -188s24 -140 72 -188c49 -47 108 -71 179 -71s128 20 169 59v255h110v-300
c-57 -68 -162 -117 -279 -117zM246 762l114 140h112l114 -140h-101l-69 85l-69 -85h-101z" />
    <glyph glyph-name="gcircumflex" unicode="&#x11d;" horiz-adv-x="637" 
d="M455 427v64h108v-447c0 -81 -27 -142 -81 -185c-53 -43 -118 -64 -195 -64s-141 15 -192 44v99c53 -32 113 -48 180 -48c104 0 180 47 180 152v37c-41 -51 -100 -77 -175 -77c-69 0 -126 24 -171 73s-67 108 -67 179c0 70 22 129 67 177c45 49 102 73 171 73
c77 0 135 -26 175 -77zM309 97c64 0 121 35 146 84v143c-25 51 -82 85 -146 85c-45 0 -83 -15 -113 -45s-45 -67 -45 -111s15 -81 45 -111s68 -45 113 -45zM142 575l114 140h112l114 -140h-101l-69 85l-69 -85h-101z" />
    <glyph glyph-name="Gbreve" unicode="&#x11e;" horiz-adv-x="774" 
d="M426 -13c-103 0 -190 34 -260 102c-69 69 -104 156 -104 261s35 192 105 260c70 69 158 103 263 103c85 0 157 -20 216 -60v-109c-64 44 -134 66 -209 66c-76 0 -139 -24 -188 -73s-74 -111 -74 -188s24 -140 72 -188c49 -47 108 -71 179 -71s128 20 169 59v255h110v-300
c-57 -68 -162 -117 -279 -117zM426 757c-43 0 -79 14 -108 42c-29 29 -45 66 -46 112h80c3 -45 33 -79 74 -79s70 34 73 79h80c-1 -46 -16 -83 -46 -112c-29 -28 -65 -42 -107 -42z" />
    <glyph glyph-name="gbreve" unicode="&#x11f;" horiz-adv-x="637" 
d="M455 427v64h108v-447c0 -81 -27 -142 -81 -185c-53 -43 -118 -64 -195 -64s-141 15 -192 44v99c53 -32 113 -48 180 -48c104 0 180 47 180 152v37c-41 -51 -100 -77 -175 -77c-69 0 -126 24 -171 73s-67 108 -67 179c0 70 22 129 67 177c45 49 102 73 171 73
c77 0 135 -26 175 -77zM309 97c64 0 121 35 146 84v143c-25 51 -82 85 -146 85c-45 0 -83 -15 -113 -45s-45 -67 -45 -111s15 -81 45 -111s68 -45 113 -45zM316 561c-43 0 -79 14 -108 42c-29 29 -45 66 -46 112h80c3 -45 33 -79 74 -79s71 34 74 79h79
c-1 -46 -16 -83 -46 -112c-29 -28 -65 -42 -107 -42z" />
    <glyph glyph-name="Gdotaccent" unicode="&#x120;" horiz-adv-x="774" 
d="M426 -13c-103 0 -190 34 -260 102c-69 69 -104 156 -104 261s35 192 105 260c70 69 158 103 263 103c85 0 157 -20 216 -60v-109c-64 44 -134 66 -209 66c-76 0 -139 -24 -188 -73s-74 -111 -74 -188s24 -140 72 -188c49 -47 108 -71 179 -71s128 20 169 59v255h110v-300
c-57 -68 -162 -117 -279 -117zM356 831c0 33 27 61 62 61s62 -26 62 -61s-27 -63 -62 -63s-62 28 -62 63z" />
    <glyph glyph-name="gdotaccent" unicode="&#x121;" horiz-adv-x="637" 
d="M455 427v64h108v-447c0 -81 -27 -142 -81 -185c-53 -43 -118 -64 -195 -64s-141 15 -192 44v99c53 -32 113 -48 180 -48c104 0 180 47 180 152v37c-41 -51 -100 -77 -175 -77c-69 0 -126 24 -171 73s-67 108 -67 179c0 70 22 129 67 177c45 49 102 73 171 73
c77 0 135 -26 175 -77zM309 97c64 0 121 35 146 84v143c-25 51 -82 85 -146 85c-45 0 -83 -15 -113 -45s-45 -67 -45 -111s15 -81 45 -111s68 -45 113 -45zM309 586c-33 0 -62 27 -62 62c-4 52 71 83 106 43c39 -34 10 -109 -44 -105z" />
    <glyph glyph-name="uni0122" unicode="&#x122;" horiz-adv-x="774" 
d="M426 -13c-103 0 -190 34 -260 102c-69 69 -104 156 -104 261s35 192 105 260c70 69 158 103 263 103c85 0 157 -20 216 -60v-109c-64 44 -134 66 -209 66c-76 0 -139 -24 -188 -73s-74 -111 -74 -188s24 -140 72 -188c49 -47 108 -71 179 -71s128 20 169 59v255h110v-300
c-57 -68 -162 -117 -279 -117zM409 -251h-82l58 191h108z" />
    <glyph glyph-name="uni0123" unicode="&#x123;" horiz-adv-x="637" 
d="M455 427v64h108v-447c0 -81 -27 -142 -81 -185c-53 -43 -118 -64 -195 -64s-141 15 -192 44v99c53 -32 113 -48 180 -48c104 0 180 47 180 152v37c-41 -51 -100 -77 -175 -77c-69 0 -126 24 -171 73s-67 108 -67 179c0 70 22 129 67 177c45 49 102 73 171 73
c77 0 135 -26 175 -77zM309 97c64 0 121 35 146 84v143c-25 51 -82 85 -146 85c-45 0 -83 -15 -113 -45s-45 -67 -45 -111s15 -81 45 -111s68 -45 113 -45zM329 756h82l-58 -191h-108z" />
    <glyph glyph-name="Hcircumflex" unicode="&#x124;" horiz-adv-x="759" 
d="M212 762l114 140h112l114 -140h-101l-69 85l-69 -85h-101zM197 0h-110v700h110v-276h365v276h110v-700h-110v323h-365v-323z" />
    <glyph glyph-name="hcircumflex" unicode="&#x125;" horiz-adv-x="609" 
d="M72 0v700h108v-274c48 52 108 78 180 78c116 0 182 -77 182 -204v-300h-108v276c0 47 -11 80 -34 99s-50 28 -81 28c-55 0 -111 -35 -139 -80v-323h-108zM-40 762l114 140h112l114 -140h-101l-69 85l-69 -85h-101z" />
    <glyph glyph-name="Hbar" unicode="&#x126;" horiz-adv-x="841" 
d="M239 0h-110v519h-81v72h81v109h110v-109h365v109h110v-109h79v-72h-79v-519h-110v323h-365v-323zM239 519v-95h365v95h-365z" />
    <glyph glyph-name="hbar" unicode="&#x127;" horiz-adv-x="645" 
d="M216 271v-271h-108v537h-102v87h102v76h108v-76h151v-87h-151v-163c48 52 108 78 180 78c116 0 182 -77 182 -204v-248h-108v224c0 47 -11 80 -34 99s-50 28 -81 28c-55 0 -111 -35 -139 -80z" />
    <glyph glyph-name="Itilde" unicode="&#x128;" horiz-adv-x="295" 
d="M41 770h-65c1 71 42 127 102 127c19 0 44 -8 73 -25c29 -16 50 -24 63 -24c21 0 35 15 40 46h65c-1 -71 -42 -127 -102 -127c-19 0 -43 8 -72 24c-29 17 -50 25 -63 25c-22 0 -36 -15 -41 -46zM202 0h-110v700h110v-700z" />
    <glyph glyph-name="itilde" unicode="&#x129;" horiz-adv-x="281" 
d="M34 585h-65c1 72 42 128 102 128c19 0 43 -8 72 -25c29 -16 50 -24 63 -24c22 0 36 15 41 46h65c-1 -71 -42 -128 -102 -128c-19 0 -43 8 -72 24c-29 17 -51 25 -64 25c-21 0 -35 -15 -40 -46zM195 0h-109v491h109v-491z" />
    <glyph glyph-name="Imacron" unicode="&#x12a;" horiz-adv-x="295" 
d="M202 0h-110v700h110v-700zM288 793h-281v77h281v-77z" />
    <glyph glyph-name="imacron" unicode="&#x12b;" horiz-adv-x="281" 
d="M280 608h-281v77h281v-77zM195 0h-109v491h109v-491z" />
    <glyph glyph-name="Ibreve" unicode="&#x12c;" horiz-adv-x="295" 
d="M148 748c-43 0 -79 14 -108 42c-29 29 -45 66 -46 112h80c3 -45 33 -79 74 -79s70 34 73 79h80c-1 -46 -16 -83 -46 -112c-29 -28 -65 -42 -107 -42zM202 0h-110v700h110v-700z" />
    <glyph glyph-name="ibreve" unicode="&#x12d;" horiz-adv-x="281" 
d="M141 561c-43 0 -79 14 -108 42c-29 29 -45 66 -46 112h80c3 -45 33 -79 74 -79s71 34 74 79h79c-1 -46 -16 -83 -46 -112c-29 -28 -65 -42 -107 -42zM195 0h-109v491h109v-491z" />
    <glyph glyph-name="Iogonek" unicode="&#x12e;" horiz-adv-x="295" 
d="M133 0h-41v700h110v-700c-24 -24 -36 -49 -36 -76c0 -35 25 -57 62 -57c13 0 25 2 38 7v-66c-14 -5 -33 -7 -56 -7c-73 0 -121 44 -121 101c0 36 15 69 44 98z" />
    <glyph glyph-name="iogonek" unicode="&#x12f;" horiz-adv-x="279" 
d="M125 0h-39v491h108v-491c-24 -24 -36 -49 -36 -76c0 -35 25 -57 62 -57c13 0 25 2 38 7v-66c-14 -5 -33 -7 -56 -7c-73 0 -121 44 -121 101c0 36 15 69 44 98zM140 579c-39 0 -68 29 -68 68s29 69 68 69c37 0 67 -30 67 -69s-30 -68 -67 -68z" />
    <glyph glyph-name="Idot" unicode="&#x130;" horiz-adv-x="295" 
d="M86 831c0 33 27 61 62 61s62 -26 62 -61s-27 -63 -62 -63s-62 28 -62 63zM202 0h-110v700h110v-700z" />
    <glyph glyph-name="dotlessi" unicode="&#x131;" horiz-adv-x="281" 
d="M195 0h-109v491h109v-491z" />
    <glyph glyph-name="IJ" unicode="&#x132;" horiz-adv-x="619" 
d="M202 262h-110v438h110v-438zM275 -13c-73 0 -134 15 -183 46v109c50 -35 105 -52 166 -52c112 0 168 48 168 159v451h110v-463c0 -173 -102 -250 -261 -250z" />
    <glyph glyph-name="Jcircumflex" unicode="&#x134;" horiz-adv-x="500" 
d="M199 762l114 140h112l114 -140h-101l-69 85l-69 -85h-101zM187 -13c-67 0 -122 14 -164 43v109c40 -33 88 -49 143 -49c97 0 145 46 145 150v460h110v-478c0 -164 -91 -235 -234 -235z" />
    <glyph glyph-name="jcircumflex" unicode="&#x135;" horiz-adv-x="280" 
d="M31 -205c-43 0 -75 7 -98 20v94c22 -13 46 -19 72 -19c54 0 81 29 81 87v514h108v-526c0 -111 -64 -170 -163 -170zM-29 575l114 140h112l114 -140h-101l-69 85l-69 -85h-101z" />
    <glyph glyph-name="uni0136" unicode="&#x136;" horiz-adv-x="682" 
d="M197 0h-110v700h110v-286l287 286h141l-324 -320l376 -380h-150l-330 336v-336zM349 -251h-82l58 191h108z" />
    <glyph glyph-name="uni0137" unicode="&#x137;" horiz-adv-x="570" 
d="M184 0h-108v700h108v-395l194 186h138l-233 -220l268 -271h-148l-219 222v-222zM285 -251h-82l58 191h108z" />
    <glyph glyph-name="kgreenlandic" unicode="&#x138;" horiz-adv-x="571" 
d="M185 0h-108v491h108v-186l194 186h138l-233 -220l268 -271h-148l-219 222v-222z" />
    <glyph glyph-name="Lacute" unicode="&#x139;" horiz-adv-x="600" 
d="M570 0h-483v700h111v-599h372v-101zM195 762h-99l95 140h135z" />
    <glyph glyph-name="lacute" unicode="&#x13a;" horiz-adv-x="299" 
d="M193 -13c-71 0 -123 36 -123 129v584h108v-554c0 -40 18 -60 54 -60c15 0 29 3 41 10v-93c-21 -11 -48 -16 -80 -16zM176 762h-99l95 140h135z" />
    <glyph glyph-name="uni013B" unicode="&#x13b;" horiz-adv-x="600" 
d="M570 0h-483v700h111v-599h372v-101zM325 -251h-82l58 191h108z" />
    <glyph glyph-name="lcommaaccent" unicode="&#x13c;" horiz-adv-x="299" 
d="M193 -13c-71 0 -123 36 -123 129v584h108v-554c0 -40 18 -60 54 -60c15 0 29 3 41 10v-93c-21 -11 -48 -16 -80 -16zM165 -251h-82l58 191h108z" />
    <glyph glyph-name="Lcaron" unicode="&#x13d;" horiz-adv-x="593" 
d="M570 0h-483v700h111v-599h372v-101zM492 509h-82l58 191h108z" />
    <glyph glyph-name="lcaron" unicode="&#x13e;" horiz-adv-x="404" 
d="M190 -13c-71 0 -123 36 -123 129v584h108v-554c0 -40 18 -60 54 -60c15 0 29 3 41 10v-93c-21 -11 -48 -16 -80 -16zM332 509h-82l58 191h108z" />
    <glyph glyph-name="Ldot" unicode="&#x13f;" horiz-adv-x="600" 
d="M501 313c-40 0 -71 31 -71 71c0 39 31 70 71 70c39 0 70 -33 70 -70c0 -40 -31 -71 -70 -71zM570 0h-483v700h111v-599h372v-101z" />
    <glyph glyph-name="ldot" unicode="&#x140;" horiz-adv-x="439" 
d="M196 -13c-71 0 -123 36 -123 129v584h108v-554c0 -40 18 -60 54 -60c15 0 29 3 41 10v-93c-21 -11 -48 -16 -80 -16zM328 313c-40 0 -71 31 -71 71c0 39 31 70 71 70c37 0 70 -33 70 -70c0 -40 -31 -71 -70 -71z" />
    <glyph glyph-name="Lslash" unicode="&#x141;" horiz-adv-x="623" 
d="M593 0h-483v303l-96 -61v96l96 60v302h110v-231l151 95v-95l-151 -95v-273h373v-101z" />
    <glyph glyph-name="lslash" unicode="&#x142;" horiz-adv-x="387" 
d="M250 -13c-71 0 -122 36 -122 129v179l-102 -65v96l102 64v310h108v-241l102 65v-95l-102 -65v-218c0 -40 18 -60 54 -60c14 0 28 3 41 10v-93c-21 -11 -48 -16 -81 -16z" />
    <glyph glyph-name="Nacute" unicode="&#x143;" horiz-adv-x="773" 
d="M195 0h-108v700h96l395 -507v507h108v-700h-93l-398 509v-509zM429 762h-99l95 140h135z" />
    <glyph glyph-name="nacute" unicode="&#x144;" horiz-adv-x="614" 
d="M77 0v491h108v-65c48 52 108 78 180 78c116 0 182 -77 182 -204v-300h-108v276c0 96 -51 127 -115 127c-55 0 -111 -35 -139 -80v-323h-108zM332 575h-98l95 140h135z" />
    <glyph glyph-name="uni0145" unicode="&#x145;" horiz-adv-x="773" 
d="M195 0h-108v700h96l395 -507v507h108v-700h-93l-398 509v-509zM389 -251h-82l58 191h108z" />
    <glyph glyph-name="uni0146" unicode="&#x146;" horiz-adv-x="614" 
d="M185 323v-323h-108v491h108v-65c48 52 108 78 180 78c116 0 182 -77 182 -204v-300h-108v276c0 96 -51 127 -115 127c-55 0 -111 -35 -139 -80zM295 -251h-82l58 191h108z" />
    <glyph glyph-name="Ncaron" unicode="&#x147;" horiz-adv-x="773" 
d="M557 902l-114 -140h-112l-114 140h101l69 -85l69 85h101zM195 0h-108v700h96l395 -507v507h108v-700h-93l-398 509v-509z" />
    <glyph glyph-name="ncaron" unicode="&#x148;" horiz-adv-x="614" 
d="M77 0v491h108v-65c48 52 108 78 180 78c116 0 182 -77 182 -204v-300h-108v276c0 96 -51 127 -115 127c-55 0 -111 -35 -139 -80v-323h-108zM482 715l-114 -140h-112l-114 140h101l69 -85l69 85h101z" />
    <glyph glyph-name="napostrophe" unicode="&#x149;" horiz-adv-x="741" 
d="M204 0v491h108v-65c48 52 108 78 180 78c116 0 182 -77 182 -204v-300h-108v276c0 96 -51 127 -115 127c-55 0 -111 -35 -139 -80v-323h-108zM104 509h-82l58 191h108z" />
    <glyph glyph-name="Eng" unicode="&#x14a;" horiz-adv-x="773" 
d="M195 0h-108v700h96l395 -507v507h108v-705c0 -131 -68 -200 -187 -200c-49 0 -87 8 -116 24v104c25 -17 55 -25 90 -25c69 0 104 37 104 110v12l-382 489v-509z" />
    <glyph glyph-name="eng" unicode="&#x14b;" horiz-adv-x="614" 
d="M547 300v-335c0 -111 -64 -170 -163 -170c-43 0 -75 7 -98 20v94c22 -13 46 -19 72 -19c54 0 81 29 81 87v299c0 47 -11 80 -34 99s-50 28 -81 28c-55 0 -111 -35 -139 -80v-323h-108v491h108v-65c48 52 108 78 180 78c116 0 182 -77 182 -204z" />
    <glyph glyph-name="Omacron" unicode="&#x14c;" horiz-adv-x="839" 
d="M245 164c47 -49 105 -74 174 -74s127 25 174 74c47 50 71 112 71 186s-24 136 -71 185c-47 50 -105 75 -174 75s-127 -25 -174 -75c-47 -49 -70 -111 -70 -185s23 -136 70 -186zM675 91c-68 -69 -153 -104 -256 -104s-188 35 -256 104c-67 70 -101 156 -101 259
s34 189 101 258c68 70 153 105 256 105s188 -35 256 -105c68 -69 102 -155 102 -258s-34 -189 -102 -259zM560 793h-281v77h281v-77z" />
    <glyph glyph-name="omacron" unicode="&#x14d;" horiz-adv-x="623" 
d="M312 82c46 0 84 16 115 47s46 70 46 117c0 46 -15 85 -46 116s-69 47 -115 47s-85 -16 -116 -47s-46 -70 -46 -116c0 -47 15 -86 46 -117s69 -47 116 -47zM312 -13c-79 0 -143 25 -194 75s-76 111 -76 184c0 72 25 133 76 183s115 75 194 75c78 0 142 -25 193 -75
s76 -111 76 -183s-25 -133 -76 -184c-51 -50 -115 -75 -193 -75zM452 608h-281v77h281v-77z" />
    <glyph glyph-name="Obreve" unicode="&#x14e;" horiz-adv-x="839" 
d="M245 164c47 -49 105 -74 174 -74s127 25 174 74c47 50 71 112 71 186s-24 136 -71 185c-47 50 -105 75 -174 75s-127 -25 -174 -75c-47 -49 -70 -111 -70 -185s23 -136 70 -186zM675 91c-68 -69 -153 -104 -256 -104s-188 35 -256 104c-67 70 -101 156 -101 259
s34 189 101 258c68 70 153 105 256 105s188 -35 256 -105c68 -69 102 -155 102 -258s-34 -189 -102 -259zM420 757c-43 0 -79 14 -108 42c-29 29 -45 66 -46 112h80c3 -45 33 -79 74 -79s70 34 73 79h80c-1 -46 -16 -83 -46 -112c-29 -28 -65 -42 -107 -42z" />
    <glyph glyph-name="obreve" unicode="&#x14f;" horiz-adv-x="623" 
d="M312 82c46 0 84 16 115 47s46 70 46 117c0 46 -15 85 -46 116s-69 47 -115 47s-85 -16 -116 -47s-46 -70 -46 -116c0 -47 15 -86 46 -117s69 -47 116 -47zM312 -13c-79 0 -143 25 -194 75s-76 111 -76 184c0 72 25 133 76 183s115 75 194 75c78 0 142 -25 193 -75
s76 -111 76 -183s-25 -133 -76 -184c-51 -50 -115 -75 -193 -75zM312 566c-43 0 -79 14 -108 42c-29 29 -45 66 -46 112h80c3 -45 33 -79 74 -79s71 34 74 79h79c-1 -46 -16 -83 -46 -112c-29 -28 -65 -42 -107 -42z" />
    <glyph glyph-name="Ohungarumlaut" unicode="&#x150;" horiz-adv-x="839" 
d="M245 164c47 -49 105 -74 174 -74s127 25 174 74c47 50 71 112 71 186s-24 136 -71 185c-47 50 -105 75 -174 75s-127 -25 -174 -75c-47 -49 -70 -111 -70 -185s23 -136 70 -186zM675 91c-68 -69 -153 -104 -256 -104s-188 35 -256 104c-67 70 -101 156 -101 259
s34 189 101 258c68 70 153 105 256 105s188 -35 256 -105c68 -69 102 -155 102 -258s-34 -189 -102 -259zM576 762h-99l95 140h135zM371 762h-99l95 140h135z" />
    <glyph glyph-name="ohungarumlaut" unicode="&#x151;" horiz-adv-x="623" 
d="M312 82c46 0 84 16 115 47s46 70 46 117c0 46 -15 85 -46 116s-69 47 -115 47s-85 -16 -116 -47s-46 -70 -46 -116c0 -47 15 -86 46 -117s69 -47 116 -47zM312 -13c-79 0 -143 25 -194 75s-76 111 -76 184c0 72 25 133 76 183s115 75 194 75c78 0 142 -25 193 -75
s76 -111 76 -183s-25 -133 -76 -184c-51 -50 -115 -75 -193 -75zM455 575h-98l95 140h134zM250 575h-99l95 140h135z" />
    <glyph glyph-name="OE" unicode="&#x152;" horiz-adv-x="1103" 
d="M1060 0h-617c-113 0 -204 32 -275 97s-106 150 -106 253s35 187 106 252s162 98 275 98h604v-101h-381v-175h309v-101h-309v-222h394v-101zM455 101h100v498h-100c-177 0 -280 -94 -280 -249s103 -249 280 -249z" />
    <glyph glyph-name="oe" unicode="&#x153;" horiz-adv-x="996" 
d="M737 -13c-91 0 -163 32 -216 97c-21 -29 -51 -52 -90 -70s-80 -27 -121 -27c-78 0 -142 25 -193 75c-50 50 -75 111 -75 184c0 72 25 133 75 183c51 50 115 75 194 75c87 0 157 -32 209 -95c48 63 114 95 199 95c50 0 93 -13 129 -40c72 -52 103 -133 103 -222v-28h-376
c15 -83 86 -132 186 -132c56 0 108 15 157 44v-91c-43 -32 -104 -48 -181 -48zM472 246c0 46 -15 85 -46 116s-69 47 -115 47s-84 -16 -115 -47s-46 -70 -46 -116c0 -47 15 -86 46 -117s69 -47 115 -47s84 16 115 47s46 70 46 117zM576 296h266c-1 30 -13 57 -35 81
s-53 36 -93 36c-79 0 -131 -53 -138 -117z" />
    <glyph glyph-name="Racute" unicode="&#x154;" horiz-adv-x="733" 
d="M197 0h-110v700h319c71 0 128 -18 169 -55s62 -85 62 -144c0 -96 -56 -170 -152 -193l220 -308h-133l-211 296h-164v-296zM197 599v-206h202c80 0 127 37 127 104c0 64 -47 102 -127 102h-202zM348 762h-99l95 140h135z" />
    <glyph glyph-name="racute" unicode="&#x155;" horiz-adv-x="397" 
d="M185 0h-108v491h108v-85c33 57 105 98 181 98c4 0 7 0 10 -1v-108c-9 1 -19 2 -30 2c-77 0 -138 -45 -161 -96v-301zM231 575h-98l95 140h135z" />
    <glyph glyph-name="uni0156" unicode="&#x156;" horiz-adv-x="733" 
d="M197 0h-110v700h319c71 0 128 -18 169 -55s62 -85 62 -144c0 -96 -56 -170 -152 -193l220 -308h-133l-211 296h-164v-296zM197 599v-206h202c80 0 127 37 127 104c0 64 -47 102 -127 102h-202zM355 -251h-82l58 191h108z" />
    <glyph glyph-name="uni0157" unicode="&#x157;" horiz-adv-x="397" 
d="M185 0h-108v491h108v-85c33 57 105 98 181 98c4 0 7 0 10 -1v-108c-9 1 -19 2 -30 2c-77 0 -138 -45 -161 -96v-301zM105 -251h-82l58 191h108z" />
    <glyph glyph-name="Rcaron" unicode="&#x158;" horiz-adv-x="733" 
d="M197 0h-110v700h319c71 0 128 -18 169 -55s62 -85 62 -144c0 -96 -56 -170 -152 -193l220 -308h-133l-211 296h-164v-296zM197 599v-206h202c80 0 127 37 127 104c0 64 -47 102 -127 102h-202zM508 902l-114 -140h-112l-114 140h101l69 -85l69 85h101z" />
    <glyph glyph-name="rcaron" unicode="&#x159;" horiz-adv-x="392" 
d="M382 715l-114 -140h-112l-114 140h101l69 -85l69 85h101zM180 0h-108v491h108v-85c33 57 105 98 181 98c4 0 7 0 10 -1v-108c-9 1 -19 2 -30 2c-77 0 -138 -45 -161 -96v-301z" />
    <glyph glyph-name="Sacute" unicode="&#x15a;" horiz-adv-x="628" 
d="M308 -13c-107 0 -194 25 -263 75v119c28 -25 66 -46 113 -64c48 -18 96 -27 144 -27c92 0 162 39 162 104c0 28 -14 50 -31 65c-8 7 -20 14 -36 21c-32 15 -51 20 -96 33l-14 4c-39 11 -70 21 -91 29s-44 20 -70 35c-51 32 -72 77 -72 141c0 116 97 191 254 191
c84 0 159 -19 224 -58v-110c-71 43 -145 65 -222 65c-96 0 -143 -37 -143 -89c0 -30 17 -46 41 -63c13 -8 45 -18 62 -25l80 -23c53 -16 84 -28 128 -52c62 -33 95 -83 99 -162c0 -65 -26 -116 -77 -153s-115 -56 -192 -56zM323 762h-99l95 140h135z" />
    <glyph glyph-name="sacute" unicode="&#x15b;" horiz-adv-x="512" 
d="M252 -13c-83 0 -162 21 -205 50v102c57 -39 124 -59 200 -59c68 0 108 22 108 58c0 19 -12 30 -30 39c-11 5 -32 11 -47 15l-61 15c-112 28 -165 68 -165 153c0 89 77 144 208 144c75 0 136 -15 181 -44v-99c-59 33 -118 50 -177 50c-67 0 -101 -22 -101 -54
c0 -19 13 -30 31 -39c11 -5 34 -11 47 -15l57 -12c112 -25 168 -77 168 -155c0 -89 -86 -149 -214 -149zM265 575h-98l95 140h135z" />
    <glyph glyph-name="Scircumflex" unicode="&#x15c;" horiz-adv-x="628" 
d="M308 -13c-107 0 -194 25 -263 75v119c28 -25 66 -46 113 -64c48 -18 96 -27 144 -27c92 0 162 39 162 104c0 28 -14 50 -31 65c-8 7 -20 14 -36 21c-32 15 -51 20 -96 33l-14 4c-39 11 -70 21 -91 29s-44 20 -70 35c-51 32 -72 77 -72 141c0 116 97 191 254 191
c84 0 159 -19 224 -58v-110c-71 43 -145 65 -222 65c-96 0 -143 -37 -143 -89c0 -30 17 -46 41 -63c13 -8 45 -18 62 -25l80 -23c53 -16 84 -28 128 -52c62 -33 95 -83 99 -162c0 -65 -26 -116 -77 -153s-115 -56 -192 -56zM144 762l114 140h112l114 -140h-101l-69 85
l-69 -85h-101z" />
    <glyph glyph-name="scircumflex" unicode="&#x15d;" horiz-adv-x="512" 
d="M252 -13c-83 0 -162 21 -205 50v102c57 -39 124 -59 200 -59c68 0 108 22 108 58c0 19 -12 30 -30 39c-11 5 -32 11 -47 15l-61 15c-112 28 -165 68 -165 153c0 89 77 144 208 144c75 0 136 -15 181 -44v-99c-59 33 -118 50 -177 50c-67 0 -101 -22 -101 -54
c0 -19 13 -30 31 -39c11 -5 34 -11 47 -15l57 -12c112 -25 168 -77 168 -155c0 -89 -86 -149 -214 -149zM84 575l114 140h112l114 -140h-101l-69 85l-69 -85h-101z" />
    <glyph glyph-name="Scedilla" unicode="&#x15e;" horiz-adv-x="628" 
d="M310 -138h-125l92 126c-94 5 -171 30 -232 74v119c28 -25 66 -46 113 -64c48 -18 96 -27 144 -27c92 0 162 39 162 104c0 28 -14 50 -31 65c-8 7 -20 14 -36 21c-32 15 -51 20 -96 33l-14 4c-39 11 -70 21 -91 29s-44 20 -70 35c-51 32 -72 77 -72 141
c0 116 97 191 254 191c84 0 159 -19 224 -58v-110c-71 43 -145 65 -222 65c-96 0 -143 -37 -143 -89c0 -30 17 -46 41 -63c13 -8 45 -18 62 -25l80 -23c53 -16 84 -28 128 -52c62 -33 95 -83 99 -162c0 -109 -84 -184 -205 -204z" />
    <glyph glyph-name="scedilla" unicode="&#x15f;" horiz-adv-x="512" 
d="M247 -138h-125l92 127c-72 5 -128 21 -167 48v102c57 -39 124 -59 200 -59c68 0 108 22 108 58c0 19 -12 30 -30 39c-11 5 -32 11 -47 15l-61 15c-112 28 -165 68 -165 153c0 89 77 144 208 144c75 0 136 -15 181 -44v-99c-59 33 -118 50 -177 50
c-67 0 -101 -22 -101 -54c0 -19 13 -30 31 -39c11 -5 34 -11 47 -15l57 -12c112 -25 168 -77 168 -155c0 -75 -61 -129 -157 -144z" />
    <glyph glyph-name="Scaron" unicode="&#x160;" horiz-adv-x="628" 
d="M308 -13c-107 0 -194 25 -263 75v119c28 -25 66 -46 113 -64c48 -18 96 -27 144 -27c92 0 162 39 162 104c0 28 -14 50 -31 65c-8 7 -20 14 -36 21c-32 15 -51 20 -96 33l-14 4c-39 11 -70 21 -91 29s-44 20 -70 35c-51 32 -72 77 -72 141c0 116 97 191 254 191
c84 0 159 -19 224 -58v-110c-71 43 -145 65 -222 65c-96 0 -143 -37 -143 -89c0 -30 17 -46 41 -63c13 -8 45 -18 62 -25l80 -23c53 -16 84 -28 128 -52c62 -33 95 -83 99 -162c0 -65 -26 -116 -77 -153s-115 -56 -192 -56zM474 902l-114 -140h-112l-114 140h101l69 -85
l69 85h101z" />
    <glyph glyph-name="scaron" unicode="&#x161;" horiz-adv-x="512" 
d="M252 -13c-83 0 -162 21 -205 50v102c57 -39 124 -59 200 -59c68 0 108 22 108 58c0 19 -12 30 -30 39c-11 5 -32 11 -47 15l-61 15c-112 28 -165 68 -165 153c0 89 77 144 208 144c75 0 136 -15 181 -44v-99c-59 33 -118 50 -177 50c-67 0 -101 -22 -101 -54
c0 -19 13 -30 31 -39c11 -5 34 -11 47 -15l57 -12c112 -25 168 -77 168 -155c0 -89 -86 -149 -214 -149zM427 715l-114 -140h-112l-114 140h101l69 -85l69 85h101z" />
    <glyph glyph-name="uni0162" unicode="&#x162;" horiz-adv-x="639" 
d="M298 -138h-125l101 138h-10v599h-231v101h573v-101h-232v-599h-10z" />
    <glyph glyph-name="uni0163" unicode="&#x163;" horiz-adv-x="436" 
d="M128 134v262h-105v95h105v143h108v-143h155v-95h-155v-231c0 -56 25 -79 77 -79c27 0 51 6 74 18v-93c-14 -9 -39 -17 -76 -22l-61 -127h-125l97 133c-63 17 -94 64 -94 139z" />
    <glyph glyph-name="Tcaron" unicode="&#x164;" horiz-adv-x="639" 
d="M490 902l-114 -140h-112l-114 140h101l69 -85l69 85h101zM33 599v101h573v-101h-232v-599h-110v599h-231z" />
    <glyph glyph-name="tcaron" unicode="&#x165;" horiz-adv-x="602" 
d="M137 396h-105v95h105v143h108v-143h155v-95h-155v-231c0 -56 25 -79 77 -79c27 0 51 6 74 18v-93c-23 -16 -60 -24 -109 -24c-92 0 -150 51 -150 147v262zM530 509h-82l58 191h108z" />
    <glyph glyph-name="Tbar" unicode="&#x166;" horiz-adv-x="639" 
d="M374 0h-110v312h-120v99h120v188h-231v101h573v-101h-232v-188h120v-99h-120v-312z" />
    <glyph glyph-name="tbar" unicode="&#x167;" horiz-adv-x="436" 
d="M23 309h105v90h-105v92h105v143h108v-143h155v-92h-155v-90h155v-92h-155v-52c0 -56 25 -79 77 -79c27 0 51 6 74 18v-93c-23 -16 -60 -24 -109 -24c-92 0 -150 51 -150 147v83h-105v92z" />
    <glyph glyph-name="Utilde" unicode="&#x168;" horiz-adv-x="742" 
d="M265 770h-65c1 71 42 127 102 127c19 0 44 -8 73 -25c29 -16 50 -24 63 -24c21 0 35 15 40 46h65c-1 -71 -42 -127 -102 -127c-19 0 -43 8 -72 24c-29 17 -50 25 -63 25c-22 0 -36 -15 -41 -46zM78 296v404h110v-408c0 -131 72 -202 183 -202s184 71 184 202v408h110
v-404c0 -98 -27 -174 -82 -228s-125 -81 -212 -81s-157 27 -212 80c-54 54 -81 130 -81 229z" />
    <glyph glyph-name="utilde" unicode="&#x169;" horiz-adv-x="615" 
d="M538 491v-491h-108v65c-48 -52 -108 -78 -180 -78c-116 0 -182 77 -182 204v300h108v-276c0 -96 51 -127 115 -127c55 0 111 35 139 80v323h108zM197 585h-65c1 72 42 128 102 128c19 0 43 -8 72 -25c29 -16 50 -24 63 -24c22 0 36 15 41 46h65
c-1 -71 -42 -128 -102 -128c-19 0 -44 8 -73 24c-29 17 -50 25 -63 25c-21 0 -35 -15 -40 -46z" />
    <glyph glyph-name="Umacron" unicode="&#x16a;" horiz-adv-x="742" 
d="M78 296v404h110v-408c0 -131 72 -202 183 -202s184 71 184 202v408h110v-404c0 -98 -27 -174 -82 -228s-125 -81 -212 -81s-157 27 -212 80c-54 54 -81 130 -81 229zM513 793h-281v77h281v-77z" />
    <glyph glyph-name="umacron" unicode="&#x16b;" horiz-adv-x="615" 
d="M538 491v-491h-108v65c-48 -52 -108 -78 -180 -78c-116 0 -182 77 -182 204v300h108v-276c0 -96 51 -127 115 -127c55 0 111 35 139 80v323h108zM444 608h-281v77h281v-77z" />
    <glyph glyph-name="Ubreve" unicode="&#x16c;" horiz-adv-x="742" 
d="M78 296v404h110v-408c0 -131 72 -202 183 -202s184 71 184 202v408h110v-404c0 -98 -27 -174 -82 -228s-125 -81 -212 -81s-157 27 -212 80c-54 54 -81 130 -81 229zM372 748c-43 0 -79 14 -108 42c-29 29 -45 66 -46 112h80c3 -45 33 -79 74 -79s70 34 73 79h80
c-1 -46 -16 -83 -46 -112c-29 -28 -65 -42 -107 -42z" />
    <glyph glyph-name="ubreve" unicode="&#x16d;" horiz-adv-x="615" 
d="M538 491v-491h-108v65c-48 -52 -108 -78 -180 -78c-116 0 -182 77 -182 204v300h108v-276c0 -96 51 -127 115 -127c55 0 111 35 139 80v323h108zM303 561c-43 0 -79 14 -108 42c-29 29 -45 66 -46 112h80c3 -45 33 -79 74 -79s71 34 74 79h79c-1 -46 -16 -83 -46 -112
c-29 -28 -65 -42 -107 -42z" />
    <glyph glyph-name="Uring" unicode="&#x16e;" horiz-adv-x="742" 
d="M373 735c-55 0 -99 43 -99 98s44 99 99 99c53 0 98 -46 98 -99s-45 -98 -98 -98zM373 783c27 0 50 22 50 50s-23 51 -50 51c-66 3 -66 -105 0 -101zM78 296v404h110v-408c0 -131 72 -202 183 -202s184 71 184 202v408h110v-404c0 -98 -27 -174 -82 -228
s-125 -81 -212 -81s-157 27 -212 80c-54 54 -81 130 -81 229z" />
    <glyph glyph-name="uring" unicode="&#x16f;" horiz-adv-x="615" 
d="M538 491v-491h-108v65c-48 -52 -108 -78 -180 -78c-116 0 -182 77 -182 204v300h108v-276c0 -96 51 -127 115 -127c55 0 111 35 139 80v323h108zM372 579c-39 -39 -99 -39 -139 0c-39 39 -39 99 0 138c39 40 101 40 140 0c39 -39 39 -99 -1 -138zM354 648
c3 66 -105 66 -102 0c0 -27 23 -50 51 -50s51 23 51 50z" />
    <glyph glyph-name="Uhungarumlaut" unicode="&#x170;" horiz-adv-x="742" 
d="M78 296v404h110v-408c0 -131 72 -202 183 -202s184 71 184 202v408h110v-404c0 -98 -27 -174 -82 -228s-125 -81 -212 -81s-157 27 -212 80c-54 54 -81 130 -81 229zM507 762h-99l95 140h135zM302 762h-99l95 140h135z" />
    <glyph glyph-name="uhungarumlaut" unicode="&#x171;" horiz-adv-x="615" 
d="M538 491v-491h-108v65c-48 -52 -108 -78 -180 -78c-116 0 -182 77 -182 204v300h108v-276c0 -96 51 -127 115 -127c55 0 111 35 139 80v323h108zM443 575h-98l95 140h134zM238 575h-99l95 140h135z" />
    <glyph glyph-name="Uogonek" unicode="&#x172;" horiz-adv-x="742" 
d="M386 -13h-15c-87 0 -157 27 -212 80c-54 54 -81 130 -81 229v404h110v-408c0 -131 72 -202 183 -202s184 71 184 202v408h110v-404c0 -129 -49 -221 -146 -277c-29 -17 -39 -23 -59 -39c-20 -17 -29 -34 -29 -54c0 -33 25 -55 62 -55c13 0 25 2 38 7v-66
c-14 -5 -33 -7 -56 -7c-73 0 -121 44 -121 101c0 30 11 57 32 81z" />
    <glyph glyph-name="uogonek" unicode="&#x173;" horiz-adv-x="616" 
d="M546 -199c-73 0 -121 44 -121 101c0 36 15 69 44 98h-39v65c-48 -52 -108 -78 -180 -78c-116 0 -182 77 -182 204v300h108v-276c0 -96 51 -127 115 -127c55 0 111 35 139 80v323h108v-491c-24 -24 -36 -49 -36 -76c0 -35 25 -57 62 -57c13 0 25 2 38 7v-66
c-14 -5 -33 -7 -56 -7z" />
    <glyph glyph-name="Wcircumflex" unicode="&#x174;" horiz-adv-x="1065" 
d="M366 -4h-98l-238 704h123l167 -526l170 527h87l170 -527l167 526h121l-239 -704h-97l-166 521zM366 762l114 140h112l114 -140h-101l-69 85l-69 -85h-101z" />
    <glyph glyph-name="wcircumflex" unicode="&#x175;" horiz-adv-x="836" 
d="M292 -4h-93l-171 495h110l115 -334l114 336h89l116 -336l114 334h109l-172 -495h-94l-119 339zM240 575l114 140h112l114 -140h-101l-69 85l-69 -85h-101z" />
    <glyph glyph-name="Ycircumflex" unicode="&#x176;" horiz-adv-x="684" 
d="M397 0h-110v317l-271 383h128l200 -283l200 283h124l-271 -380v-320zM176 762l114 140h112l114 -140h-101l-69 85l-69 -85h-101z" />
    <glyph glyph-name="ycircumflex" unicode="&#x177;" horiz-adv-x="571" 
d="M127 -205c-41 0 -70 5 -89 16v95c22 -11 46 -16 71 -16c56 0 90 40 127 128l-215 473h120l148 -346l143 346h117l-235 -544c-44 -101 -106 -152 -187 -152zM118 575l114 140h112l114 -140h-101l-69 85l-69 -85h-101z" />
    <glyph glyph-name="Ydieresis" unicode="&#x178;" horiz-adv-x="684" 
d="M397 0h-110v317l-271 383h128l200 -283l200 283h124l-271 -380v-320zM199 788c-24 24 -24 62 0 85c24 24 62 24 85 0c23 -23 23 -61 0 -85c-23 -23 -61 -23 -85 0zM406 788c-24 24 -24 62 0 85c24 24 62 24 85 0c23 -23 23 -61 0 -85c-23 -23 -61 -23 -85 0z" />
    <glyph glyph-name="Zacute" unicode="&#x179;" horiz-adv-x="642" 
d="M601 0h-560v78l394 521h-374v101h524v-77l-393 -522h409v-101zM348 762h-99l95 140h135z" />
    <glyph glyph-name="zacute" unicode="&#x17a;" horiz-adv-x="516" 
d="M480 0h-445v72l273 324h-255v95h411v-74l-273 -322h289v-95zM274 575h-98l95 140h135z" />
    <glyph glyph-name="Zdotaccent" unicode="&#x17b;" horiz-adv-x="642" 
d="M601 0h-560v78l394 521h-374v101h524v-77l-393 -522h409v-101zM259 831c0 33 27 61 62 61s62 -26 62 -61s-27 -63 -62 -63s-62 28 -62 63z" />
    <glyph glyph-name="zdotaccent" unicode="&#x17c;" horiz-adv-x="516" 
d="M480 0h-445v72l273 324h-255v95h411v-74l-273 -322h289v-95zM196 648c0 33 27 61 62 61s62 -26 62 -61s-27 -62 -62 -62s-62 27 -62 62z" />
    <glyph glyph-name="Zcaron" unicode="&#x17d;" horiz-adv-x="642" 
d="M492 902l-114 -140h-112l-114 140h101l69 -85l69 85h101zM601 0h-560v78l394 521h-374v101h524v-77l-393 -522h409v-101z" />
    <glyph glyph-name="zcaron" unicode="&#x17e;" horiz-adv-x="516" 
d="M427 715l-114 -140h-112l-114 140h101l69 -85l69 85h101zM480 0h-445v72l273 324h-255v95h411v-74l-273 -322h289v-95z" />
    <glyph glyph-name="longs" unicode="&#x17f;" horiz-adv-x="375" 
d="M223 536v-536h-108v396h-92v95h92v64c0 93 54 155 154 155c43 0 81 -7 115 -21v-91c-31 12 -60 18 -85 18c-51 0 -76 -27 -76 -80z" />
    <glyph glyph-name="florin" unicode="&#x192;" horiz-adv-x="519" 
d="M25 -205c-35 0 -66 6 -91 19v90c24 -9 47 -14 70 -14c67 0 111 47 124 132l46 301h-115v92h131l15 95c19 121 86 200 209 200c35 0 66 -6 92 -18v-90c-21 9 -45 14 -71 14c-68 0 -108 -37 -123 -128l-12 -73h146v-92h-160l-52 -328c-19 -117 -88 -200 -209 -200z" />
    <glyph glyph-name="uni0218" unicode="&#x218;" horiz-adv-x="628" 
d="M308 -13c-107 0 -194 25 -263 75v119c28 -25 66 -46 113 -64c48 -18 96 -27 144 -27c92 0 162 39 162 104c0 28 -14 50 -31 65c-8 7 -20 14 -36 21c-32 15 -51 20 -96 33l-14 4c-39 11 -70 21 -91 29s-44 20 -70 35c-51 32 -72 77 -72 141c0 116 97 191 254 191
c84 0 159 -19 224 -58v-110c-71 43 -145 65 -222 65c-96 0 -143 -37 -143 -89c0 -30 17 -46 41 -63c13 -8 45 -18 62 -25l80 -23c53 -16 84 -28 128 -52c62 -33 95 -83 99 -162c0 -65 -26 -116 -77 -153s-115 -56 -192 -56zM297 -251h-82l58 191h108z" />
    <glyph glyph-name="uni0219" unicode="&#x219;" horiz-adv-x="512" 
d="M252 -13c-83 0 -162 21 -205 50v102c57 -39 124 -59 200 -59c68 0 108 22 108 58c0 19 -12 30 -30 39c-11 5 -32 11 -47 15l-61 15c-112 28 -165 68 -165 153c0 89 77 144 208 144c75 0 136 -15 181 -44v-99c-59 33 -118 50 -177 50c-67 0 -101 -22 -101 -54
c0 -19 13 -30 31 -39c11 -5 34 -11 47 -15l57 -12c112 -25 168 -77 168 -155c0 -89 -86 -149 -214 -149zM246 -251h-82l58 191h108z" />
    <glyph glyph-name="uni021A" unicode="&#x21a;" horiz-adv-x="639" 
d="M33 599v101h573v-101h-232v-599h-110v599h-231zM286 -251h-82l58 191h108z" />
    <glyph glyph-name="uni021B" unicode="&#x21b;" horiz-adv-x="436" 
d="M128 134v262h-105v95h105v143h108v-143h155v-95h-155v-231c0 -56 25 -79 77 -79c27 0 51 6 74 18v-93c-23 -16 -60 -24 -109 -24c-92 0 -150 51 -150 147zM248 -251h-82l58 191h108z" />
    <glyph glyph-name="circumflex" unicode="&#x2c6;" horiz-adv-x="536" 
d="M99 575l114 140h112l114 -140h-101l-69 85l-69 -85h-101z" />
    <glyph glyph-name="caron" unicode="&#x2c7;" horiz-adv-x="517" 
d="M410 715l-114 -140h-112l-114 140h101l69 -85l69 85h101z" />
    <glyph glyph-name="uni02C9" unicode="&#x2c9;" horiz-adv-x="510" 
d="M421 610h-332v73h332v-73z" />
    <glyph glyph-name="breve" unicode="&#x2d8;" horiz-adv-x="487" 
d="M244 561c-43 0 -79 14 -108 42c-29 29 -45 66 -46 112h80c3 -45 33 -79 74 -79s71 34 74 79h79c-1 -46 -16 -83 -46 -112c-29 -28 -65 -42 -107 -42z" />
    <glyph glyph-name="dotaccent" unicode="&#x2d9;" horiz-adv-x="558" 
d="M279 586c-33 0 -62 27 -62 62c-4 52 71 83 106 43c39 -34 10 -109 -44 -105z" />
    <glyph glyph-name="ring" unicode="&#x2da;" horiz-adv-x="547" 
d="M332 579c-39 -39 -99 -39 -139 0c-39 39 -39 99 0 138c39 40 101 40 140 0c39 -39 39 -99 -1 -138zM314 648c3 66 -105 66 -102 0c0 -27 23 -50 51 -50s51 23 51 50z" />
    <glyph glyph-name="ogonek" unicode="&#x2db;" horiz-adv-x="504" 
d="M305 -195c-73 0 -121 44 -121 101c0 36 15 69 44 98h69c-24 -24 -36 -49 -36 -76c0 -35 25 -57 62 -57c13 0 25 2 38 7v-66c-14 -5 -33 -7 -56 -7z" />
    <glyph glyph-name="tilde" unicode="&#x2dc;" horiz-adv-x="514" 
d="M149 585h-65c1 72 42 128 102 128c19 0 43 -8 72 -25c29 -16 50 -24 63 -24c22 0 36 15 41 46h65c-1 -71 -42 -128 -102 -128c-19 0 -44 8 -73 24c-29 17 -50 25 -63 25c-21 0 -35 -15 -40 -46z" />
    <glyph glyph-name="hungarumlaut" unicode="&#x2dd;" horiz-adv-x="604" 
d="M392 575h-98l95 140h134zM187 575h-99l95 140h135z" />
    <glyph glyph-name="acutecomb" unicode="&#x301;" horiz-adv-x="16" 
d="M-243 575h-98l95 140h135z" />
    <glyph glyph-name="uni037E" unicode="&#x37e;" horiz-adv-x="261" 
d="M93 -152h-85l83 280h124zM152 342c-40 0 -71 31 -71 71c0 39 31 70 71 70c37 0 70 -31 70 -70c0 -40 -31 -71 -70 -71z" />
    <glyph glyph-name="uni0394" unicode="&#x394;" horiz-adv-x="762" 
d="M740 0h-718l306 700h106zM380 562l-200 -461h400z" />
    <glyph glyph-name="uni03A9" unicode="&#x3a9;" horiz-adv-x="798" 
d="M325 0h-238v101h110c-65 63 -113 165 -113 274c0 95 29 175 86 240c58 65 134 98 229 98s171 -33 228 -98c58 -65 87 -145 87 -240c0 -108 -49 -211 -114 -274h111v-101h-238v83c36 28 66 66 91 115s37 102 37 159c0 75 -19 136 -56 183s-86 70 -146 70
s-109 -23 -147 -70c-37 -47 -56 -108 -56 -183c0 -57 12 -110 37 -159s56 -87 92 -115v-83z" />
    <glyph glyph-name="uni03BC" unicode="&#x3bc;" horiz-adv-x="624" 
d="M439 168v323h108v-491h-108v65c-47 -52 -103 -78 -168 -78c-34 0 -62 8 -85 23v-210h-109v691h109v-276c0 -47 11 -80 33 -99c23 -19 50 -28 81 -28c55 0 111 36 139 80z" />
    <glyph glyph-name="pi" unicode="&#x3c0;" horiz-adv-x="696" 
d="M643 396h-98v-245c0 -40 18 -60 54 -60c15 0 29 3 41 10v-93c-21 -11 -48 -16 -80 -16c-71 0 -123 36 -123 129v275h-201v-396h-108v396h-95v95h610v-95z" />
    <glyph glyph-name="uni0401" unicode="&#x401;" horiz-adv-x="641" 
d="M598 0h-511v700h498v-101h-388v-175h316v-101h-316v-222h401v-101zM190 788c-24 24 -24 62 0 85c24 24 62 24 85 0c23 -23 23 -61 0 -85c-23 -23 -61 -23 -85 0zM397 788c-24 24 -24 62 0 85c24 24 62 24 85 0c23 -23 23 -61 0 -85c-23 -23 -61 -23 -85 0z" />
    <glyph glyph-name="uni0402" unicode="&#x402;" horiz-adv-x="769" 
d="M504 -13c-35 0 -67 5 -96 14v103c27 -9 54 -14 81 -14c79 0 132 47 132 116c0 68 -60 120 -159 120c-61 0 -117 -12 -166 -37v-289h-110v599h-153v101h505v-101h-242v-203c53 22 113 33 180 33c75 0 136 -21 183 -64c47 -42 70 -96 70 -163c0 -62 -20 -113 -61 -154
s-95 -61 -164 -61z" />
    <glyph glyph-name="uni0403" unicode="&#x403;" horiz-adv-x="613" 
d="M197 0h-110v700h490v-101h-380v-599zM353 762h-99l95 140h135z" />
    <glyph glyph-name="uni0404" unicode="&#x404;" horiz-adv-x="680" 
d="M429 -13c-104 0 -191 35 -262 105c-70 70 -105 156 -105 258c0 103 35 189 105 258c70 70 157 105 261 105c69 0 132 -16 189 -48v-111c-57 37 -121 56 -191 56c-60 0 -112 -19 -157 -56c-44 -37 -71 -86 -82 -145h293v-101h-299c9 -64 36 -116 82 -157
c47 -41 102 -61 166 -61c81 0 149 22 203 65v-113c-56 -37 -124 -55 -203 -55z" />
    <glyph glyph-name="uni0405" unicode="&#x405;" horiz-adv-x="628" 
d="M308 -13c-107 0 -194 25 -263 75v119c28 -25 66 -46 113 -64c48 -18 96 -27 144 -27c92 0 162 39 162 104c0 28 -14 50 -31 65c-8 7 -20 14 -36 21c-32 15 -51 20 -96 33l-14 4c-39 11 -70 21 -91 29s-44 20 -70 35c-51 32 -72 77 -72 141c0 116 97 191 254 191
c84 0 159 -19 224 -58v-110c-71 43 -145 65 -222 65c-96 0 -143 -37 -143 -89c0 -30 17 -46 41 -63c13 -8 45 -18 62 -25l80 -23c53 -16 84 -28 128 -52c62 -33 95 -83 99 -162c0 -65 -26 -116 -77 -153s-115 -56 -192 -56z" />
    <glyph glyph-name="uni0406" unicode="&#x406;" horiz-adv-x="295" 
d="M202 0h-110v700h110v-700z" />
    <glyph glyph-name="uni0407" unicode="&#x407;" horiz-adv-x="293" 
d="M202 0h-110v700h110v-700zM1 788c-24 24 -24 62 0 85c24 24 62 24 85 0c23 -23 23 -61 0 -85c-23 -23 -61 -23 -85 0zM208 788c-24 24 -24 62 0 85c24 24 62 24 85 0c23 -23 23 -61 0 -85c-23 -23 -61 -23 -85 0z" />
    <glyph glyph-name="uni0408" unicode="&#x408;" horiz-adv-x="509" 
d="M196 -13c-67 0 -122 14 -164 43v109c40 -33 88 -49 143 -49c97 0 145 46 145 150v460h110v-478c0 -164 -91 -235 -234 -235z" />
    <glyph glyph-name="uni0409" unicode="&#x409;" horiz-adv-x="1106" 
d="M804 0h-281v599h-241l-3 -150c-3 -157 -16 -256 -49 -337c-33 -80 -90 -115 -177 -115c-19 0 -33 2 -43 5v100c10 -3 22 -4 37 -4c51 0 85 33 101 99c17 67 25 177 25 332l3 171h457v-242h171c81 0 145 -21 192 -64s70 -98 70 -166c0 -67 -24 -122 -71 -165
c-47 -42 -110 -63 -191 -63zM633 357v-256h165c99 0 156 47 156 127c0 81 -59 129 -156 129h-165z" />
    <glyph glyph-name="uni040A" unicode="&#x40a;" horiz-adv-x="1125" 
d="M824 0h-282v352h-345v-352h-110v700h110v-247h345v247h110v-247h172c81 0 144 -21 191 -63s70 -97 70 -164s-23 -121 -70 -163s-110 -63 -191 -63zM652 352v-251h170c95 0 152 47 152 124c0 80 -57 127 -152 127h-170z" />
    <glyph glyph-name="uni040B" unicode="&#x40b;" horiz-adv-x="791" 
d="M296 291v-291h-110v599h-153v101h505v-101h-242v-201c54 21 114 31 180 31c169 0 253 -74 253 -221v-208h-110v185c0 104 -49 141 -160 141c-58 0 -112 -12 -163 -35z" />
    <glyph glyph-name="uni040C" unicode="&#x40c;" horiz-adv-x="682" 
d="M197 0h-110v700h110v-286l287 286h141l-324 -320l376 -380h-150l-330 336v-336zM367 762h-99l95 140h135z" />
    <glyph glyph-name="uni040E" unicode="&#x40e;" horiz-adv-x="659" 
d="M182 -13c-43 0 -76 5 -99 16v104c25 -11 51 -17 80 -17c28 0 51 7 70 22s39 46 61 92l-274 496h124l207 -379l172 379h118l-258 -550c-51 -109 -118 -163 -201 -163zM330 741c-105 0 -177 64 -178 165h92c0 -49 33 -82 85 -82s85 34 86 82h92c-1 -101 -76 -165 -177 -165
z" />
    <glyph glyph-name="uni040F" unicode="&#x40f;" horiz-adv-x="738" 
d="M421 -150h-105v150h-229v700h110v-599h344v599h110v-700h-230v-150z" />
    <glyph glyph-name="uni0410" unicode="&#x410;" horiz-adv-x="762" 
d="M139 0h-117l306 704h106l306 -704h-118l-76 174h-332zM380 565l-128 -294h256z" />
    <glyph glyph-name="uni0411" unicode="&#x411;" horiz-adv-x="692" 
d="M383 0h-296v700h494v-101h-384v-148h186c79 0 142 -21 188 -63c46 -41 69 -96 69 -163s-23 -122 -69 -163c-45 -41 -108 -62 -188 -62zM197 350v-249h176c99 0 155 45 155 124s-58 125 -155 125h-176z" />
    <glyph glyph-name="uni0412" unicode="&#x412;" horiz-adv-x="721" 
d="M431 0h-344v700h318c125 0 206 -64 206 -172c0 -72 -40 -124 -93 -144c85 -16 149 -84 149 -187c0 -59 -21 -107 -64 -143c-42 -36 -99 -54 -172 -54zM197 321v-220h214c85 0 137 41 137 112c0 69 -50 108 -137 108h-214zM197 599v-181h189c73 0 116 32 116 91
s-43 90 -116 90h-189z" />
    <glyph glyph-name="uni0413" unicode="&#x413;" horiz-adv-x="613" 
d="M197 0h-110v700h490v-101h-380v-599z" />
    <glyph glyph-name="uni0414" unicode="&#x414;" horiz-adv-x="783" 
d="M118 -150h-104v251h67c37 55 64 120 81 195s26 178 26 307v97h463v-599h101v-251h-104v150h-530v-150zM201 101h340v498h-246c0 -117 -7 -215 -21 -294s-38 -147 -73 -204z" />
    <glyph glyph-name="uni0415" unicode="&#x415;" horiz-adv-x="641" 
d="M598 0h-511v700h498v-101h-388v-175h316v-101h-316v-222h401v-101z" />
    <glyph glyph-name="uni0416" unicode="&#x416;" horiz-adv-x="1012" 
d="M154 0h-144l333 366l-291 334h136l262 -299v299h110v-299l263 299h138l-294 -334l335 -366h-144l-298 321v-321h-110v322z" />
    <glyph glyph-name="uni0417" unicode="&#x417;" horiz-adv-x="628" 
d="M285 -13c-99 0 -180 20 -245 60v108c61 -39 152 -65 229 -65c119 0 192 48 192 123c0 65 -68 109 -171 109h-87v101h100c85 0 134 35 134 94c0 60 -59 93 -151 93c-75 0 -147 -17 -216 -51v101c68 35 142 53 222 53c76 0 137 -17 184 -52s70 -81 70 -138
c0 -38 -11 -69 -34 -94s-48 -42 -75 -51c37 -11 69 -32 96 -62c27 -29 41 -67 41 -112c0 -63 -26 -115 -78 -156s-122 -61 -211 -61z" />
    <glyph glyph-name="uni0418" unicode="&#x418;" horiz-adv-x="765" 
d="M181 0h-94v700h110v-514l385 514h96v-700h-110v516z" />
    <glyph glyph-name="uni0419" unicode="&#x419;" horiz-adv-x="765" 
d="M181 0h-94v700h110v-514l385 514h96v-700h-110v516zM382 741c-105 0 -177 64 -178 165h92c0 -49 33 -82 85 -82s85 34 86 82h92c-1 -101 -76 -165 -177 -165z" />
    <glyph glyph-name="uni041A" unicode="&#x41a;" horiz-adv-x="682" 
d="M197 0h-110v700h110v-286l287 286h141l-324 -320l376 -380h-150l-330 336v-336z" />
    <glyph glyph-name="uni041B" unicode="&#x41b;" horiz-adv-x="729" 
d="M10 2v100c10 -3 22 -4 37 -4c49 0 81 28 98 92c19 64 25 142 28 270l3 240h466v-700h-110v599h-250l-3 -150c-3 -157 -16 -256 -49 -337c-33 -80 -90 -115 -177 -115c-19 0 -33 2 -43 5z" />
    <glyph glyph-name="uni041C" unicode="&#x41c;" horiz-adv-x="848" 
d="M197 0h-110v700h112l227 -315l225 315h110v-700h-110v532l-195 -264h-64l-195 264v-532z" />
    <glyph glyph-name="uni041D" unicode="&#x41d;" horiz-adv-x="759" 
d="M197 0h-110v700h110v-276h365v276h110v-700h-110v323h-365v-323z" />
    <glyph glyph-name="uni041E" unicode="&#x41e;" horiz-adv-x="839" 
d="M245 164c47 -49 105 -74 174 -74s127 25 174 74c47 50 71 112 71 186s-24 136 -71 185c-47 50 -105 75 -174 75s-127 -25 -174 -75c-47 -49 -70 -111 -70 -185s23 -136 70 -186zM675 91c-68 -69 -153 -104 -256 -104s-188 35 -256 104c-67 70 -101 156 -101 259
s34 189 101 258c68 70 153 105 256 105s188 -35 256 -105c68 -69 102 -155 102 -258s-34 -189 -102 -259z" />
    <glyph glyph-name="uni041F" unicode="&#x41f;" horiz-adv-x="743" 
d="M197 0h-110v700h569v-700h-110v599h-349v-599z" />
    <glyph glyph-name="uni0420" unicode="&#x420;" horiz-adv-x="662" 
d="M197 0h-110v700h301c73 0 130 -19 171 -57c42 -37 63 -86 63 -146c0 -61 -21 -111 -63 -150c-41 -39 -98 -58 -171 -58h-191v-289zM197 599v-209h182c83 0 132 38 132 105s-49 104 -132 104h-182z" />
    <glyph glyph-name="uni0421" unicode="&#x421;" horiz-adv-x="684" 
d="M431 -13c-105 0 -193 34 -264 102c-70 69 -105 156 -105 261s35 192 105 260c70 69 158 103 264 103c72 0 135 -16 190 -47v-111c-57 37 -120 55 -189 55c-73 0 -135 -25 -184 -74s-73 -111 -73 -186s25 -138 74 -187c50 -49 112 -73 187 -73c79 0 146 21 200 64v-111
c-58 -37 -126 -56 -205 -56z" />
    <glyph glyph-name="uni0422" unicode="&#x422;" horiz-adv-x="639" 
d="M33 599v101h573v-101h-232v-599h-110v599h-231z" />
    <glyph glyph-name="uni0423" unicode="&#x423;" horiz-adv-x="659" 
d="M182 -13c-43 0 -76 5 -99 16v104c25 -11 51 -17 80 -17c28 0 51 7 70 22s39 46 61 92l-274 496h124l207 -379l172 379h118l-258 -550c-51 -109 -118 -163 -201 -163z" />
    <glyph glyph-name="uni0424" unicode="&#x424;" horiz-adv-x="919" 
d="M514 -24h-110v77c-111 3 -195 33 -254 91s-88 128 -88 210c0 151 108 297 342 303v66h110v-66c234 -6 343 -150 343 -302s-109 -296 -343 -302v-77zM404 150v410c-76 -1 -133 -21 -172 -60c-38 -39 -57 -87 -57 -145s19 -107 57 -146c39 -39 96 -58 172 -59zM514 560
v-410c76 1 133 20 172 59s58 88 58 146s-19 106 -58 145s-96 59 -172 60z" />
    <glyph glyph-name="uni0425" unicode="&#x425;" horiz-adv-x="717" 
d="M145 0h-128l277 379l-233 321h130l169 -232l169 232h128l-234 -319l278 -381h-131l-212 291z" />
    <glyph glyph-name="uni0426" unicode="&#x426;" horiz-adv-x="783" 
d="M752 -150h-104v150h-561v700h110v-599h344v599h110v-599h101v-251z" />
    <glyph glyph-name="uni0427" unicode="&#x427;" horiz-adv-x="691" 
d="M604 0h-110v293c-57 -21 -117 -31 -180 -31c-168 0 -252 74 -252 222v216h110v-194c0 -104 50 -141 159 -141c60 0 114 12 163 35v300h110v-700z" />
    <glyph glyph-name="uni0428" unicode="&#x428;" horiz-adv-x="1026" 
d="M939 0h-852v700h110v-599h261v599h110v-599h261v599h110v-700z" />
    <glyph glyph-name="uni0429" unicode="&#x429;" horiz-adv-x="1071" 
d="M937 0h-850v700h110v-599h261v599h110v-599h261v599h110v-599h101v-251h-103v150z" />
    <glyph glyph-name="uni042A" unicode="&#x42a;" horiz-adv-x="797" 
d="M495 0h-291v599h-185v101h295v-242h181c81 0 145 -21 192 -64s70 -98 70 -166c0 -67 -24 -122 -71 -165c-47 -42 -110 -63 -191 -63zM314 357v-256h175c99 0 156 47 156 127c0 81 -59 129 -156 129h-175z" />
    <glyph glyph-name="uni042B" unicode="&#x42b;" horiz-adv-x="908" 
d="M821 0h-110v700h110v-700zM354 0h-267v700h110v-242h157c81 0 145 -21 192 -64s70 -98 70 -166c0 -67 -24 -122 -71 -165c-47 -42 -110 -63 -191 -63zM197 357v-256h151c99 0 156 47 156 127c0 81 -59 129 -156 129h-151z" />
    <glyph glyph-name="uni042C" unicode="&#x42c;" horiz-adv-x="680" 
d="M378 0h-291v700h110v-242h181c81 0 145 -21 192 -64s70 -98 70 -166c0 -67 -24 -122 -71 -165c-47 -42 -110 -63 -191 -63zM197 357v-256h175c99 0 156 47 156 127c0 81 -59 129 -156 129h-175z" />
    <glyph glyph-name="uni042D" unicode="&#x42d;" horiz-adv-x="680" 
d="M251 -13c-79 0 -147 18 -203 55v113c54 -43 122 -65 203 -65c64 0 119 20 165 61c47 41 74 93 83 157h-299v101h293c-11 59 -38 108 -83 145c-44 37 -96 56 -156 56c-70 0 -134 -19 -191 -56v111c57 32 120 48 189 48c104 0 191 -35 261 -105c70 -69 105 -155 105 -258
c0 -102 -35 -188 -106 -258c-70 -70 -157 -105 -261 -105z" />
    <glyph glyph-name="uni042E" unicode="&#x42e;" horiz-adv-x="1046" 
d="M651 713c95 0 175 -35 238 -105s95 -156 95 -258s-32 -188 -95 -258s-143 -105 -238 -105c-89 0 -164 30 -225 89c-61 60 -97 136 -107 228h-122v-304h-110v700h110v-295h123c11 89 48 163 109 221s135 87 222 87zM651 90c63 0 116 24 157 71c42 48 63 111 63 189
s-21 141 -63 188c-41 48 -94 72 -157 72c-64 0 -117 -24 -159 -72c-41 -47 -62 -110 -62 -188s21 -141 62 -189c42 -47 95 -71 159 -71z" />
    <glyph glyph-name="uni042F" unicode="&#x42f;" horiz-adv-x="734" 
d="M162 0h-133l223 308c-99 23 -156 96 -156 193c0 120 88 199 232 199h319v-700h-110v296h-164zM333 393h204v206h-204c-79 0 -126 -39 -126 -103c0 -65 47 -103 126 -103z" />
    <glyph glyph-name="uni0430" unicode="&#x430;" horiz-adv-x="597" 
d="M538 84c11 0 20 2 29 7v-82c-15 -11 -36 -16 -63 -16c-55 0 -90 23 -103 70c-45 -51 -105 -76 -181 -76c-53 0 -97 15 -132 44s-52 70 -52 121c0 52 19 92 57 120c38 29 85 43 140 43c59 0 112 -13 157 -38v27c0 71 -48 107 -144 107c-56 0 -108 -15 -155 -44v95
c49 28 108 42 179 42c136 0 227 -68 227 -188v-183c0 -31 17 -49 41 -49zM390 139v60c-41 23 -85 35 -131 35c-72 0 -115 -28 -115 -76c0 -52 43 -78 106 -78c56 0 109 26 140 59z" />
    <glyph glyph-name="uni0431" unicode="&#x431;" horiz-adv-x="611" 
d="M317 -13c-85 0 -151 29 -198 87c-47 59 -70 137 -70 236c0 113 29 197 76 252c23 28 55 52 96 72s84 36 128 47c45 11 100 22 165 33v-100c-105 -20 -173 -35 -202 -45c-74 -25 -123 -64 -146 -119c-10 -23 -16 -51 -18 -83c41 60 114 97 199 97c64 0 117 -21 159 -62
s63 -95 63 -162c0 -75 -24 -136 -73 -183c-48 -47 -108 -70 -179 -70zM317 82c41 0 76 14 103 42s41 64 41 108c0 84 -59 139 -140 139c-69 0 -134 -44 -166 -99c5 -120 63 -190 162 -190z" />
    <glyph glyph-name="uni0432" unicode="&#x432;" horiz-adv-x="581" 
d="M360 0h-283v491h268c99 0 154 -53 154 -125c0 -49 -26 -89 -63 -106c64 -19 96 -61 96 -126c0 -83 -63 -134 -172 -134zM185 208v-121h156c51 0 81 23 81 60c0 39 -30 61 -81 61h-156zM185 404v-109h134c47 0 74 21 74 54c0 37 -25 55 -74 55h-134z" />
    <glyph glyph-name="uni0433" unicode="&#x433;" horiz-adv-x="485" 
d="M185 0h-108v491h380v-95h-272v-396z" />
    <glyph glyph-name="uni0434" unicode="&#x434;" horiz-adv-x="663" 
d="M125 -135h-104v230h64c26 39 44 87 54 145c11 59 16 142 17 251h391v-396h85v-230h-102v135h-405v-135zM199 95h240v301h-184c0 -128 -19 -228 -56 -301z" />
    <glyph glyph-name="uni0435" unicode="&#x435;" horiz-adv-x="572" 
d="M42 246c0 73 23 135 70 184s107 74 182 74c50 0 93 -13 129 -40c73 -52 104 -133 104 -222v-28h-376c13 -83 85 -132 185 -132c57 0 109 15 158 44v-91c-45 -32 -105 -48 -181 -48s-140 24 -193 72c-52 48 -78 110 -78 187zM152 296h266c-1 30 -12 57 -35 81
s-54 36 -94 36c-79 0 -130 -53 -137 -117z" />
    <glyph glyph-name="uni0436" unicode="&#x436;" horiz-adv-x="815" 
d="M160 0h-133l234 263l-206 228h127l172 -192v192h108v-192l172 192h127l-208 -228l236 -263h-134l-193 219v-219h-108v219z" />
    <glyph glyph-name="uni0437" unicode="&#x437;" horiz-adv-x="528" 
d="M242 -13c-76 0 -138 12 -187 35v98c57 -27 114 -40 172 -40c85 0 138 26 138 71c0 41 -36 62 -108 62h-91v87h91c61 0 92 18 92 54c0 38 -40 57 -119 57c-52 0 -106 -12 -161 -36v95c51 23 112 34 184 34c59 0 109 -12 148 -37s59 -56 59 -95c0 -54 -25 -90 -75 -108
c63 -20 94 -60 94 -121c0 -46 -22 -84 -65 -113s-101 -43 -172 -43z" />
    <glyph glyph-name="uni0438" unicode="&#x438;" horiz-adv-x="628" 
d="M178 0h-101v491h108v-333l265 333h101v-491h-108v334z" />
    <glyph glyph-name="uni0439" unicode="&#x439;" horiz-adv-x="628" 
d="M178 0h-101v491h108v-333l265 333h101v-491h-108v334zM314 557c-101 0 -172 64 -173 165h91c0 -48 32 -82 81 -82c48 0 81 34 82 82h92c-1 -101 -73 -165 -173 -165z" />
    <glyph glyph-name="uni043A" unicode="&#x43a;" horiz-adv-x="571" 
d="M185 0h-108v491h108v-186l194 186h138l-233 -220l268 -271h-148l-219 222v-222z" />
    <glyph glyph-name="uni043B" unicode="&#x43b;" horiz-adv-x="618" 
d="M433 396h-185l-2 -71c-1 -72 -5 -119 -22 -182c-22 -87 -70 -141 -169 -145c-13 0 -24 1 -34 4v93c7 -2 15 -3 22 -3c71 0 96 68 99 239l3 160h396v-491h-108v396z" />
    <glyph glyph-name="uni043C" unicode="&#x43c;" horiz-adv-x="703" 
d="M181 0h-104v491h106l168 -204l169 204h106v-491h-104v344l-150 -181h-42l-149 181v-344z" />
    <glyph glyph-name="uni043D" unicode="&#x43d;" horiz-adv-x="619" 
d="M185 0h-108v491h108v-192h249v192h108v-491h-108v204h-249v-204z" />
    <glyph glyph-name="uni043E" unicode="&#x43e;" horiz-adv-x="623" 
d="M312 82c46 0 84 16 115 47s46 70 46 117c0 46 -15 85 -46 116s-69 47 -115 47s-85 -16 -116 -47s-46 -70 -46 -116c0 -47 15 -86 46 -117s69 -47 116 -47zM312 -13c-79 0 -143 25 -194 75s-76 111 -76 184c0 72 25 133 76 183s115 75 194 75c78 0 142 -25 193 -75
s76 -111 76 -183s-25 -133 -76 -184c-51 -50 -115 -75 -193 -75z" />
    <glyph glyph-name="uni043F" unicode="&#x43f;" horiz-adv-x="612" 
d="M185 0h-108v491h458v-491h-108v396h-242v-396z" />
    <glyph glyph-name="uni0440" unicode="&#x440;" horiz-adv-x="640" 
d="M360 504c69 0 126 -25 171 -75s67 -111 67 -184c0 -72 -22 -133 -67 -183s-102 -75 -171 -75c-76 0 -134 27 -175 80v-267h-108v691h108v-67c41 53 99 80 175 80zM331 409c-64 0 -119 -37 -146 -88v-152c27 -49 82 -87 146 -87c45 0 83 16 113 47c30 32 45 71 45 116
c0 46 -15 85 -45 116c-30 32 -68 48 -113 48z" />
    <glyph glyph-name="uni0441" unicode="&#x441;" horiz-adv-x="520" 
d="M307 -13c-73 0 -136 24 -188 73c-51 49 -77 111 -77 187c0 75 26 137 77 185c52 48 115 72 189 72c55 0 105 -11 148 -34v-93c-44 21 -88 32 -132 32c-49 0 -90 -15 -124 -46c-33 -31 -50 -70 -50 -117s17 -87 50 -118c34 -31 75 -46 124 -46c52 0 99 12 140 37v-92
c-47 -27 -99 -40 -157 -40z" />
    <glyph glyph-name="uni0442" unicode="&#x442;" horiz-adv-x="480" 
d="M294 0h-108v396h-166v95h439v-95h-165v-396z" />
    <glyph glyph-name="uni0443" unicode="&#x443;" horiz-adv-x="571" 
d="M127 -205c-41 0 -70 5 -89 16v95c22 -11 46 -16 71 -16c56 0 90 40 127 128l-215 473h120l148 -346l143 346h117l-235 -544c-44 -101 -106 -152 -187 -152z" />
    <glyph glyph-name="uni0444" unicode="&#x444;" horiz-adv-x="746" 
d="M427 -200h-108v192c-86 3 -154 27 -203 74s-74 107 -74 180c0 145 102 244 277 253v201h108v-201c175 -9 277 -108 277 -253c0 -73 -25 -133 -74 -180s-117 -71 -203 -74v-192zM319 83v325c-101 -1 -172 -65 -172 -162s71 -163 172 -163zM427 408v-325
c101 0 172 66 172 163s-71 161 -172 162z" />
    <glyph glyph-name="uni0445" unicode="&#x445;" horiz-adv-x="578" 
d="M45 491h125l116 -152l117 152h123l-178 -232l198 -259h-125l-137 179l-137 -179h-122l198 257z" />
    <glyph glyph-name="uni0446" unicode="&#x446;" horiz-adv-x="652" 
d="M621 -135h-105v135h-439v491h108v-396h242v396h108v-396h86v-230z" />
    <glyph glyph-name="uni0447" unicode="&#x447;" horiz-adv-x="571" 
d="M494 0h-108v177c-37 -15 -80 -23 -129 -23c-136 0 -204 58 -204 213v124h108v-115c0 -95 30 -128 114 -128c41 0 78 8 111 25v218h108v-491z" />
    <glyph glyph-name="uni0448" unicode="&#x448;" horiz-adv-x="844" 
d="M767 0h-690v491h108v-396h183v396h108v-396h183v396h108v-491z" />
    <glyph glyph-name="uni0449" unicode="&#x449;" horiz-adv-x="884" 
d="M748 0h-671v491h108v-396h183v396h108v-396h183v396h108v-396h86v-230h-105v135z" />
    <glyph glyph-name="uni044A" unicode="&#x44a;" horiz-adv-x="648" 
d="M413 0h-254v396h-144v95h252v-149h141c120 0 198 -67 198 -171c0 -49 -17 -90 -51 -123c-34 -32 -81 -48 -142 -48zM267 251v-160h129c63 0 101 31 101 80c0 51 -37 80 -101 80h-129z" />
    <glyph glyph-name="uni044B" unicode="&#x44b;" horiz-adv-x="756" 
d="M679 0h-108v491h108v-491zM309 0h-232v491h108v-149h119c120 0 198 -67 198 -171c0 -49 -17 -90 -51 -123c-34 -32 -81 -48 -142 -48zM185 251v-160h107c63 0 101 31 101 80c0 51 -37 80 -101 80h-107z" />
    <glyph glyph-name="uni044C" unicode="&#x44c;" horiz-adv-x="566" 
d="M331 0h-254v491h108v-149h141c120 0 198 -67 198 -171c0 -49 -17 -90 -51 -123c-34 -32 -81 -48 -142 -48zM185 251v-160h129c63 0 101 31 101 80c0 51 -37 80 -101 80h-129z" />
    <glyph glyph-name="uni044D" unicode="&#x44d;" horiz-adv-x="516" 
d="M210 -13c-59 0 -111 13 -156 39v94c43 -25 90 -38 139 -38c88 0 158 49 170 122h-207v87h207c-16 73 -82 118 -170 118c-46 0 -89 -11 -129 -32v94c43 22 91 33 146 33c73 0 136 -24 187 -72s77 -110 77 -185c0 -76 -26 -138 -77 -187s-114 -73 -187 -73z" />
    <glyph glyph-name="uni044E" unicode="&#x44e;" horiz-adv-x="822" 
d="M529 -13c-66 0 -121 20 -166 60c-45 41 -71 93 -80 156h-98v-203h-108v491h108v-193h100c10 60 37 109 82 148s99 58 162 58c73 0 133 -25 180 -75c47 -49 71 -110 71 -183s-24 -135 -71 -185c-47 -49 -107 -74 -180 -74zM673 246c0 46 -13 85 -40 116s-61 47 -104 47
s-78 -16 -105 -47s-40 -70 -40 -116c0 -47 13 -86 40 -117s62 -47 105 -47s77 16 104 47s40 70 40 117z" />
    <glyph glyph-name="uni044F" unicode="&#x44f;" horiz-adv-x="585" 
d="M159 0h-124l139 191c-69 17 -109 70 -109 145c0 91 62 155 185 155h258v-491h-108v169h-119zM265 256h135v148h-135c-57 0 -90 -27 -90 -74s33 -74 90 -74z" />
    <glyph glyph-name="uni0451" unicode="&#x451;" horiz-adv-x="572" 
d="M42 246c0 73 23 135 70 184s107 74 182 74c50 0 93 -13 129 -40c73 -52 104 -133 104 -222v-28h-376c13 -83 85 -132 185 -132c57 0 109 15 158 44v-91c-45 -32 -105 -48 -181 -48s-140 24 -193 72c-52 48 -78 110 -78 187zM152 296h266c-1 30 -12 57 -35 81
s-54 36 -94 36c-79 0 -130 -53 -137 -117zM144 593c-24 24 -24 62 0 85c24 24 62 24 85 0c23 -23 23 -61 0 -85c-23 -23 -61 -23 -85 0zM351 593c-24 24 -24 62 0 85c24 24 62 24 85 0c23 -23 23 -61 0 -85c-23 -23 -61 -23 -85 0z" />
    <glyph glyph-name="uni0452" unicode="&#x452;" horiz-adv-x="654" 
d="M587 248v-283c0 -111 -64 -170 -163 -170c-43 0 -75 7 -98 20v94c22 -13 46 -19 72 -19c54 0 81 29 81 87v247c0 47 -11 80 -34 99s-50 28 -81 28c-55 0 -111 -35 -139 -80v-271h-108v537h-102v87h102v76h108v-76h151v-87h-151v-163c48 52 108 78 180 78
c116 0 182 -77 182 -204z" />
    <glyph glyph-name="uni0453" unicode="&#x453;" horiz-adv-x="485" 
d="M185 0h-108v491h380v-95h-272v-396zM280 575h-98l95 140h135z" />
    <glyph glyph-name="uni0454" unicode="&#x454;" horiz-adv-x="518" 
d="M306 -13c-73 0 -136 24 -187 73s-77 111 -77 187c0 75 26 137 77 185s114 72 187 72c55 0 103 -11 146 -33v-94c-40 21 -83 32 -129 32c-88 0 -154 -45 -170 -118h207v-87h-207c12 -73 82 -122 170 -122c49 0 96 13 139 38v-94c-45 -26 -97 -39 -156 -39z" />
    <glyph glyph-name="uni0455" unicode="&#x455;" horiz-adv-x="512" 
d="M252 -13c-83 0 -162 21 -205 50v102c57 -39 124 -59 200 -59c68 0 108 22 108 58c0 19 -12 30 -30 39c-11 5 -32 11 -47 15l-61 15c-112 28 -165 68 -165 153c0 89 77 144 208 144c75 0 136 -15 181 -44v-99c-59 33 -118 50 -177 50c-67 0 -101 -22 -101 -54
c0 -19 13 -30 31 -39c11 -5 34 -11 47 -15l57 -12c112 -25 168 -77 168 -155c0 -89 -86 -149 -214 -149z" />
    <glyph glyph-name="uni0456" unicode="&#x456;" horiz-adv-x="280" 
d="M194 0h-108v491h108v-491zM140 579c-39 0 -68 29 -68 68s29 69 68 69c37 0 67 -30 67 -69s-30 -68 -67 -68z" />
    <glyph glyph-name="uni0457" unicode="&#x457;" horiz-adv-x="281" 
d="M-5 605c-24 24 -24 62 0 85c24 24 62 24 85 0c23 -23 23 -61 0 -85c-23 -23 -61 -23 -85 0zM202 605c-24 24 -24 62 0 85c24 24 62 24 85 0c23 -23 23 -61 0 -85c-23 -23 -61 -23 -85 0zM195 0h-109v491h109v-491z" />
    <glyph glyph-name="uni0458" unicode="&#x458;" horiz-adv-x="280" 
d="M31 -205c-43 0 -75 7 -98 20v94c22 -13 46 -19 72 -19c54 0 81 29 81 87v514h108v-526c0 -111 -64 -170 -163 -170zM187 598c-25 -25 -70 -25 -97 0c-25 27 -25 71 0 98c27 27 72 27 97 0c27 -27 27 -71 0 -98z" />
    <glyph glyph-name="uni0459" unicode="&#x459;" horiz-adv-x="900" 
d="M665 0h-241v396h-176l-2 -71c-1 -72 -5 -119 -22 -182c-22 -87 -70 -141 -169 -145c-13 0 -24 1 -34 4v93c7 -2 15 -3 22 -3c71 0 96 68 99 239l3 160h387v-149h128c120 0 198 -67 198 -171c0 -49 -17 -90 -51 -123c-34 -32 -81 -48 -142 -48zM532 251v-160h116
c63 0 101 31 101 80c0 51 -37 80 -101 80h-116z" />
    <glyph glyph-name="uni045A" unicode="&#x45a;" horiz-adv-x="896" 
d="M661 0h-241v204h-235v-204h-108v491h108v-192h235v192h108v-149h128c120 0 198 -67 198 -171c0 -49 -17 -90 -51 -123c-34 -32 -81 -48 -142 -48zM528 251v-160h116c63 0 101 31 101 80c0 51 -37 80 -101 80h-116z" />
    <glyph glyph-name="uni045B" unicode="&#x45b;" horiz-adv-x="654" 
d="M225 271v-271h-108v537h-102v87h102v76h108v-76h151v-87h-151v-163c48 52 108 78 180 78c116 0 182 -77 182 -204v-248h-108v224c0 47 -11 80 -34 99s-50 28 -81 28c-55 0 -111 -35 -139 -80z" />
    <glyph glyph-name="uni045C" unicode="&#x45c;" horiz-adv-x="571" 
d="M185 0h-108v491h108v-186l194 186h138l-233 -220l268 -271h-148l-219 222v-222zM324 575h-98l95 140h135z" />
    <glyph glyph-name="uni045E" unicode="&#x45e;" horiz-adv-x="571" 
d="M127 -205c-41 0 -70 5 -89 16v95c22 -11 46 -16 71 -16c56 0 90 40 127 128l-215 473h120l148 -346l143 346h117l-235 -544c-44 -101 -106 -152 -187 -152zM289 557c-101 0 -172 64 -173 165h91c0 -48 32 -82 81 -82c48 0 81 34 82 82h92c-1 -101 -73 -165 -173 -165z
" />
    <glyph glyph-name="uni045F" unicode="&#x45f;" horiz-adv-x="612" 
d="M358 -135h-105v135h-176v491h108v-396h242v396h108v-491h-177v-135z" />
    <glyph glyph-name="uni0490" unicode="&#x490;" horiz-adv-x="613" 
d="M197 0h-110v700h390v142h100v-243h-380v-599z" />
    <glyph glyph-name="uni0491" unicode="&#x491;" horiz-adv-x="485" 
d="M185 0h-108v491h280v128h100v-223h-272v-396z" />
    <glyph glyph-name="uni1E02" unicode="&#x1e02;" horiz-adv-x="721" 
d="M431 0h-344v700h318c125 0 206 -64 206 -172c0 -72 -40 -124 -93 -144c85 -16 149 -84 149 -187c0 -59 -21 -107 -64 -143c-42 -36 -99 -54 -172 -54zM197 321v-220h214c85 0 137 41 137 112c0 69 -50 108 -137 108h-214zM197 599v-181h189c73 0 116 32 116 91
s-43 90 -116 90h-189zM276 831c0 33 27 61 62 61s62 -26 62 -61s-27 -63 -62 -63s-62 28 -62 63z" />
    <glyph glyph-name="uni1E03" unicode="&#x1e03;" horiz-adv-x="640" 
d="M360 -13c-76 0 -134 27 -175 80v-67h-108v700h108v-276c41 53 99 80 175 80c69 0 126 -25 171 -75s67 -111 67 -183c0 -73 -22 -134 -67 -184s-102 -75 -171 -75zM331 82c45 0 83 16 113 47c30 32 45 71 45 117c0 45 -15 84 -45 115c-30 32 -68 48 -113 48
c-64 0 -119 -38 -146 -87v-152c27 -51 82 -88 146 -88zM266 831c0 33 27 61 62 61s62 -26 62 -61s-27 -63 -62 -63s-62 28 -62 63z" />
    <glyph glyph-name="uni1E0A" unicode="&#x1e0a;" horiz-adv-x="778" 
d="M334 0h-247v700h247c113 0 204 -33 275 -98s107 -149 107 -252s-36 -188 -107 -253s-162 -97 -275 -97zM197 599v-498h127c87 0 156 22 205 67s74 105 74 182s-25 137 -74 182s-118 67 -205 67h-127zM287 831c0 33 27 61 62 61s62 -26 62 -61s-27 -63 -62 -63
s-62 28 -62 63z" />
    <glyph glyph-name="uni1E0B" unicode="&#x1e0b;" horiz-adv-x="640" 
d="M280 -13c-69 0 -126 25 -171 75s-67 111 -67 184c0 72 22 133 67 183s102 75 171 75c76 0 134 -27 175 -80v276h108v-700h-108v67c-41 -53 -99 -80 -175 -80zM309 82c64 0 119 37 146 88v152c-27 49 -82 87 -146 87c-45 0 -83 -16 -113 -48c-30 -31 -45 -70 -45 -115
c0 -46 15 -85 45 -117c30 -31 68 -47 113 -47zM265 831c0 33 27 61 62 61s62 -26 62 -61s-27 -63 -62 -63s-62 28 -62 63z" />
    <glyph glyph-name="uni1E1E" unicode="&#x1e1e;" horiz-adv-x="625" 
d="M197 0h-110v700h497v-101h-387v-183h307v-101h-307v-315zM273 831c0 33 27 61 62 61s62 -26 62 -61s-27 -63 -62 -63s-62 28 -62 63z" />
    <glyph glyph-name="uni1E1F" unicode="&#x1e1f;" horiz-adv-x="409" 
d="M115 0v396h-92v95h92v64c0 93 54 155 154 155c43 0 81 -7 115 -21v-91c-31 12 -60 18 -85 18c-51 0 -76 -27 -76 -80v-45h161v-95h-161v-396h-108zM189 831c0 33 27 61 62 61s62 -26 62 -61s-27 -63 -62 -63s-62 28 -62 63z" />
    <glyph glyph-name="uni1E40" unicode="&#x1e40;" horiz-adv-x="848" 
d="M197 0h-110v700h112l227 -315l225 315h110v-700h-110v532l-195 -264h-64l-195 264v-532zM362 831c0 33 27 61 62 61s62 -26 62 -61s-27 -63 -62 -63s-62 28 -62 63z" />
    <glyph glyph-name="uni1E41" unicode="&#x1e41;" horiz-adv-x="922" 
d="M185 0h-108v491h108v-64c37 51 91 77 162 77c77 0 134 -36 155 -88c35 51 100 88 179 88c108 0 174 -69 174 -197v-307h-108v282c0 81 -33 121 -100 121c-52 0 -105 -35 -126 -82v-321h-108v282c0 81 -34 121 -101 121c-51 0 -103 -34 -127 -79v-324zM404 648
c0 33 27 61 62 61s62 -26 62 -61s-27 -62 -62 -62s-62 27 -62 62z" />
    <glyph glyph-name="uni1E56" unicode="&#x1e56;" horiz-adv-x="662" 
d="M197 0h-110v700h301c73 0 130 -19 171 -57c42 -37 63 -86 63 -146c0 -61 -21 -111 -63 -150c-41 -39 -98 -58 -171 -58h-191v-289zM197 599v-209h182c83 0 132 38 132 105s-49 104 -132 104h-182zM271 831c0 33 27 61 62 61s62 -26 62 -61s-27 -63 -62 -63s-62 28 -62 63
z" />
    <glyph glyph-name="uni1E57" unicode="&#x1e57;" horiz-adv-x="640" 
d="M360 504c69 0 126 -25 171 -75s67 -111 67 -184c0 -72 -22 -133 -67 -183s-102 -75 -171 -75c-76 0 -134 27 -175 80v-267h-108v691h108v-67c41 53 99 80 175 80zM331 409c-64 0 -119 -37 -146 -88v-152c27 -49 82 -87 146 -87c45 0 83 16 113 47c30 32 45 71 45 116
c0 46 -15 85 -45 116c-30 32 -68 48 -113 48zM270 648c0 33 27 61 62 61s62 -26 62 -61s-27 -62 -62 -62s-62 27 -62 62z" />
    <glyph glyph-name="uni1E60" unicode="&#x1e60;" horiz-adv-x="628" 
d="M308 -13c-107 0 -194 25 -263 75v119c28 -25 66 -46 113 -64c48 -18 96 -27 144 -27c92 0 162 39 162 104c0 28 -14 50 -31 65c-8 7 -20 14 -36 21c-32 15 -51 20 -96 33l-14 4c-39 11 -70 21 -91 29s-44 20 -70 35c-51 32 -72 77 -72 141c0 116 97 191 254 191
c84 0 159 -19 224 -58v-110c-71 43 -145 65 -222 65c-96 0 -143 -37 -143 -89c0 -30 17 -46 41 -63c13 -8 45 -18 62 -25l80 -23c53 -16 84 -28 128 -52c62 -33 95 -83 99 -162c0 -65 -26 -116 -77 -153s-115 -56 -192 -56zM240 831c0 33 27 61 62 61s62 -26 62 -61
s-27 -63 -62 -63s-62 28 -62 63z" />
    <glyph glyph-name="uni1E61" unicode="&#x1e61;" horiz-adv-x="512" 
d="M252 -13c-83 0 -162 21 -205 50v102c57 -39 124 -59 200 -59c68 0 108 22 108 58c0 19 -12 30 -30 39c-11 5 -32 11 -47 15l-61 15c-112 28 -165 68 -165 153c0 89 77 144 208 144c75 0 136 -15 181 -44v-99c-59 33 -118 50 -177 50c-67 0 -101 -22 -101 -54
c0 -19 13 -30 31 -39c11 -5 34 -11 47 -15l57 -12c112 -25 168 -77 168 -155c0 -89 -86 -149 -214 -149zM247 586c-33 0 -62 27 -62 62c-4 52 71 83 106 43c39 -34 10 -109 -44 -105z" />
    <glyph glyph-name="uni1E6A" unicode="&#x1e6a;" horiz-adv-x="639" 
d="M33 599v101h573v-101h-232v-599h-110v599h-231zM257 831c0 33 27 61 62 61s62 -26 62 -61s-27 -63 -62 -63s-62 28 -62 63z" />
    <glyph glyph-name="uni1E6B" unicode="&#x1e6b;" horiz-adv-x="436" 
d="M128 396h-105v95h105v143h108v-143h155v-95h-155v-231c0 -56 25 -79 77 -79c27 0 51 6 74 18v-93c-23 -16 -60 -24 -109 -24c-92 0 -150 51 -150 147v262zM183 687c-33 0 -62 29 -62 62s27 61 62 61s62 -26 62 -61s-27 -62 -62 -62z" />
    <glyph glyph-name="Wgrave" unicode="&#x1e80;" horiz-adv-x="1065" 
d="M366 -4h-98l-238 704h123l167 -526l170 527h87l170 -527l167 526h121l-239 -704h-97l-166 521zM354 902h135l95 -140h-99z" />
    <glyph glyph-name="wgrave" unicode="&#x1e81;" horiz-adv-x="836" 
d="M292 -4h-93l-171 495h110l115 -334l114 336h89l116 -336l114 334h109l-172 -495h-94l-119 339zM229 715h134l95 -140h-98z" />
    <glyph glyph-name="Wacute" unicode="&#x1e82;" horiz-adv-x="1065" 
d="M366 -4h-98l-238 704h123l167 -526l170 527h87l170 -527l167 526h121l-239 -704h-97l-166 521zM586 762h-99l95 140h135z" />
    <glyph glyph-name="wacute" unicode="&#x1e83;" horiz-adv-x="836" 
d="M292 -4h-93l-171 495h110l115 -334l114 336h89l116 -336l114 334h109l-172 -495h-94l-119 339zM466 575h-98l95 140h135z" />
    <glyph glyph-name="Wdieresis" unicode="&#x1e84;" horiz-adv-x="1065" 
d="M366 -4h-98l-238 704h123l167 -526l170 527h87l170 -527l167 526h121l-239 -704h-97l-166 521zM388 788c-24 24 -24 62 0 85c24 24 62 24 85 0c23 -23 23 -61 0 -85c-23 -23 -61 -23 -85 0zM595 788c-24 24 -24 62 0 85c24 24 62 24 85 0c23 -23 23 -61 0 -85
c-23 -23 -61 -23 -85 0z" />
    <glyph glyph-name="wdieresis" unicode="&#x1e85;" horiz-adv-x="836" 
d="M292 -4h-93l-171 495h110l115 -334l114 336h89l116 -336l114 334h109l-172 -495h-94l-119 339zM266 605c-24 24 -24 62 0 85c24 24 62 24 85 0c23 -23 23 -61 0 -85c-23 -23 -61 -23 -85 0zM473 605c-24 24 -24 62 0 85c24 24 62 24 85 0c23 -23 23 -61 0 -85
c-23 -23 -61 -23 -85 0z" />
    <glyph glyph-name="Ygrave" unicode="&#x1ef2;" horiz-adv-x="684" 
d="M397 0h-110v317l-271 383h128l200 -283l200 283h124l-271 -380v-320zM176 902h135l95 -140h-99z" />
    <glyph glyph-name="ygrave" unicode="&#x1ef3;" horiz-adv-x="571" 
d="M127 -205c-41 0 -70 5 -89 16v95c22 -11 46 -16 71 -16c56 0 90 40 127 128l-215 473h120l148 -346l143 346h117l-235 -544c-44 -101 -106 -152 -187 -152zM130 715h134l95 -140h-98z" />
    <glyph glyph-name="endash" unicode="&#x2013;" horiz-adv-x="751" 
d="M653 227h-555v97h555v-97z" />
    <glyph glyph-name="emdash" unicode="&#x2014;" horiz-adv-x="912" 
d="M814 227h-716v97h716v-97z" />
    <glyph glyph-name="uni2015" unicode="&#x2015;" horiz-adv-x="751" 
d="M653 227h-555v97h555v-97z" />
    <glyph glyph-name="quoteleft" unicode="&#x2018;" horiz-adv-x="234" 
d="M129 700h85l-83 -280h-124z" />
    <glyph glyph-name="quoteright" unicode="&#x2019;" horiz-adv-x="234" 
d="M99 420h-85l83 280h124z" />
    <glyph glyph-name="quotesinglbase" unicode="&#x201a;" horiz-adv-x="254" 
d="M93 -152h-85l83 280h124z" />
    <glyph glyph-name="quotedblleft" unicode="&#x201c;" horiz-adv-x="420" 
d="M315 700h85l-83 -280h-124zM129 700h85l-83 -280h-124z" />
    <glyph glyph-name="quotedblright" unicode="&#x201d;" horiz-adv-x="420" 
d="M285 420h-85l83 280h124zM99 420h-85l83 280h124z" />
    <glyph glyph-name="quotedblbase" unicode="&#x201e;" horiz-adv-x="440" 
d="M279 -152h-85l83 280h124zM93 -152h-85l83 280h124z" />
    <glyph glyph-name="dagger" unicode="&#x2020;" horiz-adv-x="511" 
d="M301 0h-92v402h-168v89h168v209h92v-209h169v-89h-169v-402z" />
    <glyph glyph-name="daggerdbl" unicode="&#x2021;" horiz-adv-x="511" 
d="M301 0h-92v182h-169v89h169v131h-168v89h168v209h92v-209h169v-89h-169v-131h168v-89h-168v-182z" />
    <glyph glyph-name="bullet" unicode="&#x2022;" horiz-adv-x="412" 
d="M206 256c-36 0 -67 13 -92 38s-38 56 -38 91c0 36 13 67 38 92c25 26 56 39 92 39c35 0 66 -13 91 -39c26 -25 39 -56 39 -92c0 -35 -13 -66 -39 -91c-25 -25 -56 -38 -91 -38z" />
    <glyph glyph-name="ellipsis" unicode="&#x2026;" horiz-adv-x="711" 
d="M126 -8c-40 0 -71 31 -71 71c0 39 31 70 71 70c37 0 70 -31 70 -70c0 -40 -31 -71 -70 -71zM286 63c0 39 31 70 70 70s70 -31 70 -70c0 -40 -31 -71 -70 -71s-70 31 -70 71zM517 63c0 39 31 70 70 70s70 -31 70 -70c0 -40 -31 -71 -70 -71s-70 31 -70 71z" />
    <glyph glyph-name="perthousand" unicode="&#x2030;" horiz-adv-x="1207" 
d="M245 0h-84l414 700h83zM207 713c50 0 91 -16 124 -49s49 -73 49 -121s-16 -88 -49 -121c-33 -32 -74 -48 -124 -48c-49 0 -90 16 -123 48c-32 33 -48 73 -48 121s16 88 48 121c33 33 74 49 123 49zM207 447c55 0 94 41 94 96c0 56 -38 96 -94 96c-53 0 -92 -41 -92 -96
s39 -96 92 -96zM610 326c50 0 91 -16 124 -49s49 -73 49 -120c0 -48 -16 -88 -49 -121s-74 -49 -124 -49c-49 0 -90 16 -123 49c-32 33 -48 73 -48 121c0 47 16 87 48 120c33 33 74 49 123 49zM610 61c56 0 94 40 94 96c0 55 -39 96 -94 96c-53 0 -92 -41 -92 -96
s39 -96 92 -96zM999 326c50 0 91 -16 124 -49s49 -73 49 -120c0 -49 -16 -89 -49 -122c-33 -32 -74 -48 -124 -48c-49 0 -90 16 -123 49c-32 33 -48 73 -48 121c0 47 16 87 48 120c33 33 74 49 123 49zM999 60c56 0 94 41 94 97c0 55 -39 96 -94 96c-53 0 -93 -41 -93 -96
s40 -97 93 -97z" />
    <glyph glyph-name="guilsinglleft" unicode="&#x2039;" horiz-adv-x="324" 
d="M289 38h-110l-144 180v55l144 181h110l-163 -208z" />
    <glyph glyph-name="guilsinglright" unicode="&#x203a;" horiz-adv-x="323" 
d="M144 38h-109l161 208l-161 208h109l144 -181v-55z" />
    <glyph glyph-name="fraction" unicode="&#x2044;" horiz-adv-x="210" 
d="M-56 0h-91l418 700h91z" />
    <glyph glyph-name="zerosuperior" unicode="&#x2070;" horiz-adv-x="388" 
d="M317 373c-30 -39 -71 -58 -123 -58s-93 19 -124 58c-30 39 -45 85 -45 138s15 99 45 138c31 39 72 58 124 58s93 -19 123 -58c31 -39 46 -85 46 -138s-15 -99 -46 -138zM194 392c51 0 80 54 80 119s-29 119 -80 119c-49 0 -81 -54 -81 -119s32 -119 81 -119z" />
    <glyph glyph-name="foursuperior" unicode="&#x2074;" horiz-adv-x="365" 
d="M293 322h-86v92h-191v63l187 223h90v-217h55v-69h-55v-92zM207 601l-101 -118h101v118z" />
    <glyph glyph-name="fivesuperior" unicode="&#x2075;" horiz-adv-x="335" 
d="M139 315c-43 0 -80 9 -111 27v83c33 -21 69 -32 108 -32c44 0 78 20 78 57c0 32 -30 55 -78 55c-35 0 -66 -5 -95 -15l25 210h212v-74h-146l-6 -56c5 1 16 2 31 2c85 0 146 -46 146 -122c0 -85 -71 -135 -164 -135z" />
    <glyph glyph-name="sixsuperior" unicode="&#x2076;" horiz-adv-x="356" 
d="M186 315c-100 0 -156 70 -156 177c0 60 15 111 45 152c31 42 75 63 134 63c38 0 68 -8 89 -23v-78c-23 16 -49 24 -79 24c-53 0 -94 -35 -98 -92c20 23 48 35 85 35c71 0 124 -48 124 -124c0 -39 -14 -72 -42 -97c-27 -25 -61 -37 -102 -37zM180 387c36 0 61 26 61 62
c0 33 -26 59 -61 59c-27 0 -53 -17 -65 -42c1 -49 28 -79 65 -79z" />
    <glyph glyph-name="sevensuperior" unicode="&#x2077;" horiz-adv-x="326" 
d="M143 322h-96l154 304h-178v74h278v-69z" />
    <glyph glyph-name="eightsuperior" unicode="&#x2078;" horiz-adv-x="362" 
d="M182 315c-89 0 -158 43 -158 116c0 41 30 79 70 92c-31 13 -51 45 -51 78c0 63 59 106 139 106c79 0 138 -43 138 -106c0 -33 -21 -65 -52 -78c40 -13 70 -51 70 -92c0 -36 -15 -64 -46 -85c-30 -21 -67 -31 -110 -31zM182 387c39 0 67 22 67 51c0 32 -27 53 -67 53
c-41 0 -69 -21 -69 -53c0 -29 29 -51 69 -51zM182 547c31 0 55 20 55 45c0 27 -23 45 -55 45c-33 0 -58 -18 -58 -45c0 -25 25 -45 58 -45z" />
    <glyph glyph-name="ninesuperior" unicode="&#x2079;" horiz-adv-x="356" 
d="M173 707c100 0 157 -70 157 -177c0 -60 -16 -111 -47 -153c-31 -41 -75 -62 -133 -62c-38 0 -68 8 -90 23v78c23 -16 50 -24 79 -24c53 0 95 35 99 92c-20 -23 -48 -35 -85 -35c-71 0 -123 48 -123 124c0 39 14 71 41 96s61 38 102 38zM179 635c-37 0 -61 -26 -61 -62
c0 -33 25 -59 60 -59c30 0 52 14 65 42c-1 49 -28 79 -64 79z" />
    <glyph glyph-name="zeroinferior" unicode="&#x2080;" horiz-adv-x="388" 
d="M317 51c-30 -39 -71 -58 -123 -58s-93 19 -124 58c-30 39 -45 85 -45 138s15 99 45 138c31 39 72 58 124 58s93 -19 123 -58c31 -39 46 -85 46 -138s-15 -99 -46 -138zM194 70c51 0 80 54 80 119s-29 119 -80 119c-49 0 -81 -54 -81 -119s32 -119 81 -119z" />
    <glyph glyph-name="oneinferior" unicode="&#x2081;" horiz-adv-x="253" 
d="M210 0h-89v287l-102 -53v88l106 56h85v-378z" />
    <glyph glyph-name="twoinferior" unicode="&#x2082;" horiz-adv-x="359" 
d="M319 0h-279v64l111 96c49 41 66 67 66 96c0 28 -23 47 -59 47c-35 0 -70 -13 -105 -40v88c31 23 69 34 112 34c38 0 71 -11 99 -33c29 -21 43 -50 43 -85c0 -52 -22 -87 -82 -143l-54 -50h148v-74z" />
    <glyph glyph-name="threeinferior" unicode="&#x2083;" horiz-adv-x="330" 
d="M145 -7c-47 0 -87 10 -121 30v82c37 -23 75 -34 113 -34c43 0 77 23 77 56c0 32 -26 54 -70 54c-23 0 -43 -4 -59 -11v55l91 79h-141v74h251v-66l-85 -75c53 -9 102 -43 102 -112c0 -39 -15 -71 -46 -96c-31 -24 -68 -36 -112 -36z" />
    <glyph glyph-name="fourinferior" unicode="&#x2084;" horiz-adv-x="365" 
d="M293 0h-86v92h-191v63l187 223h90v-217h55v-69h-55v-92zM207 279l-101 -118h101v118z" />
    <glyph glyph-name="fiveinferior" unicode="&#x2085;" horiz-adv-x="335" 
d="M139 -7c-43 0 -80 9 -111 27v83c33 -21 69 -32 108 -32c44 0 78 20 78 57c0 32 -30 55 -78 55c-35 0 -66 -5 -95 -15l25 210h212v-74h-146l-6 -56c5 1 16 2 31 2c85 0 146 -46 146 -122c0 -85 -71 -135 -164 -135z" />
    <glyph glyph-name="sixinferior" unicode="&#x2086;" horiz-adv-x="356" 
d="M186 -7c-100 0 -156 70 -156 177c0 60 15 111 45 152c31 42 75 63 134 63c38 0 68 -8 89 -23v-78c-23 16 -49 24 -79 24c-53 0 -94 -35 -98 -92c20 23 48 35 85 35c71 0 124 -48 124 -124c0 -39 -14 -72 -42 -97c-27 -25 -61 -37 -102 -37zM180 65c36 0 61 26 61 62
c0 33 -26 59 -61 59c-27 0 -53 -17 -65 -42c1 -49 28 -79 65 -79z" />
    <glyph glyph-name="seveninferior" unicode="&#x2087;" horiz-adv-x="326" 
d="M143 0h-96l154 304h-178v74h278v-69z" />
    <glyph glyph-name="eightinferior" unicode="&#x2088;" horiz-adv-x="362" 
d="M182 -7c-89 0 -158 43 -158 116c0 41 30 79 70 92c-31 13 -51 45 -51 78c0 63 59 106 139 106c79 0 138 -43 138 -106c0 -33 -21 -65 -52 -78c40 -13 70 -51 70 -92c0 -36 -15 -64 -46 -85c-30 -21 -67 -31 -110 -31zM182 65c39 0 67 22 67 51c0 32 -27 53 -67 53
c-41 0 -69 -21 -69 -53c0 -29 29 -51 69 -51zM182 225c31 0 55 20 55 45c0 27 -23 45 -55 45c-33 0 -58 -18 -58 -45c0 -25 25 -45 58 -45z" />
    <glyph glyph-name="nineinferior" unicode="&#x2089;" horiz-adv-x="356" 
d="M173 384c100 0 157 -70 157 -177c0 -60 -16 -111 -47 -153c-31 -41 -75 -62 -133 -62c-38 0 -68 8 -90 23v78c23 -16 50 -24 79 -24c53 0 95 35 99 92c-20 -23 -48 -35 -85 -35c-71 0 -123 48 -123 124c0 39 14 71 41 96s61 38 102 38zM179 312c-37 0 -61 -26 -61 -62
c0 -33 25 -59 60 -59c30 0 52 14 65 42c-1 49 -28 79 -64 79z" />
    <glyph glyph-name="franc" unicode="&#x20a3;" horiz-adv-x="652" 
d="M115 129h-108v78h108v493h496v-100h-386v-185h307v-99h-307v-109h161v-78h-161v-129h-110v129z" />
    <glyph glyph-name="lira" unicode="&#x20a4;" horiz-adv-x="596" 
d="M132 214h-77v78h77v83h-77v78h77v28c0 147 91 232 242 232c62 0 116 -13 161 -39v-104c-42 27 -90 40 -145 40c-96 0 -148 -50 -148 -145v-12h221v-78h-221v-83h221v-78h-221v-55c0 -27 -9 -47 -27 -60h331v-99h-491v99h16c44 0 61 20 61 63v52z" />
    <glyph glyph-name="peseta" unicode="&#x20a7;" horiz-adv-x="729" 
d="M207 0h-110v452h-83v91h83v157h301c125 0 209 -61 229 -157h76v-91h-76c-20 -100 -102 -163 -229 -163h-191v-289zM207 599v-209h182c83 0 132 38 132 105s-49 104 -132 104h-182z" />
    <glyph glyph-name="Euro" unicode="&#x20ac;" horiz-adv-x="673" 
d="M465 480v-78h-240c-2 -16 -3 -31 -3 -44c0 -11 1 -24 2 -39h241v-78h-223c28 -96 107 -153 214 -153c65 0 122 19 169 58v-110c-47 -33 -108 -49 -182 -49c-83 0 -153 23 -209 69c-55 47 -92 108 -111 185h-87v78h75c-1 8 -1 20 -1 37c0 11 1 26 2 46h-76v78h92
c21 69 59 125 114 168s122 65 201 65c64 0 120 -14 167 -43v-105c-47 31 -98 47 -154 47c-99 0 -175 -48 -208 -132h217z" />
    <glyph glyph-name="uni20B4" unicode="&#x20b4;" horiz-adv-x="606" 
d="M553 389h-498v74h303c30 16 45 40 45 71c0 53 -44 80 -133 80c-58 0 -113 -11 -164 -34v100c49 22 108 33 178 33c69 0 125 -15 169 -44c45 -29 67 -69 67 -120c0 -37 -12 -66 -37 -86h70v-74zM326 -13c-70 0 -127 14 -172 43s-67 70 -67 122c0 45 17 82 52 110h-84v74
h498v-74h-281c-40 -17 -69 -50 -69 -90c0 -57 47 -85 142 -85c65 0 123 13 173 40v-103c-53 -25 -117 -37 -192 -37z" />
    <glyph glyph-name="uni20B6" unicode="&#x20b6;" horiz-adv-x="702" 
d="M127 293h-104v78h104v329h291c73 0 130 -19 171 -57c42 -37 63 -86 63 -146c0 -61 -21 -111 -63 -148c-41 -37 -98 -56 -171 -56h-181v-83h273v-78h-273v-132h-110v132h-104v78h104v83zM237 601v-230h171c84 0 134 43 134 115c0 73 -50 115 -134 115h-171z" />
    <glyph glyph-name="uni20B6" unicode="&#x20cf;" horiz-adv-x="702" 
d="M127 293h-104v78h104v329h291c73 0 130 -19 171 -57c42 -37 63 -86 63 -146c0 -61 -21 -111 -63 -148c-41 -37 -98 -56 -171 -56h-181v-83h273v-78h-273v-132h-110v132h-104v78h104v83zM237 601v-230h171c84 0 134 43 134 115c0 73 -50 115 -134 115h-171z" />
    <glyph glyph-name="uni20B6" unicode="&#x20ce;" horiz-adv-x="702" 
d="M127 293h-104v78h104v329h291c73 0 130 -19 171 -57c42 -37 63 -86 63 -146c0 -61 -21 -111 -63 -148c-41 -37 -98 -56 -171 -56h-181v-83h273v-78h-273v-132h-110v132h-104v78h104v83zM237 601v-230h171c84 0 134 43 134 115c0 73 -50 115 -134 115h-171z" />
    <glyph glyph-name="uni20B6" unicode="&#x20cd;" horiz-adv-x="702" 
d="M127 293h-104v78h104v329h291c73 0 130 -19 171 -57c42 -37 63 -86 63 -146c0 -61 -21 -111 -63 -148c-41 -37 -98 -56 -171 -56h-181v-83h273v-78h-273v-132h-110v132h-104v78h104v83zM237 601v-230h171c84 0 134 43 134 115c0 73 -50 115 -134 115h-171z" />
    <glyph glyph-name="uni20B6" unicode="&#x20cc;" horiz-adv-x="702" 
d="M127 293h-104v78h104v329h291c73 0 130 -19 171 -57c42 -37 63 -86 63 -146c0 -61 -21 -111 -63 -148c-41 -37 -98 -56 -171 -56h-181v-83h273v-78h-273v-132h-110v132h-104v78h104v83zM237 601v-230h171c84 0 134 43 134 115c0 73 -50 115 -134 115h-171z" />
    <glyph glyph-name="uni20B6" unicode="&#x20cb;" horiz-adv-x="702" 
d="M127 293h-104v78h104v329h291c73 0 130 -19 171 -57c42 -37 63 -86 63 -146c0 -61 -21 -111 -63 -148c-41 -37 -98 -56 -171 -56h-181v-83h273v-78h-273v-132h-110v132h-104v78h104v83zM237 601v-230h171c84 0 134 43 134 115c0 73 -50 115 -134 115h-171z" />
    <glyph glyph-name="uni20B6" unicode="&#x20ca;" horiz-adv-x="702" 
d="M127 293h-104v78h104v329h291c73 0 130 -19 171 -57c42 -37 63 -86 63 -146c0 -61 -21 -111 -63 -148c-41 -37 -98 -56 -171 -56h-181v-83h273v-78h-273v-132h-110v132h-104v78h104v83zM237 601v-230h171c84 0 134 43 134 115c0 73 -50 115 -134 115h-171z" />
    <glyph glyph-name="uni20B6" unicode="&#x20c9;" horiz-adv-x="702" 
d="M127 293h-104v78h104v329h291c73 0 130 -19 171 -57c42 -37 63 -86 63 -146c0 -61 -21 -111 -63 -148c-41 -37 -98 -56 -171 -56h-181v-83h273v-78h-273v-132h-110v132h-104v78h104v83zM237 601v-230h171c84 0 134 43 134 115c0 73 -50 115 -134 115h-171z" />
    <glyph glyph-name="uni20B6" unicode="&#x20c8;" horiz-adv-x="702" 
d="M127 293h-104v78h104v329h291c73 0 130 -19 171 -57c42 -37 63 -86 63 -146c0 -61 -21 -111 -63 -148c-41 -37 -98 -56 -171 -56h-181v-83h273v-78h-273v-132h-110v132h-104v78h104v83zM237 601v-230h171c84 0 134 43 134 115c0 73 -50 115 -134 115h-171z" />
    <glyph glyph-name="uni20B6" unicode="&#x20c7;" horiz-adv-x="702" 
d="M127 293h-104v78h104v329h291c73 0 130 -19 171 -57c42 -37 63 -86 63 -146c0 -61 -21 -111 -63 -148c-41 -37 -98 -56 -171 -56h-181v-83h273v-78h-273v-132h-110v132h-104v78h104v83zM237 601v-230h171c84 0 134 43 134 115c0 73 -50 115 -134 115h-171z" />
    <glyph glyph-name="uni20B6" unicode="&#x20c6;" horiz-adv-x="702" 
d="M127 293h-104v78h104v329h291c73 0 130 -19 171 -57c42 -37 63 -86 63 -146c0 -61 -21 -111 -63 -148c-41 -37 -98 -56 -171 -56h-181v-83h273v-78h-273v-132h-110v132h-104v78h104v83zM237 601v-230h171c84 0 134 43 134 115c0 73 -50 115 -134 115h-171z" />
    <glyph glyph-name="uni20B6" unicode="&#x20c5;" horiz-adv-x="702" 
d="M127 293h-104v78h104v329h291c73 0 130 -19 171 -57c42 -37 63 -86 63 -146c0 -61 -21 -111 -63 -148c-41 -37 -98 -56 -171 -56h-181v-83h273v-78h-273v-132h-110v132h-104v78h104v83zM237 601v-230h171c84 0 134 43 134 115c0 73 -50 115 -134 115h-171z" />
    <glyph glyph-name="uni20B6" unicode="&#x20c4;" horiz-adv-x="702" 
d="M127 293h-104v78h104v329h291c73 0 130 -19 171 -57c42 -37 63 -86 63 -146c0 -61 -21 -111 -63 -148c-41 -37 -98 -56 -171 -56h-181v-83h273v-78h-273v-132h-110v132h-104v78h104v83zM237 601v-230h171c84 0 134 43 134 115c0 73 -50 115 -134 115h-171z" />
    <glyph glyph-name="uni20B6" unicode="&#x20c3;" horiz-adv-x="702" 
d="M127 293h-104v78h104v329h291c73 0 130 -19 171 -57c42 -37 63 -86 63 -146c0 -61 -21 -111 -63 -148c-41 -37 -98 -56 -171 -56h-181v-83h273v-78h-273v-132h-110v132h-104v78h104v83zM237 601v-230h171c84 0 134 43 134 115c0 73 -50 115 -134 115h-171z" />
    <glyph glyph-name="uni20B6" unicode="&#x20c2;" horiz-adv-x="702" 
d="M127 293h-104v78h104v329h291c73 0 130 -19 171 -57c42 -37 63 -86 63 -146c0 -61 -21 -111 -63 -148c-41 -37 -98 -56 -171 -56h-181v-83h273v-78h-273v-132h-110v132h-104v78h104v83zM237 601v-230h171c84 0 134 43 134 115c0 73 -50 115 -134 115h-171z" />
    <glyph glyph-name="uni20B6" unicode="&#x20c1;" horiz-adv-x="702" 
d="M127 293h-104v78h104v329h291c73 0 130 -19 171 -57c42 -37 63 -86 63 -146c0 -61 -21 -111 -63 -148c-41 -37 -98 -56 -171 -56h-181v-83h273v-78h-273v-132h-110v132h-104v78h104v83zM237 601v-230h171c84 0 134 43 134 115c0 73 -50 115 -134 115h-171z" />
    <glyph glyph-name="uni20B6" unicode="&#x20c0;" horiz-adv-x="702" 
d="M127 293h-104v78h104v329h291c73 0 130 -19 171 -57c42 -37 63 -86 63 -146c0 -61 -21 -111 -63 -148c-41 -37 -98 -56 -171 -56h-181v-83h273v-78h-273v-132h-110v132h-104v78h104v83zM237 601v-230h171c84 0 134 43 134 115c0 73 -50 115 -134 115h-171z" />
    <glyph glyph-name="uni20B6" unicode="&#x20bf;" horiz-adv-x="702" 
d="M127 293h-104v78h104v329h291c73 0 130 -19 171 -57c42 -37 63 -86 63 -146c0 -61 -21 -111 -63 -148c-41 -37 -98 -56 -171 -56h-181v-83h273v-78h-273v-132h-110v132h-104v78h104v83zM237 601v-230h171c84 0 134 43 134 115c0 73 -50 115 -134 115h-171z" />
    <glyph glyph-name="uni20B6" unicode="&#x20be;" horiz-adv-x="702" 
d="M127 293h-104v78h104v329h291c73 0 130 -19 171 -57c42 -37 63 -86 63 -146c0 -61 -21 -111 -63 -148c-41 -37 -98 -56 -171 -56h-181v-83h273v-78h-273v-132h-110v132h-104v78h104v83zM237 601v-230h171c84 0 134 43 134 115c0 73 -50 115 -134 115h-171z" />
    <glyph glyph-name="uni20B6" unicode="&#x20bd;" horiz-adv-x="702" 
d="M127 293h-104v78h104v329h291c73 0 130 -19 171 -57c42 -37 63 -86 63 -146c0 -61 -21 -111 -63 -148c-41 -37 -98 -56 -171 -56h-181v-83h273v-78h-273v-132h-110v132h-104v78h104v83zM237 601v-230h171c84 0 134 43 134 115c0 73 -50 115 -134 115h-171z" />
    <glyph glyph-name="uni20B6" unicode="&#x20bc;" horiz-adv-x="702" 
d="M127 293h-104v78h104v329h291c73 0 130 -19 171 -57c42 -37 63 -86 63 -146c0 -61 -21 -111 -63 -148c-41 -37 -98 -56 -171 -56h-181v-83h273v-78h-273v-132h-110v132h-104v78h104v83zM237 601v-230h171c84 0 134 43 134 115c0 73 -50 115 -134 115h-171z" />
    <glyph glyph-name="uni20B6" unicode="&#x20bb;" horiz-adv-x="702" 
d="M127 293h-104v78h104v329h291c73 0 130 -19 171 -57c42 -37 63 -86 63 -146c0 -61 -21 -111 -63 -148c-41 -37 -98 -56 -171 -56h-181v-83h273v-78h-273v-132h-110v132h-104v78h104v83zM237 601v-230h171c84 0 134 43 134 115c0 73 -50 115 -134 115h-171z" />
    <glyph glyph-name="uni20B6" unicode="&#x20ba;" horiz-adv-x="702" 
d="M127 293h-104v78h104v329h291c73 0 130 -19 171 -57c42 -37 63 -86 63 -146c0 -61 -21 -111 -63 -148c-41 -37 -98 -56 -171 -56h-181v-83h273v-78h-273v-132h-110v132h-104v78h104v83zM237 601v-230h171c84 0 134 43 134 115c0 73 -50 115 -134 115h-171z" />
    <glyph glyph-name="uni20B6" unicode="&#x20b9;" horiz-adv-x="702" 
d="M127 293h-104v78h104v329h291c73 0 130 -19 171 -57c42 -37 63 -86 63 -146c0 -61 -21 -111 -63 -148c-41 -37 -98 -56 -171 -56h-181v-83h273v-78h-273v-132h-110v132h-104v78h104v83zM237 601v-230h171c84 0 134 43 134 115c0 73 -50 115 -134 115h-171z" />
    <glyph glyph-name="uni20B6" unicode="&#x20b7;" horiz-adv-x="702" 
d="M127 293h-104v78h104v329h291c73 0 130 -19 171 -57c42 -37 63 -86 63 -146c0 -61 -21 -111 -63 -148c-41 -37 -98 -56 -171 -56h-181v-83h273v-78h-273v-132h-110v132h-104v78h104v83zM237 601v-230h171c84 0 134 43 134 115c0 73 -50 115 -134 115h-171z" />
    <glyph glyph-name="uni2113" unicode="&#x2113;" horiz-adv-x="420" 
d="M226 -13c-105 0 -158 54 -158 163v340c0 135 59 220 164 220c87 0 138 -64 138 -157c0 -117 -74 -241 -221 -371v-31c0 -60 31 -90 93 -90c37 0 70 11 97 32v-71c-29 -23 -66 -35 -113 -35zM149 495v-210c39 39 73 81 102 128s43 93 43 137c0 56 -20 84 -61 84
c-47 0 -84 -42 -84 -139z" />
    <glyph glyph-name="uni2116" unicode="&#x2116;" horiz-adv-x="1179" 
d="M1090 245h-310v68h310v-68zM195 0h-108v700h96l395 -507v507h108v-700h-93l-398 509v-509zM935 713c50 0 91 -16 124 -49s49 -73 49 -121s-16 -88 -49 -121c-33 -32 -74 -48 -124 -48c-49 0 -90 16 -123 48c-32 33 -48 73 -48 121s16 88 48 121c33 33 74 49 123 49z
M935 447c55 0 94 41 94 96c0 56 -38 96 -94 96c-53 0 -92 -41 -92 -96s39 -96 92 -96z" />
    <glyph glyph-name="trademark" unicode="&#x2122;" horiz-adv-x="689" 
d="M393 390h-61v310h57l94 -127l93 127h59v-310h-62v214l-74 -96h-31l-75 97v-215zM180 390h-62v256h-97v54h259v-54h-100v-256z" />
    <glyph glyph-name="Omega" unicode="&#x2126;" horiz-adv-x="798" 
d="M325 0h-238v101h110c-65 63 -113 165 -113 274c0 95 29 175 86 240c58 65 134 98 229 98s171 -33 228 -98c58 -65 87 -145 87 -240c0 -108 -49 -211 -114 -274h111v-101h-238v83c36 28 66 66 91 115s37 102 37 159c0 75 -19 136 -56 183s-86 70 -146 70
s-109 -23 -147 -70c-37 -47 -56 -108 -56 -183c0 -57 12 -110 37 -159s56 -87 92 -115v-83z" />
    <glyph glyph-name="estimated" unicode="&#x212e;" horiz-adv-x="795" 
d="M399 -13c-96 0 -176 32 -241 95c-64 64 -96 144 -96 240c0 93 31 172 94 237s144 98 243 98c93 0 170 -30 230 -90c61 -60 95 -129 102 -208c1 -12 2 -24 2 -37h-567v-201c59 -70 137 -105 233 -105c125 0 230 67 278 176h33c-23 -59 -62 -108 -117 -147
s-119 -58 -194 -58zM166 525v-174h464v174c-61 69 -138 104 -231 104c-96 0 -174 -35 -233 -104z" />
    <glyph glyph-name="onethird" unicode="&#x2153;" horiz-adv-x="791" 
d="M196 0h-91l418 700h91zM210 322h-89v287l-102 -53v88l106 56h85v-378zM606 -7c-47 0 -87 10 -121 30v82c37 -23 75 -34 113 -34c43 0 77 23 77 56c0 32 -26 54 -70 54c-23 0 -43 -4 -59 -11v55l91 79h-141v74h251v-66l-85 -75c53 -9 102 -43 102 -112
c0 -39 -15 -71 -46 -96c-31 -24 -68 -36 -112 -36z" />
    <glyph glyph-name="twothirds" unicode="&#x2154;" horiz-adv-x="891" 
d="M319 322h-279v64l111 96c49 41 66 67 66 96c0 28 -23 47 -59 47c-35 0 -70 -13 -105 -40v88c31 23 69 34 112 34c38 0 71 -11 99 -33c29 -21 43 -50 43 -85c0 -52 -22 -87 -82 -143l-54 -50h148v-74zM706 -7c-47 0 -87 10 -121 30v82c37 -23 75 -34 113 -34
c43 0 77 23 77 56c0 32 -26 54 -70 54c-23 0 -43 -4 -59 -11v55l91 79h-141v74h251v-66l-85 -75c53 -9 102 -43 102 -112c0 -39 -15 -71 -46 -96c-31 -24 -68 -36 -112 -36zM296 0h-91l418 700h91z" />
    <glyph glyph-name="uni2155" unicode="&#x2155;" horiz-adv-x="772" 
d="M196 0h-91l418 700h91zM210 322h-89v287l-102 -53v88l106 56h85v-378zM576 -7c-43 0 -80 9 -111 27v83c33 -21 69 -32 108 -32c44 0 78 20 78 57c0 32 -30 55 -78 55c-34 0 -66 -5 -95 -15l25 210h212v-74h-146l-6 -56c5 1 16 2 31 2c85 0 146 -46 146 -122
c0 -85 -71 -135 -164 -135z" />
    <glyph glyph-name="uni2156" unicode="&#x2156;" horiz-adv-x="871" 
d="M675 -7c-43 0 -80 9 -111 27v83c33 -21 69 -32 108 -32c44 0 78 20 78 57c0 32 -30 55 -78 55c-35 0 -66 -5 -95 -15l25 210h212v-74h-146l-6 -56c5 1 16 2 31 2c85 0 146 -46 146 -122c0 -85 -71 -135 -164 -135zM319 322h-279v64l111 96c49 41 66 67 66 96
c0 28 -23 47 -59 47c-35 0 -70 -13 -105 -40v88c31 23 69 34 112 34c38 0 71 -11 99 -33c29 -21 43 -50 43 -85c0 -52 -22 -87 -82 -143l-54 -50h148v-74zM296 0h-91l418 700h91z" />
    <glyph glyph-name="uni2157" unicode="&#x2157;" horiz-adv-x="818" 
d="M242 0h-91l418 700h91zM622 -7c-43 0 -80 9 -111 27v83c33 -21 69 -32 108 -32c44 0 78 20 78 57c0 32 -30 55 -78 55c-34 0 -66 -5 -95 -15l25 210h212v-74h-146l-6 -56c5 1 16 2 31 2c85 0 146 -46 146 -122c0 -85 -71 -135 -164 -135zM145 315c-47 0 -87 10 -121 30
v82c37 -23 75 -34 113 -34c43 0 77 23 77 56c0 32 -26 54 -70 54c-23 0 -43 -4 -59 -11v55l91 79h-141v74h251v-66l-85 -75c53 -9 102 -43 102 -112c0 -39 -15 -71 -46 -96c-31 -24 -68 -36 -112 -36z" />
    <glyph glyph-name="uni2158" unicode="&#x2158;" horiz-adv-x="860" 
d="M284 0h-91l418 700h91zM664 -7c-43 0 -80 9 -111 27v83c33 -21 69 -32 108 -32c44 0 78 20 78 57c0 32 -30 55 -78 55c-34 0 -66 -5 -95 -15l25 210h212v-74h-146l-6 -56c5 1 16 2 31 2c85 0 146 -46 146 -122c0 -85 -71 -135 -164 -135zM293 322h-86v92h-191v63l187 223
h90v-217h55v-69h-55v-92zM207 601l-101 -118h101v118z" />
    <glyph glyph-name="uni2159" unicode="&#x2159;" horiz-adv-x="775" 
d="M196 0h-91l418 700h91zM210 322h-89v287l-102 -53v88l106 56h85v-378zM605 -7c-100 0 -156 70 -156 177c0 60 15 111 45 152c31 42 75 63 134 63c38 0 68 -8 89 -23v-78c-23 16 -49 24 -79 24c-53 0 -94 -35 -98 -92c20 23 48 35 85 35c71 0 124 -48 124 -124
c0 -39 -14 -72 -42 -97c-27 -25 -61 -37 -102 -37zM599 65c36 0 61 26 61 62c0 33 -25 59 -61 59c-27 0 -53 -17 -65 -42c1 -49 28 -79 65 -79z" />
    <glyph glyph-name="uni215A" unicode="&#x215a;" horiz-adv-x="824" 
d="M139 315c-43 0 -80 9 -111 27v83c33 -21 69 -32 108 -32c44 0 78 20 78 57c0 32 -30 55 -78 55c-35 0 -66 -5 -95 -15l25 210h212v-74h-146l-6 -56c5 1 16 2 31 2c85 0 146 -46 146 -122c0 -85 -71 -135 -164 -135zM654 -7c-100 0 -156 70 -156 177c0 60 15 111 45 152
c31 42 75 63 134 63c38 0 68 -8 89 -23v-78c-23 16 -49 24 -79 24c-53 0 -94 -35 -98 -92c20 23 48 35 85 35c71 0 124 -48 124 -124c0 -39 -14 -72 -42 -97c-27 -25 -61 -37 -102 -37zM648 65c36 0 61 26 61 62c0 33 -26 59 -61 59c-27 0 -53 -17 -65 -42
c1 -49 28 -79 65 -79zM245 0h-91l418 700h91z" />
    <glyph glyph-name="oneeighth" unicode="&#x215b;" horiz-adv-x="795" 
d="M196 0h-91l418 700h91zM210 322h-89v287l-102 -53v88l106 56h85v-378zM615 -7c-89 0 -158 43 -158 116c0 41 30 79 70 92c-31 13 -51 45 -51 78c0 63 59 106 139 106c79 0 138 -43 138 -106c0 -33 -21 -65 -52 -78c40 -13 70 -51 70 -92c0 -36 -15 -64 -46 -85
c-30 -21 -67 -31 -110 -31zM615 65c39 0 67 22 67 51c0 32 -27 53 -67 53c-41 0 -69 -21 -69 -53c0 -29 29 -51 69 -51zM615 225c31 0 55 20 55 45c0 27 -23 45 -55 45c-33 0 -58 -18 -58 -45c0 -25 25 -45 58 -45z" />
    <glyph glyph-name="threeeighths" unicode="&#x215c;" horiz-adv-x="842" 
d="M662 -7c-89 0 -158 43 -158 116c0 41 30 79 70 92c-31 13 -51 45 -51 78c0 63 59 106 139 106c79 0 138 -43 138 -106c0 -33 -21 -65 -52 -78c40 -13 70 -51 70 -92c0 -36 -15 -64 -46 -85c-30 -21 -67 -31 -110 -31zM662 65c39 0 67 22 67 51c0 32 -27 53 -67 53
c-41 0 -69 -21 -69 -53c0 -29 29 -51 69 -51zM662 225c31 0 55 20 55 45c0 27 -23 45 -55 45c-33 0 -58 -18 -58 -45c0 -25 25 -45 58 -45zM145 315c-47 0 -87 10 -121 30v82c37 -23 75 -34 113 -34c43 0 77 23 77 56c0 32 -26 54 -70 54c-23 0 -43 -4 -59 -11v55l91 79
h-141v74h251v-66l-85 -75c53 -9 102 -43 102 -112c0 -39 -15 -71 -46 -96c-31 -24 -68 -36 -112 -36zM242 0h-91l418 700h91z" />
    <glyph glyph-name="fiveeighths" unicode="&#x215d;" horiz-adv-x="845" 
d="M665 -7c-89 0 -158 43 -158 116c0 41 30 79 70 92c-31 13 -51 45 -51 78c0 63 59 106 139 106c79 0 138 -43 138 -106c0 -33 -21 -65 -52 -78c40 -13 70 -51 70 -92c0 -36 -15 -64 -46 -85c-30 -21 -67 -31 -110 -31zM665 65c39 0 67 22 67 51c0 32 -27 53 -67 53
c-41 0 -69 -21 -69 -53c0 -29 29 -51 69 -51zM665 225c31 0 55 20 55 45c0 27 -23 45 -55 45c-33 0 -58 -18 -58 -45c0 -25 25 -45 58 -45zM139 315c-43 0 -80 9 -111 27v83c33 -21 69 -32 108 -32c44 0 78 20 78 57c0 32 -30 55 -78 55c-35 0 -66 -5 -95 -15l25 210h212
v-74h-146l-6 -56c5 1 16 2 31 2c85 0 146 -46 146 -122c0 -85 -71 -135 -164 -135zM245 0h-91l418 700h91z" />
    <glyph glyph-name="seveneighths" unicode="&#x215e;" horiz-adv-x="784" 
d="M604 -7c-89 0 -158 43 -158 116c0 41 30 79 70 92c-31 13 -51 45 -51 78c0 63 59 106 139 106c79 0 138 -43 138 -106c0 -33 -21 -65 -52 -78c40 -13 70 -51 70 -92c0 -36 -15 -64 -46 -85c-30 -21 -67 -31 -110 -31zM604 65c39 0 67 22 67 51c0 32 -27 53 -67 53
c-41 0 -69 -21 -69 -53c0 -29 29 -51 69 -51zM604 225c31 0 55 20 55 45c0 27 -23 45 -55 45c-33 0 -58 -18 -58 -45c0 -25 25 -45 58 -45zM143 322h-96l154 304h-178v74h278v-69zM185 0h-91l418 700h91z" />
    <glyph glyph-name="uni215F" unicode="&#x215f;" horiz-adv-x="444" 
d="M210 322h-89v287l-102 -53v88l106 56h85v-378zM196 0h-91l418 700h91z" />
    <glyph glyph-name="arrowleft" unicode="&#x2190;" horiz-adv-x="718" 
d="M52 267l188 216h113l-153 -171h446v-88h-446l153 -172h-113z" />
    <glyph glyph-name="arrowup" unicode="&#x2191;" horiz-adv-x="574" 
d="M287 594l216 -188v-113l-171 153v-446h-88v446l-172 -153v113z" />
    <glyph glyph-name="arrowright" unicode="&#x2192;" horiz-adv-x="718" 
d="M518 312l-153 171h113l187 -216l-187 -215h-113l153 172h-446v88h446z" />
    <glyph glyph-name="arrowdown" unicode="&#x2193;" horiz-adv-x="574" 
d="M288 -12l-216 187v113l171 -153v446h88v-446l172 153v-113z" />
    <glyph glyph-name="partialdiff" unicode="&#x2202;" horiz-adv-x="622" 
d="M271 -13c-67 0 -122 20 -165 60s-64 94 -64 162c0 71 22 131 66 181c45 50 100 75 167 75c80 0 141 -30 182 -91c0 39 -6 77 -19 112c-12 35 -33 66 -63 91c-30 26 -66 39 -109 39c-51 0 -98 -13 -141 -39v90c45 29 96 43 153 43c85 0 154 -32 205 -97
c51 -64 77 -149 77 -255c0 -93 -21 -179 -65 -252c-43 -72 -123 -119 -224 -119zM280 82c91 0 155 69 170 177c-27 65 -87 111 -155 111c-42 0 -77 -14 -106 -42s-43 -64 -43 -109c0 -81 55 -137 134 -137z" />
    <glyph glyph-name="increment" unicode="&#x2206;" horiz-adv-x="762" 
d="M740 0h-718l306 700h106zM380 562l-200 -461h400z" />
    <glyph glyph-name="product" unicode="&#x220f;" horiz-adv-x="768" 
d="M265 -131h-99v743h-117v88h670v-88h-117v-743h-99v743h-238v-743z" />
    <glyph glyph-name="summation" unicode="&#x2211;" horiz-adv-x="615" 
d="M572 0h-521v78l241 272l-236 272v78h510v-101h-351l191 -226v-45l-198 -227h364v-101z" />
    <glyph glyph-name="minus" unicode="&#x2212;" horiz-adv-x="668" 
d="M600 280h-532v97h532v-97z" />
    <glyph glyph-name="uni2215" unicode="&#x2215;" horiz-adv-x="536" 
d="M107 0h-92l419 700h91z" />
    <glyph glyph-name="uni2219" unicode="&#x2219;" horiz-adv-x="239" 
d="M121 181c-40 0 -71 31 -71 71c0 39 31 70 71 70c39 0 70 -33 70 -70c0 -40 -31 -71 -70 -71z" />
    <glyph glyph-name="radical" unicode="&#x221a;" horiz-adv-x="705" 
d="M410 0h-91l-181 403h-138v88h201l164 -369l226 578h98z" />
    <glyph glyph-name="infinity" unicode="&#x221e;" horiz-adv-x="802" 
d="M220 129c-47 0 -88 16 -123 48c-35 33 -52 76 -52 131c0 53 17 96 52 128c35 33 77 49 124 49c67 0 127 -38 180 -113c52 75 112 113 181 113c51 0 92 -17 125 -52c33 -34 49 -76 49 -125c0 -52 -16 -95 -49 -129c-33 -33 -74 -50 -125 -50c-68 0 -129 37 -182 112
c-53 -75 -113 -112 -180 -112zM229 207c43 0 86 33 129 100c-13 20 -25 36 -36 49c-21 25 -58 51 -94 51c-59 0 -96 -47 -96 -99c0 -53 36 -101 97 -101zM574 207c127 -3 127 205 -1 199c-52 0 -88 -35 -129 -99c41 -67 85 -100 130 -100z" />
    <glyph glyph-name="integral" unicode="&#x222b;" horiz-adv-x="521" 
d="M25 -205c-35 0 -66 6 -91 19v90c24 -9 47 -14 70 -14c69 0 110 44 124 132l77 488c20 121 86 200 209 200c35 0 66 -6 92 -18v-91c-21 9 -45 14 -71 14c-69 0 -110 -43 -123 -128l-78 -492c-19 -117 -88 -200 -209 -200z" />
    <glyph glyph-name="approxequal" unicode="&#x2248;" horiz-adv-x="660" 
d="M467 357c-35 0 -81 9 -139 28s-103 28 -136 28c-53 0 -94 -16 -124 -47v98c20 25 72 44 124 44c34 0 80 -10 137 -29c58 -19 104 -28 138 -28c53 0 94 16 125 48v-99c-21 -25 -72 -43 -125 -43zM467 127c-35 0 -81 9 -139 28s-103 29 -136 29c-52 0 -93 -16 -124 -48v98
c20 25 72 44 124 44c34 0 80 -10 137 -29c58 -19 104 -28 138 -28c53 0 94 16 125 48v-98c-21 -25 -72 -44 -125 -44z" />
    <glyph glyph-name="notequal" unicode="&#x2260;" horiz-adv-x="631" 
d="M221 53h-97l59 113h-115v97h166l68 131h-234v97h285l56 107h97l-56 -107h113v-97h-164l-68 -131h232v-97h-283z" />
    <glyph glyph-name="lessequal" unicode="&#x2264;" horiz-adv-x="631" 
d="M563 281v-108l-495 187v93l495 187v-108l-382 -125zM562 36h-494v96h494v-96z" />
    <glyph glyph-name="greaterequal" unicode="&#x2265;" horiz-adv-x="631" 
d="M563 360l-495 -187v108l382 126l-382 125v108l495 -187v-93zM563 36h-495v96h495v-96z" />
    <glyph glyph-name="dotmath" unicode="&#x22c5;" horiz-adv-x="250" 
d="M126 315c-40 0 -71 31 -71 71c0 39 31 70 71 70c37 0 70 -33 70 -70c0 -40 -31 -71 -70 -71z" />
    <glyph glyph-name="lozenge" unicode="&#x25ca;" horiz-adv-x="564" 
d="M328 0h-92l-195 350l195 350h92l195 -350zM142 350l141 -257l141 257l-141 257z" />
    <glyph glyph-name="uniF401" unicode="&#xf401;" horiz-adv-x="16" 
d="M-354 762h-99l95 140h135z" />
    <glyph glyph-name="uniF639" unicode="&#xf639;" 
d="M322 -13c-172 -1 -279 169 -276 363c-3 192 104 365 276 363c85 0 152 -35 201 -106c50 -70 75 -156 75 -257c0 -102 -25 -188 -75 -258c-49 -70 -116 -105 -201 -105zM322 88c51 0 92 25 122 75s45 112 45 187s-15 137 -45 187s-71 75 -122 75s-91 -25 -121 -76
c-30 -50 -45 -112 -45 -186s15 -136 45 -187c30 -50 70 -75 121 -75z" />
    <glyph glyph-name="uniF63A" unicode="&#xf63a;" 
d="M564 0h-487v80l220 206c49 45 83 83 103 112c20 30 30 62 30 96c0 71 -56 118 -139 118c-69 0 -135 -29 -196 -87v115c58 49 127 73 207 73c66 0 122 -19 168 -57c47 -38 70 -88 70 -149c0 -48 -12 -91 -35 -129c-23 -37 -62 -83 -118 -136l-151 -144h328v-98z" />
    <glyph glyph-name="uniF63B" unicode="&#xf63b;" 
d="M283 -13c-83 0 -153 18 -209 53v107c57 -41 125 -62 203 -62c47 0 86 13 119 38c33 26 50 61 50 104c0 80 -63 136 -162 136c-31 0 -61 -5 -89 -16v75l188 182h-283v96h429v-83l-179 -172c57 -6 105 -29 146 -68s61 -89 61 -150c0 -72 -26 -130 -79 -174
c-52 -44 -117 -66 -195 -66z" />
    <glyph glyph-name="uniF63C" unicode="&#xf63c;" 
d="M500 0h-108v183h-363v84l363 433h108v-423h109v-94h-109v-183zM392 559l-238 -282h238v282z" />
    <glyph glyph-name="uniF63D" unicode="&#xf63d;" 
d="M278 -13c-75 0 -141 16 -197 48v103c57 -35 121 -53 192 -53c51 0 93 13 127 38c35 26 52 60 52 103c0 81 -69 139 -176 139c-54 0 -110 -10 -168 -30l46 365h360v-96h-280l-20 -161c26 7 55 11 88 11c76 0 138 -21 187 -63s74 -97 74 -165c0 -73 -27 -131 -82 -174
c-54 -43 -122 -65 -203 -65z" />
    <glyph glyph-name="uniF63E" unicode="&#xf63e;" 
d="M336 -13c-85 0 -152 29 -201 87c-48 58 -72 138 -72 241c0 113 28 207 83 283c55 77 132 115 230 115c59 0 110 -15 154 -44v-100c-43 29 -91 44 -142 44c-67 0 -119 -23 -155 -70c-35 -47 -54 -103 -57 -170c41 53 101 79 181 79c64 0 117 -21 160 -62s65 -94 65 -161
c0 -71 -24 -130 -71 -175s-105 -67 -175 -67zM329 84c41 0 76 13 103 40s41 62 41 103s-14 73 -42 98c-27 25 -62 38 -103 38c-35 0 -67 -11 -97 -32c-29 -21 -49 -48 -58 -79c8 -104 64 -168 156 -168z" />
    <glyph glyph-name="uniF63F" unicode="&#xf63f;" 
d="M254 0h-118l303 601h-353v99h478v-85z" />
    <glyph glyph-name="uniF640" unicode="&#xf640;" 
d="M456 372c84 -28 139 -93 139 -177c0 -64 -26 -115 -79 -152c-52 -37 -117 -56 -194 -56s-142 19 -195 56s-79 88 -79 152c0 84 56 149 140 177c-65 28 -106 83 -106 152c0 56 23 101 68 136s103 53 172 53s126 -18 171 -53s68 -80 68 -136c0 -69 -41 -124 -105 -152z
M322 408c76 0 134 44 134 107s-58 107 -134 107c-77 0 -135 -44 -135 -107s58 -107 135 -107zM482 202c0 35 -15 64 -46 87c-30 23 -68 34 -114 34s-84 -11 -115 -34s-46 -52 -46 -87s15 -64 46 -87s70 -35 115 -35s83 12 114 35s46 52 46 87z" />
    <glyph glyph-name="uniF641" unicode="&#xf641;" 
d="M303 713c85 0 152 -29 200 -87c49 -58 73 -138 73 -241c0 -113 -28 -207 -83 -284c-55 -76 -132 -114 -230 -114c-59 0 -110 15 -154 44v100c43 -29 91 -44 142 -44c67 0 119 23 154 70c36 47 55 103 58 170c-41 -53 -101 -79 -181 -79c-64 0 -118 20 -161 61
s-64 95 -64 162c0 71 23 129 70 174s106 68 176 68zM310 616c-41 0 -76 -14 -103 -41s-41 -61 -41 -102s14 -74 41 -99c28 -25 63 -37 104 -37c35 0 67 11 96 32c30 21 50 48 59 79c-8 104 -64 168 -156 168z" />
    <glyph glyph-name="uniF643" unicode="&#xf643;" 
d="M322 82c46 0 84 16 115 47s46 70 46 117c0 46 -15 85 -46 116s-69 47 -115 47s-85 -16 -116 -47s-46 -70 -46 -116c0 -47 15 -86 46 -117s69 -47 116 -47zM322 -13c-79 0 -143 25 -194 75s-76 111 -76 184c0 72 25 133 76 183s115 75 194 75c78 0 142 -25 193 -75
s76 -111 76 -183s-25 -133 -76 -184c-51 -50 -115 -75 -193 -75z" />
    <glyph glyph-name="uniF644" unicode="&#xf644;" 
d="M569 0h-470v96h186v279l-153 -84v107l165 93h97v-395h175v-96z" />
    <glyph glyph-name="uniF645" unicode="&#xf645;" 
d="M554 0h-465v81c105 55 177 94 216 119l42 27c9 6 20 15 34 26c28 24 38 45 38 70c0 51 -43 81 -112 81c-66 0 -133 -26 -201 -77v104c63 49 133 73 210 73c63 0 115 -15 154 -46c39 -30 59 -70 59 -121c0 -84 -64 -140 -157 -189l-100 -52h282v-96z" />
    <glyph glyph-name="uniF646" unicode="&#xf646;" 
d="M272 -205c-83 0 -152 18 -208 53v107c58 -41 125 -62 202 -62c47 0 87 12 120 37s50 58 50 101c0 80 -63 131 -163 131c-26 0 -56 -5 -89 -16v75l188 174h-283v96h429v-82l-179 -165c57 -6 106 -28 147 -65s61 -87 61 -148c0 -71 -26 -128 -79 -171
c-52 -43 -117 -65 -196 -65z" />
    <glyph glyph-name="uniF647" unicode="&#xf647;" 
d="M500 -200h-108v200h-363v85l363 406h108v-396h109v-95h-109v-200zM392 361l-237 -266h237v266z" />
    <glyph glyph-name="uniF648" unicode="&#xf648;" 
d="M279 -205c-75 0 -141 16 -197 48v104c57 -36 121 -54 193 -54c51 0 93 13 127 39s51 60 51 103c0 40 -16 72 -48 97c-31 25 -74 37 -128 37s-110 -10 -169 -30l45 352h361v-96h-280l-18 -149c25 7 55 11 88 11c75 0 137 -20 186 -61s74 -94 74 -161
c0 -73 -27 -132 -82 -175c-54 -43 -122 -65 -203 -65z" />
    <glyph glyph-name="uniF649" unicode="&#xf649;" 
d="M336 -13c-85 0 -152 29 -201 87c-48 58 -72 138 -72 241c0 113 28 207 83 283c55 77 132 115 230 115c59 0 110 -15 154 -44v-100c-43 29 -91 44 -142 44c-67 0 -119 -23 -155 -70c-35 -47 -54 -103 -57 -170c41 53 101 79 181 79c64 0 117 -21 160 -62s65 -94 65 -161
c0 -71 -24 -130 -71 -175s-105 -67 -175 -67zM329 84c41 0 76 13 103 40s41 62 41 103s-14 73 -42 98c-27 25 -62 38 -103 38c-35 0 -67 -11 -97 -32c-29 -21 -49 -48 -58 -79c8 -104 64 -168 156 -168z" />
    <glyph glyph-name="uniF64A" unicode="&#xf64a;" 
d="M258 -200h-118l298 593h-352v98h477v-84z" />
    <glyph glyph-name="uniF64B" unicode="&#xf64b;" 
d="M456 372c84 -28 139 -93 139 -177c0 -64 -26 -115 -79 -152c-52 -37 -117 -56 -194 -56s-142 19 -195 56s-79 88 -79 152c0 84 56 149 140 177c-65 28 -106 83 -106 152c0 56 23 101 68 136s103 53 172 53s126 -18 171 -53s68 -80 68 -136c0 -69 -41 -124 -105 -152z
M322 408c76 0 134 44 134 107s-58 107 -134 107c-77 0 -135 -44 -135 -107s58 -107 135 -107zM482 202c0 35 -15 64 -46 87c-30 23 -68 34 -114 34s-84 -11 -115 -34s-46 -52 -46 -87s15 -64 46 -87s70 -35 115 -35s83 12 114 35s46 52 46 87z" />
    <glyph glyph-name="uniF64C" unicode="&#xf64c;" 
d="M306 504c85 0 152 -29 200 -87c49 -58 73 -138 73 -241c4 -212 -113 -381 -313 -381c-59 0 -110 15 -154 44v100c43 -29 91 -44 142 -44c68 0 120 21 155 63c35 41 54 95 57 160c-41 -53 -101 -79 -181 -79c-64 0 -118 20 -161 61s-64 95 -64 162c0 71 23 129 70 174
s106 68 176 68zM313 407c-41 0 -76 -14 -103 -41s-41 -61 -41 -102s14 -74 41 -99c28 -25 63 -37 104 -37c35 0 67 11 96 32c30 21 50 48 59 79c-8 104 -64 168 -156 168z" />
    <glyph glyph-name="uniF64E" unicode="&#xf64e;" horiz-adv-x="564" 
d="M90 277h-67v60h80c17 51 49 91 95 121c46 31 98 46 155 46c55 0 104 -11 147 -34v-92c-42 22 -85 33 -130 33c-67 0 -125 -27 -153 -74h182v-60h-203c-1 -13 -2 -24 -2 -31c0 -11 1 -22 3 -32h202v-60h-181c28 -47 85 -73 152 -73c51 0 97 12 138 37v-91
c-45 -27 -97 -40 -156 -40c-57 0 -108 15 -153 45s-77 71 -95 122h-81v60h67c-1 7 -2 18 -2 33c0 7 1 17 2 30z" />
    <glyph glyph-name="uniF653" unicode="&#xf653;" horiz-adv-x="512" 
d="M300 -10v-104h-92v103c-69 6 -123 22 -161 48v103c57 -39 124 -59 200 -59c68 0 108 21 108 57c0 19 -12 30 -30 39c-11 5 -32 11 -47 15l-61 15c-112 28 -165 68 -165 153c0 76 57 128 156 141v105h92v-104c58 -5 105 -19 141 -42v-99c-59 33 -118 50 -177 50
c-67 0 -101 -22 -101 -54c0 -19 13 -30 31 -39c11 -5 34 -11 47 -15l57 -12c112 -25 168 -77 168 -155c0 -77 -65 -133 -166 -146z" />
    <glyph glyph-name="commaaccent" unicode="&#xf6c3;" horiz-adv-x="234" 
d="M126 -251h-82l58 191h108z" />
    <glyph glyph-name="cyrbreve" unicode="&#xf6d4;" horiz-adv-x="469" 
d="M246 557c-101 0 -172 64 -173 165h91c0 -48 32 -82 81 -82c48 0 81 34 82 82h92c-1 -101 -73 -165 -173 -165z" />
    <glyph glyph-name="uniF6DC" unicode="&#xf6dc;" 
d="M562 0h-477v95h190v487l-154 -82v107l165 93h97v-605h179v-95z" />
    <glyph glyph-name="uniF721" unicode="&#xf721;" horiz-adv-x="561" 
d="M439 332h54v-60h-432v60h258c24 11 36 23 36 38c0 30 -34 45 -102 45c-49 0 -99 -9 -150 -28v90c49 20 103 30 162 30c34 0 65 -3 94 -10c57 -13 108 -52 108 -108c0 -25 -9 -44 -28 -57zM123 170h-62v60h432v-60h-247c-28 -9 -42 -23 -42 -44c0 -31 37 -46 110 -46
c52 0 102 9 150 28v-92c-46 -19 -100 -29 -162 -29c-35 0 -67 4 -98 11c-60 13 -113 52 -113 108c0 29 11 50 32 64z" />
    <glyph glyph-name="uniF722" unicode="&#xf722;" horiz-adv-x="600" 
d="M222 0h-107v64h-82v60h82v45h-82v67h82v255h249c120 0 190 -68 190 -161c0 -99 -76 -161 -195 -161h-137v-45h181v-60h-181v-64zM343 404h-121v-168h121c65 0 104 31 104 84s-39 84 -104 84z" />
    <glyph glyph-name="uniF725" unicode="&#xf725;" horiz-adv-x="549" 
d="M208 93h289v-93h-441v93h26c30 0 45 20 45 61v37h-71v82h71v42c0 120 79 189 215 189c55 0 103 -11 144 -32v-95c-47 23 -92 34 -135 34c-76 0 -119 -34 -119 -86v-52h208v-82h-208v-37c0 -29 -8 -50 -24 -61z" />
    <glyph glyph-name="uniF727" unicode="&#xf727;" horiz-adv-x="599" 
d="M246 197h-150v60h126l-179 234h122l135 -183l136 183h121l-183 -234h129v-60h-150v-55h150v-60h-150v-82h-107v82h-150v60h150v55z" />
    <glyph glyph-name="uniF730" unicode="&#xf730;" horiz-adv-x="623" 
d="M312 82c46 0 84 16 115 47s46 70 46 117c0 46 -15 85 -46 116s-69 47 -115 47s-85 -16 -116 -47s-46 -70 -46 -116c0 -47 15 -86 46 -117s69 -47 116 -47zM312 -13c-79 0 -143 25 -194 75s-76 111 -76 184c0 72 25 133 76 183s115 75 194 75c78 0 142 -25 193 -75
s76 -111 76 -183s-25 -133 -76 -184c-51 -50 -115 -75 -193 -75z" />
    <glyph glyph-name="uniF731" unicode="&#xf731;" horiz-adv-x="378" 
d="M293 0h-108v375l-152 -84v107l164 93h96v-491z" />
    <glyph glyph-name="uniF732" unicode="&#xf732;" horiz-adv-x="570" 
d="M515 0h-465v81c105 55 177 94 216 119l42 27c9 6 20 15 34 26c28 24 38 45 38 70c0 51 -43 81 -112 81c-66 0 -133 -26 -201 -77v104c63 49 133 73 210 73c63 0 115 -15 154 -46c39 -30 59 -70 59 -121c0 -84 -64 -140 -157 -189l-100 -52h282v-96z" />
    <glyph glyph-name="uniF733" unicode="&#xf733;" horiz-adv-x="557" 
d="M233 -205c-83 0 -152 18 -208 53v107c58 -41 125 -62 202 -62c47 0 87 12 120 37s50 58 50 101c0 80 -63 131 -163 131c-26 0 -56 -5 -89 -16v75l188 174h-283v96h429v-82l-179 -165c57 -6 106 -28 147 -65s61 -87 61 -148c0 -71 -26 -128 -79 -171
c-52 -43 -117 -65 -196 -65z" />
    <glyph glyph-name="uniF734" unicode="&#xf734;" horiz-adv-x="637" 
d="M500 -200h-108v200h-363v85l363 406h108v-396h109v-95h-109v-200zM392 361l-237 -266h237v266z" />
    <glyph glyph-name="uniF735" unicode="&#xf735;" horiz-adv-x="590" 
d="M246 -205c-75 0 -141 16 -197 48v104c57 -36 121 -54 193 -54c51 0 93 13 127 39s51 60 51 103c0 40 -16 72 -48 97c-31 25 -74 37 -128 37s-110 -10 -169 -30l45 352h361v-96h-280l-18 -149c25 7 55 11 88 11c75 0 137 -20 186 -61s74 -94 74 -161
c0 -73 -27 -132 -82 -175c-54 -43 -122 -65 -203 -65z" />
    <glyph glyph-name="uniF736" unicode="&#xf736;" horiz-adv-x="639" 
d="M333 -13c-85 0 -152 29 -201 87c-48 58 -72 138 -72 241c0 113 28 207 83 283c55 77 132 115 230 115c59 0 110 -15 154 -44v-100c-43 29 -91 44 -142 44c-67 0 -119 -23 -155 -70c-35 -47 -54 -103 -57 -170c41 53 101 79 181 79c64 0 117 -21 160 -62s65 -94 65 -161
c0 -71 -24 -130 -71 -175s-105 -67 -175 -67zM326 84c41 0 76 13 103 40s41 62 41 103s-14 73 -42 98c-27 25 -62 38 -103 38c-35 0 -67 -11 -97 -32c-29 -21 -49 -48 -58 -79c8 -104 64 -168 156 -168z" />
    <glyph glyph-name="uniF737" unicode="&#xf737;" horiz-adv-x="553" 
d="M211 -200h-118l298 593h-352v98h477v-84z" />
    <glyph glyph-name="uniF738" unicode="&#xf738;" horiz-adv-x="642" 
d="M455 372c84 -28 139 -93 139 -177c0 -64 -26 -115 -79 -152c-52 -37 -117 -56 -194 -56s-142 19 -195 56s-79 88 -79 152c0 84 56 149 140 177c-65 28 -106 83 -106 152c0 56 23 101 68 136s103 53 172 53s126 -18 171 -53s68 -80 68 -136c0 -69 -41 -124 -105 -152z
M321 408c76 0 134 44 134 107s-58 107 -134 107c-77 0 -135 -44 -135 -107s58 -107 135 -107zM481 202c0 35 -15 64 -46 87c-30 23 -68 34 -114 34s-84 -11 -115 -34s-46 -52 -46 -87s15 -64 46 -87s70 -35 115 -35s83 12 114 35s46 52 46 87z" />
    <glyph glyph-name="uniF739" unicode="&#xf739;" horiz-adv-x="638" 
d="M309 504c85 0 152 -29 200 -87c49 -58 73 -138 73 -241c4 -212 -113 -381 -313 -381c-59 0 -110 15 -154 44v100c43 -29 91 -44 142 -44c68 0 120 21 155 63c35 41 54 95 57 160c-41 -53 -101 -79 -181 -79c-64 0 -118 20 -161 61s-64 95 -64 162c0 71 23 129 70 174
s106 68 176 68zM316 407c-41 0 -76 -14 -103 -41s-41 -61 -41 -102s14 -74 41 -99c28 -25 63 -37 104 -37c35 0 67 11 96 32c30 21 50 48 59 79c-8 104 -64 168 -156 168z" />
    <glyph glyph-name="atilde.alt" horiz-adv-x="640" 
d="M280 -13c-69 0 -126 25 -171 75s-67 111 -67 184c0 72 22 133 67 183s102 75 171 75c76 0 134 -27 175 -80v67h108v-491h-108v67c-41 -53 -99 -80 -175 -80zM309 82c64 0 119 37 146 88v152c-27 49 -82 87 -146 87c-45 0 -83 -16 -113 -48c-30 -31 -45 -70 -45 -115
c0 -46 15 -85 45 -117c30 -31 68 -47 113 -47zM211 585h-65c1 72 42 128 102 128c19 0 43 -8 72 -25c29 -16 50 -24 63 -24c22 0 36 15 41 46h65c-1 -71 -42 -128 -102 -128c-19 0 -44 8 -73 24c-29 17 -50 25 -63 25c-21 0 -35 -15 -40 -46z" />
    <glyph glyph-name="uni043D_uni0438" horiz-adv-x="985" 
d="M185 0h-108v491h108v-192h249v192h108v-333l265 333h101v-491h-108v334l-265 -334h-101v204h-249v-204z" />
    <glyph glyph-name="uni041D_uni0418" horiz-adv-x="1240" 
d="M197 0h-110v700h110v-276h365v276h110v-514l385 514h96v-700h-110v516l-387 -516h-94v323h-365v-323z" />
    <glyph glyph-name="uni041F_uni0418" horiz-adv-x="1224" 
d="M197 0h-110v700h569v-514l385 514h96v-700h-110v516l-387 -516h-94v599h-349v-599z" />
    <glyph glyph-name="uni043F_uni0438" horiz-adv-x="978" 
d="M185 0h-108v491h458v-333l265 333h101v-491h-108v334l-265 -334h-101v396h-242v-396z" />
    <glyph glyph-name="adieresis.alt" horiz-adv-x="640" 
d="M280 -13c-69 0 -126 25 -171 75s-67 111 -67 184c0 72 22 133 67 183s102 75 171 75c76 0 134 -27 175 -80v67h108v-491h-108v67c-41 -53 -99 -80 -175 -80zM309 82c64 0 119 37 146 88v152c-27 49 -82 87 -146 87c-45 0 -83 -16 -113 -48c-30 -31 -45 -70 -45 -115
c0 -46 15 -85 45 -117c30 -31 68 -47 113 -47zM168 605c-24 24 -24 62 0 85c24 24 62 24 85 0c23 -23 23 -61 0 -85c-23 -23 -61 -23 -85 0zM375 605c-24 24 -24 62 0 85c24 24 62 24 85 0c23 -23 23 -61 0 -85c-23 -23 -61 -23 -85 0z" />
    <glyph glyph-name="acircumflex.alt" horiz-adv-x="640" 
d="M280 -13c-69 0 -126 25 -171 75s-67 111 -67 184c0 72 22 133 67 183s102 75 171 75c76 0 134 -27 175 -80v67h108v-491h-108v67c-41 -53 -99 -80 -175 -80zM309 82c64 0 119 37 146 88v152c-27 49 -82 87 -146 87c-45 0 -83 -16 -113 -48c-30 -31 -45 -70 -45 -115
c0 -46 15 -85 45 -117c30 -31 68 -47 113 -47zM139 575l114 140h112l114 -140h-101l-69 85l-69 -85h-101z" />
    <glyph glyph-name="agrave.alt" horiz-adv-x="640" 
d="M280 -13c-69 0 -126 25 -171 75s-67 111 -67 184c0 72 22 133 67 183s102 75 171 75c76 0 134 -27 175 -80v67h108v-491h-108v67c-41 -53 -99 -80 -175 -80zM309 82c64 0 119 37 146 88v152c-27 49 -82 87 -146 87c-45 0 -83 -16 -113 -48c-30 -31 -45 -70 -45 -115
c0 -46 15 -85 45 -117c30 -31 68 -47 113 -47zM166 715h134l95 -140h-98z" />
    <glyph glyph-name="aacute.alt" horiz-adv-x="640" 
d="M280 -13c-69 0 -126 25 -171 75s-67 111 -67 184c0 72 22 133 67 183s102 75 171 75c76 0 134 -27 175 -80v67h108v-491h-108v67c-41 -53 -99 -80 -175 -80zM309 82c64 0 119 37 146 88v152c-27 49 -82 87 -146 87c-45 0 -83 -16 -113 -48c-30 -31 -45 -70 -45 -115
c0 -46 15 -85 45 -117c30 -31 68 -47 113 -47zM327 575h-98l95 140h135z" />
    <glyph glyph-name="Q.alt01" horiz-adv-x="848" 
d="M419 -13c-103 0 -188 35 -256 104c-67 70 -101 156 -101 259s34 189 101 258c68 70 153 105 256 105s188 -35 256 -105c68 -69 102 -155 102 -258c0 -90 -27 -168 -81 -235l95 -115h-122l-42 51c-61 -43 -130 -64 -208 -64zM419 90c51 0 98 15 140 44l-164 199h121
l107 -130c27 43 41 92 41 147c0 74 -24 136 -71 185c-47 50 -105 75 -174 75s-127 -25 -174 -75c-47 -49 -70 -111 -70 -185s23 -136 70 -186c47 -49 105 -74 174 -74z" />
    <glyph glyph-name="cyrbreve.cap" horiz-adv-x="569" 
d="M256 741c-105 0 -177 64 -178 165h92c0 -49 33 -82 85 -82s85 34 86 82h92c-1 -101 -76 -165 -177 -165z" />
    <glyph glyph-name="idieresis_idieresis" horiz-adv-x="531" 
d="M195 0h-109v491h109v-491zM445 0h-109v491h109v-491zM-8 605c-24 24 -24 62 0 85c24 24 62 24 85 0c23 -23 23 -61 0 -85c-23 -23 -61 -23 -85 0zM224 605c-24 24 -24 62 0 85c24 24 62 24 85 0c23 -23 23 -61 0 -85c-23 -23 -61 -23 -85 0zM455 605c-24 24 -24 62 0 85
c24 24 62 24 85 0c23 -23 23 -61 0 -85c-23 -23 -61 -23 -85 0z" />
    <glyph glyph-name="uniF64E.mono" 
d="M127 277h-67v60h80c17 51 49 91 95 121c46 31 98 46 155 46c55 0 104 -11 147 -34v-92c-42 22 -85 33 -130 33c-67 0 -125 -27 -153 -74h182v-60h-203c-1 -13 -2 -24 -2 -31c0 -11 1 -22 3 -32h202v-60h-181c28 -47 85 -73 152 -73c51 0 97 12 138 37v-91
c-45 -27 -97 -40 -156 -40c-57 0 -108 15 -153 45s-77 71 -95 122h-81v60h67c-1 7 -2 18 -2 33c0 7 1 17 2 30z" />
    <glyph glyph-name="pesolow.mono" 
d="M209 0h-108v277h-84v87h84v127h256c103 0 169 -51 186 -127h75v-87h-76c-19 -76 -90 -123 -190 -123h-143v-154zM336 404h-127v-166h127c64 0 103 31 103 83s-39 83 -103 83z" />
    <glyph glyph-name="uni0438_uni043D" horiz-adv-x="985" 
d="M178 0h-101v491h108v-333l265 333h101v-192h249v192h108v-491h-108v204h-249v-204h-108v334z" />
    <glyph glyph-name="franclow.mono" 
d="M239 0h-105v64h-72v60h72v367h404v-93h-299v-121h231v-85h-231v-68h122v-60h-122v-64z" />
    <glyph glyph-name="uniF727.mono" 
d="M268 197h-150v60h126l-179 234h122l135 -183l136 183h121l-183 -234h129v-60h-150v-55h150v-60h-150v-82h-107v82h-150v60h150v55z" />
    <glyph glyph-name="uniF653.mono" 
d="M367 -10v-104h-92v103c-69 6 -123 22 -161 48v103c57 -39 124 -59 200 -59c68 0 108 21 108 57c0 19 -12 30 -30 39c-11 5 -32 11 -47 15l-61 15c-112 28 -165 68 -165 153c0 76 57 128 156 141v105h92v-104c58 -5 105 -19 141 -42v-99c-59 33 -118 50 -177 50
c-67 0 -101 -22 -101 -54c0 -19 13 -30 31 -39c11 -5 34 -11 47 -15l57 -12c112 -25 168 -77 168 -155c0 -77 -65 -133 -166 -146z" />
    <glyph glyph-name="uniF725.mono" 
d="M240 93h289v-93h-441v93h26c30 0 45 20 45 61v37h-71v82h71v42c0 120 79 189 215 189c55 0 103 -11 144 -32v-95c-47 23 -92 34 -135 34c-76 0 -119 -34 -119 -86v-52h208v-82h-208v-37c0 -29 -8 -50 -24 -61z" />
    <glyph glyph-name="uniF721.mono" 
d="M470 332h54v-60h-432v60h258c24 11 36 23 36 38c0 30 -34 45 -102 45c-49 0 -99 -9 -150 -28v90c49 20 103 30 162 30c34 0 65 -3 94 -10c57 -13 108 -52 108 -108c0 -25 -9 -44 -28 -57zM154 170h-62v60h432v-60h-247c-28 -9 -42 -23 -42 -44c0 -31 37 -46 110 -46
c52 0 102 9 150 28v-92c-46 -19 -100 -29 -162 -29c-35 0 -67 4 -98 11c-60 13 -113 52 -113 108c0 29 11 50 32 64z" />
    <glyph glyph-name="tilde.cap" horiz-adv-x="514" 
d="M158 770h-65c1 71 42 127 102 127c19 0 44 -8 73 -25c29 -16 50 -24 63 -24c21 0 35 15 40 46h65c-1 -71 -42 -127 -102 -127c-19 0 -43 8 -72 24c-29 17 -50 25 -63 25c-22 0 -36 -15 -41 -46z" />
    <glyph glyph-name="Euro.mono" 
d="M460 480v-78h-240c-2 -16 -3 -31 -3 -44c0 -11 1 -24 2 -39h241v-78h-223c28 -96 107 -153 214 -153c65 0 122 19 169 58v-110c-47 -33 -108 -49 -182 -49c-83 0 -153 23 -209 69c-55 47 -92 108 -111 185h-87v78h75c-1 8 -1 20 -1 37c0 11 1 26 2 46h-76v78h92
c21 69 59 125 114 168s122 65 201 65c64 0 120 -14 167 -43v-105c-47 31 -99 47 -154 47c-99 0 -175 -48 -208 -132h217z" />
    <glyph glyph-name="sterling.mono" 
d="M544 0h-491v99h15c45 0 61 19 61 63v127h-76v89h76v103c0 145 91 232 242 232c62 0 116 -13 161 -39v-104c-42 27 -90 40 -144 40c-96 0 -149 -50 -149 -145v-87h249v-89h-249v-130c0 -26 -9 -46 -27 -60h332v-99z" />
    <glyph glyph-name="yen.mono" 
d="M64 135v78h203v83h-203v78h167l-219 326h128l183 -283l185 283h123l-218 -326h167v-78h-203v-83h203v-78h-203v-135h-110v135h-203z" />
    <glyph glyph-name="dollar.mono" 
d="M371 -9v-102h-108v101c-85 8 -155 32 -210 72v118c27 -25 65 -46 112 -64c48 -18 96 -27 145 -27c92 0 162 40 162 105c0 28 -14 50 -31 65c-8 7 -20 14 -36 21c-32 15 -51 20 -96 33l-14 4c-39 11 -70 21 -91 29s-44 20 -70 35c-51 32 -72 77 -72 141
c0 101 74 172 201 188v101h108v-101c62 -7 118 -26 169 -55v-109c-71 43 -145 65 -222 65c-96 0 -143 -38 -143 -90c0 -49 64 -79 144 -102c41 -11 81 -24 121 -39c81 -29 145 -92 145 -184c0 -56 -20 -102 -60 -138c-39 -36 -91 -58 -154 -67z" />
    <glyph glyph-name="hungarumlaut.cap" horiz-adv-x="605" 
d="M397 762h-99l95 140h135zM192 762h-99l95 140h135z" />
    <glyph glyph-name="T_h" horiz-adv-x="1105" 
d="M676 323v-323h-108v599h-194v-599h-110v599h-231v101h643v-274c48 52 108 78 180 78c116 0 182 -77 182 -204v-300h-108v276c0 47 -11 80 -34 99s-50 28 -81 28c-55 0 -111 -35 -139 -80z" />
    <glyph glyph-name="f_j" 
d="M115 0v396h-92v95h92v64c0 93 54 155 154 155c43 0 81 -7 115 -21v-91c-31 12 -60 18 -85 18c-51 0 -76 -27 -76 -80v-45h335v-526c0 -111 -64 -170 -163 -170c-43 0 -75 7 -98 20v94c22 -13 46 -19 72 -19c54 0 81 29 81 87v419h-227v-396h-108zM551 598
c-25 -25 -70 -25 -97 0c-25 27 -25 71 0 98c27 27 72 27 97 0c27 -27 27 -71 0 -98z" />
    <glyph glyph-name="Q.alt02" horiz-adv-x="845" 
d="M245 -157v107c33 22 67 37 100 44c-84 17 -152 58 -205 123c-52 66 -78 144 -78 233c0 103 34 189 101 258c68 70 153 105 256 105s188 -35 256 -105c68 -69 102 -155 102 -258c0 -95 -29 -176 -88 -243s-134 -106 -225 -117c20 -5 62 -20 126 -46s114 -39 150 -39
c24 0 45 5 62 16v-101c-17 -9 -40 -14 -69 -14c-43 0 -102 16 -175 47s-128 46 -163 46c-59 0 -109 -19 -150 -56zM245 164c47 -49 105 -74 174 -74s127 25 174 74c47 50 71 112 71 186s-24 136 -71 185c-47 50 -105 75 -174 75s-127 -25 -174 -75
c-47 -49 -70 -111 -70 -185s23 -136 70 -186z" />
    <glyph glyph-name="uniF722.mono" 
d="M244 0h-107v64h-82v60h82v45h-82v67h82v255h249c120 0 190 -68 190 -161c0 -99 -76 -161 -195 -161h-137v-45h181v-60h-181v-64zM365 404h-121v-168h121c65 0 104 31 104 84s-39 84 -104 84z" />
    <glyph glyph-name="f_f_t" horiz-adv-x="1093" 
d="M785 134v262h-227v-396h-108v396h-227v-396h-108v396h-92v95h92v64c0 93 54 155 154 155c43 0 81 -7 115 -21v-91c-31 12 -60 18 -85 18c-51 0 -76 -27 -76 -80v-45h227v64c0 93 54 155 154 155c43 0 81 -7 115 -21v-91c-31 12 -60 18 -85 18c-51 0 -76 -27 -76 -80v-45
h227v143h108v-143h155v-95h-155v-231c0 -56 25 -79 77 -79c27 0 51 6 74 18v-93c-23 -16 -60 -24 -109 -24c-92 0 -150 51 -150 147z" />
    <glyph glyph-name="uni20B4.mono" 
d="M562 389h-498v74h303c30 16 45 40 45 71c0 53 -44 80 -133 80c-58 0 -113 -11 -164 -34v100c49 22 108 33 178 33c69 0 125 -15 169 -44c45 -29 67 -69 67 -120c0 -37 -12 -66 -37 -86h70v-74zM335 -13c-70 0 -127 14 -172 43s-67 70 -67 122c0 45 17 82 52 110h-84v74
h498v-74h-281c-40 -17 -69 -50 -69 -90c0 -57 47 -85 142 -85c65 0 123 13 173 40v-103c-53 -25 -117 -37 -192 -37z" />
    <glyph glyph-name="breve.cap" horiz-adv-x="516" 
d="M256 748c-43 0 -79 14 -108 42c-29 29 -45 66 -46 112h80c3 -45 33 -79 74 -79s70 34 73 79h80c-1 -46 -16 -83 -46 -112c-29 -28 -65 -42 -107 -42z" />
    <glyph glyph-name="dotaccent.cap" horiz-adv-x="445" 
d="M156 831c0 33 27 61 62 61s62 -26 62 -61s-27 -63 -62 -63s-62 28 -62 63z" />
    <glyph glyph-name="caron.cap" horiz-adv-x="535" 
d="M439 902l-114 -140h-112l-114 140h101l69 -85l69 85h101z" />
    <glyph glyph-name="ring.cap" horiz-adv-x="520" 
d="M255 735c-55 0 -99 43 -99 98s44 99 99 99c53 0 98 -46 98 -99s-45 -98 -98 -98zM255 783c27 0 50 22 50 50s-23 51 -50 51c-66 3 -66 -105 0 -101z" />
    <glyph glyph-name="grave.cap" horiz-adv-x="511" 
d="M122 902h135l95 -140h-99z" />
    <glyph glyph-name="acute.cap" horiz-adv-x="470" 
d="M223 762h-99l95 140h135z" />
    <glyph glyph-name="macron.cap" horiz-adv-x="537" 
d="M406 793h-281v77h281v-77z" />
    <glyph glyph-name="dieresis.cap" horiz-adv-x="505" 
d="M119 788c-24 24 -24 62 0 85c24 24 62 24 85 0c23 -23 23 -61 0 -85c-23 -23 -61 -23 -85 0zM326 788c-24 24 -24 62 0 85c24 24 62 24 85 0c23 -23 23 -61 0 -85c-23 -23 -61 -23 -85 0z" />
    <glyph glyph-name="aring.alt" horiz-adv-x="640" 
d="M280 -13c-69 0 -126 25 -171 75s-67 111 -67 184c0 72 22 133 67 183s102 75 171 75c76 0 134 -27 175 -80v67h108v-491h-108v67c-41 -53 -99 -80 -175 -80zM309 82c64 0 119 37 146 88v152c-27 49 -82 87 -146 87c-45 0 -83 -16 -113 -48c-30 -31 -45 -70 -45 -115
c0 -46 15 -85 45 -117c30 -31 68 -47 113 -47zM378 579c-39 -39 -99 -39 -139 0c-39 39 -39 99 0 138c39 40 101 40 140 0c39 -39 39 -99 -1 -138zM360 648c3 66 -105 66 -102 0c0 -27 23 -50 51 -50s51 23 51 50z" />
    <glyph glyph-name="uni0438_uni0439" horiz-adv-x="994" 
d="M178 0h-101v491h108v-333l265 333h101v-333l265 333h101v-491h-108v334l-265 -334h-101v334zM678 557c-101 0 -172 64 -173 165h92c0 -49 31 -82 80 -82s81 33 82 82h92c-1 -101 -73 -165 -173 -165z" />
    <glyph glyph-name="uni0418_uni0419" horiz-adv-x="1246" 
d="M181 0h-94v700h110v-514l385 514h96v-514l385 514h96v-700h-110v516l-387 -516h-94v516zM863 741c-105 0 -177 64 -178 165h92c0 -49 33 -82 85 -82s85 34 86 82h92c-1 -101 -76 -165 -177 -165z" />
    <glyph glyph-name="gcommaaccent.alt" horiz-adv-x="610" 
d="M442 451l137 53v-87l-86 -37c14 -24 21 -51 21 -80c0 -41 -11 -78 -33 -111c45 -43 68 -97 68 -161c0 -65 -24 -120 -73 -165s-111 -68 -186 -68c-71 0 -132 21 -183 64c-50 43 -75 100 -75 171h109c0 -40 14 -73 42 -100s64 -40 107 -40s78 13 107 40s43 59 43 98
c0 37 -12 68 -37 94c-34 -18 -72 -27 -115 -27c-67 0 -121 20 -164 59c-43 40 -64 89 -64 146s21 106 64 145s97 59 164 59c62 0 113 -18 154 -53zM414 300c0 67 -54 116 -126 116s-126 -49 -126 -116c0 -68 54 -117 126 -117s126 49 126 117zM297 756h82l-58 -191h-108z
" />
    <glyph glyph-name="gdotaccent.alt" horiz-adv-x="610" 
d="M442 451l137 53v-87l-86 -37c14 -24 21 -51 21 -80c0 -41 -11 -78 -33 -111c45 -43 68 -97 68 -161c0 -65 -24 -120 -73 -165s-111 -68 -186 -68c-71 0 -132 21 -183 64c-50 43 -75 100 -75 171h109c0 -40 14 -73 42 -100s64 -40 107 -40s78 13 107 40s43 59 43 98
c0 37 -12 68 -37 94c-34 -18 -72 -27 -115 -27c-67 0 -121 20 -164 59c-43 40 -64 89 -64 146s21 106 64 145s97 59 164 59c62 0 113 -18 154 -53zM414 300c0 67 -54 116 -126 116s-126 -49 -126 -116c0 -68 54 -117 126 -117s126 49 126 117zM228 648c0 33 27 61 62 61
s62 -26 62 -61s-27 -62 -62 -62s-62 27 -62 62z" />
    <glyph glyph-name="gbreve.alt" horiz-adv-x="610" 
d="M442 451l137 53v-87l-86 -37c14 -24 21 -51 21 -80c0 -41 -11 -78 -33 -111c45 -43 68 -97 68 -161c0 -65 -24 -120 -73 -165s-111 -68 -186 -68c-71 0 -132 21 -183 64c-50 43 -75 100 -75 171h109c0 -40 14 -73 42 -100s64 -40 107 -40s78 13 107 40s43 59 43 98
c0 37 -12 68 -37 94c-34 -18 -72 -27 -115 -27c-67 0 -121 20 -164 59c-43 40 -64 89 -64 146s21 106 64 145s97 59 164 59c62 0 113 -18 154 -53zM414 300c0 67 -54 116 -126 116s-126 -49 -126 -116c0 -68 54 -117 126 -117s126 49 126 117zM287 561c-43 0 -79 14 -108 42
c-29 29 -45 66 -46 112h80c3 -45 33 -79 74 -79s71 34 74 79h79c-1 -46 -16 -83 -46 -112c-29 -28 -65 -42 -107 -42z" />
    <glyph glyph-name="circumflex.cap" horiz-adv-x="517" 
d="M89 762l114 140h112l114 -140h-101l-69 85l-69 -85h-101z" />
    <glyph glyph-name="amacron.alt" horiz-adv-x="640" 
d="M280 -13c-69 0 -126 25 -171 75s-67 111 -67 184c0 72 22 133 67 183s102 75 171 75c76 0 134 -27 175 -80v67h108v-491h-108v67c-41 -53 -99 -80 -175 -80zM309 82c64 0 119 37 146 88v152c-27 49 -82 87 -146 87c-45 0 -83 -16 -113 -48c-30 -31 -45 -70 -45 -115
c0 -46 15 -85 45 -117c30 -31 68 -47 113 -47zM457 608h-281v77h281v-77z" />
    <glyph glyph-name="uni0418_uni041D" horiz-adv-x="1240" 
d="M181 0h-94v700h110v-514l385 514h96v-276h365v276h110v-700h-110v323h-365v-323h-110v516z" />
    <glyph glyph-name="franc.mono" 
d="M103 129h-108v78h108v493h496v-100h-386v-185h307v-99h-307v-109h161v-78h-161v-129h-110v129z" />
    <glyph glyph-name="aogonek.alt" horiz-adv-x="640" 
d="M571 -199c-73 0 -121 44 -121 101c0 36 15 69 44 98h-39v67c-41 -53 -99 -80 -175 -80c-69 0 -126 25 -171 75s-67 111 -67 184c0 72 22 133 67 183s102 75 171 75c76 0 134 -27 175 -80v67h108v-491c-24 -24 -36 -49 -36 -76c0 -35 25 -57 62 -57c13 0 25 2 38 7v-66
c-14 -5 -33 -7 -56 -7zM309 82c64 0 119 37 146 88v152c-27 49 -82 87 -146 87c-45 0 -83 -16 -113 -48c-30 -31 -45 -70 -45 -115c0 -46 15 -85 45 -117c30 -31 68 -47 113 -47z" />
    <glyph glyph-name="abreve.alt" horiz-adv-x="640" 
d="M280 -13c-69 0 -126 25 -171 75s-67 111 -67 184c0 72 22 133 67 183s102 75 171 75c76 0 134 -27 175 -80v67h108v-491h-108v67c-41 -53 -99 -80 -175 -80zM309 82c64 0 119 37 146 88v152c-27 49 -82 87 -146 87c-45 0 -83 -16 -113 -48c-30 -31 -45 -70 -45 -115
c0 -46 15 -85 45 -117c30 -31 68 -47 113 -47zM311 561c-43 0 -79 14 -108 42c-29 29 -45 66 -46 112h80c3 -45 33 -79 74 -79s71 34 74 79h79c-1 -46 -16 -83 -46 -112c-29 -28 -65 -42 -107 -42z" />
    <glyph glyph-name="lira.mono" 
d="M153 214h-77v78h77v83h-77v78h77v28c0 147 91 232 242 232c62 0 116 -13 161 -39v-104c-42 27 -90 40 -145 40c-96 0 -148 -50 -148 -145v-12h221v-78h-221v-83h221v-78h-221v-55c0 -27 -9 -47 -27 -60h331v-99h-491v99h16c44 0 61 20 61 63v52z" />
    <glyph glyph-name="t_t" horiz-adv-x="771" 
d="M463 134v262h-227v-231c0 -56 25 -79 77 -79c27 0 51 6 74 18v-93c-23 -16 -60 -24 -109 -24c-92 0 -150 51 -150 147v262h-105v95h105v143h108v-143h227v143h108v-143h155v-95h-155v-231c0 -56 25 -79 77 -79c27 0 51 6 74 18v-93c-23 -16 -60 -24 -109 -24
c-92 0 -150 51 -150 147z" />
    <glyph glyph-name="peseta.mono" 
d="M170 0h-110v452h-83v91h83v157h301c125 0 209 -61 229 -157h76v-91h-76c-20 -100 -102 -163 -229 -163h-191v-289zM170 599v-209h182c83 0 132 38 132 105s-49 104 -132 104h-182z" />
    <glyph glyph-name="t.alt" horiz-adv-x="376" 
d="M68 134v500h108v-143h155v-95h-155v-231c0 -56 25 -79 77 -79c27 0 51 6 74 18v-93c-23 -16 -60 -24 -109 -24c-92 0 -150 51 -150 147z" />
    <glyph glyph-name="f.alt01" horiz-adv-x="371" 
d="M185 396v-396h-108v555c0 93 54 155 154 155c43 0 81 -7 115 -21v-91c-31 12 -60 18 -85 18c-51 0 -76 -27 -76 -80v-45h161v-95h-161z" />
    <glyph glyph-name="gcircumflex.alt" horiz-adv-x="610" 
d="M442 451l137 53v-87l-86 -37c14 -24 21 -51 21 -80c0 -41 -11 -78 -33 -111c45 -43 68 -97 68 -161c0 -65 -24 -120 -73 -165s-111 -68 -186 -68c-71 0 -132 21 -183 64c-50 43 -75 100 -75 171h109c0 -40 14 -73 42 -100s64 -40 107 -40s78 13 107 40s43 59 43 98
c0 37 -12 68 -37 94c-34 -18 -72 -27 -115 -27c-67 0 -121 20 -164 59c-43 40 -64 89 -64 146s21 106 64 145s97 59 164 59c62 0 113 -18 154 -53zM414 300c0 67 -54 116 -126 116s-126 -49 -126 -116c0 -68 54 -117 126 -117s126 49 126 117zM123 575l114 140h112l114 -140
h-101l-69 85l-69 -85h-101z" />
    <glyph glyph-name="twothirds.mono" horiz-adv-x="848" 
d="M315 322h-279v64l111 96c49 41 66 67 66 96c0 28 -23 47 -59 47c-35 0 -70 -13 -105 -40v88c31 23 69 34 112 34c38 0 71 -11 99 -33c29 -21 43 -50 43 -85c0 -52 -22 -87 -82 -143l-54 -50h148v-74zM659 -7c-47 0 -87 10 -121 30v82c37 -23 75 -34 113 -34
c43 0 77 23 77 56c0 32 -26 54 -70 54c-23 0 -43 -4 -59 -11v55l91 79h-141v74h251v-66l-85 -75c53 -9 102 -43 102 -112c0 -39 -15 -71 -46 -96c-31 -24 -68 -36 -112 -36zM270 0h-91l418 700h91z" />
    <glyph glyph-name="onethird.mono" horiz-adv-x="848" 
d="M639 -7c-47 0 -87 10 -121 30v82c37 -23 75 -34 113 -34c43 0 77 23 77 56c0 32 -26 54 -70 54c-23 0 -43 -4 -59 -11v55l91 79h-141v74h251v-66l-85 -75c53 -9 102 -43 102 -112c0 -39 -15 -71 -46 -96c-31 -24 -68 -36 -112 -36zM243 322h-89v287l-102 -53v88l106 56
h85v-378zM230 0h-91l418 700h91z" />
    <glyph glyph-name="uni2155.mono" horiz-adv-x="848" 
d="M240 0h-91l418 700h91zM254 322h-89v287l-102 -53v88l106 56h85v-378zM619 -7c-43 0 -80 9 -111 27v83c33 -21 69 -32 108 -32c44 0 78 20 78 57c0 32 -30 55 -78 55c-35 0 -66 -5 -95 -15l25 210h212v-74h-146l-6 -56c5 1 16 2 31 2c85 0 146 -46 146 -122
c0 -85 -71 -135 -164 -135z" />
    <glyph glyph-name="uni2156.mono" horiz-adv-x="848" 
d="M279 0h-91l418 700h91zM324 322h-279v64l111 96c49 41 66 67 66 96c0 28 -23 47 -59 47c-35 0 -70 -13 -105 -40v88c31 23 69 34 112 34c38 0 71 -11 99 -33c29 -21 43 -50 43 -85c0 -52 -22 -87 -82 -143l-54 -50h148v-74zM638 -7c-43 0 -80 9 -111 27v83
c33 -21 69 -32 108 -32c44 0 78 20 78 57c0 32 -30 55 -78 55c-34 0 -66 -5 -95 -15l25 210h212v-74h-146l-6 -56c5 1 16 2 31 2c85 0 146 -46 146 -122c0 -85 -71 -135 -164 -135z" />
    <glyph glyph-name="uni2157.mono" horiz-adv-x="848" 
d="M641 -7c-43 0 -80 9 -111 27v83c33 -21 69 -32 108 -32c44 0 78 20 78 57c0 32 -30 55 -78 55c-35 0 -66 -5 -95 -15l25 210h212v-74h-146l-6 -56c5 1 16 2 31 2c85 0 146 -46 146 -122c0 -85 -71 -135 -164 -135zM164 315c-47 0 -87 10 -121 30v82
c37 -23 75 -34 113 -34c43 0 77 23 77 56c0 32 -26 54 -70 54c-23 0 -43 -4 -59 -11v55l91 79h-141v74h251v-66l-85 -75c53 -9 102 -43 102 -112c0 -39 -15 -71 -46 -96c-31 -24 -68 -36 -112 -36zM261 0h-91l418 700h91z" />
    <glyph glyph-name="uni2158.mono" horiz-adv-x="848" 
d="M645 -7c-43 0 -80 9 -111 27v83c33 -21 69 -32 108 -32c44 0 78 20 78 57c0 32 -30 55 -78 55c-35 0 -66 -5 -95 -15l25 210h212v-74h-146l-6 -56c5 1 16 2 31 2c85 0 146 -46 146 -122c0 -85 -71 -135 -164 -135zM316 322h-86v92h-191v63l187 223h90v-217h55v-69h-55
v-92zM230 601l-101 -118h101v118zM286 0h-91l418 700h91z" />
    <glyph glyph-name="uni2159.mono" horiz-adv-x="848" 
d="M239 0h-91l418 700h91zM253 322h-89v287l-102 -53v88l106 56h85v-378zM647 -7c-100 0 -156 70 -156 177c0 60 15 111 45 152c31 42 75 63 134 63c38 0 68 -8 89 -23v-78c-23 16 -49 24 -79 24c-53 0 -94 -35 -98 -92c20 23 48 35 85 35c71 0 124 -48 124 -124
c0 -39 -14 -72 -42 -97c-27 -25 -61 -37 -102 -37zM641 65c36 0 61 26 61 62c0 33 -25 59 -61 59c-27 0 -53 -17 -65 -42c1 -49 28 -79 65 -79z" />
    <glyph glyph-name="uni215A.mono" horiz-adv-x="848" 
d="M257 0h-91l418 700h91zM666 -7c-100 0 -156 70 -156 177c0 60 15 111 45 152c31 42 75 63 134 63c38 0 68 -8 89 -23v-78c-23 16 -49 24 -79 24c-53 0 -94 -35 -98 -92c20 23 48 35 85 35c71 0 124 -48 124 -124c0 -39 -14 -72 -42 -97c-27 -25 -61 -37 -102 -37zM660 65
c36 0 61 26 61 62c0 33 -26 59 -61 59c-27 0 -53 -17 -65 -42c1 -49 28 -79 65 -79zM151 315c-43 0 -80 9 -111 27v83c33 -21 69 -32 108 -32c44 0 78 20 78 57c0 32 -30 55 -78 55c-34 0 -66 -5 -95 -15l25 210h212v-74h-146l-6 -56c5 1 16 2 31 2c85 0 146 -46 146 -122
c0 -85 -71 -135 -164 -135z" />
    <glyph glyph-name="seveneighths.mono" horiz-adv-x="879" 
d="M656 -7c-89 0 -158 43 -158 116c0 41 30 79 70 92c-31 13 -51 45 -51 78c0 63 59 106 139 106c79 0 138 -43 138 -106c0 -33 -21 -65 -52 -78c40 -13 70 -51 70 -92c0 -36 -15 -64 -46 -85c-30 -21 -67 -31 -110 -31zM656 65c39 0 67 22 67 51c0 32 -27 53 -67 53
c-41 0 -69 -21 -69 -53c0 -29 29 -51 69 -51zM656 225c31 0 55 20 55 45c0 27 -23 45 -55 45c-33 0 -58 -18 -58 -45c0 -25 25 -45 58 -45zM195 322h-96l154 304h-178v74h278v-69zM236 0h-91l418 700h91z" />
    <glyph glyph-name="fiveeighths.mono" horiz-adv-x="879" 
d="M679 -7c-89 0 -158 43 -158 116c0 41 30 79 70 92c-31 13 -51 45 -51 78c0 63 59 106 139 106c79 0 138 -43 138 -106c0 -33 -21 -65 -52 -78c40 -13 70 -51 70 -92c0 -36 -15 -64 -46 -85c-30 -21 -67 -31 -110 -31zM679 65c39 0 67 22 67 51c0 32 -27 53 -67 53
c-41 0 -69 -21 -69 -53c0 -29 29 -51 69 -51zM679 225c31 0 55 20 55 45c0 27 -23 45 -55 45c-33 0 -58 -18 -58 -45c0 -25 25 -45 58 -45zM157 315c-43 0 -80 9 -111 27v83c33 -21 69 -32 108 -32c44 0 78 20 78 57c0 32 -30 55 -78 55c-35 0 -66 -5 -95 -15l25 210h212
v-74h-146l-6 -56c5 1 16 2 31 2c85 0 146 -46 146 -122c0 -85 -71 -135 -164 -135zM260 0h-91l418 700h91z" />
    <glyph glyph-name="threeeighths.mono" horiz-adv-x="879" 
d="M679 -7c-89 0 -158 43 -158 116c0 41 30 79 70 92c-31 13 -51 45 -51 78c0 63 59 106 139 106c79 0 138 -43 138 -106c0 -33 -21 -65 -52 -78c40 -13 70 -51 70 -92c0 -36 -15 -64 -46 -85c-30 -21 -67 -31 -110 -31zM679 65c39 0 67 22 67 51c0 32 -27 53 -67 53
c-41 0 -69 -21 -69 -53c0 -29 29 -51 69 -51zM679 225c31 0 55 20 55 45c0 27 -23 45 -55 45c-33 0 -58 -18 -58 -45c0 -25 25 -45 58 -45zM162 315c-47 0 -87 10 -121 30v82c37 -23 75 -34 113 -34c43 0 77 23 77 56c0 32 -26 54 -70 54c-23 0 -43 -4 -59 -11v55l91 79
h-141v74h251v-66l-85 -75c53 -9 102 -43 102 -112c0 -39 -15 -71 -46 -96c-31 -24 -68 -36 -112 -36zM260 0h-91l418 700h91z" />
    <glyph glyph-name="oneeighth.mono" horiz-adv-x="879" 
d="M658 -7c-89 0 -158 43 -158 116c0 41 30 79 70 92c-31 13 -51 45 -51 78c0 63 59 106 139 106c79 0 138 -43 138 -106c0 -33 -21 -65 -52 -78c40 -13 70 -51 70 -92c0 -36 -15 -64 -46 -85c-30 -21 -67 -31 -110 -31zM658 65c39 0 67 22 67 51c0 32 -27 53 -67 53
c-41 0 -69 -21 -69 -53c0 -29 29 -51 69 -51zM658 225c31 0 55 20 55 45c0 27 -23 45 -55 45c-33 0 -58 -18 -58 -45c0 -25 25 -45 58 -45zM251 322h-89v287l-102 -53v88l106 56h85v-378zM238 0h-91l418 700h91z" />
    <glyph glyph-name="onequarter.mono" horiz-adv-x="848" 
d="M732 0h-86v92h-191v63l187 223h90v-217h55v-69h-55v-92zM646 279l-101 -118h101v118zM255 322h-89v287l-102 -53v88l106 56h85v-378zM240 0h-91l418 700h91z" />
    <glyph glyph-name="onehalf.mono" horiz-adv-x="848" 
d="M799 0h-279v64l111 96c49 41 66 67 66 96c0 28 -23 47 -59 47c-35 0 -70 -13 -105 -40v88c31 23 69 34 112 34c38 0 71 -11 99 -33c29 -21 43 -50 43 -85c0 -52 -22 -87 -82 -143l-54 -50h148v-74zM241 322h-89v287l-102 -53v88l106 56h85v-378zM228 0h-91l418 700h91z
" />
    <glyph glyph-name="a.alt" horiz-adv-x="640" 
d="M280 -13c-69 0 -126 25 -171 75s-67 111 -67 184c0 72 22 133 67 183s102 75 171 75c76 0 134 -27 175 -80v67h108v-491h-108v67c-41 -53 -99 -80 -175 -80zM309 82c64 0 119 37 146 88v152c-27 49 -82 87 -146 87c-45 0 -83 -16 -113 -48c-30 -31 -45 -70 -45 -115
c0 -46 15 -85 45 -117c30 -31 68 -47 113 -47z" />
    <glyph glyph-name="g.alt" horiz-adv-x="610" 
d="M442 451l137 53v-87l-86 -37c14 -24 21 -51 21 -80c0 -41 -11 -78 -33 -111c45 -43 68 -97 68 -161c0 -65 -24 -120 -73 -165s-111 -68 -186 -68c-71 0 -132 21 -183 64c-50 43 -75 100 -75 171h109c0 -40 14 -73 42 -100s64 -40 107 -40s78 13 107 40s43 59 43 98
c0 37 -12 68 -37 94c-34 -18 -72 -27 -115 -27c-67 0 -121 20 -164 59c-43 40 -64 89 -64 146s21 106 64 145s97 59 164 59c62 0 113 -18 154 -53zM414 300c0 67 -54 116 -126 116s-126 -49 -126 -116c0 -68 54 -117 126 -117s126 49 126 117z" />
    <glyph glyph-name="threequarters.mono" horiz-adv-x="848" 
d="M259 0h-91l418 700h91zM750 0h-86v92h-191v63l187 223h90v-217h55v-69h-55v-92zM664 279l-101 -118h101v118zM162 315c-47 0 -87 10 -121 30v82c37 -23 75 -34 113 -34c43 0 77 23 77 56c0 32 -26 54 -70 54c-23 0 -43 -4 -59 -11v55l91 79h-141v74h251v-66l-85 -75
c53 -9 102 -43 102 -112c0 -39 -15 -71 -46 -96c-31 -24 -68 -36 -112 -36z" />
    <glyph glyph-name="Idieresis_Idieresis" horiz-adv-x="563" 
d="M472 0h-110v700h110v-700zM202 0h-110v700h110v-700zM-2 788c-24 24 -24 62 0 85c24 24 62 24 85 0c23 -23 23 -61 0 -85c-23 -23 -61 -23 -85 0zM239 788c-24 24 -24 62 0 85c24 24 62 24 85 0c23 -23 23 -61 0 -85c-23 -23 -61 -23 -85 0zM481 788c-24 24 -24 62 0 85
c24 24 62 24 85 0c23 -23 23 -61 0 -85c-23 -23 -61 -23 -85 0z" />
    <glyph glyph-name="O_C" horiz-adv-x="1286" 
d="M419 -13c-103 0 -188 35 -256 104c-67 70 -101 156 -101 259s34 189 101 258c68 70 153 105 256 105c128 0 238 -62 301 -162c65 101 180 162 313 162c72 0 135 -16 190 -47v-111c-57 37 -120 55 -189 55c-73 0 -135 -25 -184 -74s-73 -111 -73 -186s25 -138 74 -187
c50 -49 112 -73 187 -73c79 0 146 21 200 64v-111c-58 -37 -126 -56 -205 -56c-132 0 -248 61 -313 162c-63 -100 -173 -162 -301 -162zM245 164c47 -49 105 -74 174 -74s127 25 174 74c47 50 71 112 71 186s-24 136 -71 185c-47 50 -105 75 -174 75s-127 -25 -174 -75
c-47 -49 -70 -111 -70 -185s23 -136 70 -186z" />
    <glyph glyph-name="O_O" horiz-adv-x="1441" 
d="M419 -13c-103 0 -188 35 -256 104c-67 70 -101 156 -101 259s34 189 101 258c68 70 153 105 256 105c128 0 238 -62 301 -162c64 100 173 162 301 162c103 0 188 -35 256 -105c68 -69 102 -155 102 -258s-34 -189 -102 -259c-68 -69 -153 -104 -256 -104
c-129 0 -238 61 -301 162c-63 -100 -173 -162 -301 -162zM245 164c47 -49 105 -74 174 -74s127 25 174 74c47 50 71 112 71 186s-24 136 -71 185c-47 50 -105 75 -174 75s-127 -25 -174 -75c-47 -49 -70 -111 -70 -185s23 -136 70 -186zM847 164c47 -49 105 -74 174 -74
s127 25 174 74c47 50 71 112 71 186s-24 136 -71 185c-47 50 -105 75 -174 75s-127 -25 -174 -75c-47 -49 -70 -111 -70 -185s23 -136 70 -186z" />
    </font>
</defs>
</svg>
