<?xml version="1.0" standalone="no"?>
<!DOCTYPE svg PUBLIC "-//W3C//DTD SVG 1.1//EN" "http://www.w3.org/Graphics/SVG/1.1/DTD/svg11.dtd" >
<svg xmlns="http://www.w3.org/2000/svg" xmlns:xlink="http://www.w3.org/1999/xlink" version="1.1">
<metadata>
Created by FontForge 20170910 at Wed Dec 11 00:50:30 2013
 By Jimmy Wärting
Copyright (c) 2012 by Vyacheslav Kirilenko, Gayane Bagdasaryan. All rights reserved.
</metadata>
<defs>
<font id="Geometria-Thin" horiz-adv-x="620" >
  <font-face 
    font-family="Geometria"
    font-weight="100"
    font-stretch="normal"
    units-per-em="1000"
    panose-1="2 11 2 3 2 2 4 2 2 4"
    ascent="776"
    descent="-224"
    x-height="470"
    cap-height="700"
    bbox="-390 -206 1440 915"
    underline-thickness="50"
    underline-position="-100"
    unicode-range="U+0020-FB04"
  />
<missing-glyph horiz-adv-x="681" 
d="M477 0h-391v700h391v-700zM104 683v-666h355v666h-355z" />
    <glyph glyph-name="ij" unicode="ij" horiz-adv-x="449" 
d="M230 -203c-24 0 -46 5 -66 16v20c20 -13 42 -19 66 -19c62 0 93 37 93 110v546h18v-551c0 -81 -37 -122 -111 -122zM349 627c-22 -22 -56 12 -34 34s56 -12 34 -34zM127 0h-18v470h18v-470zM135 627c-22 -22 -56 12 -34 34s56 -12 34 -34z" />
    <glyph glyph-name="f_f" unicode="ff" horiz-adv-x="626" 
d="M150 453v-453h-18v453h-102v17h102v111c0 79 41 124 113 124c29 0 57 -7 83 -20v-19c-28 15 -56 22 -83 22c-61 0 -95 -41 -95 -113v-105h250v111c0 79 41 124 113 124c29 0 57 -7 83 -20v-19c-28 15 -56 22 -83 22c-61 0 -95 -41 -95 -113v-105h178v-17h-178v-453h-18
v453h-250z" />
    <glyph glyph-name="fi" unicode="fi" horiz-adv-x="526" 
d="M150 453v-453h-18v453h-102v17h102v111c0 79 41 124 113 124c29 0 57 -7 83 -20v-19c-28 15 -56 22 -83 22c-61 0 -95 -41 -95 -113v-105h268v-470h-18v453h-250zM426 627c-8 -9 -26 -9 -35 0c-8 9 -8 25 0 34c23 23 57 -12 35 -34z" />
    <glyph glyph-name="fl" unicode="fl" horiz-adv-x="570" 
d="M494 -12c-52 0 -94 28 -94 103v362h-250v-453h-18v453h-102v17h102v111c0 79 41 124 113 124c29 0 57 -7 83 -20v-19c-28 15 -56 22 -83 22c-61 0 -95 -41 -95 -113v-105h250v230h18v-609c0 -57 26 -86 77 -86c20 0 38 6 55 17v-20c-17 -9 -35 -14 -56 -14z" />
    <glyph glyph-name="f_f_i" unicode="ffi" horiz-adv-x="794" 
d="M150 453v-453h-18v453h-102v17h102v111c0 79 41 124 113 124c29 0 57 -7 83 -20v-19c-28 15 -56 22 -83 22c-61 0 -95 -41 -95 -113v-105h250v111c0 79 41 124 113 124c29 0 57 -7 83 -20v-19c-28 15 -56 22 -83 22c-61 0 -95 -41 -95 -113v-105h268v-470h-18v453h-250
v-453h-18v453h-250zM694 627c-8 -9 -26 -9 -35 0c-8 9 -8 25 0 34c23 23 57 -12 35 -34z" />
    <glyph glyph-name="f_f_l" unicode="ffl" horiz-adv-x="838" 
d="M762 -12c-52 0 -94 28 -94 103v362h-250v-453h-18v453h-250v-453h-18v453h-102v17h102v111c0 79 41 124 113 124c29 0 57 -7 83 -20v-19c-28 15 -56 22 -83 22c-61 0 -95 -41 -95 -113v-105h250v111c0 79 41 124 113 124c29 0 57 -7 83 -20v-19c-28 15 -56 22 -83 22
c-61 0 -95 -41 -95 -113v-105h250v230h18v-609c0 -57 26 -86 77 -86c20 0 38 6 55 17v-20c-17 -9 -35 -14 -56 -14z" />
    <glyph glyph-name=".notdef" horiz-adv-x="681" 
d="M477 0h-391v700h391v-700zM104 683v-666h355v666h-355z" />
    <glyph glyph-name="NULL" horiz-adv-x="0" 
 />
    <glyph glyph-name="CR" horiz-adv-x="333" 
 />
    <glyph glyph-name="space" unicode=" " horiz-adv-x="276" 
 />
    <glyph glyph-name="exclam" unicode="!" horiz-adv-x="242" 
d="M138 5c-8 -8 -26 -8 -35 0c-8 9 -8 27 0 35c23 23 58 -12 35 -35zM130 201h-18v499h18v-499z" />
    <glyph glyph-name="quotedbl" unicode="&#x22;" horiz-adv-x="321" 
d="M86 482h-18v218h18v-218zM257 482h-18v218h18v-218z" />
    <glyph glyph-name="numbersign" unicode="#" horiz-adv-x="678" 
d="M166 0h-17l33 210h-149l2 17h150l39 245h-150l3 17h149l34 211h17l-34 -211h236l34 211h17l-34 -211h151l-3 -17h-150l-39 -245h150l-2 -17h-151l-33 -210h-17l33 210h-236zM241 472l-39 -245h236l39 245h-236z" />
    <glyph glyph-name="dollar" unicode="$" horiz-adv-x="619" 
d="M309 -115h-18v103c-50 1 -97 9 -142 24c-44 15 -78 32 -101 51v21c52 -43 144 -79 249 -79c67 0 122 16 165 47c43 32 65 74 65 125c0 45 -20 82 -45 106c-12 12 -29 23 -52 33c-44 21 -72 30 -131 46c-33 9 -58 16 -77 22c-19 7 -39 15 -62 25c-62 30 -86 66 -91 137
c0 45 19 84 57 116c39 33 94 49 165 50v103h18v-103c73 -3 136 -23 191 -59v-20c-62 41 -130 62 -205 62c-68 0 -120 -15 -155 -44s-53 -64 -53 -105s19 -75 40 -96c11 -10 27 -20 46 -29c39 -17 63 -24 111 -37l22 -6c26 -7 45 -13 58 -17s30 -10 53 -19s40 -18 52 -27
c39 -26 81 -74 76 -138c0 -58 -23 -104 -69 -137s-102 -51 -167 -52v-103z" />
    <glyph glyph-name="percent" unicode="%" horiz-adv-x="814" 
d="M362 548c0 42 -13 77 -40 105c-26 28 -60 42 -101 42s-75 -14 -102 -42c-26 -28 -39 -63 -39 -105c0 -43 13 -78 39 -106c27 -28 61 -42 102 -42s75 14 101 42c27 28 40 63 40 106zM62 548c0 45 15 84 45 116c31 32 69 48 114 48s83 -16 114 -48s46 -71 46 -116
c0 -46 -15 -85 -46 -117s-69 -48 -114 -48s-83 16 -114 48c-30 32 -45 71 -45 117zM217 0h-20l400 700h20zM734 152c0 43 -13 78 -40 106s-61 42 -102 42s-75 -14 -102 -42c-26 -28 -39 -63 -39 -106c0 -42 13 -77 39 -105c27 -28 61 -42 102 -42s75 14 102 42s40 63 40 105
zM433 152c0 46 15 85 45 117c31 32 69 48 114 48s83 -16 114 -48s46 -71 46 -117c0 -45 -15 -84 -46 -116s-69 -48 -114 -48s-83 16 -114 48c-30 32 -45 71 -45 116z" />
    <glyph glyph-name="ampersand" unicode="&#x26;" horiz-adv-x="693" 
d="M491 655v-22c-47 41 -103 62 -166 62c-97 0 -161 -61 -161 -146c0 -51 24 -99 73 -146l302 -286c50 67 76 150 77 250h17c0 -105 -27 -192 -81 -262l111 -105h-24l-98 92c-59 -69 -136 -104 -232 -104c-69 0 -127 18 -175 55s-72 91 -72 161c0 53 16 97 47 133
s64 60 97 72c-40 43 -60 89 -60 140c0 49 17 88 51 118s77 45 129 45c65 0 120 -19 165 -57zM309 5c91 0 164 33 219 99l-307 291c-37 -11 -70 -34 -99 -69c-28 -34 -42 -75 -42 -123c0 -62 22 -111 66 -146s98 -52 163 -52z" />
    <glyph glyph-name="quotesingle" unicode="'" horiz-adv-x="150" 
d="M86 482h-18v218h18v-218z" />
    <glyph glyph-name="parenleft" unicode="(" horiz-adv-x="343" 
d="M283 -206h-22c-101 127 -151 279 -151 456s50 329 151 456h22c-103 -134 -155 -286 -155 -456s52 -322 155 -456z" />
    <glyph glyph-name="parenright" unicode=")" horiz-adv-x="343" 
d="M82 -206h-22c103 134 155 286 155 456s-52 322 -155 456h22c101 -127 151 -279 151 -456s-50 -329 -151 -456z" />
    <glyph glyph-name="asterisk" unicode="*" horiz-adv-x="426" 
d="M222 356h-18v156l-135 -78l-9 16l135 78l-135 78l9 16l135 -78v156h18v-156l135 78l9 -16l-135 -78l135 -78l-9 -16l-135 78v-156z" />
    <glyph glyph-name="plus" unicode="+" horiz-adv-x="595" 
d="M307 94h-18v219h-219v17h219v219h18v-219h218v-17h-218v-219z" />
    <glyph glyph-name="comma" unicode="," horiz-adv-x="208" 
d="M62 -152h-19l75 218h19z" />
    <glyph glyph-name="hyphen" unicode="-" horiz-adv-x="479" 
d="M369 259h-259v17h259v-17z" />
    <glyph glyph-name="period" unicode="." horiz-adv-x="208" 
d="M121 5c-9 -8 -25 -8 -34 0c-9 9 -9 27 0 35c22 22 57 -12 34 -35z" />
    <glyph glyph-name="slash" unicode="/" horiz-adv-x="487" 
d="M44 -140h-20l421 932h20z" />
    <glyph glyph-name="zero" unicode="0" horiz-adv-x="698" 
d="M77 350c0 104 25 190 76 259s117 103 196 103s144 -34 195 -103s77 -155 77 -259c0 -105 -26 -191 -77 -260c-51 -68 -116 -102 -195 -102s-145 34 -196 102c-51 69 -76 155 -76 260zM95 350c0 -101 24 -183 72 -248s109 -97 182 -97s134 32 182 97s72 148 72 248
s-24 182 -72 247s-109 98 -182 98s-134 -33 -182 -98s-72 -147 -72 -247z" />
    <glyph glyph-name="one" unicode="1" horiz-adv-x="354" 
d="M225 0h-18v679l-166 -106v20l166 107h18v-700z" />
    <glyph glyph-name="two" unicode="2" horiz-adv-x="566" 
d="M508 0h-461l1 16l260 254c37 36 65 65 84 87c39 44 70 105 70 168c0 50 -18 91 -53 122c-35 32 -81 48 -138 48c-80 0 -150 -34 -211 -102v27c56 61 126 92 211 92c63 0 113 -17 151 -52c39 -35 58 -80 58 -135c0 -47 -12 -89 -36 -127c-24 -37 -65 -84 -122 -140
l-247 -241h434z" />
    <glyph glyph-name="three" unicode="3" horiz-adv-x="560" 
d="M237 -12c-78 0 -144 16 -197 49v21c51 -35 116 -53 196 -53c63 0 118 19 165 57s71 88 71 150c0 59 -21 106 -63 142c-41 36 -97 54 -167 54c-21 0 -41 -2 -61 -5v14l261 266h-367v17h394v-13l-257 -263c8 1 19 1 33 1c67 0 125 -19 173 -56s72 -90 72 -157
c0 -65 -24 -119 -73 -161c-48 -42 -108 -63 -180 -63z" />
    <glyph glyph-name="four" unicode="4" horiz-adv-x="621" 
d="M457 0h-18v214h-396v15l399 471h15v-469h126v-17h-126v-214zM439 669l-371 -438h371v438z" />
    <glyph glyph-name="five" unicode="5" horiz-adv-x="598" 
d="M259 -12c-74 0 -137 15 -188 45v20c51 -32 114 -48 189 -48c71 0 130 20 176 60s69 89 69 146c0 55 -22 102 -65 140c-43 39 -99 58 -168 58c-59 0 -115 -9 -169 -28l47 319h324v-17h-309l-42 -278c44 14 94 21 151 21c71 0 130 -20 177 -61c48 -41 72 -92 72 -154
c0 -63 -25 -116 -75 -159c-49 -43 -112 -64 -189 -64z" />
    <glyph glyph-name="six" unicode="6" horiz-adv-x="636" 
d="M334 -12c-77 0 -139 28 -185 85s-69 138 -69 243c0 116 27 211 81 285s124 111 211 111c54 0 101 -14 141 -42v-19c-43 29 -91 44 -142 44c-81 0 -146 -36 -197 -108c-51 -71 -76 -161 -76 -270c0 -18 0 -31 1 -38c18 43 48 79 89 109c41 31 90 46 145 46
c63 0 116 -21 161 -62s67 -92 67 -154c0 -66 -22 -121 -66 -165c-43 -43 -97 -65 -161 -65zM335 5c58 0 107 20 147 60c41 41 61 91 61 152c0 59 -21 107 -62 144s-90 56 -149 56c-52 0 -99 -16 -141 -48c-41 -31 -71 -72 -89 -121c17 -148 97 -243 233 -243z" />
    <glyph glyph-name="seven" unicode="7" horiz-adv-x="535" 
d="M136 0h-20l347 683h-413v17h435v-12z" />
    <glyph glyph-name="eight" unicode="8" horiz-adv-x="647" 
d="M67 183c0 97 70 165 186 189c-88 21 -147 82 -147 165c0 51 20 93 61 126s93 49 156 49s115 -16 156 -49s62 -75 62 -126c0 -83 -59 -144 -147 -165c116 -24 186 -92 186 -189c0 -57 -25 -104 -74 -141c-49 -36 -110 -54 -183 -54s-134 18 -183 55s-73 83 -73 140z
M562 184c0 53 -23 95 -68 128s-102 50 -171 50c-68 0 -125 -17 -170 -50s-68 -76 -68 -128c0 -51 23 -93 68 -128c46 -34 103 -51 170 -51s124 17 170 51c46 35 69 77 69 128zM524 537c0 47 -19 85 -58 114c-38 29 -86 44 -143 44s-104 -15 -142 -44s-57 -67 -57 -114
c0 -45 19 -83 57 -113s85 -45 142 -45s104 15 143 45s58 68 58 113z" />
    <glyph glyph-name="nine" unicode="9" horiz-adv-x="636" 
d="M269 -12c-54 0 -101 14 -141 42v19c43 -29 91 -44 142 -44c81 0 146 36 197 107c51 72 76 162 76 271c0 18 0 31 -1 38c-18 -43 -48 -79 -89 -110c-41 -30 -90 -45 -145 -45c-63 0 -116 20 -161 61s-67 93 -67 155c0 66 22 121 65 164c44 44 98 66 162 66
c77 0 139 -29 185 -86s69 -137 69 -242c0 -116 -27 -211 -81 -285s-124 -111 -211 -111zM309 283c52 0 99 16 140 47c42 32 72 73 90 122c-17 148 -97 243 -233 243c-57 0 -106 -20 -147 -61c-41 -40 -61 -90 -61 -151c0 -59 20 -108 61 -145s91 -55 150 -55z" />
    <glyph glyph-name="colon" unicode=":" horiz-adv-x="208" 
d="M121 5c-9 -8 -25 -8 -34 0c-9 9 -9 27 0 35c22 22 57 -12 34 -35zM121 411c-22 -22 -56 12 -34 34s56 -12 34 -34z" />
    <glyph glyph-name="semicolon" unicode=";" horiz-adv-x="208" 
d="M62 -152h-19l75 218h19zM121 411c-22 -22 -56 12 -34 34s56 -12 34 -34z" />
    <glyph glyph-name="less" unicode="&#x3c;" horiz-adv-x="595" 
d="M525 127v-20l-455 202v17l455 203v-20l-429 -191z" />
    <glyph glyph-name="equal" unicode="=" horiz-adv-x="595" 
d="M525 198h-455v17h455v-17zM525 426h-455v17h455v-17z" />
    <glyph glyph-name="greater" unicode="&#x3e;" horiz-adv-x="595" 
d="M525 309l-455 -202v20l429 191l-429 191v20l455 -203v-17z" />
    <glyph glyph-name="question" unicode="?" horiz-adv-x="458" 
d="M211 201h-18v142c49 10 92 31 130 64s57 73 57 120s-17 85 -51 115c-33 31 -76 46 -129 46c-65 0 -121 -20 -168 -59v21c47 37 103 55 169 55c55 0 102 -17 140 -50s57 -76 57 -128c0 -96 -79 -164 -187 -199v-127zM220 5c-8 -8 -26 -8 -35 0c-8 9 -8 27 0 35
c23 23 58 -12 35 -35z" />
    <glyph glyph-name="at" unicode="@" horiz-adv-x="975" 
d="M488 -164c-119 0 -220 42 -303 127c-83 84 -125 188 -125 311s42 227 125 311c83 85 184 127 303 127c121 0 223 -40 304 -120c82 -79 123 -177 123 -292c0 -63 -14 -117 -43 -161c-28 -43 -66 -65 -115 -65c-57 0 -93 29 -106 87c-33 -45 -95 -87 -166 -87
c-59 0 -106 20 -143 59c-37 40 -55 87 -55 141s18 101 55 140c37 40 84 60 143 60c71 0 130 -40 163 -84v68h18v-260c0 -69 35 -107 91 -107c43 0 77 20 102 60s38 90 38 150c0 69 -17 134 -50 193c-33 60 -82 108 -145 145s-134 56 -214 56c-117 0 -214 -41 -293 -124
c-78 -82 -117 -181 -117 -297c-6 -224 180 -425 410 -421c70 0 136 16 199 48v-19c-63 -31 -129 -46 -199 -46zM485 91c64 0 130 40 163 97v172c-33 57 -99 97 -163 97c-51 0 -93 -18 -128 -53s-52 -79 -52 -130s17 -95 52 -130s77 -53 128 -53z" />
    <glyph glyph-name="A" unicode="A" horiz-adv-x="734" 
d="M56 0h-19l322 705h16l322 -705h-19l-100 219h-422zM367 679l-203 -443h406z" />
    <glyph glyph-name="B" unicode="B" horiz-adv-x="728" 
d="M433 0h-321v700h284c123 0 192 -64 192 -167c0 -77 -36 -128 -108 -153c109 -16 172 -85 172 -188c0 -117 -79 -192 -219 -192zM130 366v-349h302c129 0 202 64 202 175s-73 174 -202 174h-302zM130 683v-300h265c112 0 175 55 175 150s-63 150 -175 150h-265z" />
    <glyph glyph-name="C" unicode="C" horiz-adv-x="695" 
d="M424 -12c-97 0 -179 34 -245 102c-65 69 -98 155 -98 260c0 104 33 190 98 259c66 69 148 103 245 103c78 0 146 -20 203 -59v-20c-61 41 -128 62 -203 62c-91 0 -168 -33 -231 -99c-63 -65 -94 -147 -94 -246s31 -181 94 -247c63 -65 140 -98 231 -98
c86 0 160 25 221 76v-22c-59 -47 -132 -71 -221 -71z" />
    <glyph glyph-name="D" unicode="D" horiz-adv-x="772" 
d="M316 0h-204v700h204c112 0 202 -32 271 -97c69 -64 104 -148 104 -253s-35 -189 -104 -254c-69 -64 -159 -96 -271 -96zM130 683v-666h178c112 0 201 31 266 92c66 61 99 142 99 241s-33 180 -99 241c-65 61 -154 92 -266 92h-178z" />
    <glyph glyph-name="E" unicode="E" horiz-adv-x="634" 
d="M584 0h-472v700h454v-17h-436v-297h363v-17h-363v-352h454v-17z" />
    <glyph glyph-name="F" unicode="F" horiz-adv-x="611" 
d="M130 0h-18v700h449v-17h-431v-307h363v-17h-363v-359z" />
    <glyph glyph-name="G" unicode="G" horiz-adv-x="784" 
d="M656 634v-21c-65 55 -142 82 -232 82c-91 0 -168 -33 -231 -99c-63 -65 -94 -147 -94 -246s31 -181 94 -247c63 -65 141 -98 232 -98c97 0 188 34 244 95v299h18v-307c-66 -69 -153 -104 -262 -104c-97 0 -179 34 -245 103s-99 155 -99 259s33 190 98 259
c66 69 148 103 245 103c93 0 170 -26 232 -78z" />
    <glyph glyph-name="H" unicode="H" horiz-adv-x="758" 
d="M130 0h-18v700h18v-314h498v314h18v-700h-18v369h-498v-369z" />
    <glyph glyph-name="I" unicode="I" horiz-adv-x="256" 
d="M137 0h-18v700h18v-700z" />
    <glyph glyph-name="J" unicode="J" horiz-adv-x="498" 
d="M193 -12c-59 0 -111 17 -155 50v22c41 -37 93 -55 156 -55c122 0 183 65 183 196v499h18v-501c0 -139 -69 -211 -202 -211z" />
    <glyph glyph-name="K" unicode="K" horiz-adv-x="645" 
d="M625 0h-27l-422 373v11l365 316h27l-370 -321zM130 0h-18v700h18v-700z" />
    <glyph glyph-name="L" unicode="L" horiz-adv-x="586" 
d="M552 0h-440v700h18v-683h422v-17z" />
    <glyph glyph-name="M" unicode="M" horiz-adv-x="845" 
d="M130 0h-18v700h19l292 -377l292 377h18v-700h-18v671l-284 -366h-16l-285 366v-671z" />
    <glyph glyph-name="N" unicode="N" horiz-adv-x="773" 
d="M130 0h-18v700h18l513 -669v669h18v-700h-18l-513 670v-670z" />
    <glyph glyph-name="O" unicode="O" horiz-adv-x="848" 
d="M193 104c63 -66 140 -99 231 -99s168 33 231 98c63 66 94 148 94 247s-31 181 -94 246c-63 66 -140 99 -231 99s-168 -33 -231 -99s-94 -148 -94 -246s31 -180 94 -246zM81 350c0 104 33 190 98 259c66 69 148 103 245 103s179 -34 244 -103c66 -69 99 -155 99 -259
c0 -105 -33 -191 -99 -260c-65 -68 -147 -102 -244 -102s-179 34 -245 102c-65 69 -98 155 -98 260z" />
    <glyph glyph-name="P" unicode="P" horiz-adv-x="664" 
d="M130 0h-18v700h286c132 0 208 -70 208 -181s-76 -181 -208 -181h-268v-338zM130 683v-328h267c121 0 191 60 191 164s-70 164 -191 164h-267z" />
    <glyph glyph-name="Q" unicode="Q" horiz-adv-x="848" 
d="M665 -103c-57 0 -116 32 -175 97c-22 -4 -44 -6 -66 -6c-97 0 -179 34 -245 102c-65 69 -98 155 -98 260c0 104 33 190 98 259c66 69 148 103 245 103s179 -34 244 -103c66 -69 99 -155 99 -259c0 -88 -24 -164 -72 -228c-47 -63 -109 -104 -185 -123
c51 -57 103 -85 155 -85c33 0 61 8 83 24v-20c-23 -14 -51 -21 -83 -21zM193 104c63 -66 140 -99 231 -99s168 33 231 98c63 66 94 148 94 247s-31 181 -94 246c-63 66 -140 99 -231 99s-168 -33 -231 -99s-94 -148 -94 -246s31 -180 94 -246z" />
    <glyph glyph-name="R" unicode="R" horiz-adv-x="735" 
d="M130 0h-18v700h306c129 0 204 -69 204 -177c0 -101 -66 -169 -182 -177l235 -346h-21l-236 346h-288v-346zM130 683v-320h286c119 0 188 59 188 160s-69 160 -188 160h-286z" />
    <glyph glyph-name="S" unicode="S" horiz-adv-x="619" 
d="M300 -12c-52 0 -101 8 -147 23s-81 33 -105 52v22c52 -43 144 -80 249 -80c67 0 122 16 165 47c43 32 65 74 65 125c0 83 -53 129 -146 161c-9 3 -38 12 -86 25l-84 25c-95 33 -142 74 -142 158c0 46 19 85 58 117c39 33 94 49 166 49c81 0 150 -20 207 -59v-20
c-62 41 -130 62 -205 62c-68 0 -120 -15 -155 -44s-53 -64 -53 -105c0 -79 50 -116 139 -145l77 -22c48 -13 77 -22 88 -26c96 -35 154 -84 154 -176c0 -59 -24 -106 -72 -139s-106 -50 -173 -50z" />
    <glyph glyph-name="T" unicode="T" horiz-adv-x="611" 
d="M314 0h-18v683h-259v17h537v-17h-260v-683z" />
    <glyph glyph-name="U" unicode="U" horiz-adv-x="746" 
d="M101 299v401h18v-400c0 -185 95 -295 254 -295s254 111 254 295v400h18v-401c0 -99 -25 -176 -74 -230s-115 -81 -198 -81s-149 27 -198 81s-74 131 -74 230z" />
    <glyph glyph-name="V" unicode="V" horiz-adv-x="742" 
d="M379 -4h-16l-319 704h19l308 -679l308 679h19z" />
    <glyph glyph-name="W" unicode="W" horiz-adv-x="1029" 
d="M313 -4h-16l-246 704h20l234 -674l201 674h16l201 -674l234 674h20l-246 -704h-16l-201 668z" />
    <glyph glyph-name="X" unicode="X" horiz-adv-x="689" 
d="M68 0h-23l288 382l-240 318h23l229 -303l229 303h23l-240 -318l288 -382h-23l-277 367z" />
    <glyph glyph-name="Y" unicode="Y" horiz-adv-x="626" 
d="M322 0h-18v327l-274 373h23l260 -354l260 354h23l-274 -373v-327z" />
    <glyph glyph-name="Z" unicode="Z" horiz-adv-x="637" 
d="M577 0h-517v13l478 670h-449v17h473v-13l-477 -670h492v-17z" />
    <glyph glyph-name="bracketleft" unicode="[" horiz-adv-x="350" 
d="M310 -206h-204v912h204v-17h-186v-878h186v-17z" />
    <glyph glyph-name="backslash" unicode="\" horiz-adv-x="486" 
d="M465 -140h-20l-421 932h20z" />
    <glyph glyph-name="bracketright" unicode="]" horiz-adv-x="350" 
d="M40 706h204v-912h-204v17h186v878h-186v17z" />
    <glyph glyph-name="asciicircum" unicode="^" horiz-adv-x="486" 
d="M87 351h-20l167 349h17l168 -349h-20l-156 326z" />
    <glyph glyph-name="underscore" unicode="_" horiz-adv-x="595" 
d="M587 -110h-579v17h579v-17z" />
    <glyph glyph-name="grave" unicode="`" horiz-adv-x="520" 
d="M311 576h-22l-97 124h22z" />
    <glyph glyph-name="a" unicode="a" horiz-adv-x="583" 
d="M238 -12c-49 0 -92 13 -129 39c-36 27 -54 64 -54 112c0 45 18 81 55 109c37 29 85 43 143 43c69 0 135 -19 200 -58v82c0 97 -65 150 -182 150c-63 0 -117 -17 -164 -51v20c44 32 99 48 165 48c117 0 199 -53 199 -168v-224c0 -47 21 -76 57 -76c11 0 20 2 27 5v-17
c-7 -3 -16 -5 -28 -5c-41 0 -74 31 -74 90c-57 -66 -129 -99 -215 -99zM244 5c45 0 85 11 122 32c37 22 66 48 87 77v98c-64 41 -129 62 -195 62c-112 0 -185 -55 -185 -135c0 -45 17 -78 50 -101c34 -22 74 -33 121 -33z" />
    <glyph glyph-name="b" unicode="b" horiz-adv-x="625" 
d="M319 -12c-87 0 -156 35 -205 106v-94h-18v700h18v-324c49 71 118 106 205 106c73 0 132 -25 177 -74c46 -49 69 -106 69 -173s-23 -125 -69 -174c-45 -49 -104 -73 -177 -73zM319 5c65 0 119 22 162 66c44 45 66 99 66 164s-22 119 -66 163c-43 45 -97 67 -162 67
c-88 0 -170 -51 -205 -124v-212c35 -73 117 -124 205 -124z" />
    <glyph glyph-name="c" unicode="c" horiz-adv-x="524" 
d="M60 235c0 67 23 124 68 173s104 74 177 74c54 0 102 -13 143 -38v-20c-43 27 -91 41 -143 41c-64 0 -118 -22 -162 -67c-43 -44 -65 -98 -65 -163s22 -119 65 -164c44 -44 98 -66 162 -66c59 0 110 16 153 47v-20c-43 -29 -94 -44 -153 -44c-73 0 -132 24 -177 73
s-68 107 -68 174z" />
    <glyph glyph-name="d" unicode="d" horiz-adv-x="625" 
d="M306 -12c-73 0 -132 24 -178 73c-45 49 -68 107 -68 174s23 124 68 173c46 49 105 74 178 74c87 0 156 -35 205 -106v324h18v-700h-18v94c-49 -71 -118 -106 -205 -106zM306 5c88 0 170 51 205 124v212c-35 73 -117 124 -205 124c-65 0 -119 -22 -163 -67
c-43 -44 -65 -98 -65 -163s22 -119 65 -164c44 -44 98 -66 163 -66z" />
    <glyph glyph-name="e" unicode="e" horiz-adv-x="564" 
d="M315 -12c-73 0 -133 23 -182 70s-73 106 -73 177s22 130 65 177s99 70 166 70c173 0 215 -154 215 -233v-7h-428v-7c0 -66 22 -121 67 -165c45 -43 101 -65 170 -65c61 0 112 15 153 44v-19c-38 -28 -89 -42 -153 -42zM79 259h409c0 43 -13 87 -42 131
c-28 44 -84 75 -155 75c-63 0 -113 -21 -151 -64c-38 -42 -58 -89 -61 -142z" />
    <glyph glyph-name="f" unicode="f" horiz-adv-x="358" 
d="M150 453v-453h-18v453h-102v17h102v111c0 79 41 124 113 124c29 0 57 -7 83 -20v-19c-28 15 -56 22 -83 22c-61 0 -95 -41 -95 -113v-105h178v-17h-178z" />
    <glyph glyph-name="g" unicode="g" horiz-adv-x="625" 
d="M288 -203c-67 0 -127 15 -181 45v20c52 -32 112 -48 179 -48c137 0 225 70 225 199v81c-49 -71 -118 -106 -205 -106c-73 0 -132 24 -178 73c-45 49 -68 107 -68 174s23 124 68 173c46 49 105 74 178 74c87 0 156 -35 205 -106v94h18v-458c0 -139 -96 -215 -241 -215z
M306 5c88 0 170 51 205 124v212c-35 73 -117 124 -205 124c-65 0 -119 -22 -163 -67c-43 -44 -65 -98 -65 -163s22 -119 65 -164c44 -44 98 -66 163 -66z" />
    <glyph glyph-name="h" unicode="h" horiz-adv-x="597" 
d="M114 348v-348h-18v700h18v-323c43 56 123 105 212 105c123 0 185 -72 185 -197v-285h-18v282c0 122 -56 183 -169 183c-41 0 -82 -12 -122 -35s-69 -51 -88 -82z" />
    <glyph glyph-name="i" unicode="i" horiz-adv-x="235" 
d="M127 0h-18v470h18v-470zM135 627c-22 -22 -56 12 -34 34s56 -12 34 -34z" />
    <glyph glyph-name="j" unicode="j" horiz-adv-x="235" 
d="M16 -203c-24 0 -46 5 -66 16v20c20 -13 42 -19 66 -19c62 0 93 37 93 110v546h18v-551c0 -81 -37 -122 -111 -122zM135 627c-22 -22 -56 12 -34 34s56 -12 34 -34z" />
    <glyph glyph-name="k" unicode="k" horiz-adv-x="510" 
d="M469 0h-26l-290 253v9l252 208h27l-257 -212zM114 0h-18v700h18v-700z" />
    <glyph glyph-name="l" unicode="l" horiz-adv-x="262" 
d="M186 -12c-52 0 -94 28 -94 103v609h18v-609c0 -57 26 -86 77 -86c20 0 38 6 55 17v-20c-17 -9 -35 -14 -56 -14z" />
    <glyph glyph-name="m" unicode="m" horiz-adv-x="907" 
d="M114 0h-18v470h18v-87c39 55 104 99 188 99c82 0 134 -37 156 -111c48 74 114 111 197 111c108 0 166 -68 166 -188v-294h-18v291c0 73 -21 124 -56 145c-33 23 -61 29 -94 29c-39 0 -76 -11 -111 -34s-61 -51 -78 -86c3 -21 4 -39 4 -52v-293h-18v291
c0 73 -21 124 -56 145c-33 23 -61 29 -94 29c-75 0 -150 -46 -186 -113v-352z" />
    <glyph glyph-name="n" unicode="n" horiz-adv-x="597" 
d="M114 348v-348h-18v470h18v-93c43 56 123 105 212 105c123 0 185 -72 185 -197v-285h-18v282c0 122 -56 183 -169 183c-41 0 -82 -12 -122 -35s-69 -51 -88 -82z" />
    <glyph glyph-name="o" unicode="o" horiz-adv-x="611" 
d="M306 5c64 0 118 22 161 66c44 45 66 99 66 164s-22 119 -66 163c-43 45 -97 67 -161 67c-65 0 -119 -22 -163 -67c-43 -44 -65 -98 -65 -163s22 -119 65 -164c44 -44 98 -66 163 -66zM60 235c0 67 23 124 68 173c46 49 105 74 178 74s132 -25 177 -74s68 -106 68 -173
s-23 -125 -68 -174s-104 -73 -177 -73s-132 24 -178 73c-45 49 -68 107 -68 174z" />
    <glyph glyph-name="p" unicode="p" horiz-adv-x="625" 
d="M114 -200h-18v670h18v-94c49 71 118 106 205 106c73 0 132 -25 177 -74c46 -49 69 -106 69 -173s-23 -125 -69 -174c-45 -49 -104 -73 -177 -73c-87 0 -156 35 -205 106v-294zM319 5c65 0 119 22 162 66c44 45 66 99 66 164s-22 119 -66 163c-43 45 -97 67 -162 67
c-88 0 -170 -51 -205 -124v-212c35 -73 117 -124 205 -124z" />
    <glyph glyph-name="q" unicode="q" horiz-adv-x="625" 
d="M529 -200h-18v294c-49 -71 -118 -106 -205 -106c-73 0 -132 24 -178 73c-45 49 -68 107 -68 174s23 124 68 173c46 49 105 74 178 74c87 0 156 -35 205 -106v94h18v-670zM306 5c88 0 170 51 205 124v212c-35 73 -117 124 -205 124c-65 0 -119 -22 -163 -67
c-43 -44 -65 -98 -65 -163s22 -119 65 -164c44 -44 98 -66 163 -66z" />
    <glyph glyph-name="r" unicode="r" horiz-adv-x="321" 
d="M114 0h-18v470h18v-107c15 28 39 55 72 80c34 25 74 38 120 39v-17c-41 0 -79 -13 -114 -40c-35 -26 -61 -57 -78 -93v-332z" />
    <glyph glyph-name="s" unicode="s" horiz-adv-x="494" 
d="M240 -12c-77 0 -157 27 -194 54v21c43 -29 115 -58 194 -58c104 0 172 45 172 112c0 65 -53 88 -169 113c-123 27 -178 59 -178 132c0 72 63 120 175 120c67 0 122 -15 167 -45v-19c-49 31 -104 47 -165 47c-105 0 -159 -43 -159 -103c0 -29 15 -54 34 -69
c9 -7 22 -14 38 -21c33 -12 51 -17 91 -25c49 -11 75 -17 110 -32c47 -18 74 -47 74 -98c0 -41 -18 -72 -55 -95s-82 -34 -135 -34z" />
    <glyph glyph-name="t" unicode="t" horiz-adv-x="415" 
d="M272 -12c-68 0 -114 37 -114 116v349h-128v17h128v160h18v-160h189v-17h-189v-344c0 -69 32 -104 96 -104c29 0 57 8 85 25v-19c-23 -15 -52 -23 -85 -23z" />
    <glyph glyph-name="u" unicode="u" horiz-adv-x="600" 
d="M274 -12c-123 0 -185 72 -185 197v285h18v-282c0 -122 56 -183 169 -183c41 0 82 12 122 35s69 51 88 82v348h18v-470h-18v93c-43 -56 -123 -105 -212 -105z" />
    <glyph glyph-name="v" unicode="v" horiz-adv-x="543" 
d="M280 -4h-17l-226 474h20l215 -449l214 449h20z" />
    <glyph glyph-name="w" unicode="w" horiz-adv-x="806" 
d="M243 -4h-16l-177 474h20l164 -445l161 447h16l161 -447l165 445h19l-176 -474h-16l-161 448z" />
    <glyph glyph-name="x" unicode="x" horiz-adv-x="527" 
d="M65 0h-23l213 253l-183 217h23l172 -203l172 203h22l-183 -217l213 -253h-22l-202 240z" />
    <glyph glyph-name="y" unicode="y" horiz-adv-x="522" 
d="M85 -203c-24 0 -44 5 -61 15v18c19 -11 39 -16 60 -16c34 0 62 16 85 47s51 84 82 158l-215 451h20l205 -429l201 429h20l-245 -525c-47 -99 -87 -148 -152 -148z" />
    <glyph glyph-name="z" unicode="z" horiz-adv-x="480" 
d="M440 0h-401v13l359 440h-333v17h360v-13l-358 -440h373v-17z" />
    <glyph glyph-name="braceleft" unicode="{" horiz-adv-x="326" 
d="M133 404v186c0 75 42 116 114 116h39v-17h-38c-65 0 -97 -34 -97 -101v-184c0 -87 -9 -133 -61 -154c52 -21 61 -67 61 -154v-184c0 -67 32 -101 97 -101h38v-17h-39c-72 0 -114 41 -114 116v186c0 44 -1 60 -10 92c-8 33 -31 50 -67 53v18c36 3 59 20 67 52
c9 33 10 49 10 93z" />
    <glyph glyph-name="bar" unicode="|" horiz-adv-x="274" 
d="M146 -111h-18v871h18v-871z" />
    <glyph glyph-name="braceright" unicode="}" horiz-adv-x="326" 
d="M193 590v-186c0 -44 1 -60 9 -93c9 -32 32 -49 68 -52v-18c-36 -3 -59 -20 -68 -53c-8 -32 -9 -48 -9 -92v-186c0 -75 -42 -116 -114 -116h-39v17h38c65 0 97 34 97 101v184c0 87 9 133 61 154c-52 21 -61 67 -61 154v184c0 67 -32 101 -97 101h-38v17h39
c72 0 114 -41 114 -116z" />
    <glyph glyph-name="asciitilde" unicode="~" horiz-adv-x="544" 
d="M378 225c-25 0 -60 8 -106 24s-81 24 -106 24c-40 0 -72 -14 -96 -42v22c16 23 56 38 96 38c25 0 60 -8 106 -24s81 -24 106 -24c41 0 73 14 96 41v-22c-18 -25 -50 -37 -96 -37z" />
    <glyph glyph-name="nbspace" unicode="&#xa0;" horiz-adv-x="276" 
 />
    <glyph glyph-name="exclamdown" unicode="&#xa1;" horiz-adv-x="242" 
d="M130 274v-474h-18v474h18zM138 429c-8 -8 -26 -8 -35 0c-8 9 -8 27 0 35c23 23 58 -12 35 -35z" />
    <glyph glyph-name="cent" unicode="&#xa2;" horiz-adv-x="524" 
d="M316 -12v-104h-18v104c-71 2 -129 27 -173 75c-43 49 -65 106 -65 172s22 123 66 171c44 49 101 74 172 76v105h18v-105c48 -2 92 -15 132 -38v-20c-43 27 -91 41 -143 41c-64 0 -118 -22 -162 -67c-43 -44 -65 -98 -65 -163s22 -119 65 -164c44 -44 98 -66 162 -66
c59 0 110 16 153 47v-20c-41 -27 -88 -42 -142 -44z" />
    <glyph glyph-name="sterling" unicode="&#xa3;" horiz-adv-x="572" 
d="M512 0h-439v17h27c23 0 37 24 37 53v244h-64v17h64v166c0 137 78 215 211 215c65 0 120 -17 164 -50v-21c-40 36 -95 54 -165 54c-123 0 -192 -71 -192 -200v-164h314v-17h-314v-246c0 -23 -7 -40 -20 -51h377v-17z" />
    <glyph glyph-name="currency" unicode="&#xa4;" horiz-adv-x="551" 
d="M147 210l-64 -64l-13 12l64 64c-31 37 -47 80 -47 129s16 91 47 128l-64 64l13 13l64 -64c35 33 78 49 129 49s93 -16 128 -49l64 64l13 -13l-65 -64c32 -36 48 -79 48 -128s-16 -92 -47 -129l64 -64l-13 -12l-64 63c-35 -32 -78 -48 -128 -48c-51 0 -94 16 -129 49z
M276 178c48 0 88 17 121 50s49 74 49 123s-16 90 -49 123s-73 50 -121 50c-49 0 -89 -17 -122 -50s-49 -74 -49 -123s16 -90 49 -123s73 -50 122 -50z" />
    <glyph glyph-name="yen" unicode="&#xa5;" horiz-adv-x="588" 
d="M303 0h-18v169h-221v17h221v135h-221v17h212l-246 362h22l242 -355l242 355h22l-246 -362h212v-17h-221v-135h221v-17h-221v-169z" />
    <glyph glyph-name="brokenbar" unicode="&#xa6;" horiz-adv-x="272" 
d="M146 407h-18v353h18v-353zM146 -111h-18v353h18v-353z" />
    <glyph glyph-name="section" unicode="&#xa7;" horiz-adv-x="639" 
d="M324 -150c-75 0 -145 19 -212 58v20c66 -41 137 -61 214 -61c111 0 185 47 185 118c0 32 -20 60 -41 77c-10 9 -26 18 -49 28c-22 10 -40 17 -55 22s-37 13 -67 22c-144 44 -219 95 -219 178c0 71 49 121 128 145c-65 31 -98 71 -98 120c0 76 72 135 205 135
c75 0 145 -19 212 -58v-20c-66 41 -137 61 -214 61c-111 0 -185 -47 -185 -118c0 -32 20 -60 40 -77c11 -9 27 -18 49 -28c23 -10 41 -18 56 -23l67 -21c144 -44 219 -95 219 -178c0 -71 -49 -121 -128 -145c65 -31 98 -71 98 -120c0 -76 -72 -135 -205 -135zM314 146
l94 -31c81 20 133 70 133 135c0 36 -21 68 -45 88c-12 11 -29 21 -52 32c-22 11 -41 19 -56 24c-15 6 -36 13 -63 22l-94 31c-81 -20 -133 -70 -133 -135c0 -36 21 -68 45 -89c12 -10 29 -20 51 -31c23 -11 42 -19 57 -25z" />
    <glyph glyph-name="dieresis" unicode="&#xa8;" horiz-adv-x="520" 
d="M187 627c-22 -22 -56 12 -34 34s56 -12 34 -34zM367 627c-22 -22 -56 12 -34 34s56 -12 34 -34z" />
    <glyph glyph-name="copyright" unicode="&#xa9;" horiz-adv-x="886" 
d="M461 162c-51 0 -93 18 -127 53c-34 36 -51 81 -51 135s17 99 51 134c34 36 76 54 127 54c38 0 72 -9 101 -28v-18c-29 19 -62 29 -101 29c-46 0 -84 -16 -115 -49c-30 -32 -45 -73 -45 -122s15 -90 45 -123c31 -32 69 -48 115 -48c45 0 83 13 114 39v-18
c-31 -25 -69 -38 -114 -38zM81 351c0 99 35 184 106 255s156 106 256 106s185 -35 256 -106s106 -156 106 -257c0 -99 -35 -184 -106 -255s-156 -106 -256 -106s-185 35 -256 106s-106 156 -106 257zM787 349c0 96 -34 178 -101 245s-148 101 -243 101s-177 -34 -244 -101
s-100 -149 -100 -245c0 -95 33 -177 100 -244s149 -100 244 -100s176 33 243 100s101 149 101 244z" />
    <glyph glyph-name="ordfeminine" unicode="&#xaa;" horiz-adv-x="440" 
d="M398 342c7 0 13 1 20 3v-16c-6 -3 -13 -4 -22 -4c-32 0 -60 24 -60 68c-43 -50 -97 -75 -162 -75c-37 0 -70 11 -99 32c-29 22 -43 51 -43 88c0 39 15 68 45 88c31 20 66 30 107 30c53 0 103 -15 152 -44v61c0 72 -50 114 -137 114c-51 0 -93 -14 -126 -41v20
c31 25 73 38 126 38c92 0 155 -43 155 -132v-177c0 -33 17 -53 44 -53zM336 420v72c-33 23 -93 47 -149 47c-83 0 -137 -41 -137 -100c0 -68 59 -104 127 -104s128 41 159 85z" />
    <glyph glyph-name="guillemotleft" unicode="&#xab;" horiz-adv-x="520" 
d="M246 44h-24l-162 185v12l162 185h24l-167 -191zM461 44h-24l-162 185v12l162 185h24l-167 -191z" />
    <glyph glyph-name="logicalnot" unicode="&#xac;" horiz-adv-x="540" 
d="M470 163h-18v180h-382v17h400v-197z" />
    <glyph glyph-name="uni00AD" unicode="&#xad;" horiz-adv-x="479" 
d="M369 259h-259v17h259v-17z" />
    <glyph glyph-name="registered" unicode="&#xae;" horiz-adv-x="886" 
d="M341 168h-18v364h163c69 0 109 -38 109 -95c0 -52 -34 -89 -91 -94l123 -175h-22l-123 174h-141v-174zM341 515v-156h145c59 0 91 29 91 78s-32 78 -91 78h-145zM787 349c0 96 -34 178 -101 245s-148 101 -243 101s-177 -34 -244 -101s-100 -149 -100 -245
c0 -95 33 -177 100 -244s149 -100 244 -100s176 33 243 100s101 149 101 244zM81 351c0 99 35 184 106 255s156 106 256 106s185 -35 256 -106s106 -156 106 -257c0 -99 -35 -184 -106 -255s-156 -106 -256 -106s-185 35 -256 106s-106 156 -106 257z" />
    <glyph glyph-name="overscore" unicode="&#xaf;" horiz-adv-x="520" 
d="M365 635h-209v17h209v-17z" />
    <glyph glyph-name="degree" unicode="&#xb0;" horiz-adv-x="449" 
d="M224 423c-39 0 -73 14 -102 42c-28 29 -42 63 -42 103c0 39 14 73 42 101c29 29 63 43 102 43c40 0 74 -14 102 -43c29 -28 43 -62 43 -101c0 -40 -14 -74 -43 -103c-28 -28 -62 -42 -102 -42zM224 440c35 0 65 12 90 37s37 56 37 91s-13 64 -38 89s-54 38 -89 38
s-64 -12 -89 -37s-37 -55 -37 -90s12 -66 37 -91s54 -37 89 -37z" />
    <glyph glyph-name="plusminus" unicode="&#xb1;" horiz-adv-x="595" 
d="M307 182h-18v176h-219v17h219v174h18v-174h218v-17h-218v-176zM525 82h-455v17h455v-17z" />
    <glyph glyph-name="twosuperior" unicode="&#xb2;" horiz-adv-x="354" 
d="M297 322h-250v14l138 134c56 55 80 87 80 132c0 49 -38 85 -97 85c-41 0 -80 -17 -115 -51v21c33 31 71 47 116 47c68 0 114 -42 114 -102c0 -48 -28 -89 -85 -145l-122 -118h221v-17z" />
    <glyph glyph-name="threesuperior" unicode="&#xb3;" horiz-adv-x="315" 
d="M134 318c-43 0 -79 9 -108 28v18c31 -19 67 -29 108 -29c64 0 120 41 120 104c0 60 -45 98 -117 98c-13 0 -25 -1 -36 -4v15l130 135h-187v17h216v-12l-129 -134h7c75 0 134 -42 134 -115c0 -71 -59 -121 -138 -121z" />
    <glyph glyph-name="acute" unicode="&#xb4;" horiz-adv-x="520" 
d="M231 576h-22l97 124h22z" />
    <glyph glyph-name="mu" unicode="&#xb5;" horiz-adv-x="607" 
d="M114 -200h-18v670h18v-283c0 -121 56 -182 169 -182c41 0 82 12 122 35s69 51 88 82v348h18v-470h-18v93c-43 -56 -123 -105 -212 -105c-84 0 -140 32 -167 96v-284z" />
    <glyph glyph-name="paragraph" unicode="&#xb6;" horiz-adv-x="482" 
d="M370 0h-18v338h-88c-132 0 -208 70 -208 181s76 181 208 181h106v-700z" />
    <glyph glyph-name="middot" unicode="&#xb7;" horiz-adv-x="208" 
d="M121 361c-22 -22 -56 12 -34 34s56 -12 34 -34z" />
    <glyph glyph-name="cedilla" unicode="&#xb8;" horiz-adv-x="459" 
d="M183 -121h-23l81 124h18z" />
    <glyph glyph-name="onesuperior" unicode="&#xb9;" horiz-adv-x="222" 
d="M150 322h-18v357l-106 -68v20l108 69h16v-378z" />
    <glyph glyph-name="ordmasculine" unicode="&#xba;" horiz-adv-x="477" 
d="M239 335c49 0 91 17 124 50c34 33 51 75 51 125s-17 92 -51 126c-33 34 -75 51 -124 51s-91 -17 -125 -51s-51 -76 -51 -126s17 -92 50 -125c34 -33 76 -50 126 -50zM239 318c-58 0 -105 19 -141 56c-35 38 -53 83 -53 136s18 98 54 136c36 39 83 58 140 58
s104 -19 139 -58c36 -38 54 -83 54 -136s-18 -98 -54 -136c-35 -37 -82 -56 -139 -56z" />
    <glyph glyph-name="guillemotright" unicode="&#xbb;" horiz-adv-x="520" 
d="M460 241v-12l-162 -185h-24l167 191l-167 191h24zM245 241v-12l-162 -185h-24l167 191l-167 191h24z" />
    <glyph glyph-name="onequarter" unicode="&#xbc;" horiz-adv-x="710" 
d="M150 322h-18v357l-106 -68v20l108 69h16v-378zM144 0h-20l400 700h20zM619 0h-18v110h-208v14l212 254h14v-251h66v-17h-66v-110zM601 345l-182 -218h182v218z" />
    <glyph glyph-name="onehalf" unicode="&#xbd;" horiz-adv-x="790" 
d="M733 0h-250v14l138 134c56 55 80 87 80 132c0 49 -38 85 -97 85c-41 0 -80 -17 -115 -51v21c33 31 71 47 116 47c68 0 114 -42 114 -102c0 -48 -28 -89 -85 -145l-122 -118h221v-17zM150 322h-18v357l-106 -68v20l108 69h16v-378zM144 0h-20l400 700h20z" />
    <glyph glyph-name="threequarters" unicode="&#xbe;" horiz-adv-x="767" 
d="M201 0h-20l400 700h20zM676 0h-18v110h-208v14l212 254h14v-251h66v-17h-66v-110zM658 345l-182 -218h182v218zM134 318c-43 0 -79 9 -108 28v18c31 -19 67 -29 108 -29c64 0 120 41 120 104c0 60 -45 98 -117 98c-13 0 -25 -1 -36 -4v15l130 135h-187v17h216v-12
l-129 -134h7c75 0 134 -42 134 -115c0 -71 -59 -121 -138 -121z" />
    <glyph glyph-name="questiondown" unicode="&#xbf;" horiz-adv-x="436" 
d="M257 -203c-55 0 -102 17 -140 50s-57 75 -57 126c0 95 78 161 187 196v105h18v-120c-49 -11 -93 -32 -131 -64c-37 -31 -56 -70 -56 -117s17 -85 50 -114c34 -30 77 -45 130 -45c65 0 121 20 168 59v-21c-47 -37 -103 -55 -169 -55zM272 429c-8 -8 -26 -8 -35 0
c-8 9 -8 27 0 35c23 23 58 -12 35 -35z" />
    <glyph glyph-name="Agrave" unicode="&#xc0;" horiz-adv-x="734" 
d="M56 0h-19l322 705h16l322 -705h-19l-100 219h-422zM367 679l-203 -443h406zM377 765h-22l-97 124h22z" />
    <glyph glyph-name="Aacute" unicode="&#xc1;" horiz-adv-x="734" 
d="M56 0h-19l322 705h16l322 -705h-19l-100 219h-422zM367 679l-203 -443h406zM371 765h-22l97 124h22z" />
    <glyph glyph-name="Acircumflex" unicode="&#xc2;" horiz-adv-x="734" 
d="M56 0h-19l322 705h16l322 -705h-19l-100 219h-422zM367 679l-203 -443h406zM276 765h-21l103 124h18l103 -124h-21l-91 108z" />
    <glyph glyph-name="Atilde" unicode="&#xc3;" horiz-adv-x="734" 
d="M56 0h-19l322 705h16l322 -705h-19l-100 219h-422zM367 679l-203 -443h406zM441 784c-18 0 -43 11 -76 34c-32 23 -56 34 -71 34c-27 0 -42 -21 -45 -62h-17c2 53 23 79 62 79c19 0 44 -11 76 -34c33 -23 56 -34 71 -34c27 0 42 21 45 62h17c-2 -53 -23 -79 -62 -79z" />
    <glyph glyph-name="Adieresis" unicode="&#xc4;" horiz-adv-x="734" 
d="M56 0h-19l322 705h16l322 -705h-19l-100 219h-422zM367 679l-203 -443h406zM294 805c-8 -9 -26 -9 -35 0c-8 9 -8 25 0 34c23 23 57 -12 35 -34zM474 805c-8 -9 -26 -9 -35 0c-8 9 -8 25 0 34c23 23 57 -12 35 -34z" />
    <glyph glyph-name="Aring" unicode="&#xc5;" horiz-adv-x="734" 
d="M56 0h-19l322 705h16l322 -705h-19l-100 219h-422zM367 679l-203 -443h406zM279 827c0 47 40 88 88 88s88 -41 88 -88c0 -48 -40 -88 -88 -88s-88 40 -88 88zM317 776c27 -27 73 -27 100 0c27 28 27 74 0 101c-27 28 -73 28 -100 0c-27 -27 -27 -73 0 -101z" />
    <glyph glyph-name="AE" unicode="&#xc6;" horiz-adv-x="1013" 
d="M31 0h-21l457 700h478v-17h-434v-297h361v-17h-361v-352h452v-17h-470v219h-319zM478 683l-293 -447h308v447h-15z" />
    <glyph glyph-name="Ccedilla" unicode="&#xc7;" horiz-adv-x="695" 
d="M371 -121h-23l71 109c-97 1 -177 36 -242 104c-64 68 -96 154 -96 258s33 190 98 259c66 69 148 103 245 103c78 0 146 -20 203 -59v-20c-61 41 -128 62 -203 62c-91 0 -168 -33 -231 -99c-63 -65 -94 -147 -94 -246s31 -181 94 -247c63 -65 140 -98 231 -98
c86 0 160 25 221 76v-22c-54 -44 -123 -68 -207 -71z" />
    <glyph glyph-name="Egrave" unicode="&#xc8;" horiz-adv-x="634" 
d="M584 0h-472v700h454v-17h-436v-297h363v-17h-363v-352h454v-17zM356 765h-22l-97 124h22z" />
    <glyph glyph-name="Eacute" unicode="&#xc9;" horiz-adv-x="634" 
d="M584 0h-472v700h454v-17h-436v-297h363v-17h-363v-352h454v-17zM326 765h-22l97 124h22z" />
    <glyph glyph-name="Ecircumflex" unicode="&#xca;" horiz-adv-x="634" 
d="M248 765h-21l103 124h18l103 -124h-21l-91 108zM584 0h-472v700h454v-17h-436v-297h363v-17h-363v-352h454v-17z" />
    <glyph glyph-name="Edieresis" unicode="&#xcb;" horiz-adv-x="634" 
d="M584 0h-472v700h454v-17h-436v-297h363v-17h-363v-352h454v-17zM257 805c-22 -22 -56 12 -34 34s56 -12 34 -34zM437 805c-22 -22 -56 12 -34 34s56 -12 34 -34z" />
    <glyph glyph-name="Igrave" unicode="&#xcc;" horiz-adv-x="256" 
d="M136 765h-22l-97 124h22zM137 0h-18v700h18v-700z" />
    <glyph glyph-name="Iacute" unicode="&#xcd;" horiz-adv-x="256" 
d="M134 765h-22l97 124h22zM137 0h-18v700h18v-700z" />
    <glyph glyph-name="Icircumflex" unicode="&#xce;" horiz-adv-x="256" 
d="M37 765h-21l103 124h18l103 -124h-21l-91 108zM137 0h-18v700h18v-700z" />
    <glyph glyph-name="Idieresis" unicode="&#xcf;" horiz-adv-x="256" 
d="M137 0h-18v700h18v-700zM55 805c-22 -22 -56 12 -34 34s56 -12 34 -34zM235 805c-22 -22 -56 12 -34 34s56 -12 34 -34z" />
    <glyph glyph-name="Eth" unicode="&#xd0;" horiz-adv-x="814" 
d="M358 0h-204v342h-124v17h124v341h204c112 0 202 -32 271 -97c69 -64 104 -148 104 -253s-35 -189 -104 -254c-69 -64 -159 -96 -271 -96zM172 342v-325h178c112 0 201 31 266 92c66 61 99 142 99 241s-33 180 -99 241c-65 61 -154 92 -266 92h-178v-324h180v-17h-180z
" />
    <glyph glyph-name="Ntilde" unicode="&#xd1;" horiz-adv-x="773" 
d="M130 0h-18v700h18l513 -669v669h18v-700h-18l-513 670v-670zM468 784c-18 0 -43 11 -76 34c-32 23 -56 34 -71 34c-27 0 -42 -21 -45 -62h-17c2 53 23 79 62 79c19 0 44 -11 76 -34c33 -23 56 -34 71 -34c27 0 42 21 45 62h17c-2 -53 -23 -79 -62 -79z" />
    <glyph glyph-name="Ograve" unicode="&#xd2;" horiz-adv-x="848" 
d="M193 104c63 -66 140 -99 231 -99s168 33 231 98c63 66 94 148 94 247s-31 181 -94 246c-63 66 -140 99 -231 99s-168 -33 -231 -99s-94 -148 -94 -246s31 -180 94 -246zM81 350c0 104 33 190 98 259c66 69 148 103 245 103s179 -34 244 -103c66 -69 99 -155 99 -259
c0 -105 -33 -191 -99 -260c-65 -68 -147 -102 -244 -102s-179 34 -245 102c-65 69 -98 155 -98 260zM434 765h-22l-97 124h22z" />
    <glyph glyph-name="Oacute" unicode="&#xd3;" horiz-adv-x="848" 
d="M193 104c63 -66 140 -99 231 -99s168 33 231 98c63 66 94 148 94 247s-31 181 -94 246c-63 66 -140 99 -231 99s-168 -33 -231 -99s-94 -148 -94 -246s31 -180 94 -246zM81 350c0 104 33 190 98 259c66 69 148 103 245 103s179 -34 244 -103c66 -69 99 -155 99 -259
c0 -105 -33 -191 -99 -260c-65 -68 -147 -102 -244 -102s-179 34 -245 102c-65 69 -98 155 -98 260zM412 765h-22l97 124h22z" />
    <glyph glyph-name="Ocircumflex" unicode="&#xd4;" horiz-adv-x="848" 
d="M333 765h-21l103 124h18l103 -124h-21l-91 108zM193 104c63 -66 140 -99 231 -99s168 33 231 98c63 66 94 148 94 247s-31 181 -94 246c-63 66 -140 99 -231 99s-168 -33 -231 -99s-94 -148 -94 -246s31 -180 94 -246zM81 350c0 104 33 190 98 259c66 69 148 103 245 103
s179 -34 244 -103c66 -69 99 -155 99 -259c0 -105 -33 -191 -99 -260c-65 -68 -147 -102 -244 -102s-179 34 -245 102c-65 69 -98 155 -98 260z" />
    <glyph glyph-name="Otilde" unicode="&#xd5;" horiz-adv-x="848" 
d="M193 104c63 -66 140 -99 231 -99s168 33 231 98c63 66 94 148 94 247s-31 181 -94 246c-63 66 -140 99 -231 99s-168 -33 -231 -99s-94 -148 -94 -246s31 -180 94 -246zM81 350c0 104 33 190 98 259c66 69 148 103 245 103s179 -34 244 -103c66 -69 99 -155 99 -259
c0 -105 -33 -191 -99 -260c-65 -68 -147 -102 -244 -102s-179 34 -245 102c-65 69 -98 155 -98 260zM498 784c-18 0 -43 11 -76 34c-32 23 -56 34 -71 34c-27 0 -42 -21 -45 -62h-17c2 53 23 79 62 79c19 0 44 -11 76 -34c33 -23 56 -34 71 -34c27 0 42 21 45 62h17
c-2 -53 -23 -79 -62 -79z" />
    <glyph glyph-name="Odieresis" unicode="&#xd6;" horiz-adv-x="848" 
d="M193 104c63 -66 140 -99 231 -99s168 33 231 98c63 66 94 148 94 247s-31 181 -94 246c-63 66 -140 99 -231 99s-168 -33 -231 -99s-94 -148 -94 -246s31 -180 94 -246zM81 350c0 104 33 190 98 259c66 69 148 103 245 103s179 -34 244 -103c66 -69 99 -155 99 -259
c0 -105 -33 -191 -99 -260c-65 -68 -147 -102 -244 -102s-179 34 -245 102c-65 69 -98 155 -98 260zM347 805c-22 -22 -56 12 -34 34s56 -12 34 -34zM527 805c-22 -22 -56 12 -34 34s56 -12 34 -34z" />
    <glyph glyph-name="multiply" unicode="&#xd7;" horiz-adv-x="494" 
d="M248 309l-166 -164l-12 11l165 165l-165 165l12 12l165 -165l165 165l12 -12l-165 -165l164 -164l-11 -12z" />
    <glyph glyph-name="Oslash" unicode="&#xd8;" horiz-adv-x="848" 
d="M424 -12c-86 0 -160 27 -222 80l-56 -68h-23l66 80c-72 70 -108 160 -108 270c0 104 33 190 98 259c66 69 148 103 245 103c84 0 157 -27 220 -81l57 69h23l-67 -80c73 -70 110 -160 110 -270c0 -105 -33 -191 -99 -260c-65 -68 -147 -102 -244 -102zM201 95l432 522
c-59 52 -129 78 -209 78c-91 0 -168 -33 -231 -99s-94 -148 -94 -246c0 -103 34 -188 102 -255zM424 5c91 0 168 33 231 98c63 66 94 148 94 247c0 104 -34 189 -103 256l-432 -523c59 -52 129 -78 210 -78z" />
    <glyph glyph-name="Ugrave" unicode="&#xd9;" horiz-adv-x="746" 
d="M101 299v401h18v-400c0 -185 95 -295 254 -295s254 111 254 295v400h18v-401c0 -99 -25 -176 -74 -230s-115 -81 -198 -81s-149 27 -198 81s-74 131 -74 230zM399 765h-22l-97 124h22z" />
    <glyph glyph-name="Uacute" unicode="&#xda;" horiz-adv-x="746" 
d="M101 299v401h18v-400c0 -185 95 -295 254 -295s254 111 254 295v400h18v-401c0 -99 -25 -176 -74 -230s-115 -81 -198 -81s-149 27 -198 81s-74 131 -74 230zM377 765h-22l97 124h22z" />
    <glyph glyph-name="Ucircumflex" unicode="&#xdb;" horiz-adv-x="746" 
d="M281 765h-21l103 124h18l103 -124h-21l-91 108zM101 299v401h18v-400c0 -185 95 -295 254 -295s254 111 254 295v400h18v-401c0 -99 -25 -176 -74 -230s-115 -81 -198 -81s-149 27 -198 81s-74 131 -74 230z" />
    <glyph glyph-name="Udieresis" unicode="&#xdc;" horiz-adv-x="746" 
d="M101 299v401h18v-400c0 -185 95 -295 254 -295s254 111 254 295v400h18v-401c0 -99 -25 -176 -74 -230s-115 -81 -198 -81s-149 27 -198 81s-74 131 -74 230zM299 805c-22 -22 -56 12 -34 34s56 -12 34 -34zM479 805c-22 -22 -56 12 -34 34s56 -12 34 -34z" />
    <glyph glyph-name="Yacute" unicode="&#xdd;" horiz-adv-x="626" 
d="M322 0h-18v327l-274 373h23l260 -354l260 354h23l-274 -373v-327zM312 765h-22l97 124h22z" />
    <glyph glyph-name="Thorn" unicode="&#xde;" horiz-adv-x="664" 
d="M130 0h-18v700h18v-169h268c132 0 208 -70 208 -181s-76 -181 -208 -181h-268v-169zM130 514v-328h267c121 0 191 60 191 164s-70 164 -191 164h-267z" />
    <glyph glyph-name="germandbls" unicode="&#xdf;" horiz-adv-x="605" 
d="M328 -12c-37 0 -68 6 -95 17v21c27 -14 59 -21 95 -21c57 0 105 17 142 50c38 33 57 77 57 131c0 59 -21 107 -63 144s-99 56 -170 56h-23v17h23c101 0 166 51 166 139c0 42 -16 77 -48 104c-31 28 -72 42 -121 42c-53 0 -95 -17 -128 -51c-33 -33 -49 -78 -49 -133v-504
h-18v504c0 60 18 108 53 145c36 37 83 56 142 56c55 0 99 -16 134 -47s53 -69 53 -116c0 -81 -41 -129 -123 -146c111 -17 190 -94 190 -211c0 -59 -20 -107 -61 -143s-93 -54 -156 -54z" />
    <glyph glyph-name="agrave" unicode="&#xe0;" horiz-adv-x="583" 
d="M238 -12c-49 0 -92 13 -129 39c-36 27 -54 64 -54 112c0 45 18 81 55 109c37 29 85 43 143 43c69 0 135 -19 200 -58v82c0 97 -65 150 -182 150c-63 0 -117 -17 -164 -51v20c44 32 99 48 165 48c117 0 199 -53 199 -168v-224c0 -47 21 -76 57 -76c11 0 20 2 27 5v-17
c-7 -3 -16 -5 -28 -5c-41 0 -74 31 -74 90c-57 -66 -129 -99 -215 -99zM244 5c45 0 85 11 122 32c37 22 66 48 87 77v98c-64 41 -129 62 -195 62c-112 0 -185 -55 -185 -135c0 -45 17 -78 50 -101c34 -22 74 -33 121 -33zM329 576h-22l-97 124h22z" />
    <glyph glyph-name="aacute" unicode="&#xe1;" horiz-adv-x="583" 
d="M238 -12c-49 0 -92 13 -129 39c-36 27 -54 64 -54 112c0 45 18 81 55 109c37 29 85 43 143 43c69 0 135 -19 200 -58v82c0 97 -65 150 -182 150c-63 0 -117 -17 -164 -51v20c44 32 99 48 165 48c117 0 199 -53 199 -168v-224c0 -47 21 -76 57 -76c11 0 20 2 27 5v-17
c-7 -3 -16 -5 -28 -5c-41 0 -74 31 -74 90c-57 -66 -129 -99 -215 -99zM244 5c45 0 85 11 122 32c37 22 66 48 87 77v98c-64 41 -129 62 -195 62c-112 0 -185 -55 -185 -135c0 -45 17 -78 50 -101c34 -22 74 -33 121 -33zM274 576h-22l97 124h22z" />
    <glyph glyph-name="acircumflex" unicode="&#xe2;" horiz-adv-x="583" 
d="M238 -12c-49 0 -92 13 -129 39c-36 27 -54 64 -54 112c0 45 18 81 55 109c37 29 85 43 143 43c69 0 135 -19 200 -58v82c0 97 -65 150 -182 150c-63 0 -117 -17 -164 -51v20c44 32 99 48 165 48c117 0 199 -53 199 -168v-224c0 -47 21 -76 57 -76c11 0 20 2 27 5v-17
c-7 -3 -16 -5 -28 -5c-41 0 -74 31 -74 90c-57 -66 -129 -99 -215 -99zM244 5c45 0 85 11 122 32c37 22 66 48 87 77v98c-64 41 -129 62 -195 62c-112 0 -185 -55 -185 -135c0 -45 17 -78 50 -101c34 -22 74 -33 121 -33zM189 576h-21l103 124h18l103 -124h-21l-91 108z" />
    <glyph glyph-name="atilde" unicode="&#xe3;" horiz-adv-x="583" 
d="M238 -12c-49 0 -92 13 -129 39c-36 27 -54 64 -54 112c0 45 18 81 55 109c37 29 85 43 143 43c69 0 135 -19 200 -58v82c0 97 -65 150 -182 150c-63 0 -117 -17 -164 -51v20c44 32 99 48 165 48c117 0 199 -53 199 -168v-224c0 -47 21 -76 57 -76c11 0 20 2 27 5v-17
c-7 -3 -16 -5 -28 -5c-41 0 -74 31 -74 90c-57 -66 -129 -99 -215 -99zM244 5c45 0 85 11 122 32c37 22 66 48 87 77v98c-64 41 -129 62 -195 62c-112 0 -185 -55 -185 -135c0 -45 17 -78 50 -101c34 -22 74 -33 121 -33zM354 601c-18 0 -43 11 -76 34c-32 23 -56 35 -71 35
c-27 0 -42 -21 -45 -62h-17c1 51 25 79 62 79c19 0 44 -12 76 -35c33 -23 56 -34 71 -34c27 0 42 21 45 63h17c-2 -53 -23 -80 -62 -80z" />
    <glyph glyph-name="adieresis" unicode="&#xe4;" horiz-adv-x="583" 
d="M238 -12c-49 0 -92 13 -129 39c-36 27 -54 64 -54 112c0 45 18 81 55 109c37 29 85 43 143 43c69 0 135 -19 200 -58v82c0 97 -65 150 -182 150c-63 0 -117 -17 -164 -51v20c44 32 99 48 165 48c117 0 199 -53 199 -168v-224c0 -47 21 -76 57 -76c11 0 20 2 27 5v-17
c-7 -3 -16 -5 -28 -5c-41 0 -74 31 -74 90c-57 -66 -129 -99 -215 -99zM244 5c45 0 85 11 122 32c37 22 66 48 87 77v98c-64 41 -129 62 -195 62c-112 0 -185 -55 -185 -135c0 -45 17 -78 50 -101c34 -22 74 -33 121 -33zM207 627c-22 -22 -56 12 -34 34s56 -12 34 -34z
M387 627c-22 -22 -56 12 -34 34s56 -12 34 -34z" />
    <glyph glyph-name="aring" unicode="&#xe5;" horiz-adv-x="583" 
d="M238 -12c-49 0 -92 13 -129 39c-36 27 -54 64 -54 112c0 45 18 81 55 109c37 29 85 43 143 43c69 0 135 -19 200 -58v82c0 97 -65 150 -182 150c-63 0 -117 -17 -164 -51v20c44 32 99 48 165 48c117 0 199 -53 199 -168v-224c0 -47 21 -76 57 -76c11 0 20 2 27 5v-17
c-7 -3 -16 -5 -28 -5c-41 0 -74 31 -74 90c-57 -66 -129 -99 -215 -99zM244 5c45 0 85 11 122 32c37 22 66 48 87 77v98c-64 41 -129 62 -195 62c-112 0 -185 -55 -185 -135c0 -45 17 -78 50 -101c34 -22 74 -33 121 -33zM199 644c0 47 40 88 88 88s88 -41 88 -88
c0 -48 -40 -88 -88 -88s-88 40 -88 88zM237 593c27 -27 73 -27 100 0c27 28 27 74 0 101c-27 28 -73 28 -100 0c-27 -27 -27 -73 0 -101z" />
    <glyph glyph-name="ae" unicode="&#xe6;" horiz-adv-x="957" 
d="M240 -12c-49 0 -93 13 -130 39c-37 27 -55 64 -55 112c0 45 18 81 55 109c37 29 85 43 143 43c69 0 135 -19 200 -58v82c0 97 -65 150 -182 150c-63 0 -117 -17 -164 -51v20c44 32 100 48 167 48c109 0 187 -48 195 -151c33 92 114 151 215 151c173 0 215 -154 215 -233
v-7h-428v-7c0 -66 22 -121 67 -165c45 -43 101 -65 170 -65c61 0 112 15 153 44v-19c-38 -28 -89 -42 -153 -42c-101 0 -187 51 -228 132c-49 -75 -132 -132 -240 -132zM244 5c100 0 180 55 228 132c-9 21 -15 46 -19 75c-64 41 -129 62 -195 62c-112 0 -185 -55 -185 -135
c0 -45 17 -78 50 -101c34 -22 74 -33 121 -33zM472 259h409c0 43 -13 87 -42 131c-28 44 -84 75 -155 75c-63 0 -113 -21 -151 -64c-38 -42 -58 -89 -61 -142z" />
    <glyph glyph-name="ccedilla" unicode="&#xe7;" horiz-adv-x="524" 
d="M254 -121h-23l71 109c-74 1 -133 26 -177 75c-43 50 -65 107 -65 172s22 122 66 172s104 75 179 75c55 0 102 -13 143 -38v-19c-41 27 -89 41 -143 41c-65 0 -120 -22 -163 -67c-43 -44 -64 -99 -64 -164s21 -120 64 -165c43 -44 98 -66 163 -66c61 0 112 16 153 48v-20
c-37 -25 -82 -40 -137 -43z" />
    <glyph glyph-name="egrave" unicode="&#xe8;" horiz-adv-x="564" 
d="M315 -12c-73 0 -133 23 -182 70s-73 106 -73 177s22 130 65 177s99 70 166 70c173 0 215 -154 215 -233v-7h-428v-7c0 -66 22 -121 67 -165c45 -43 101 -65 170 -65c61 0 112 15 153 44v-19c-38 -28 -89 -42 -153 -42zM79 259h409c0 43 -13 87 -42 131
c-28 44 -84 75 -155 75c-63 0 -113 -21 -151 -64c-38 -42 -58 -89 -61 -142zM344 576h-22l-97 124h22z" />
    <glyph glyph-name="eacute" unicode="&#xe9;" horiz-adv-x="564" 
d="M315 -12c-73 0 -133 23 -182 70s-73 106 -73 177s22 130 65 177s99 70 166 70c173 0 215 -154 215 -233v-7h-428v-7c0 -66 22 -121 67 -165c45 -43 101 -65 170 -65c61 0 112 15 153 44v-19c-38 -28 -89 -42 -153 -42zM79 259h409c0 43 -13 87 -42 131
c-28 44 -84 75 -155 75c-63 0 -113 -21 -151 -64c-38 -42 -58 -89 -61 -142zM279 576h-22l97 124h22z" />
    <glyph glyph-name="ecircumflex" unicode="&#xea;" horiz-adv-x="564" 
d="M315 -12c-73 0 -133 23 -182 70s-73 106 -73 177s22 130 65 177s99 70 166 70c173 0 215 -154 215 -233v-7h-428v-7c0 -66 22 -121 67 -165c45 -43 101 -65 170 -65c61 0 112 15 153 44v-19c-38 -28 -89 -42 -153 -42zM79 259h409c0 43 -13 87 -42 131
c-28 44 -84 75 -155 75c-63 0 -113 -21 -151 -64c-38 -42 -58 -89 -61 -142zM199 576h-21l103 124h18l103 -124h-21l-91 108z" />
    <glyph glyph-name="edieresis" unicode="&#xeb;" horiz-adv-x="564" 
d="M315 -12c-73 0 -133 23 -182 70s-73 106 -73 177s22 130 65 177s99 70 166 70c173 0 215 -154 215 -233v-7h-428v-7c0 -66 22 -121 67 -165c45 -43 101 -65 170 -65c61 0 112 15 153 44v-19c-38 -28 -89 -42 -153 -42zM79 259h409c0 43 -13 87 -42 131
c-28 44 -84 75 -155 75c-63 0 -113 -21 -151 -64c-38 -42 -58 -89 -61 -142zM215 627c-22 -22 -56 12 -34 34s56 -12 34 -34zM395 627c-22 -22 -56 12 -34 34s56 -12 34 -34z" />
    <glyph glyph-name="igrave" unicode="&#xec;" horiz-adv-x="235" 
d="M136 576h-22l-97 124h22zM127 0h-18v470h18v-470z" />
    <glyph glyph-name="iacute" unicode="&#xed;" horiz-adv-x="235" 
d="M122 576h-22l97 124h22zM127 0h-18v470h18v-470z" />
    <glyph glyph-name="icircumflex" unicode="&#xee;" horiz-adv-x="235" 
d="M28 576h-21l103 124h18l103 -124h-21l-91 108zM127 0h-18v470h18v-470z" />
    <glyph glyph-name="idieresis" unicode="&#xef;" horiz-adv-x="236" 
d="M45 627c-22 -22 -56 12 -34 34s56 -12 34 -34zM225 627c-22 -22 -56 12 -34 34s56 -12 34 -34zM127 0h-18v470h18v-470z" />
    <glyph glyph-name="eth" unicode="&#xf0;" horiz-adv-x="590" 
d="M60 225c0 63 22 118 65 165c44 47 101 70 170 70c50 0 94 -12 131 -36l-133 198l-142 -60l-9 16l140 59l-43 63h21l39 -55l132 56l9 -16l-131 -56l177 -263c29 -46 44 -93 44 -141c0 -65 -22 -120 -66 -167c-43 -47 -100 -70 -169 -70s-126 23 -170 70
c-43 47 -65 102 -65 167zM512 225c0 61 -21 113 -63 155c-41 42 -93 63 -154 63s-113 -21 -155 -63c-41 -42 -62 -94 -62 -155c0 -62 21 -114 62 -157c42 -42 94 -63 155 -63s113 21 154 63c42 43 63 95 63 157z" />
    <glyph glyph-name="ntilde" unicode="&#xf1;" horiz-adv-x="597" 
d="M114 348v-348h-18v470h18v-93c43 56 123 105 212 105c123 0 185 -72 185 -197v-285h-18v282c0 122 -56 183 -169 183c-41 0 -82 -12 -122 -35s-69 -51 -88 -82zM379 601c-18 0 -43 11 -76 34c-32 23 -56 35 -71 35c-27 0 -42 -21 -45 -62h-17c1 51 25 79 62 79
c19 0 44 -12 76 -35c33 -23 56 -34 71 -34c27 0 42 21 45 63h17c-2 -53 -23 -80 -62 -80z" />
    <glyph glyph-name="ograve" unicode="&#xf2;" horiz-adv-x="611" 
d="M306 5c64 0 118 22 161 66c44 45 66 99 66 164s-22 119 -66 163c-43 45 -97 67 -161 67c-65 0 -119 -22 -163 -67c-43 -44 -65 -98 -65 -163s22 -119 65 -164c44 -44 98 -66 163 -66zM60 235c0 67 23 124 68 173c46 49 105 74 178 74s132 -25 177 -74s68 -106 68 -173
s-23 -125 -68 -174s-104 -73 -177 -73s-132 24 -178 73c-45 49 -68 107 -68 174zM339 576h-22l-97 124h22z" />
    <glyph glyph-name="oacute" unicode="&#xf3;" horiz-adv-x="611" 
d="M306 5c64 0 118 22 161 66c44 45 66 99 66 164s-22 119 -66 163c-43 45 -97 67 -161 67c-65 0 -119 -22 -163 -67c-43 -44 -65 -98 -65 -163s22 -119 65 -164c44 -44 98 -66 163 -66zM60 235c0 67 23 124 68 173c46 49 105 74 178 74s132 -25 177 -74s68 -106 68 -173
s-23 -125 -68 -174s-104 -73 -177 -73s-132 24 -178 73c-45 49 -68 107 -68 174zM307 576h-22l97 124h22z" />
    <glyph glyph-name="ocircumflex" unicode="&#xf4;" horiz-adv-x="611" 
d="M215 576h-21l103 124h18l103 -124h-21l-91 108zM306 5c64 0 118 22 161 66c44 45 66 99 66 164s-22 119 -66 163c-43 45 -97 67 -161 67c-65 0 -119 -22 -163 -67c-43 -44 -65 -98 -65 -163s22 -119 65 -164c44 -44 98 -66 163 -66zM60 235c0 67 23 124 68 173
c46 49 105 74 178 74s132 -25 177 -74s68 -106 68 -173s-23 -125 -68 -174s-104 -73 -177 -73s-132 24 -178 73c-45 49 -68 107 -68 174z" />
    <glyph glyph-name="otilde" unicode="&#xf5;" horiz-adv-x="611" 
d="M306 5c64 0 118 22 161 66c44 45 66 99 66 164s-22 119 -66 163c-43 45 -97 67 -161 67c-65 0 -119 -22 -163 -67c-43 -44 -65 -98 -65 -163s22 -119 65 -164c44 -44 98 -66 163 -66zM60 235c0 67 23 124 68 173c46 49 105 74 178 74s132 -25 177 -74s68 -106 68 -173
s-23 -125 -68 -174s-104 -73 -177 -73s-132 24 -178 73c-45 49 -68 107 -68 174zM381 601c-18 0 -43 11 -76 34c-32 23 -56 35 -71 35c-27 0 -42 -21 -45 -62h-17c1 51 25 79 62 79c19 0 44 -12 76 -35c33 -23 56 -34 71 -34c27 0 42 21 45 63h17c-2 -53 -23 -80 -62 -80z
" />
    <glyph glyph-name="odieresis" unicode="&#xf6;" horiz-adv-x="611" 
d="M306 5c64 0 118 22 161 66c44 45 66 99 66 164s-22 119 -66 163c-43 45 -97 67 -161 67c-65 0 -119 -22 -163 -67c-43 -44 -65 -98 -65 -163s22 -119 65 -164c44 -44 98 -66 163 -66zM60 235c0 67 23 124 68 173c46 49 105 74 178 74s132 -25 177 -74s68 -106 68 -173
s-23 -125 -68 -174s-104 -73 -177 -73s-132 24 -178 73c-45 49 -68 107 -68 174zM232 627c-8 -9 -26 -9 -35 0c-8 9 -8 25 0 34c23 23 57 -12 35 -34zM412 627c-8 -9 -26 -9 -35 0c-8 9 -8 25 0 34c23 23 57 -12 35 -34z" />
    <glyph glyph-name="divide" unicode="&#xf7;" horiz-adv-x="560" 
d="M301 115c-11 -11 -31 -11 -42 0s-11 31 0 42s31 11 42 0s11 -31 0 -42zM490 313h-420v17h420v-17zM301 487c-11 -11 -31 -11 -42 0s-11 31 0 42s31 11 42 0s11 -31 0 -42z" />
    <glyph glyph-name="oslash" unicode="&#xf8;" horiz-adv-x="611" 
d="M306 -12c-58 0 -109 17 -152 50l-31 -38h-23l40 49c-53 48 -80 110 -80 186c0 67 23 124 68 173c46 49 105 74 178 74c57 0 107 -17 150 -50l32 38h23l-41 -50c54 -48 81 -110 81 -185c0 -67 -23 -125 -68 -174s-104 -73 -177 -73zM152 63l293 355c-41 31 -88 47 -139 47
c-65 0 -119 -22 -163 -67c-43 -44 -65 -98 -65 -163c0 -69 25 -127 74 -172zM306 5c64 0 118 22 161 66c44 45 66 99 66 164c0 69 -25 127 -74 172l-294 -355c41 -31 88 -47 141 -47z" />
    <glyph glyph-name="ugrave" unicode="&#xf9;" horiz-adv-x="600" 
d="M274 -12c-123 0 -185 72 -185 197v285h18v-282c0 -122 56 -183 169 -183c41 0 82 12 122 35s69 51 88 82v348h18v-470h-18v93c-43 -56 -123 -105 -212 -105zM338 576h-22l-97 124h22z" />
    <glyph glyph-name="uacute" unicode="&#xfa;" horiz-adv-x="600" 
d="M274 -12c-123 0 -185 72 -185 197v285h18v-282c0 -122 56 -183 169 -183c41 0 82 12 122 35s69 51 88 82v348h18v-470h-18v93c-43 -56 -123 -105 -212 -105zM280 576h-22l97 124h22z" />
    <glyph glyph-name="ucircumflex" unicode="&#xfb;" horiz-adv-x="600" 
d="M206 576h-21l103 124h18l103 -124h-21l-91 108zM274 -12c-123 0 -185 72 -185 197v285h18v-282c0 -122 56 -183 169 -183c41 0 82 12 122 35s69 51 88 82v348h18v-470h-18v93c-43 -56 -123 -105 -212 -105z" />
    <glyph glyph-name="udieresis" unicode="&#xfc;" horiz-adv-x="600" 
d="M274 -12c-123 0 -185 72 -185 197v285h18v-282c0 -122 56 -183 169 -183c41 0 82 12 122 35s69 51 88 82v348h18v-470h-18v93c-43 -56 -123 -105 -212 -105zM222 627c-8 -9 -26 -9 -35 0c-8 9 -8 25 0 34c23 23 57 -12 35 -34zM402 627c-8 -9 -26 -9 -35 0
c-8 9 -8 25 0 34c23 23 57 -12 35 -34z" />
    <glyph glyph-name="yacute" unicode="&#xfd;" horiz-adv-x="522" 
d="M85 -203c-24 0 -44 5 -61 15v18c19 -11 39 -16 60 -16c34 0 62 16 85 47s51 84 82 158l-215 451h20l205 -429l201 429h20l-245 -525c-47 -99 -87 -148 -152 -148zM254 576h-22l97 124h22z" />
    <glyph glyph-name="thorn" unicode="&#xfe;" horiz-adv-x="625" 
d="M114 -200h-18v900h18v-328c20 28 48 53 84 76s77 34 122 34c73 0 132 -25 177 -74s68 -106 68 -173s-23 -125 -68 -174s-104 -73 -177 -73c-45 0 -86 11 -122 34s-64 48 -84 76v-298zM320 5c64 0 118 22 161 66c44 45 66 99 66 164s-22 119 -66 163
c-43 45 -97 67 -161 67c-81 0 -162 -50 -206 -122v-216c44 -72 125 -122 206 -122z" />
    <glyph glyph-name="ydieresis" unicode="&#xff;" horiz-adv-x="522" 
d="M85 -203c-24 0 -44 5 -61 15v18c19 -11 39 -16 60 -16c34 0 62 16 85 47s51 84 82 158l-215 451h20l205 -429l201 429h20l-245 -525c-47 -99 -87 -148 -152 -148zM181 627c-22 -22 -56 12 -34 34s56 -12 34 -34zM361 627c-22 -22 -56 12 -34 34s56 -12 34 -34z" />
    <glyph glyph-name="Amacron" unicode="&#x100;" horiz-adv-x="734" 
d="M56 0h-19l322 705h16l322 -705h-19l-100 219h-422zM367 679l-203 -443h406zM473 818h-209v17h209v-17z" />
    <glyph glyph-name="amacron" unicode="&#x101;" horiz-adv-x="583" 
d="M238 -12c-49 0 -92 13 -129 39c-36 27 -54 64 -54 112c0 45 18 81 55 109c37 29 85 43 143 43c69 0 135 -19 200 -58v82c0 97 -65 150 -182 150c-63 0 -117 -17 -164 -51v20c44 32 99 48 165 48c117 0 199 -53 199 -168v-224c0 -47 21 -76 57 -76c11 0 20 2 27 5v-17
c-7 -3 -16 -5 -28 -5c-41 0 -74 31 -74 90c-57 -66 -129 -99 -215 -99zM244 5c45 0 85 11 122 32c37 22 66 48 87 77v98c-64 41 -129 62 -195 62c-112 0 -185 -55 -185 -135c0 -45 17 -78 50 -101c34 -22 74 -33 121 -33zM391 635h-209v17h209v-17z" />
    <glyph glyph-name="Abreve" unicode="&#x102;" horiz-adv-x="734" 
d="M56 0h-19l322 705h16l322 -705h-19l-100 219h-422zM367 679l-203 -443h406zM252 877h18c0 -55 44 -98 97 -98s97 43 97 98h18c0 -31 -11 -58 -34 -81s-50 -34 -81 -34s-58 11 -81 34s-34 50 -34 81z" />
    <glyph glyph-name="abreve" unicode="&#x103;" horiz-adv-x="583" 
d="M238 -12c-49 0 -92 13 -129 39c-36 27 -54 64 -54 112c0 45 18 81 55 109c37 29 85 43 143 43c69 0 135 -19 200 -58v82c0 97 -65 150 -182 150c-63 0 -117 -17 -164 -51v20c44 32 99 48 165 48c117 0 199 -53 199 -168v-224c0 -47 21 -76 57 -76c11 0 20 2 27 5v-17
c-7 -3 -16 -5 -28 -5c-41 0 -74 31 -74 90c-57 -66 -129 -99 -215 -99zM244 5c45 0 85 11 122 32c37 22 66 48 87 77v98c-64 41 -129 62 -195 62c-112 0 -185 -55 -185 -135c0 -45 17 -78 50 -101c34 -22 74 -33 121 -33zM169 694h18c0 -55 44 -98 97 -98s97 43 97 98h18
c0 -31 -11 -58 -34 -81s-50 -34 -81 -34s-58 11 -81 34s-34 50 -34 81z" />
    <glyph glyph-name="Aogonek" unicode="&#x104;" horiz-adv-x="734" 
d="M739 -189c-60 0 -99 41 -99 96c0 39 13 70 38 93l-101 219h-420l-101 -219h-19l322 700h16l322 -700c-26 -29 -39 -60 -39 -91c0 -48 35 -81 84 -81c11 0 25 2 41 6v-17c-15 -4 -29 -6 -44 -6zM367 674l-202 -438h404z" />
    <glyph glyph-name="aogonek" unicode="&#x105;" horiz-adv-x="583" 
d="M597 -187c-60 0 -99 41 -99 96c0 35 11 64 32 88h-3c-41 0 -74 31 -74 90c-57 -66 -129 -99 -215 -99c-49 0 -92 13 -129 39c-36 27 -54 64 -54 112c0 45 18 81 55 109c37 29 85 43 143 43c69 0 135 -19 200 -58v82c0 97 -65 150 -182 150c-63 0 -117 -17 -164 -51v20
c44 32 99 48 165 48c117 0 199 -53 199 -168v-224c0 -47 21 -76 57 -76c11 0 20 2 27 5v-17c-26 -29 -39 -60 -39 -91c0 -48 35 -81 84 -81c11 0 25 2 41 6v-17c-15 -4 -29 -6 -44 -6zM244 5c45 0 85 11 122 32c37 22 66 48 87 77v98c-64 41 -129 62 -195 62
c-112 0 -185 -55 -185 -135c0 -45 17 -78 50 -101c34 -22 74 -33 121 -33z" />
    <glyph glyph-name="Cacute" unicode="&#x106;" horiz-adv-x="695" 
d="M424 -12c-97 0 -179 34 -245 102c-65 69 -98 155 -98 260c0 104 33 190 98 259c66 69 148 103 245 103c78 0 146 -20 203 -59v-20c-61 41 -128 62 -203 62c-91 0 -168 -33 -231 -99c-63 -65 -94 -147 -94 -246s31 -181 94 -247c63 -65 140 -98 231 -98
c86 0 160 25 221 76v-22c-59 -47 -132 -71 -221 -71zM408 765h-22l97 124h22z" />
    <glyph glyph-name="cacute" unicode="&#x107;" horiz-adv-x="524" 
d="M305 -12c-73 0 -132 24 -177 73s-68 107 -68 174s23 124 68 173s104 74 177 74c54 0 102 -13 143 -38v-20c-43 27 -91 41 -143 41c-64 0 -118 -22 -162 -67c-43 -44 -65 -98 -65 -163s22 -119 65 -164c44 -44 98 -66 162 -66c59 0 110 16 153 47v-20
c-43 -29 -94 -44 -153 -44zM291 576h-22l97 124h22z" />
    <glyph glyph-name="Ccircumflex" unicode="&#x108;" horiz-adv-x="695" 
d="M318 765h-21l103 124h18l103 -124h-21l-91 108zM424 -12c-97 0 -179 34 -245 102c-65 69 -98 155 -98 260c0 104 33 190 98 259c66 69 148 103 245 103c78 0 146 -20 203 -59v-20c-61 41 -128 62 -203 62c-91 0 -168 -33 -231 -99c-63 -65 -94 -147 -94 -246
s31 -181 94 -247c63 -65 140 -98 231 -98c86 0 160 25 221 76v-22c-59 -47 -132 -71 -221 -71z" />
    <glyph glyph-name="ccircumflex" unicode="&#x109;" horiz-adv-x="524" 
d="M305 -12c-73 0 -132 24 -177 73s-68 107 -68 174s23 124 68 173s104 74 177 74c54 0 102 -13 143 -38v-20c-43 27 -91 41 -143 41c-64 0 -118 -22 -162 -67c-43 -44 -65 -98 -65 -163s22 -119 65 -164c44 -44 98 -66 162 -66c59 0 110 16 153 47v-20
c-43 -29 -94 -44 -153 -44zM198 576h-21l103 124h18l103 -124h-21l-91 108z" />
    <glyph glyph-name="Cdotaccent" unicode="&#x10a;" horiz-adv-x="695" 
d="M424 -12c-97 0 -179 34 -245 102c-65 69 -98 155 -98 260c0 104 33 190 98 259c66 69 148 103 245 103c78 0 146 -20 203 -59v-20c-61 41 -128 62 -203 62c-91 0 -168 -33 -231 -99c-63 -65 -94 -147 -94 -246s31 -181 94 -247c63 -65 140 -98 231 -98
c86 0 160 25 221 76v-22c-59 -47 -132 -71 -221 -71zM441 805c-22 -22 -56 12 -34 34s56 -12 34 -34z" />
    <glyph glyph-name="cdotaccent" unicode="&#x10b;" horiz-adv-x="524" 
d="M305 -12c-73 0 -132 24 -177 73s-68 107 -68 174s23 124 68 173s104 74 177 74c54 0 102 -13 143 -38v-20c-43 27 -91 41 -143 41c-64 0 -118 -22 -162 -67c-43 -44 -65 -98 -65 -163s22 -119 65 -164c44 -44 98 -66 162 -66c59 0 110 16 153 47v-20
c-43 -29 -94 -44 -153 -44zM324 627c-8 -9 -26 -9 -35 0c-8 9 -8 25 0 34c23 23 57 -12 35 -34z" />
    <glyph glyph-name="Ccaron" unicode="&#x10c;" horiz-adv-x="695" 
d="M430 765h-18l-103 124h21l91 -108l91 108h21zM424 -12c-97 0 -179 34 -245 102c-65 69 -98 155 -98 260c0 104 33 190 98 259c66 69 148 103 245 103c78 0 146 -20 203 -59v-20c-61 41 -128 62 -203 62c-91 0 -168 -33 -231 -99c-63 -65 -94 -147 -94 -246
s31 -181 94 -247c63 -65 140 -98 231 -98c86 0 160 25 221 76v-22c-59 -47 -132 -71 -221 -71z" />
    <glyph glyph-name="ccaron" unicode="&#x10d;" horiz-adv-x="524" 
d="M314 576h-18l-103 124h21l91 -108l91 108h21zM60 235c0 67 23 124 68 173s104 74 177 74c54 0 102 -13 143 -38v-20c-43 27 -91 41 -143 41c-64 0 -118 -22 -162 -67c-43 -44 -65 -98 -65 -163s22 -119 65 -164c44 -44 98 -66 162 -66c59 0 110 16 153 47v-20
c-43 -29 -94 -44 -153 -44c-73 0 -132 24 -177 73s-68 107 -68 174z" />
    <glyph glyph-name="Dcaron" unicode="&#x10e;" horiz-adv-x="772" 
d="M344 765h-18l-103 124h21l91 -108l91 108h21zM316 0h-204v700h204c112 0 202 -32 271 -97c69 -64 104 -148 104 -253s-35 -189 -104 -254c-69 -64 -159 -96 -271 -96zM130 683v-666h178c112 0 201 31 266 92c66 61 99 142 99 241s-33 180 -99 241c-65 61 -154 92 -266 92
h-178z" />
    <glyph glyph-name="dcaron" unicode="&#x10f;" horiz-adv-x="681" 
d="M306 -12c-73 0 -132 24 -178 73c-45 49 -68 107 -68 174s23 124 68 173c46 49 105 74 178 74c87 0 156 -35 205 -106v324h18v-700h-18v94c-49 -71 -118 -106 -205 -106zM306 5c88 0 170 51 205 124v212c-35 73 -117 124 -205 124c-65 0 -119 -22 -163 -67
c-43 -44 -65 -98 -65 -163s22 -119 65 -164c44 -44 98 -66 163 -66zM635 544h-19l54 156h19z" />
    <glyph glyph-name="Dcroat" unicode="&#x110;" horiz-adv-x="814" 
d="M358 0h-204v342h-124v17h124v341h204c112 0 202 -32 271 -97c69 -64 104 -148 104 -253s-35 -189 -104 -254c-69 -64 -159 -96 -271 -96zM172 342v-325h178c112 0 201 31 266 92c66 61 99 142 99 241s-33 180 -99 241c-65 61 -154 92 -266 92h-178v-324h180v-17h-180z
" />
    <glyph glyph-name="dslash" unicode="&#x111;" horiz-adv-x="625" 
d="M306 -12c-73 0 -132 24 -178 73c-45 49 -68 107 -68 174s23 124 68 173c46 49 105 74 178 74c87 0 156 -35 205 -106v182h-128v17h128v125h18v-125h103v-17h-103v-558h-18v94c-49 -71 -118 -106 -205 -106zM306 5c88 0 170 51 205 124v212c-35 73 -117 124 -205 124
c-65 0 -119 -22 -163 -67c-43 -44 -65 -98 -65 -163s22 -119 65 -164c44 -44 98 -66 163 -66z" />
    <glyph glyph-name="Emacron" unicode="&#x112;" horiz-adv-x="634" 
d="M584 0h-472v700h454v-17h-436v-297h363v-17h-363v-352h454v-17zM442 818h-209v17h209v-17z" />
    <glyph glyph-name="emacron" unicode="&#x113;" horiz-adv-x="564" 
d="M315 -12c-73 0 -133 23 -182 70s-73 106 -73 177s22 130 65 177s99 70 166 70c173 0 215 -154 215 -233v-7h-428v-7c0 -66 22 -121 67 -165c45 -43 101 -65 170 -65c61 0 112 15 153 44v-19c-38 -28 -89 -42 -153 -42zM79 259h409c0 43 -13 87 -42 131
c-28 44 -84 75 -155 75c-63 0 -113 -21 -151 -64c-38 -42 -58 -89 -61 -142zM397 635h-209v17h209v-17z" />
    <glyph glyph-name="Ebreve" unicode="&#x114;" horiz-adv-x="634" 
d="M584 0h-472v700h454v-17h-436v-297h363v-17h-363v-352h454v-17zM216 877h18c0 -55 44 -98 97 -98s97 43 97 98h18c0 -31 -11 -58 -34 -81s-50 -34 -81 -34s-58 11 -81 34s-34 50 -34 81z" />
    <glyph glyph-name="ebreve" unicode="&#x115;" horiz-adv-x="564" 
d="M315 -12c-73 0 -133 23 -182 70s-73 106 -73 177s22 130 65 177s99 70 166 70c173 0 215 -154 215 -233v-7h-428v-7c0 -66 22 -121 67 -165c45 -43 101 -65 170 -65c61 0 112 15 153 44v-19c-38 -28 -89 -42 -153 -42zM79 259h409c0 43 -13 87 -42 131
c-28 44 -84 75 -155 75c-63 0 -113 -21 -151 -64c-38 -42 -58 -89 -61 -142zM177 694h18c0 -55 44 -98 97 -98s97 43 97 98h18c0 -31 -11 -58 -34 -81s-50 -34 -81 -34s-58 11 -81 34s-34 50 -34 81z" />
    <glyph glyph-name="Edotaccent" unicode="&#x116;" horiz-adv-x="634" 
d="M584 0h-472v700h454v-17h-436v-297h363v-17h-363v-352h454v-17zM355 805c-22 -22 -56 12 -34 34s56 -12 34 -34z" />
    <glyph glyph-name="edotaccent" unicode="&#x117;" horiz-adv-x="564" 
d="M315 -12c-73 0 -133 23 -182 70s-73 106 -73 177s22 130 65 177s99 70 166 70c173 0 215 -154 215 -233v-7h-428v-7c0 -66 22 -121 67 -165c45 -43 101 -65 170 -65c61 0 112 15 153 44v-19c-38 -28 -89 -42 -153 -42zM79 259h409c0 43 -13 87 -42 131
c-28 44 -84 75 -155 75c-63 0 -113 -21 -151 -64c-38 -42 -58 -89 -61 -142zM310 627c-8 -9 -26 -9 -35 0c-8 9 -8 25 0 34c23 23 57 -12 35 -34z" />
    <glyph glyph-name="Eogonek" unicode="&#x118;" horiz-adv-x="634" 
d="M628 -187c-60 0 -99 41 -99 96c0 37 12 68 35 91h-452v700h454v-17h-436v-297h363v-17h-363v-352h454v-17c-25 -27 -37 -57 -37 -89c0 -48 35 -81 84 -81c11 0 25 2 41 6v-17c-15 -4 -29 -6 -44 -6z" />
    <glyph glyph-name="eogonek" unicode="&#x119;" horiz-adv-x="564" 
d="M510 -159c-60 0 -99 41 -99 96c0 26 7 50 21 73c-38 -15 -77 -22 -117 -22c-73 0 -133 23 -182 70s-73 106 -73 177s22 130 65 177s99 70 166 70c173 0 215 -154 215 -233v-7h-428v-7c0 -66 22 -121 67 -165c45 -43 101 -65 170 -65c61 0 112 15 153 44v-19
c-26 -29 -39 -60 -39 -91c0 -48 35 -81 84 -81c11 0 25 2 41 6v-17c-15 -4 -29 -6 -44 -6zM79 259h409c0 43 -13 87 -42 131c-28 44 -84 75 -155 75c-63 0 -113 -21 -151 -64c-38 -42 -58 -89 -61 -142z" />
    <glyph glyph-name="Ecaron" unicode="&#x11a;" horiz-adv-x="634" 
d="M347 765h-18l-103 124h21l91 -108l91 108h21zM584 0h-472v700h454v-17h-436v-297h363v-17h-363v-352h454v-17z" />
    <glyph glyph-name="ecaron" unicode="&#x11b;" horiz-adv-x="564" 
d="M315 -12c-73 0 -133 23 -182 70s-73 106 -73 177s22 130 65 177s99 70 166 70c173 0 215 -154 215 -233v-7h-428v-7c0 -66 22 -121 67 -165c45 -43 101 -65 170 -65c61 0 112 15 153 44v-19c-38 -28 -89 -42 -153 -42zM79 259h409c0 43 -13 87 -42 131
c-28 44 -84 75 -155 75c-63 0 -113 -21 -151 -64c-38 -42 -58 -89 -61 -142zM299 576h-18l-103 124h21l91 -108l91 108h21z" />
    <glyph glyph-name="Gcircumflex" unicode="&#x11c;" horiz-adv-x="784" 
d="M656 634v-21c-65 55 -142 82 -232 82c-91 0 -168 -33 -231 -99c-63 -65 -94 -147 -94 -246s31 -181 94 -247c63 -65 141 -98 232 -98c97 0 188 34 244 95v299h18v-307c-66 -69 -153 -104 -262 -104c-97 0 -179 34 -245 103s-99 155 -99 259s33 190 98 259
c66 69 148 103 245 103c93 0 170 -26 232 -78zM317 765h-21l103 124h18l103 -124h-21l-91 108z" />
    <glyph glyph-name="gcircumflex" unicode="&#x11d;" horiz-adv-x="625" 
d="M288 -203c-67 0 -127 15 -181 45v20c52 -32 112 -48 179 -48c137 0 225 70 225 199v81c-49 -71 -118 -106 -205 -106c-73 0 -132 24 -178 73c-45 49 -68 107 -68 174s23 124 68 173c46 49 105 74 178 74c87 0 156 -35 205 -106v94h18v-458c0 -139 -96 -215 -241 -215z
M306 5c88 0 170 51 205 124v212c-35 73 -117 124 -205 124c-65 0 -119 -22 -163 -67c-43 -44 -65 -98 -65 -163s22 -119 65 -164c44 -44 98 -66 163 -66zM214 576h-21l103 124h18l103 -124h-21l-91 108z" />
    <glyph glyph-name="Gbreve" unicode="&#x11e;" horiz-adv-x="784" 
d="M656 634v-21c-65 55 -142 82 -232 82c-91 0 -168 -33 -231 -99c-63 -65 -94 -147 -94 -246s31 -181 94 -247c63 -65 141 -98 232 -98c97 0 188 34 244 95v299h18v-307c-66 -69 -153 -104 -262 -104c-97 0 -179 34 -245 103s-99 155 -99 259s33 190 98 259
c66 69 148 103 245 103c93 0 170 -26 232 -78zM307 877h18c0 -55 44 -98 97 -98s97 43 97 98h18c0 -31 -11 -58 -34 -81s-50 -34 -81 -34s-58 11 -81 34s-34 50 -34 81z" />
    <glyph glyph-name="gbreve" unicode="&#x11f;" horiz-adv-x="625" 
d="M288 -203c-67 0 -127 15 -181 45v20c52 -32 112 -48 179 -48c137 0 225 70 225 199v81c-49 -71 -118 -106 -205 -106c-73 0 -132 24 -178 73c-45 49 -68 107 -68 174s23 124 68 173c46 49 105 74 178 74c87 0 156 -35 205 -106v94h18v-458c0 -139 -96 -215 -241 -215z
M306 5c88 0 170 51 205 124v212c-35 73 -117 124 -205 124c-65 0 -119 -22 -163 -67c-43 -44 -65 -98 -65 -163s22 -119 65 -164c44 -44 98 -66 163 -66zM188 694h18c0 -55 44 -98 97 -98s97 43 97 98h18c0 -31 -11 -58 -34 -81s-50 -34 -81 -34s-58 11 -81 34
s-34 50 -34 81z" />
    <glyph glyph-name="Gdotaccent" unicode="&#x120;" horiz-adv-x="784" 
d="M656 634v-21c-65 55 -142 82 -232 82c-91 0 -168 -33 -231 -99c-63 -65 -94 -147 -94 -246s31 -181 94 -247c63 -65 141 -98 232 -98c97 0 188 34 244 95v299h18v-307c-66 -69 -153 -104 -262 -104c-97 0 -179 34 -245 103s-99 155 -99 259s33 190 98 259
c66 69 148 103 245 103c93 0 170 -26 232 -78zM442 805c-8 -9 -26 -9 -35 0c-8 9 -8 25 0 34c23 23 57 -12 35 -34z" />
    <glyph glyph-name="gdotaccent" unicode="&#x121;" horiz-adv-x="625" 
d="M288 -203c-67 0 -127 15 -181 45v20c52 -32 112 -48 179 -48c137 0 225 70 225 199v81c-49 -71 -118 -106 -205 -106c-73 0 -132 24 -178 73c-45 49 -68 107 -68 174s23 124 68 173c46 49 105 74 178 74c87 0 156 -35 205 -106v94h18v-458c0 -139 -96 -215 -241 -215z
M306 5c88 0 170 51 205 124v212c-35 73 -117 124 -205 124c-65 0 -119 -22 -163 -67c-43 -44 -65 -98 -65 -163s22 -119 65 -164c44 -44 98 -66 163 -66zM322 627c-8 -9 -26 -9 -35 0c-8 9 -8 25 0 34c23 23 57 -12 35 -34z" />
    <glyph glyph-name="uni0122" unicode="&#x122;" horiz-adv-x="784" 
d="M656 634v-21c-65 55 -142 82 -232 82c-91 0 -168 -33 -231 -99c-63 -65 -94 -147 -94 -246s31 -181 94 -247c63 -65 141 -98 232 -98c97 0 188 34 244 95v299h18v-307c-66 -69 -153 -104 -262 -104c-97 0 -179 34 -245 103s-99 155 -99 259s33 190 98 259
c66 69 148 103 245 103c93 0 170 -26 232 -78zM387 -200h-19l54 156h19z" />
    <glyph glyph-name="uni0123" unicode="&#x123;" horiz-adv-x="637" 
d="M288 -203c-67 0 -127 15 -181 45v20c52 -32 112 -48 179 -48c137 0 225 70 225 199v81c-49 -71 -118 -106 -205 -106c-73 0 -132 24 -178 73c-45 49 -68 107 -68 174s23 124 68 173c46 49 105 74 178 74c87 0 156 -35 205 -106v94h18v-458c0 -139 -96 -215 -241 -215z
M306 5c88 0 170 51 205 124v212c-35 73 -117 124 -205 124c-65 0 -119 -22 -163 -67c-43 -44 -65 -98 -65 -163s22 -119 65 -164c44 -44 98 -66 163 -66zM331 700h19l-54 -156h-19z" />
    <glyph glyph-name="Hcircumflex" unicode="&#x124;" horiz-adv-x="758" 
d="M288 765h-21l103 124h18l103 -124h-21l-91 108zM130 0h-18v700h18v-314h498v314h18v-700h-18v369h-498v-369z" />
    <glyph glyph-name="hcircumflex" unicode="&#x125;" horiz-adv-x="597" 
d="M14 765h-21l103 124h18l103 -124h-21l-91 108zM114 348v-348h-18v700h18v-323c43 56 123 105 212 105c123 0 185 -72 185 -197v-285h-18v282c0 122 -56 183 -169 183c-41 0 -82 -12 -122 -35s-69 -51 -88 -82z" />
    <glyph glyph-name="Hbar" unicode="&#x126;" horiz-adv-x="798" 
d="M150 0h-18v558h-102v17h102v125h18v-125h498v125h18v-125h102v-17h-102v-558h-18v369h-498v-369zM150 558v-172h498v172h-498z" />
    <glyph glyph-name="hbar" unicode="&#x127;" horiz-adv-x="619" 
d="M136 0h-18v558h-103v17h103v125h18v-125h128v-17h-128v-236c43 56 123 105 212 105c123 0 185 -72 185 -197v-230h-18v227c0 122 -56 183 -169 183c-41 0 -82 -12 -122 -35s-69 -51 -88 -82v-293z" />
    <glyph glyph-name="Itilde" unicode="&#x128;" horiz-adv-x="256" 
d="M202 784c-18 0 -43 11 -76 34c-32 23 -56 34 -71 34c-27 0 -42 -21 -45 -62h-17c2 53 23 79 62 79c19 0 44 -11 76 -34c33 -23 56 -34 71 -34c27 0 42 21 45 62h17c-2 -53 -23 -79 -62 -79zM137 0h-18v700h18v-700z" />
    <glyph glyph-name="itilde" unicode="&#x129;" horiz-adv-x="235" 
d="M192 601c-18 0 -43 11 -76 34c-32 23 -56 35 -71 35c-27 0 -42 -21 -45 -62h-17c1 51 25 79 62 79c19 0 44 -12 76 -35c33 -23 56 -34 71 -34c27 0 42 21 45 63h17c-2 -53 -23 -80 -62 -80zM127 0h-18v470h18v-470z" />
    <glyph glyph-name="Imacron" unicode="&#x12a;" horiz-adv-x="256" 
d="M137 0h-18v700h18v-700zM233 818h-209v17h209v-17z" />
    <glyph glyph-name="imacron" unicode="&#x12b;" horiz-adv-x="235" 
d="M127 0h-18v470h18v-470zM223 635h-209v17h209v-17z" />
    <glyph glyph-name="Ibreve" unicode="&#x12c;" horiz-adv-x="256" 
d="M13 877h18c0 -55 44 -98 97 -98s97 43 97 98h18c0 -31 -11 -58 -34 -81s-50 -34 -81 -34s-58 11 -81 34s-34 50 -34 81zM137 0h-18v700h18v-700z" />
    <glyph glyph-name="ibreve" unicode="&#x12d;" horiz-adv-x="235" 
d="M3 694h18c0 -55 44 -98 97 -98s97 43 97 98h18c0 -31 -11 -58 -34 -81s-50 -34 -81 -34s-58 11 -81 34s-34 50 -34 81zM127 0h-18v470h18v-470z" />
    <glyph glyph-name="Iogonek" unicode="&#x12e;" horiz-adv-x="256" 
d="M186 -181c-60 0 -99 41 -99 96c0 34 11 62 32 85v700h18v-700c-21 -24 -32 -52 -32 -83c0 -48 35 -81 84 -81c11 0 25 2 41 6v-17c-15 -4 -29 -6 -44 -6z" />
    <glyph glyph-name="iogonek" unicode="&#x12f;" horiz-adv-x="235" 
d="M176 -181c-60 0 -99 41 -99 96c0 34 11 62 32 85v470h18v-470c-21 -24 -32 -52 -32 -83c0 -48 35 -81 84 -81c11 0 25 2 41 6v-17c-15 -4 -29 -6 -44 -6zM135 627c-22 -22 -56 12 -34 34s56 -12 34 -34z" />
    <glyph glyph-name="Idot" unicode="&#x130;" horiz-adv-x="256" 
d="M145 805c-22 -22 -56 12 -34 34s56 -12 34 -34zM137 0h-18v700h18v-700z" />
    <glyph glyph-name="dotlessi" unicode="&#x131;" horiz-adv-x="235" 
d="M127 0h-18v470h18v-470z" />
    <glyph glyph-name="IJ" unicode="&#x132;" horiz-adv-x="579" 
d="M274 -12c-59 0 -111 17 -155 50v22c41 -37 93 -55 156 -55c122 0 183 65 183 196v499h18v-501c0 -139 -69 -211 -202 -211zM137 230h-18v470h18v-470z" />
    <glyph glyph-name="Jcircumflex" unicode="&#x134;" horiz-adv-x="498" 
d="M295 765h-21l103 124h18l103 -124h-21l-91 108zM193 -12c-59 0 -111 17 -155 50v22c41 -37 93 -55 156 -55c122 0 183 65 183 196v499h18v-501c0 -139 -69 -211 -202 -211z" />
    <glyph glyph-name="jcircumflex" unicode="&#x135;" horiz-adv-x="238" 
d="M16 -202c-24 0 -46 5 -66 16v20c20 -13 42 -19 66 -19c62 0 93 37 93 110v545h18v-550c0 -81 -37 -122 -111 -122zM27 582h-21l103 124h18l103 -124h-21l-91 108z" />
    <glyph glyph-name="uni0136" unicode="&#x136;" horiz-adv-x="645" 
d="M625 0h-27l-422 373v11l365 316h27l-370 -321zM130 0h-18v700h18v-700zM309 -200h-19l54 156h19z" />
    <glyph glyph-name="uni0137" unicode="&#x137;" horiz-adv-x="510" 
d="M469 0h-26l-290 253v9l252 208h27l-257 -212zM114 0h-18v700h18v-700zM224 -200h-19l54 156h19z" />
    <glyph glyph-name="kgreenlandic" unicode="&#x138;" horiz-adv-x="510" 
d="M469 0h-26l-290 253v9l252 208h27l-257 -212zM114 0h-18v470h18v-470z" />
    <glyph glyph-name="Lacute" unicode="&#x139;" horiz-adv-x="591" 
d="M134 765h-22l97 124h22zM557 0h-440v700h18v-683h422v-17z" />
    <glyph glyph-name="lacute" unicode="&#x13a;" horiz-adv-x="262" 
d="M116 765h-22l97 124h22zM186 -12c-52 0 -94 28 -94 103v609h18v-609c0 -57 26 -86 77 -86c20 0 38 6 55 17v-20c-17 -9 -35 -14 -56 -14z" />
    <glyph glyph-name="uni013B" unicode="&#x13b;" horiz-adv-x="586" 
d="M298 -200h-19l54 156h19zM552 0h-440v700h18v-683h422v-17z" />
    <glyph glyph-name="lcommaaccent" unicode="&#x13c;" horiz-adv-x="262" 
d="M131 -200h-19l54 156h19zM186 -12c-52 0 -94 28 -94 103v609h18v-609c0 -57 26 -86 77 -86c20 0 38 6 55 17v-20c-17 -9 -35 -14 -56 -14z" />
    <glyph glyph-name="Lcaron" unicode="&#x13d;" horiz-adv-x="619" 
d="M493 544h-19l54 156h19zM552 0h-440v700h18v-683h422v-17z" />
    <glyph glyph-name="lcaron" unicode="&#x13e;" horiz-adv-x="305" 
d="M259 544h-19l54 156h19zM196 -12c-52 0 -94 28 -94 103v609h18v-609c0 -57 26 -86 77 -86c20 0 38 6 55 17v-20c-17 -9 -35 -14 -56 -14z" />
    <glyph glyph-name="Ldot" unicode="&#x13f;" horiz-adv-x="586" 
d="M552 0h-440v700h18v-683h422v-17zM545 359c-9 -8 -25 -8 -34 0c-9 9 -9 27 0 35c22 22 57 -12 34 -35z" />
    <glyph glyph-name="ldot" unicode="&#x140;" horiz-adv-x="333" 
d="M196 -12c-52 0 -94 28 -94 103v609h18v-609c0 -57 26 -86 77 -86c20 0 38 6 55 17v-20c-17 -9 -35 -14 -56 -14zM276 359c-8 -9 -26 -9 -35 0c-8 9 -8 25 0 34c23 23 57 -12 35 -34z" />
    <glyph glyph-name="Lslash" unicode="&#x141;" horiz-adv-x="596" 
d="M562 0h-440v366l-94 -55v20l94 55v314h18v-304l164 96v-20l-164 -96v-359h422v-17z" />
    <glyph glyph-name="lslash" unicode="&#x142;" horiz-adv-x="371" 
d="M255 -12c-52 0 -94 28 -94 103v284l-101 -59v20l101 59v305h18v-295l100 59v-20l-100 -59v-287c0 -62 26 -93 77 -93c20 0 38 6 55 17v-20c-17 -9 -35 -14 -56 -14z" />
    <glyph glyph-name="Nacute" unicode="&#x143;" horiz-adv-x="773" 
d="M130 0h-18v700h18l513 -669v669h18v-700h-18l-513 670v-670zM390 765h-22l97 124h22z" />
    <glyph glyph-name="nacute" unicode="&#x144;" horiz-adv-x="597" 
d="M114 348v-348h-18v470h18v-93c43 56 123 105 212 105c123 0 185 -72 185 -197v-285h-18v282c0 122 -56 183 -169 183c-41 0 -82 -12 -122 -35s-69 -51 -88 -82zM289 576h-22l97 124h22z" />
    <glyph glyph-name="uni0145" unicode="&#x145;" horiz-adv-x="773" 
d="M130 0h-18v700h18l513 -669v669h18v-700h-18l-513 670v-670zM356 -200h-19l54 156h19z" />
    <glyph glyph-name="uni0146" unicode="&#x146;" horiz-adv-x="597" 
d="M114 348v-348h-18v470h18v-93c43 56 123 105 212 105c123 0 185 -72 185 -197v-285h-18v282c0 122 -56 183 -169 183c-41 0 -82 -12 -122 -35s-69 -51 -88 -82zM268 -200h-19l54 156h19z" />
    <glyph glyph-name="Ncaron" unicode="&#x147;" horiz-adv-x="773" 
d="M386 765h-18l-103 124h21l91 -108l91 108h21zM130 0h-18v700h18l513 -669v669h18v-700h-18l-513 670v-670z" />
    <glyph glyph-name="ncaron" unicode="&#x148;" horiz-adv-x="597" 
d="M333 576h-18l-103 124h21l91 -108l91 108h21zM114 348v-348h-18v470h18v-93c43 56 123 105 212 105c123 0 185 -72 185 -197v-285h-18v282c0 122 -56 183 -169 183c-41 0 -82 -12 -122 -35s-69 -51 -88 -82z" />
    <glyph glyph-name="napostrophe" unicode="&#x149;" horiz-adv-x="633" 
d="M150 348v-348h-18v470h18v-93c43 56 123 105 212 105c123 0 185 -72 185 -197v-285h-18v282c0 122 -56 183 -169 183c-41 0 -82 -12 -122 -35s-69 -51 -88 -82zM39 544h-19l54 156h19z" />
    <glyph glyph-name="Eng" unicode="&#x14a;" horiz-adv-x="773" 
d="M494 -203c-41 0 -77 8 -107 25v23c31 -21 67 -31 107 -31c99 0 149 59 149 178v8l-513 670v-670h-18v700h18l513 -669v669h18v-714c0 -126 -56 -189 -167 -189z" />
    <glyph glyph-name="eng" unicode="&#x14b;" horiz-adv-x="597" 
d="M400 -203c-24 0 -46 5 -66 16v20c20 -13 42 -19 66 -19c62 0 93 37 93 110v358c0 122 -56 183 -169 183c-41 0 -82 -12 -122 -35s-69 -51 -88 -82v-348h-18v470h18v-93c43 56 123 105 212 105c123 0 185 -72 185 -197v-366c0 -81 -37 -122 -111 -122z" />
    <glyph glyph-name="Omacron" unicode="&#x14c;" horiz-adv-x="848" 
d="M193 104c63 -66 140 -99 231 -99s168 33 231 98c63 66 94 148 94 247s-31 181 -94 246c-63 66 -140 99 -231 99s-168 -33 -231 -99s-94 -148 -94 -246s31 -180 94 -246zM81 350c0 104 33 190 98 259c66 69 148 103 245 103s179 -34 244 -103c66 -69 99 -155 99 -259
c0 -105 -33 -191 -99 -260c-65 -68 -147 -102 -244 -102s-179 34 -245 102c-65 69 -98 155 -98 260zM528 818h-209v17h209v-17z" />
    <glyph glyph-name="omacron" unicode="&#x14d;" horiz-adv-x="611" 
d="M306 5c64 0 118 22 161 66c44 45 66 99 66 164s-22 119 -66 163c-43 45 -97 67 -161 67c-65 0 -119 -22 -163 -67c-43 -44 -65 -98 -65 -163s22 -119 65 -164c44 -44 98 -66 163 -66zM60 235c0 67 23 124 68 173c46 49 105 74 178 74s132 -25 177 -74s68 -106 68 -173
s-23 -125 -68 -174s-104 -73 -177 -73s-132 24 -178 73c-45 49 -68 107 -68 174zM412 635h-209v17h209v-17z" />
    <glyph glyph-name="Obreve" unicode="&#x14e;" horiz-adv-x="848" 
d="M193 104c63 -66 140 -99 231 -99s168 33 231 98c63 66 94 148 94 247s-31 181 -94 246c-63 66 -140 99 -231 99s-168 -33 -231 -99s-94 -148 -94 -246s31 -180 94 -246zM81 350c0 104 33 190 98 259c66 69 148 103 245 103s179 -34 244 -103c66 -69 99 -155 99 -259
c0 -105 -33 -191 -99 -260c-65 -68 -147 -102 -244 -102s-179 34 -245 102c-65 69 -98 155 -98 260zM309 877h18c0 -55 44 -98 97 -98s97 43 97 98h18c0 -31 -11 -58 -34 -81s-50 -34 -81 -34s-58 11 -81 34s-34 50 -34 81z" />
    <glyph glyph-name="obreve" unicode="&#x14f;" horiz-adv-x="611" 
d="M306 5c64 0 118 22 161 66c44 45 66 99 66 164s-22 119 -66 163c-43 45 -97 67 -161 67c-65 0 -119 -22 -163 -67c-43 -44 -65 -98 -65 -163s22 -119 65 -164c44 -44 98 -66 163 -66zM60 235c0 67 23 124 68 173c46 49 105 74 178 74s132 -25 177 -74s68 -106 68 -173
s-23 -125 -68 -174s-104 -73 -177 -73s-132 24 -178 73c-45 49 -68 107 -68 174zM194 694h18c0 -55 44 -98 97 -98s97 43 97 98h18c0 -31 -11 -58 -34 -81s-50 -34 -81 -34s-58 11 -81 34s-34 50 -34 81z" />
    <glyph glyph-name="Ohungarumlaut" unicode="&#x150;" horiz-adv-x="848" 
d="M365 765h-22l97 124h22zM485 765h-22l97 124h22zM193 104c63 -66 140 -99 231 -99s168 33 231 98c63 66 94 148 94 247s-31 181 -94 246c-63 66 -140 99 -231 99s-168 -33 -231 -99s-94 -148 -94 -246s31 -180 94 -246zM81 350c0 104 33 190 98 259
c66 69 148 103 245 103s179 -34 244 -103c66 -69 99 -155 99 -259c0 -105 -33 -191 -99 -260c-65 -68 -147 -102 -244 -102s-179 34 -245 102c-65 69 -98 155 -98 260z" />
    <glyph glyph-name="ohungarumlaut" unicode="&#x151;" horiz-adv-x="611" 
d="M245 576h-22l97 124h22zM365 576h-22l97 124h22zM306 5c64 0 118 22 161 66c44 45 66 99 66 164s-22 119 -66 163c-43 45 -97 67 -161 67c-65 0 -119 -22 -163 -67c-43 -44 -65 -98 -65 -163s22 -119 65 -164c44 -44 98 -66 163 -66zM60 235c0 67 23 124 68 173
c46 49 105 74 178 74s132 -25 177 -74s68 -106 68 -173s-23 -125 -68 -174s-104 -73 -177 -73s-132 24 -178 73c-45 49 -68 107 -68 174z" />
    <glyph glyph-name="OE" unicode="&#x152;" horiz-adv-x="1160" 
d="M1110 0h-654c-112 0 -203 32 -272 96c-69 65 -103 149 -103 254s34 189 103 253c69 65 160 97 272 97h636v-17h-434v-297h361v-17h-361v-352h452v-17zM464 17h176v666h-176c-113 0 -203 -31 -268 -92s-97 -141 -97 -241s32 -181 97 -242s155 -91 268 -91z" />
    <glyph glyph-name="oe" unicode="&#x153;" horiz-adv-x="1041" 
d="M308 -12c-76 0 -136 25 -181 75s-67 107 -67 172s22 122 67 172s105 75 181 75c123 0 207 -75 238 -175c27 105 111 175 222 175c173 0 215 -154 215 -233v-7h-428v-7c0 -66 22 -121 67 -165c45 -43 101 -65 170 -65c61 0 112 15 153 44v-19c-38 -28 -89 -42 -153 -42
c-60 0 -112 16 -157 49c-44 33 -74 75 -89 127c-15 -51 -43 -93 -84 -126s-93 -50 -154 -50zM144 71c44 -44 99 -66 164 -66s120 22 163 66c44 45 66 99 66 164s-22 119 -66 163c-43 45 -98 67 -163 67s-120 -22 -164 -67c-44 -44 -66 -98 -66 -163s22 -119 66 -164z
M556 259h409c0 43 -13 87 -42 131c-28 44 -84 75 -155 75c-63 0 -113 -21 -151 -64c-38 -42 -58 -89 -61 -142z" />
    <glyph glyph-name="Racute" unicode="&#x154;" horiz-adv-x="735" 
d="M130 0h-18v700h306c129 0 204 -69 204 -177c0 -101 -66 -169 -182 -177l235 -346h-21l-236 346h-288v-346zM130 683v-320h286c119 0 188 59 188 160s-69 160 -188 160h-286zM329 765h-22l97 124h22z" />
    <glyph glyph-name="racute" unicode="&#x155;" horiz-adv-x="321" 
d="M161 576h-22l97 124h22zM114 0h-18v470h18v-107c15 28 39 55 72 80c34 25 74 38 120 39v-17c-41 0 -79 -13 -114 -40c-35 -26 -61 -57 -78 -93v-332z" />
    <glyph glyph-name="uni0156" unicode="&#x156;" horiz-adv-x="735" 
d="M130 0h-18v700h306c129 0 204 -69 204 -177c0 -101 -66 -169 -182 -177l235 -346h-21l-236 346h-288v-346zM130 683v-320h286c119 0 188 59 188 160s-69 160 -188 160h-286zM321 -200h-19l54 156h19z" />
    <glyph glyph-name="uni0157" unicode="&#x157;" horiz-adv-x="321" 
d="M57 -200h-19l54 156h19zM114 0h-18v470h18v-107c15 28 39 55 72 80c34 25 74 38 120 39v-17c-41 0 -79 -13 -114 -40c-35 -26 -61 -57 -78 -93v-332z" />
    <glyph glyph-name="Rcaron" unicode="&#x158;" horiz-adv-x="735" 
d="M130 0h-18v700h306c129 0 204 -69 204 -177c0 -101 -66 -169 -182 -177l235 -346h-21l-236 346h-288v-346zM130 683v-320h286c119 0 188 59 188 160s-69 160 -188 160h-286zM346 765h-18l-103 124h21l91 -108l91 108h21z" />
    <glyph glyph-name="rcaron" unicode="&#x159;" horiz-adv-x="321" 
d="M206 576h-18l-103 124h21l91 -108l91 108h21zM114 0h-18v470h18v-107c15 28 39 55 72 80c34 25 74 38 120 39v-17c-41 0 -79 -13 -114 -40c-35 -26 -61 -57 -78 -93v-332z" />
    <glyph glyph-name="Sacute" unicode="&#x15a;" horiz-adv-x="619" 
d="M300 -12c-52 0 -101 8 -147 23s-81 33 -105 52v22c52 -43 144 -80 249 -80c67 0 122 16 165 47c43 32 65 74 65 125c0 83 -53 129 -146 161c-9 3 -38 12 -86 25l-84 25c-95 33 -142 74 -142 158c0 46 19 85 58 117c39 33 94 49 166 49c81 0 150 -20 207 -59v-20
c-62 41 -130 62 -205 62c-68 0 -120 -15 -155 -44s-53 -64 -53 -105c0 -79 50 -116 139 -145l77 -22c48 -13 77 -22 88 -26c96 -35 154 -84 154 -176c0 -59 -24 -106 -72 -139s-106 -50 -173 -50zM290 765h-22l97 124h22z" />
    <glyph glyph-name="sacute" unicode="&#x15b;" horiz-adv-x="494" 
d="M240 -12c-77 0 -157 27 -194 54v21c43 -29 115 -58 194 -58c104 0 172 45 172 112c0 65 -53 88 -169 113c-123 27 -178 59 -178 132c0 72 63 120 175 120c67 0 122 -15 167 -45v-19c-49 31 -104 47 -165 47c-105 0 -159 -43 -159 -103c0 -29 15 -54 34 -69
c9 -7 22 -14 38 -21c33 -12 51 -17 91 -25c49 -11 75 -17 110 -32c47 -18 74 -47 74 -98c0 -41 -18 -72 -55 -95s-82 -34 -135 -34zM232 576h-22l97 124h22z" />
    <glyph glyph-name="Scircumflex" unicode="&#x15c;" horiz-adv-x="619" 
d="M300 -12c-52 0 -101 8 -147 23s-81 33 -105 52v22c52 -43 144 -80 249 -80c67 0 122 16 165 47c43 32 65 74 65 125c0 83 -53 129 -146 161c-9 3 -38 12 -86 25l-84 25c-95 33 -142 74 -142 158c0 46 19 85 58 117c39 33 94 49 166 49c81 0 150 -20 207 -59v-20
c-62 41 -130 62 -205 62c-68 0 -120 -15 -155 -44s-53 -64 -53 -105c0 -79 50 -116 139 -145l77 -22c48 -13 77 -22 88 -26c96 -35 154 -84 154 -176c0 -59 -24 -106 -72 -139s-106 -50 -173 -50zM220 765h-21l103 124h18l103 -124h-21l-91 108z" />
    <glyph glyph-name="scircumflex" unicode="&#x15d;" horiz-adv-x="494" 
d="M240 -12c-77 0 -157 27 -194 54v21c43 -29 115 -58 194 -58c104 0 172 45 172 112c0 65 -53 88 -169 113c-123 27 -178 59 -178 132c0 72 63 120 175 120c67 0 122 -15 167 -45v-19c-49 31 -104 47 -165 47c-105 0 -159 -43 -159 -103c0 -29 15 -54 34 -69
c9 -7 22 -14 38 -21c33 -12 51 -17 91 -25c49 -11 75 -17 110 -32c47 -18 74 -47 74 -98c0 -41 -18 -72 -55 -95s-82 -34 -135 -34zM156 576h-21l103 124h18l103 -124h-21l-91 108z" />
    <glyph glyph-name="Scedilla" unicode="&#x15e;" horiz-adv-x="619" 
d="M300 -12c-52 0 -101 8 -147 23s-81 33 -105 52v22c52 -43 144 -80 249 -80c67 0 122 16 165 47c43 32 65 74 65 125c0 83 -53 129 -146 161c-9 3 -38 12 -86 25l-84 25c-95 33 -142 74 -142 158c0 46 19 85 58 117c39 33 94 49 166 49c81 0 150 -20 207 -59v-20
c-62 41 -130 62 -205 62c-68 0 -120 -15 -155 -44s-53 -64 -53 -105c0 -79 50 -116 139 -145l77 -22c48 -13 77 -22 88 -26c96 -35 154 -84 154 -176c0 -59 -24 -106 -72 -139s-106 -50 -173 -50zM260 -121h-23l81 124h18z" />
    <glyph glyph-name="scedilla" unicode="&#x15f;" horiz-adv-x="494" 
d="M197 -121h-23l71 109h-5c-77 0 -157 27 -194 54v21c43 -29 115 -58 194 -58c104 0 172 45 172 112c0 35 -15 58 -46 73c-31 16 -58 24 -105 36l-21 5c-48 12 -68 17 -103 32c-49 21 -68 47 -72 99c0 72 63 120 175 120c67 0 122 -15 167 -45v-19c-49 31 -104 47 -165 47
c-105 0 -159 -43 -159 -103c0 -28 15 -53 31 -66c8 -7 20 -13 35 -20c32 -13 46 -17 85 -26l12 -3l20 -5c43 -11 56 -13 91 -28c48 -20 68 -46 73 -97c0 -75 -71 -121 -166 -128z" />
    <glyph glyph-name="Scaron" unicode="&#x160;" horiz-adv-x="619" 
d="M300 -12c-52 0 -101 8 -147 23s-81 33 -105 52v22c52 -43 144 -80 249 -80c67 0 122 16 165 47c43 32 65 74 65 125c0 83 -53 129 -146 161c-9 3 -38 12 -86 25l-84 25c-95 33 -142 74 -142 158c0 46 19 85 58 117c39 33 94 49 166 49c81 0 150 -20 207 -59v-20
c-62 41 -130 62 -205 62c-68 0 -120 -15 -155 -44s-53 -64 -53 -105c0 -79 50 -116 139 -145l77 -22c48 -13 77 -22 88 -26c96 -35 154 -84 154 -176c0 -59 -24 -106 -72 -139s-106 -50 -173 -50zM302 765h-18l-103 124h21l91 -108l91 108h21z" />
    <glyph glyph-name="scaron" unicode="&#x161;" horiz-adv-x="494" 
d="M240 -12c-77 0 -157 27 -194 54v21c43 -29 115 -58 194 -58c104 0 172 45 172 112c0 65 -53 88 -169 113c-123 27 -178 59 -178 132c0 72 63 120 175 120c67 0 122 -15 167 -45v-19c-49 31 -104 47 -165 47c-105 0 -159 -43 -159 -103c0 -29 15 -54 34 -69
c9 -7 22 -14 38 -21c33 -12 51 -17 91 -25c49 -11 75 -17 110 -32c47 -18 74 -47 74 -98c0 -41 -18 -72 -55 -95s-82 -34 -135 -34zM251 576h-18l-103 124h21l91 -108l91 108h21z" />
    <glyph glyph-name="uni0162" unicode="&#x162;" horiz-adv-x="611" 
d="M240 -121h-23l79 121v683h-259v17h537v-17h-260v-683z" />
    <glyph glyph-name="uni0163" unicode="&#x163;" horiz-adv-x="415" 
d="M205 -121h-23l72 110c-59 7 -96 44 -96 115v349h-128v17h128v160h18v-160h189v-17h-189v-344c0 -69 32 -104 96 -104c29 0 57 8 85 25v-19c-23 -15 -52 -23 -85 -23z" />
    <glyph glyph-name="Tcaron" unicode="&#x164;" horiz-adv-x="611" 
d="M314 765h-18l-103 124h21l91 -108l91 108h21zM314 0h-18v683h-259v17h537v-17h-260v-683z" />
    <glyph glyph-name="tcaron" unicode="&#x165;" horiz-adv-x="487" 
d="M286 -12c-68 0 -114 37 -114 116v349h-128v17h128v160h18v-160h189v-17h-189v-344c0 -69 32 -104 96 -104c29 0 57 8 85 25v-19c-23 -15 -52 -23 -85 -23zM441 544h-19l54 156h19z" />
    <glyph glyph-name="Tbar" unicode="&#x166;" horiz-adv-x="611" 
d="M314 0h-18v369h-165v17h165v297h-259v17h537v-17h-260v-297h166v-17h-166v-369z" />
    <glyph glyph-name="tbar" unicode="&#x167;" horiz-adv-x="415" 
d="M272 -12c-68 0 -114 37 -114 116v145h-122v17h122v187h-128v17h128v160h18v-160h189v-17h-189v-187h189v-17h-189v-140c0 -69 32 -104 96 -104c29 0 57 8 85 25v-19c-23 -15 -52 -23 -85 -23z" />
    <glyph glyph-name="Utilde" unicode="&#x168;" horiz-adv-x="746" 
d="M452 784c-18 0 -43 11 -76 34c-32 23 -56 34 -71 34c-27 0 -42 -21 -45 -62h-17c2 53 23 79 62 79c19 0 44 -11 76 -34c33 -23 56 -34 71 -34c27 0 42 21 45 62h17c-2 -53 -23 -79 -62 -79zM101 299v401h18v-400c0 -185 95 -295 254 -295s254 111 254 295v400h18v-401
c0 -99 -25 -176 -74 -230s-115 -81 -198 -81s-149 27 -198 81s-74 131 -74 230z" />
    <glyph glyph-name="utilde" unicode="&#x169;" horiz-adv-x="600" 
d="M274 -12c-123 0 -185 72 -185 197v285h18v-282c0 -122 56 -183 169 -183c41 0 82 12 122 35s69 51 88 82v348h18v-470h-18v93c-43 -56 -123 -105 -212 -105zM372 601c-18 0 -43 11 -76 34c-32 23 -56 35 -71 35c-27 0 -42 -21 -45 -62h-17c1 51 25 79 62 79
c19 0 44 -12 76 -35c33 -23 56 -34 71 -34c27 0 42 21 45 63h17c-2 -53 -23 -80 -62 -80z" />
    <glyph glyph-name="Umacron" unicode="&#x16a;" horiz-adv-x="746" 
d="M101 299v401h18v-400c0 -185 95 -295 254 -295s254 111 254 295v400h18v-401c0 -99 -25 -176 -74 -230s-115 -81 -198 -81s-149 27 -198 81s-74 131 -74 230zM481 818h-209v17h209v-17z" />
    <glyph glyph-name="umacron" unicode="&#x16b;" horiz-adv-x="600" 
d="M274 -12c-123 0 -185 72 -185 197v285h18v-282c0 -122 56 -183 169 -183c41 0 82 12 122 35s69 51 88 82v348h18v-470h-18v93c-43 -56 -123 -105 -212 -105zM403 635h-209v17h209v-17z" />
    <glyph glyph-name="Ubreve" unicode="&#x16c;" horiz-adv-x="746" 
d="M101 299v401h18v-400c0 -185 95 -295 254 -295s254 111 254 295v400h18v-401c0 -99 -25 -176 -74 -230s-115 -81 -198 -81s-149 27 -198 81s-74 131 -74 230zM258 877h18c0 -55 44 -98 97 -98s97 43 97 98h18c0 -31 -11 -58 -34 -81s-50 -34 -81 -34s-58 11 -81 34
s-34 50 -34 81z" />
    <glyph glyph-name="ubreve" unicode="&#x16d;" horiz-adv-x="600" 
d="M274 -12c-123 0 -185 72 -185 197v285h18v-282c0 -122 56 -183 169 -183c41 0 82 12 122 35s69 51 88 82v348h18v-470h-18v93c-43 -56 -123 -105 -212 -105zM177 694h18c0 -55 44 -98 97 -98s97 43 97 98h18c0 -31 -11 -58 -34 -81s-50 -34 -81 -34s-58 11 -81 34
s-34 50 -34 81z" />
    <glyph glyph-name="Uring" unicode="&#x16e;" horiz-adv-x="746" 
d="M287 827c0 47 40 88 88 88s88 -41 88 -88c0 -48 -40 -88 -88 -88s-88 40 -88 88zM325 776c27 -27 73 -27 100 0c27 28 27 74 0 101c-27 28 -73 28 -100 0c-27 -27 -27 -73 0 -101zM101 299v401h18v-400c0 -185 95 -295 254 -295s254 111 254 295v400h18v-401
c0 -99 -25 -176 -74 -230s-115 -81 -198 -81s-149 27 -198 81s-74 131 -74 230z" />
    <glyph glyph-name="uring" unicode="&#x16f;" horiz-adv-x="600" 
d="M274 -12c-123 0 -185 72 -185 197v285h18v-282c0 -122 56 -183 169 -183c41 0 82 12 122 35s69 51 88 82v348h18v-470h-18v93c-43 -56 -123 -105 -212 -105zM208 644c0 47 40 88 88 88s88 -41 88 -88c0 -48 -40 -88 -88 -88s-88 40 -88 88zM246 593c27 -27 73 -27 100 0
c27 28 27 74 0 101c-27 28 -73 28 -100 0c-27 -27 -27 -73 0 -101z" />
    <glyph glyph-name="Uhungarumlaut" unicode="&#x170;" horiz-adv-x="746" 
d="M308 765h-22l97 124h22zM428 765h-22l97 124h22zM101 299v401h18v-400c0 -185 95 -295 254 -295s254 111 254 295v400h18v-401c0 -99 -25 -176 -74 -230s-115 -81 -198 -81s-149 27 -198 81s-74 131 -74 230z" />
    <glyph glyph-name="uhungarumlaut" unicode="&#x171;" horiz-adv-x="600" 
d="M232 576h-22l97 124h22zM352 576h-22l97 124h22zM274 -12c-123 0 -185 72 -185 197v285h18v-282c0 -122 56 -183 169 -183c41 0 82 12 122 35s69 51 88 82v348h18v-470h-18v93c-43 -56 -123 -105 -212 -105z" />
    <glyph glyph-name="Uogonek" unicode="&#x172;" horiz-adv-x="746" 
d="M505 -187c-60 0 -99 41 -99 96c0 33 10 62 29 85c-20 -4 -41 -6 -62 -6c-83 0 -149 27 -198 81s-74 131 -74 230v401h18v-400c0 -185 95 -295 254 -295s254 111 254 295v400h18v-401c0 -151 -57 -249 -171 -295c-28 -11 -50 -52 -50 -93c0 -48 35 -81 84 -81
c11 0 25 2 41 6v-17c-15 -4 -29 -6 -44 -6z" />
    <glyph glyph-name="uogonek" unicode="&#x173;" horiz-adv-x="600" 
d="M548 -187c-60 0 -99 41 -99 96c0 36 12 66 37 91v93c-43 -56 -123 -105 -212 -105c-123 0 -185 72 -185 197v285h18v-282c0 -122 56 -183 169 -183c41 0 82 12 122 35s69 51 88 82v348h18v-470c-25 -27 -37 -57 -37 -89c0 -48 35 -81 84 -81c11 0 25 2 41 6v-17
c-15 -4 -29 -6 -44 -6z" />
    <glyph glyph-name="Wcircumflex" unicode="&#x174;" horiz-adv-x="1029" 
d="M313 -4h-16l-246 704h20l234 -674l201 674h16l201 -674l234 674h20l-246 -704h-16l-201 668zM422 765h-21l103 124h18l103 -124h-21l-91 108z" />
    <glyph glyph-name="wcircumflex" unicode="&#x175;" horiz-adv-x="806" 
d="M243 -4h-16l-177 474h20l164 -445l161 447h16l161 -447l165 445h19l-176 -474h-16l-161 448zM312 576h-21l103 124h18l103 -124h-21l-91 108z" />
    <glyph glyph-name="Ycircumflex" unicode="&#x176;" horiz-adv-x="626" 
d="M322 0h-18v327l-274 373h23l260 -354l260 354h23l-274 -373v-327zM223 765h-21l103 124h18l103 -124h-21l-91 108z" />
    <glyph glyph-name="ycircumflex" unicode="&#x177;" horiz-adv-x="522" 
d="M85 -203c-24 0 -44 5 -61 15v18c19 -11 39 -16 60 -16c34 0 62 16 85 47s51 84 82 158l-215 451h20l205 -429l201 429h20l-245 -525c-47 -99 -87 -148 -152 -148zM175 576h-21l103 124h18l103 -124h-21l-91 108z" />
    <glyph glyph-name="Ydieresis" unicode="&#x178;" horiz-adv-x="626" 
d="M322 0h-18v327l-274 373h23l260 -354l260 354h23l-274 -373v-327zM240 805c-8 -9 -26 -9 -35 0c-8 9 -8 25 0 34c23 23 57 -12 35 -34zM420 805c-8 -9 -26 -9 -35 0c-8 9 -8 25 0 34c23 23 57 -12 35 -34z" />
    <glyph glyph-name="Zacute" unicode="&#x179;" horiz-adv-x="673" 
d="M591 0h-517v13l478 670h-449v17h473v-13l-477 -670h492v-17zM336 765h-22l97 124h22z" />
    <glyph glyph-name="zacute" unicode="&#x17a;" horiz-adv-x="480" 
d="M440 0h-401v13l359 440h-333v17h360v-13l-358 -440h373v-17zM234 576h-22l97 124h22z" />
    <glyph glyph-name="Zdotaccent" unicode="&#x17b;" horiz-adv-x="673" 
d="M591 0h-517v13l478 670h-449v17h473v-13l-477 -670h492v-17zM347 805c-22 -22 -56 12 -34 34s56 -12 34 -34z" />
    <glyph glyph-name="zdotaccent" unicode="&#x17c;" horiz-adv-x="480" 
d="M440 0h-401v13l359 440h-333v17h360v-13l-358 -440h373v-17zM259 627c-22 -22 -56 12 -34 34s56 -12 34 -34z" />
    <glyph glyph-name="Zcaron" unicode="&#x17d;" horiz-adv-x="673" 
d="M350 765h-18l-103 124h21l91 -108l91 108h21zM591 0h-517v13l478 670h-449v17h473v-13l-477 -670h492v-17z" />
    <glyph glyph-name="zcaron" unicode="&#x17e;" horiz-adv-x="480" 
d="M250 576h-18l-103 124h21l91 -108l91 108h21zM440 0h-401v13l359 440h-333v17h360v-13l-358 -440h373v-17z" />
    <glyph glyph-name="longs" unicode="&#x17f;" horiz-adv-x="303" 
d="M165 575v-575h-18v453h-102v17h102v111c0 79 41 124 113 124c29 0 57 -7 83 -20v-19c-28 15 -56 22 -83 22c-61 0 -95 -41 -95 -113z" />
    <glyph glyph-name="florin" unicode="&#x192;" horiz-adv-x="432" 
d="M371 705c29 0 55 -5 78 -16v-19c-24 12 -50 18 -78 18c-81 0 -129 -48 -148 -168l-21 -138h178l1 -17h-182l-59 -387c-17 -111 -73 -181 -166 -181c-27 0 -53 5 -76 16v19c24 -12 49 -18 76 -18c82 0 132 56 149 168l58 383h-148l-1 17h152l22 142c19 124 69 181 165 181
z" />
    <glyph glyph-name="uni0218" unicode="&#x218;" horiz-adv-x="619" 
d="M300 -12c-52 0 -101 8 -147 23s-81 33 -105 52v22c52 -43 144 -80 249 -80c67 0 122 16 165 47c43 32 65 74 65 125c0 83 -53 129 -146 161c-9 3 -38 12 -86 25l-84 25c-95 33 -142 74 -142 158c0 46 19 85 58 117c39 33 94 49 166 49c81 0 150 -20 207 -59v-20
c-62 41 -130 62 -205 62c-68 0 -120 -15 -155 -44s-53 -64 -53 -105c0 -79 50 -116 139 -145l77 -22c48 -13 77 -22 88 -26c96 -35 154 -84 154 -176c0 -59 -24 -106 -72 -139s-106 -50 -173 -50zM264 -200h-19l54 156h19z" />
    <glyph glyph-name="uni0219" unicode="&#x219;" horiz-adv-x="494" 
d="M240 -12c-77 0 -157 27 -194 54v21c43 -29 115 -58 194 -58c104 0 172 45 172 112c0 65 -53 88 -169 113c-123 27 -178 59 -178 132c0 72 63 120 175 120c67 0 122 -15 167 -45v-19c-49 31 -104 47 -165 47c-105 0 -159 -43 -159 -103c0 -29 15 -54 34 -69
c9 -7 22 -14 38 -21c33 -12 51 -17 91 -25c49 -11 75 -17 110 -32c47 -18 74 -47 74 -98c0 -41 -18 -72 -55 -95s-82 -34 -135 -34zM197 -200h-19l54 156h19z" />
    <glyph glyph-name="uni021A" unicode="&#x21a;" horiz-adv-x="611" 
d="M255 -200h-19l54 156h19zM314 0h-18v683h-259v17h537v-17h-260v-683z" />
    <glyph glyph-name="uni021B" unicode="&#x21b;" horiz-adv-x="415" 
d="M272 -12c-68 0 -114 37 -114 116v349h-128v17h128v160h18v-160h189v-17h-189v-344c0 -69 32 -104 96 -104c29 0 57 8 85 25v-19c-23 -15 -52 -23 -85 -23zM226 -200h-19l54 156h19z" />
    <glyph glyph-name="circumflex" unicode="&#x2c6;" horiz-adv-x="520" 
d="M169 576h-21l103 124h18l103 -124h-21l-91 108z" />
    <glyph glyph-name="caron" unicode="&#x2c7;" horiz-adv-x="520" 
d="M269 576h-18l-103 124h21l91 -108l91 108h21z" />
    <glyph glyph-name="uni02C9" unicode="&#x2c9;" horiz-adv-x="520" 
d="M425 635h-329v17h329v-17z" />
    <glyph glyph-name="breve" unicode="&#x2d8;" horiz-adv-x="520" 
d="M145 694h18c0 -55 44 -98 97 -98s97 43 97 98h18c0 -31 -11 -58 -34 -81s-50 -34 -81 -34s-58 11 -81 34s-34 50 -34 81z" />
    <glyph glyph-name="dotaccent" unicode="&#x2d9;" horiz-adv-x="520" 
d="M277 627c-22 -22 -56 12 -34 34s56 -12 34 -34z" />
    <glyph glyph-name="ring" unicode="&#x2da;" horiz-adv-x="520" 
d="M172 644c0 47 40 88 88 88s88 -41 88 -88c0 -48 -40 -88 -88 -88s-88 40 -88 88zM210 593c27 -27 73 -27 100 0c27 28 27 74 0 101c-27 28 -73 28 -100 0c-27 -27 -27 -73 0 -101z" />
    <glyph glyph-name="ogonek" unicode="&#x2db;" horiz-adv-x="520" 
d="M309 -181c-60 0 -99 41 -99 96c0 37 12 68 37 93h20c-26 -29 -39 -60 -39 -91c0 -48 35 -81 84 -81c11 0 25 2 41 6v-17c-15 -4 -29 -6 -44 -6z" />
    <glyph glyph-name="tilde" unicode="&#x2dc;" horiz-adv-x="520" 
d="M334 601c-18 0 -43 11 -76 34c-32 23 -56 35 -71 35c-27 0 -42 -21 -45 -62h-17c1 51 25 79 62 79c19 0 44 -12 76 -35c33 -23 56 -34 71 -34c27 0 42 21 45 63h17c-2 -53 -23 -80 -62 -80z" />
    <glyph glyph-name="hungarumlaut" unicode="&#x2dd;" horiz-adv-x="520" 
d="M166 576h-22l97 124h22zM286 576h-22l97 124h22z" />
    <glyph glyph-name="acutecomb" unicode="&#x301;" horiz-adv-x="20" 
d="M-268 576h-22l97 124h22z" />
    <glyph glyph-name="uni037E" unicode="&#x37e;" horiz-adv-x="208" 
d="M62 -152h-19l75 218h19zM121 411c-22 -22 -56 12 -34 34s56 -12 34 -34z" />
    <glyph glyph-name="uni0394" unicode="&#x394;" horiz-adv-x="734" 
d="M697 0h-660l322 700h16zM367 674l-303 -657h606z" />
    <glyph glyph-name="uni03A9" unicode="&#x3a9;" horiz-adv-x="807" 
d="M286 0h-162v17h136c-41 41 -75 92 -102 151s-40 122 -40 189c0 105 27 191 80 256c53 66 122 99 205 99s152 -33 205 -98c54 -65 81 -151 81 -257c0 -67 -14 -130 -41 -189s-61 -110 -102 -151h137v-17h-162v17c42 37 77 86 106 147s44 126 44 193c0 100 -26 181 -77 244
s-114 94 -191 94c-76 0 -140 -31 -191 -94s-76 -144 -76 -244c0 -67 14 -132 43 -193s65 -110 107 -147v-17z" />
    <glyph glyph-name="uni03BC" unicode="&#x3bc;" horiz-adv-x="607" 
d="M114 -200h-18v670h18v-283c0 -121 56 -182 169 -182c41 0 82 12 122 35s69 51 88 82v348h18v-470h-18v93c-43 -56 -123 -105 -212 -105c-84 0 -140 32 -167 96v-284z" />
    <glyph glyph-name="pi" unicode="&#x3c0;" horiz-adv-x="661" 
d="M559 -3c-56 0 -84 38 -84 113v343h-317v-453h-18v453h-90v17h541v-17h-98v-339c0 -71 21 -100 66 -100c11 0 22 2 32 5v-16c-10 -4 -21 -6 -32 -6z" />
    <glyph glyph-name="uni0401" unicode="&#x401;" horiz-adv-x="634" 
d="M584 0h-472v700h454v-17h-436v-297h363v-17h-363v-352h454v-17zM264 805c-8 -9 -26 -9 -35 0c-8 9 -8 25 0 34c23 23 57 -12 35 -34zM444 805c-8 -9 -26 -9 -35 0c-8 9 -8 25 0 34c23 23 57 -12 35 -34z" />
    <glyph glyph-name="uni0402" unicode="&#x402;" horiz-adv-x="734" 
d="M466 -12c-43 0 -84 7 -123 22v19c37 -16 78 -24 123 -24c117 0 192 75 192 183c0 52 -20 97 -59 134c-39 38 -94 57 -164 57c-81 0 -159 -18 -234 -55v-324h-18v683h-146v17h459v-17h-295v-339c75 35 154 52 237 52c70 0 127 -20 171 -59c45 -39 67 -88 67 -149
c0 -120 -82 -200 -210 -200z" />
    <glyph glyph-name="uni0403" unicode="&#x403;" horiz-adv-x="588" 
d="M322 765h-22l97 124h22zM130 0h-18v700h439v-17h-421v-683z" />
    <glyph glyph-name="uni0404" unicode="&#x404;" horiz-adv-x="695" 
d="M424 -12c-97 0 -179 34 -245 102c-65 69 -98 155 -98 260c0 104 33 190 98 259c66 69 148 103 245 103c78 0 146 -20 203 -59v-20c-61 41 -128 62 -203 62c-89 0 -164 -31 -226 -94s-95 -141 -98 -236h372v-17h-373c1 -98 32 -180 94 -245c63 -65 140 -98 231 -98
c87 0 161 25 221 76v-22c-57 -47 -131 -71 -221 -71z" />
    <glyph glyph-name="uni0405" unicode="&#x405;" horiz-adv-x="619" 
d="M300 -12c-52 0 -101 8 -147 23s-81 33 -105 52v22c52 -43 144 -80 249 -80c67 0 122 16 165 47c43 32 65 74 65 125c0 83 -53 129 -146 161c-9 3 -38 12 -86 25l-84 25c-95 33 -142 74 -142 158c0 46 19 85 58 117c39 33 94 49 166 49c81 0 150 -20 207 -59v-20
c-62 41 -130 62 -205 62c-68 0 -120 -15 -155 -44s-53 -64 -53 -105c0 -79 50 -116 139 -145l77 -22c48 -13 77 -22 88 -26c96 -35 154 -84 154 -176c0 -59 -24 -106 -72 -139s-106 -50 -173 -50z" />
    <glyph glyph-name="uni0406" unicode="&#x406;" horiz-adv-x="256" 
d="M137 0h-18v700h18v-700z" />
    <glyph glyph-name="uni0407" unicode="&#x407;" horiz-adv-x="256" 
d="M137 0h-18v700h18v-700zM55 805c-22 -22 -56 12 -34 34s56 -12 34 -34zM235 805c-22 -22 -56 12 -34 34s56 -12 34 -34z" />
    <glyph glyph-name="uni0408" unicode="&#x408;" horiz-adv-x="498" 
d="M193 -12c-59 0 -111 17 -155 50v22c41 -37 93 -55 156 -55c122 0 183 65 183 196v499h18v-501c0 -139 -69 -211 -202 -211z" />
    <glyph glyph-name="uni0409" unicode="&#x409;" horiz-adv-x="1120" 
d="M15 0v18c37 0 70 14 93 33c24 20 43 60 56 92c13 33 24 94 29 134c3 21 5 47 7 79c3 33 4 60 5 81c1 22 3 51 4 86l6 177h383v-289h229c149 0 235 -80 235 -205s-86 -206 -235 -206h-247v683h-347l-6 -175c-2 -55 -4 -102 -7 -141c-5 -77 -17 -169 -37 -225
c-29 -84 -81 -146 -168 -142zM598 394v-377h227c140 0 219 69 219 189c0 119 -79 188 -219 188h-227z" />
    <glyph glyph-name="uni040A" unicode="&#x40a;" horiz-adv-x="1148" 
d="M130 0h-18v700h18v-289h478v289h18v-289h229c149 0 235 -80 235 -205s-86 -206 -235 -206h-247v394h-478v-394zM626 394v-377h227c140 0 219 69 219 189c0 119 -79 188 -219 188h-227z" />
    <glyph glyph-name="uni040B" unicode="&#x40b;" horiz-adv-x="756" 
d="M201 0h-18v683h-146v17h459v-17h-295v-333c81 31 162 46 241 46c77 0 136 -15 175 -45c39 -29 59 -83 59 -160v-191h-18v180c0 75 -17 127 -52 156s-94 43 -177 43c-74 0 -150 -16 -228 -48v-331z" />
    <glyph glyph-name="uni040C" unicode="&#x40c;" horiz-adv-x="645" 
d="M625 0h-27l-422 373v11l365 316h27l-370 -321zM130 0h-18v700h18v-700zM302 765h-22l97 124h22z" />
    <glyph glyph-name="uni040E" unicode="&#x40e;" 
d="M162 -12c-24 0 -47 4 -69 11v18c22 -8 44 -12 67 -12c31 0 58 12 81 36s48 70 77 137l3 7l-291 515h21l279 -495l230 495h20l-258 -554c-27 -59 -53 -100 -76 -123s-51 -35 -84 -35zM309 762c-89 0 -147 54 -147 131h18c0 -67 50 -114 129 -114c76 0 127 49 127 114h18
c0 -38 -14 -69 -42 -94c-27 -25 -62 -37 -103 -37z" />
    <glyph glyph-name="uni040F" unicode="&#x40f;" horiz-adv-x="739" 
d="M378 -167h-18v167h-248v700h18v-683h479v683h18v-700h-249v-167z" />
    <glyph glyph-name="uni0410" unicode="&#x410;" horiz-adv-x="734" 
d="M56 0h-19l322 705h16l322 -705h-19l-100 219h-422zM367 679l-203 -443h406z" />
    <glyph glyph-name="uni0411" unicode="&#x411;" horiz-adv-x="699" 
d="M386 0h-274v700h455v-17h-437v-272h256c149 0 235 -80 235 -205s-86 -206 -235 -206zM130 394v-377h254c140 0 219 69 219 189c0 119 -79 188 -219 188h-254z" />
    <glyph glyph-name="uni0412" unicode="&#x412;" horiz-adv-x="728" 
d="M433 0h-321v700h284c123 0 192 -64 192 -167c0 -77 -36 -128 -108 -153c109 -16 172 -85 172 -188c0 -117 -79 -192 -219 -192zM130 366v-349h302c129 0 202 64 202 175s-73 174 -202 174h-302zM130 683v-300h265c112 0 175 55 175 150s-63 150 -175 150h-265z" />
    <glyph glyph-name="uni0413" unicode="&#x413;" horiz-adv-x="588" 
d="M130 0h-18v700h439v-17h-421v-683z" />
    <glyph glyph-name="uni0414" unicode="&#x414;" horiz-adv-x="763" 
d="M38 -167h-18v184h64c52 69 89 148 112 237s34 217 34 384v62h385v-683h114v-184h-18v167h-673v-167zM106 17h491v666h-349v-48c0 -146 -11 -269 -32 -368s-58 -182 -110 -250z" />
    <glyph glyph-name="uni0415" unicode="&#x415;" horiz-adv-x="634" 
d="M584 0h-472v700h454v-17h-436v-297h363v-17h-363v-352h454v-17z" />
    <glyph glyph-name="uni0416" unicode="&#x416;" horiz-adv-x="1003" 
d="M46 0h-26l405 373l-352 327h26l348 -322v-11zM983 0h-26l-401 367v11l348 322h26l-352 -327zM510 0h-18v700h18v-700z" />
    <glyph glyph-name="uni0417" unicode="&#x417;" horiz-adv-x="617" 
d="M272 -12c-80 0 -154 16 -222 47v20c65 -33 138 -50 218 -50c78 0 140 17 186 52s69 80 69 137c0 52 -21 96 -63 131c-41 35 -97 53 -167 53h-86v17h86c116 0 192 58 192 151c0 47 -19 84 -57 110s-87 39 -146 39c-68 0 -133 -15 -196 -44v20c64 27 129 41 196 41
c63 0 115 -15 157 -44c43 -29 64 -69 64 -122c0 -47 -15 -83 -46 -110c-30 -27 -62 -43 -96 -49c72 -12 180 -70 180 -191c0 -61 -24 -111 -72 -150s-114 -58 -197 -58z" />
    <glyph glyph-name="uni0418" unicode="&#x418;" horiz-adv-x="771" 
d="M129 0h-17v700h18v-669l511 669h18v-700h-18v670z" />
    <glyph glyph-name="uni0419" unicode="&#x419;" horiz-adv-x="771" 
d="M129 0h-17v700h18v-669l511 669h18v-700h-18v670zM386 762c-89 0 -147 54 -147 131h18c0 -67 50 -114 129 -114c76 0 127 49 127 114h18c0 -38 -14 -69 -42 -94c-27 -25 -62 -37 -103 -37z" />
    <glyph glyph-name="uni041A" unicode="&#x41a;" horiz-adv-x="645" 
d="M625 0h-27l-422 373v11l365 316h27l-370 -321zM130 0h-18v700h18v-700z" />
    <glyph glyph-name="uni041B" unicode="&#x41b;" horiz-adv-x="720" 
d="M15 0v18c37 0 70 14 93 33c24 20 43 60 56 92c13 33 24 94 29 134c3 21 5 47 7 79c3 33 4 60 5 81c1 22 3 51 4 86l6 177h393v-700h-18v683h-357l-6 -175c-2 -55 -4 -102 -7 -141c-5 -77 -17 -169 -37 -225c-29 -84 -81 -146 -168 -142z" />
    <glyph glyph-name="uni041C" unicode="&#x41c;" horiz-adv-x="845" 
d="M130 0h-18v700h19l292 -377l292 377h18v-700h-18v671l-284 -366h-16l-285 366v-671z" />
    <glyph glyph-name="uni041D" unicode="&#x41d;" horiz-adv-x="758" 
d="M130 0h-18v700h18v-314h498v314h18v-700h-18v369h-498v-369z" />
    <glyph glyph-name="uni041E" unicode="&#x41e;" horiz-adv-x="848" 
d="M193 104c63 -66 140 -99 231 -99s168 33 231 98c63 66 94 148 94 247s-31 181 -94 246c-63 66 -140 99 -231 99s-168 -33 -231 -99s-94 -148 -94 -246s31 -180 94 -246zM81 350c0 104 33 190 98 259c66 69 148 103 245 103s179 -34 244 -103c66 -69 99 -155 99 -259
c0 -105 -33 -191 -99 -260c-65 -68 -147 -102 -244 -102s-179 34 -245 102c-65 69 -98 155 -98 260z" />
    <glyph glyph-name="uni041F" unicode="&#x41f;" horiz-adv-x="744" 
d="M130 0h-18v700h520v-700h-18v683h-484v-683z" />
    <glyph glyph-name="uni0420" unicode="&#x420;" horiz-adv-x="664" 
d="M130 0h-18v700h286c132 0 208 -70 208 -181s-76 -181 -208 -181h-268v-338zM130 683v-328h267c121 0 191 60 191 164s-70 164 -191 164h-267z" />
    <glyph glyph-name="uni0421" unicode="&#x421;" horiz-adv-x="695" 
d="M424 -12c-97 0 -179 34 -245 102c-65 69 -98 155 -98 260c0 104 33 190 98 259c66 69 148 103 245 103c78 0 146 -20 203 -59v-20c-61 41 -128 62 -203 62c-91 0 -168 -33 -231 -99c-63 -65 -94 -147 -94 -246s31 -181 94 -247c63 -65 140 -98 231 -98
c86 0 160 25 221 76v-22c-59 -47 -132 -71 -221 -71z" />
    <glyph glyph-name="uni0422" unicode="&#x422;" horiz-adv-x="611" 
d="M314 0h-18v683h-259v17h537v-17h-260v-683z" />
    <glyph glyph-name="uni0423" unicode="&#x423;" 
d="M162 -12c-24 0 -47 4 -69 11v18c22 -8 44 -12 67 -12c31 0 58 12 81 36s48 70 77 137l3 7l-291 515h21l279 -495l230 495h20l-258 -554c-27 -59 -53 -100 -76 -123s-51 -35 -84 -35z" />
    <glyph glyph-name="uni0424" unicode="&#x424;" horiz-adv-x="892" 
d="M455 -16h-18v66c-254 0 -356 142 -356 297c0 85 30 156 89 214s148 87 267 87v64h18v-64c123 0 219 -35 274 -92s82 -127 82 -207s-27 -150 -82 -207s-151 -92 -274 -92v-66zM437 67v564c-257 0 -338 -156 -338 -282s81 -282 338 -282zM455 631v-564
c257 0 338 156 338 282s-81 282 -338 282z" />
    <glyph glyph-name="uni0425" unicode="&#x425;" horiz-adv-x="689" 
d="M68 0h-23l288 382l-240 318h23l229 -303l229 303h23l-240 -318l288 -382h-23l-277 367z" />
    <glyph glyph-name="uni0426" unicode="&#x426;" horiz-adv-x="775" 
d="M741 -167h-18v167h-611v700h18v-683h479v683h18v-683h114v-184z" />
    <glyph glyph-name="uni0427" unicode="&#x427;" horiz-adv-x="685" 
d="M573 0h-18v350c-81 -31 -162 -46 -241 -46c-77 0 -136 15 -175 44c-39 30 -59 84 -59 161v191h18v-181c0 -75 17 -126 52 -155s94 -43 177 -43c76 0 152 16 228 48v331h18v-700z" />
    <glyph glyph-name="uni0428" unicode="&#x428;" horiz-adv-x="1004" 
d="M892 0h-780v700h18v-683h363v683h18v-683h363v683h18v-700z" />
    <glyph glyph-name="uni0429" unicode="&#x429;" horiz-adv-x="1041" 
d="M1007 -167h-18v167h-877v700h19v-683h363v683h18v-683h363v683h18v-683h114v-184z" />
    <glyph glyph-name="uni042A" unicode="&#x42a;" horiz-adv-x="778" 
d="M485 0h-271v683h-202v17h220v-289h253c149 0 235 -80 235 -205s-86 -206 -235 -206zM232 394v-377h251c140 0 219 69 219 189c0 119 -79 188 -219 188h-251z" />
    <glyph glyph-name="uni042B" unicode="&#x42b;" horiz-adv-x="849" 
d="M359 0h-247v700h18v-289h229c149 0 235 -80 235 -205s-86 -206 -235 -206zM130 394v-377h227c140 0 219 69 219 189c0 119 -79 188 -219 188h-227zM737 0h-18v700h18v-700z" />
    <glyph glyph-name="uni042C" unicode="&#x42c;" horiz-adv-x="676" 
d="M383 0h-271v700h18v-289h253c149 0 235 -80 235 -205s-86 -206 -235 -206zM130 394v-377h251c140 0 219 69 219 189c0 119 -79 188 -219 188h-251z" />
    <glyph glyph-name="uni042D" unicode="&#x42d;" horiz-adv-x="695" 
d="M271 -12c-90 0 -164 24 -221 71v22c60 -51 134 -76 221 -76c91 0 168 33 230 98c63 65 94 147 95 245h-373v17h372c-3 95 -36 173 -98 236s-137 94 -226 94c-75 0 -142 -21 -203 -62v20c57 39 125 59 203 59c97 0 179 -34 244 -103c66 -69 99 -155 99 -259
c0 -105 -33 -191 -99 -260c-65 -68 -147 -102 -244 -102z" />
    <glyph glyph-name="uni042E" unicode="&#x42e;" horiz-adv-x="1030" 
d="M309 350v4h-179v-354h-18v700h18v-329h179c5 98 37 179 97 244c61 65 135 97 223 97c91 0 167 -35 228 -104s92 -155 92 -258s-31 -190 -92 -259s-137 -103 -228 -103s-168 34 -229 103s-91 156 -91 259zM415 101c59 -64 131 -96 214 -96s154 32 213 96s89 147 89 249
s-30 185 -89 249s-130 96 -213 96s-155 -32 -214 -96s-88 -147 -88 -249s29 -185 88 -249z" />
    <glyph glyph-name="uni042F" unicode="&#x42f;" horiz-adv-x="733" 
d="M81 0h-21l233 346c-116 8 -182 76 -182 177c0 108 75 177 204 177h306v-700h-18v346h-289zM317 363h286v320h-286c-119 0 -188 -59 -188 -160s69 -160 188 -160z" />
    <glyph glyph-name="uni0430" unicode="&#x430;" horiz-adv-x="583" 
d="M238 -12c-49 0 -92 13 -129 39c-36 27 -54 64 -54 112c0 45 18 81 55 109c37 29 85 43 143 43c69 0 135 -19 200 -58v82c0 97 -65 150 -182 150c-63 0 -117 -17 -164 -51v20c44 32 99 48 165 48c117 0 199 -53 199 -168v-224c0 -47 21 -76 57 -76c11 0 20 2 27 5v-17
c-7 -3 -16 -5 -28 -5c-41 0 -74 31 -74 90c-57 -66 -129 -99 -215 -99zM244 5c45 0 85 11 122 32c37 22 66 48 87 77v98c-64 41 -129 62 -195 62c-112 0 -185 -55 -185 -135c0 -45 17 -78 50 -101c34 -22 74 -33 121 -33z" />
    <glyph glyph-name="uni0431" unicode="&#x431;" horiz-adv-x="613" 
d="M324 -12c-77 0 -139 28 -184 84s-68 134 -68 233c0 113 22 197 65 252c44 56 107 93 189 112l94 21l84 18v-18l-83 -18c-34 -7 -65 -13 -94 -20c-156 -36 -237 -139 -237 -348c44 88 130 151 238 151c63 0 116 -22 159 -65c44 -43 66 -97 66 -162
c0 -71 -22 -128 -67 -173s-99 -67 -162 -67zM325 5c56 0 105 21 147 62c42 42 63 96 63 161c0 62 -21 112 -62 151s-90 59 -146 59c-55 0 -103 -16 -144 -49s-71 -71 -90 -116c3 -80 26 -145 67 -194s96 -74 165 -74z" />
    <glyph glyph-name="uni0432" unicode="&#x432;" horiz-adv-x="564" 
d="M348 0h-252v470h230c87 0 135 -46 135 -118c0 -53 -23 -88 -68 -106c64 -13 99 -58 99 -121c0 -76 -52 -125 -144 -125zM114 234v-217h234c80 0 126 40 126 108c0 69 -46 109 -126 109h-234zM114 453v-202h212c75 0 117 37 117 101s-42 101 -117 101h-212z" />
    <glyph glyph-name="uni0433" unicode="&#x433;" horiz-adv-x="478" 
d="M114 0h-18v470h335v-17h-317v-453z" />
    <glyph glyph-name="uni0434" unicode="&#x434;" horiz-adv-x="619" 
d="M38 -155h-18v172h57c67 79 101 215 101 407v46h312v-453h95v-172h-18v155h-529v-155zM99 17h373v436h-276v-39c0 -182 -32 -314 -97 -397z" />
    <glyph glyph-name="uni0435" unicode="&#x435;" horiz-adv-x="564" 
d="M315 -12c-73 0 -133 23 -182 70s-73 106 -73 177s22 130 65 177s99 70 166 70c173 0 215 -154 215 -233v-7h-428v-7c0 -66 22 -121 67 -165c45 -43 101 -65 170 -65c61 0 112 15 153 44v-19c-38 -28 -89 -42 -153 -42zM79 259h409c0 43 -13 87 -42 131
c-28 44 -84 75 -155 75c-63 0 -113 -21 -151 -64c-38 -42 -58 -89 -61 -142z" />
    <glyph glyph-name="uni0436" unicode="&#x436;" horiz-adv-x="772" 
d="M75 0h-25l270 254l-233 216h26l227 -212v-9zM722 0h-25l-265 249v9l227 212h26l-233 -216zM395 0h-18v470h18v-470z" />
    <glyph glyph-name="uni0437" unicode="&#x437;" horiz-adv-x="508" 
d="M233 -12c-60 0 -116 11 -167 32v20c52 -23 107 -35 166 -35c112 0 190 46 190 122c0 71 -69 117 -165 117h-74v17h74c96 0 143 46 143 99c0 67 -63 105 -160 105c-53 0 -105 -11 -155 -32v18c49 21 101 31 156 31c103 0 177 -46 177 -119c0 -64 -51 -99 -103 -110
c71 -15 125 -55 125 -126c0 -84 -80 -139 -207 -139z" />
    <glyph glyph-name="uni0438" unicode="&#x438;" horiz-adv-x="599" 
d="M111 0h-15v470h18v-440l374 440h15v-470h-18v440z" />
    <glyph glyph-name="uni0439" unicode="&#x439;" horiz-adv-x="599" 
d="M111 0h-15v470h18v-440l374 440h15v-470h-18v440zM300 579c-89 0 -147 54 -147 131h18c0 -67 50 -114 129 -114c76 0 127 49 127 114h18c0 -38 -14 -69 -42 -94c-27 -25 -62 -37 -103 -37z" />
    <glyph glyph-name="uni043A" unicode="&#x43a;" horiz-adv-x="510" 
d="M469 0h-26l-290 253v9l252 208h27l-257 -212zM114 0h-18v470h18v-470z" />
    <glyph glyph-name="uni043B" unicode="&#x43b;" horiz-adv-x="572" 
d="M20 0v17c100 0 136 112 143 319l4 134h309v-470h-18v453h-273l-4 -120c-8 -224 -50 -333 -161 -333z" />
    <glyph glyph-name="uni043C" unicode="&#x43c;" horiz-adv-x="683" 
d="M114 0h-18v470h15l230 -255l231 255h15v-470h-18v442l-225 -250h-6l-224 250v-442z" />
    <glyph glyph-name="uni043D" unicode="&#x43d;" horiz-adv-x="596" 
d="M114 0h-18v470h18v-219h368v219h18v-470h-18v234h-368v-234z" />
    <glyph glyph-name="uni043E" unicode="&#x43e;" horiz-adv-x="611" 
d="M306 5c64 0 118 22 161 66c44 45 66 99 66 164s-22 119 -66 163c-43 45 -97 67 -161 67c-65 0 -119 -22 -163 -67c-43 -44 -65 -98 -65 -163s22 -119 65 -164c44 -44 98 -66 163 -66zM60 235c0 67 23 124 68 173c46 49 105 74 178 74s132 -25 177 -74s68 -106 68 -173
s-23 -125 -68 -174s-104 -73 -177 -73s-132 24 -178 73c-45 49 -68 107 -68 174z" />
    <glyph glyph-name="uni043F" unicode="&#x43f;" horiz-adv-x="587" 
d="M114 0h-18v470h395v-470h-18v453h-359v-453z" />
    <glyph glyph-name="uni0440" unicode="&#x440;" horiz-adv-x="625" 
d="M114 -200h-18v670h18v-94c49 71 118 106 205 106c73 0 132 -25 177 -74c46 -49 69 -106 69 -173s-23 -125 -69 -174c-45 -49 -104 -73 -177 -73c-87 0 -156 35 -205 106v-294zM319 5c65 0 119 22 162 66c44 45 66 99 66 164s-22 119 -66 163c-43 45 -97 67 -162 67
c-88 0 -170 -51 -205 -124v-212c35 -73 117 -124 205 -124z" />
    <glyph glyph-name="uni0441" unicode="&#x441;" horiz-adv-x="524" 
d="M60 235c0 67 23 124 68 173s104 74 177 74c54 0 102 -13 143 -38v-20c-43 27 -91 41 -143 41c-64 0 -118 -22 -162 -67c-43 -44 -65 -98 -65 -163s22 -119 65 -164c44 -44 98 -66 162 -66c59 0 110 16 153 47v-20c-43 -29 -94 -44 -153 -44c-73 0 -132 24 -177 73
s-68 107 -68 174z" />
    <glyph glyph-name="uni0442" unicode="&#x442;" horiz-adv-x="460" 
d="M239 0h-18v453h-189v17h396v-17h-189v-453z" />
    <glyph glyph-name="uni0443" unicode="&#x443;" horiz-adv-x="522" 
d="M85 -203c-24 0 -44 5 -61 15v18c19 -11 39 -16 60 -16c34 0 62 16 85 47s51 84 82 158l-215 451h20l205 -429l201 429h20l-245 -525c-47 -99 -87 -148 -152 -148z" />
    <glyph glyph-name="uni0444" unicode="&#x444;" horiz-adv-x="700" 
d="M359 -200h-18v191h-17c-79 0 -143 23 -192 68c-48 46 -72 105 -72 176s24 130 72 175c49 46 113 69 192 69h17v221h18v-221h17c79 0 143 -23 191 -69c49 -45 73 -104 73 -175s-24 -130 -73 -176c-48 -45 -112 -68 -191 -68h-17v-191zM320 8h21v454h-21
c-68 0 -125 -21 -172 -62s-70 -96 -70 -165s23 -125 70 -166s104 -61 172 -61zM359 462v-454h21c68 0 125 20 172 61s70 97 70 166s-23 124 -70 165s-104 62 -172 62h-21z" />
    <glyph glyph-name="uni0445" unicode="&#x445;" horiz-adv-x="527" 
d="M65 0h-23l213 253l-183 217h23l172 -203l172 203h22l-183 -217l213 -253h-22l-202 240z" />
    <glyph glyph-name="uni0446" unicode="&#x446;" horiz-adv-x="614" 
d="M580 -155h-18v155h-466v470h18v-453h353v453h18v-453h95v-172z" />
    <glyph glyph-name="uni0447" unicode="&#x447;" horiz-adv-x="548" 
d="M452 0h-18v217c-57 -25 -118 -38 -182 -38c-121 0 -182 49 -182 169v122h18v-120c0 -113 53 -154 172 -154c49 0 125 16 174 40v234h18v-470z" />
    <glyph glyph-name="uni0448" unicode="&#x448;" horiz-adv-x="796" 
d="M700 0h-604v470h18v-453h275v453h18v-453h275v453h18v-470z" />
    <glyph glyph-name="uni0449" unicode="&#x449;" horiz-adv-x="829" 
d="M795 -155h-17v155h-682v470h18v-453h275v453h18v-453h275v453h18v-453h95v-172z" />
    <glyph glyph-name="uni044A" unicode="&#x44a;" horiz-adv-x="619" 
d="M394 0h-225v453h-154v17h172v-182h207c105 0 165 -56 165 -144s-60 -144 -165 -144zM187 271v-254h206c95 0 148 46 148 127s-53 127 -148 127h-206z" />
    <glyph glyph-name="uni044B" unicode="&#x44b;" horiz-adv-x="666" 
d="M289 0h-193v470h18v-182h175c105 0 166 -56 166 -144s-61 -144 -166 -144zM114 271v-254h174c95 0 149 46 149 127s-54 127 -149 127h-174zM570 0h-18v470h18v-470z" />
    <glyph glyph-name="uni044C" unicode="&#x44c;" horiz-adv-x="546" 
d="M320 0h-224v470h18v-182h206c105 0 166 -56 166 -144s-61 -144 -166 -144zM114 271v-254h205c95 0 149 46 149 127s-54 127 -149 127h-205z" />
    <glyph glyph-name="uni044D" unicode="&#x44d;" horiz-adv-x="523" 
d="M218 -12c-59 0 -110 15 -153 44v20c43 -31 94 -47 153 -47c63 0 117 21 160 64s66 97 67 160h-273v17h273c-3 62 -27 114 -70 156s-95 63 -157 63c-52 0 -100 -14 -143 -41v20c41 25 89 38 143 38c73 0 132 -25 177 -74s68 -106 68 -173s-23 -125 -68 -174
s-104 -73 -177 -73z" />
    <glyph glyph-name="uni044E" unicode="&#x44e;" horiz-adv-x="775" 
d="M488 -12c-63 0 -117 22 -160 67s-65 102 -67 171h-147v-226h-18v470h18v-227h147c1 69 23 126 66 171s97 68 161 68c65 0 119 -24 162 -71s65 -105 65 -176s-22 -130 -65 -177s-97 -70 -162 -70zM338 71c40 -44 90 -66 150 -66s110 22 149 66c40 44 60 99 60 164
s-20 120 -60 164c-39 44 -89 66 -149 66s-110 -22 -150 -66c-39 -44 -59 -99 -59 -164s20 -120 59 -164z" />
    <glyph glyph-name="uni044F" unicode="&#x44f;" horiz-adv-x="557" 
d="M82 0h-22l157 200c-92 4 -144 55 -144 135c0 81 56 135 155 135h233v-470h-18v200h-203zM229 217h214v236h-214c-88 0 -138 -43 -138 -118s50 -118 138 -118z" />
    <glyph glyph-name="uni0451" unicode="&#x451;" horiz-adv-x="564" 
d="M315 -12c-73 0 -133 23 -182 70s-73 106 -73 177s22 130 65 177s99 70 166 70c173 0 215 -154 215 -233v-7h-428v-7c0 -66 22 -121 67 -165c45 -43 101 -65 170 -65c61 0 112 15 153 44v-19c-38 -28 -89 -42 -153 -42zM79 259h409c0 43 -13 87 -42 131
c-28 44 -84 75 -155 75c-63 0 -113 -21 -151 -64c-38 -42 -58 -89 -61 -142zM219 597c-22 -22 -56 12 -34 34s56 -12 34 -34zM399 597c-22 -22 -56 12 -34 34s56 -12 34 -34z" />
    <glyph glyph-name="uni0452" unicode="&#x452;" horiz-adv-x="619" 
d="M422 -202c-24 0 -46 5 -66 16v20c20 -13 42 -19 66 -19c62 0 93 37 93 110v302c0 122 -56 183 -169 183c-41 0 -82 -12 -122 -35s-69 -51 -88 -82v-293h-18v558h-103v17h103v125h18v-125h128v-17h-128v-236c43 56 123 105 212 105c123 0 185 -72 185 -197v-310
c0 -81 -37 -122 -111 -122z" />
    <glyph glyph-name="uni0453" unicode="&#x453;" horiz-adv-x="478" 
d="M251 576h-22l97 124h22zM114 0h-18v470h335v-17h-317v-453z" />
    <glyph glyph-name="uni0454" unicode="&#x454;" horiz-adv-x="524" 
d="M305 -12c-73 0 -132 24 -177 73s-68 107 -68 174s23 124 68 173s104 74 177 74c54 0 102 -13 143 -38v-20c-43 27 -91 41 -143 41c-62 0 -115 -21 -158 -63s-66 -94 -69 -156h273v-17h-273c1 -63 24 -117 67 -160s97 -64 160 -64c59 0 110 16 153 47v-20
c-43 -29 -94 -44 -153 -44z" />
    <glyph glyph-name="uni0455" unicode="&#x455;" horiz-adv-x="484" 
d="M235 -12c-77 0 -157 27 -194 54v21c43 -29 115 -58 194 -58c104 0 172 45 172 112c0 65 -53 88 -169 113c-123 27 -178 59 -178 132c0 72 63 120 175 120c67 0 122 -15 167 -45v-19c-49 31 -104 47 -165 47c-105 0 -159 -43 -159 -103c0 -29 15 -54 34 -69
c9 -7 22 -14 38 -21c33 -12 51 -17 91 -25c49 -11 75 -17 110 -32c47 -18 74 -47 74 -98c0 -41 -18 -72 -55 -95s-82 -34 -135 -34z" />
    <glyph glyph-name="uni0456" unicode="&#x456;" horiz-adv-x="235" 
d="M127 0h-18v470h18v-470zM135 627c-22 -22 -56 12 -34 34s56 -12 34 -34z" />
    <glyph glyph-name="uni0457" unicode="&#x457;" horiz-adv-x="235" 
d="M45 627c-22 -22 -56 12 -34 34s56 -12 34 -34zM225 627c-22 -22 -56 12 -34 34s56 -12 34 -34zM127 0h-18v470h18v-470z" />
    <glyph glyph-name="uni0458" unicode="&#x458;" horiz-adv-x="235" 
d="M16 -203c-24 0 -46 5 -66 16v20c20 -13 42 -19 66 -19c62 0 93 37 93 110v546h18v-551c0 -81 -37 -122 -111 -122zM135 627c-22 -22 -56 12 -34 34s56 -12 34 -34z" />
    <glyph glyph-name="uni0459" unicode="&#x459;" horiz-adv-x="898" 
d="M20 0v17c100 0 136 112 143 319l4 134h309v-182h196c105 0 166 -56 166 -144s-61 -144 -166 -144h-214v453h-273l-4 -120c-8 -224 -50 -333 -161 -333zM476 271v-254h195c95 0 149 46 149 127s-54 127 -149 127h-195z" />
    <glyph glyph-name="uni045A" unicode="&#x45a;" horiz-adv-x="892" 
d="M114 0h-18v470h18v-205h358v205h18v-205h176c105 0 166 -52 166 -133c0 -80 -61 -132 -166 -132h-194v248h-358v-248zM490 248v-231h175c95 0 149 42 149 115s-54 116 -149 116h-175z" />
    <glyph glyph-name="uni045B" unicode="&#x45b;" horiz-adv-x="619" 
d="M136 0h-18v558h-103v17h103v125h18v-125h128v-17h-128v-236c43 56 123 105 212 105c123 0 185 -72 185 -197v-230h-18v227c0 122 -56 183 -169 183c-41 0 -82 -12 -122 -35s-69 -51 -88 -82v-293z" />
    <glyph glyph-name="uni045C" unicode="&#x45c;" horiz-adv-x="510" 
d="M469 0h-26l-290 253v9l252 208h27l-257 -212zM114 0h-18v470h18v-470zM243 576h-22l97 124h22z" />
    <glyph glyph-name="uni045E" unicode="&#x45e;" horiz-adv-x="522" 
d="M85 -203c-24 0 -44 5 -61 15v18c19 -11 39 -16 60 -16c34 0 62 16 85 47s51 84 82 158l-215 451h20l205 -429l201 429h20l-245 -525c-47 -99 -87 -148 -152 -148zM259 579c-89 0 -147 54 -147 131h18c0 -67 50 -114 129 -114c76 0 127 49 127 114h18
c0 -38 -14 -69 -42 -94c-27 -25 -62 -37 -103 -37z" />
    <glyph glyph-name="uni045F" unicode="&#x45f;" horiz-adv-x="581" 
d="M299 -155h-18v155h-185v470h18v-453h353v453h18v-470h-186v-155z" />
    <glyph glyph-name="uni0490" unicode="&#x490;" horiz-adv-x="583" 
d="M130 0h-18v700h416v150h18v-167h-416v-683z" />
    <glyph glyph-name="uni0491" unicode="&#x491;" horiz-adv-x="478" 
d="M114 0h-18v470h317v138h18v-155h-317v-453z" />
    <glyph glyph-name="uni1E02" unicode="&#x1e02;" horiz-adv-x="728" 
d="M433 0h-321v700h284c123 0 192 -64 192 -167c0 -77 -36 -128 -108 -153c109 -16 172 -85 172 -188c0 -117 -79 -192 -219 -192zM130 366v-349h302c129 0 202 64 202 175s-73 174 -202 174h-302zM130 683v-300h265c112 0 175 55 175 150s-63 150 -175 150h-265zM360 805
c-8 -9 -26 -9 -35 0c-8 9 -8 25 0 34c23 23 57 -12 35 -34z" />
    <glyph glyph-name="uni1E03" unicode="&#x1e03;" horiz-adv-x="625" 
d="M319 -12c-87 0 -156 35 -205 106v-94h-18v700h18v-324c49 71 118 106 205 106c73 0 132 -25 177 -74c46 -49 69 -106 69 -173s-23 -125 -69 -174c-45 -49 -104 -73 -177 -73zM319 5c65 0 119 22 162 66c44 45 66 99 66 164s-22 119 -66 163c-43 45 -97 67 -162 67
c-88 0 -170 -51 -205 -124v-212c35 -73 117 -124 205 -124zM337 805c-22 -22 -56 12 -34 34s56 -12 34 -34z" />
    <glyph glyph-name="uni1E0A" unicode="&#x1e0a;" horiz-adv-x="772" 
d="M316 0h-204v700h204c112 0 202 -32 271 -97c69 -64 104 -148 104 -253s-35 -189 -104 -254c-69 -64 -159 -96 -271 -96zM130 683v-666h178c112 0 201 31 266 92c66 61 99 142 99 241s-33 180 -99 241c-65 61 -154 92 -266 92h-178zM347 805c-22 -22 -56 12 -34 34
s56 -12 34 -34z" />
    <glyph glyph-name="uni1E0B" unicode="&#x1e0b;" horiz-adv-x="625" 
d="M306 -12c-73 0 -132 24 -178 73c-45 49 -68 107 -68 174s23 124 68 173c46 49 105 74 178 74c87 0 156 -35 205 -106v324h18v-700h-18v94c-49 -71 -118 -106 -205 -106zM306 5c88 0 170 51 205 124v212c-35 73 -117 124 -205 124c-65 0 -119 -22 -163 -67
c-43 -44 -65 -98 -65 -163s22 -119 65 -164c44 -44 98 -66 163 -66zM320 805c-8 -9 -26 -9 -35 0c-8 9 -8 25 0 34c23 23 57 -12 35 -34z" />
    <glyph glyph-name="uni1E1E" unicode="&#x1e1e;" horiz-adv-x="611" 
d="M130 0h-18v700h449v-17h-431v-307h363v-17h-363v-359zM359 805c-22 -22 -56 12 -34 34s56 -12 34 -34z" />
    <glyph glyph-name="uni1E1F" unicode="&#x1e1f;" horiz-adv-x="358" 
d="M132 0v453h-102v17h102v111c0 79 41 124 113 124c29 0 57 -7 83 -20v-19c-28 15 -56 22 -83 22c-61 0 -95 -41 -95 -113v-105h178v-17h-178v-453h-18zM250 805c-8 -9 -26 -9 -35 0c-8 9 -8 25 0 34c23 23 57 -12 35 -34z" />
    <glyph glyph-name="uni1E40" unicode="&#x1e40;" horiz-adv-x="845" 
d="M130 0h-18v700h19l292 -377l292 377h18v-700h-18v671l-284 -366h-16l-285 366v-671zM440 805c-8 -9 -26 -9 -35 0c-8 9 -8 25 0 34c23 23 57 -12 35 -34z" />
    <glyph glyph-name="uni1E41" unicode="&#x1e41;" horiz-adv-x="907" 
d="M114 0h-18v470h18v-87c39 55 104 99 188 99c82 0 134 -37 156 -111c48 74 114 111 197 111c108 0 166 -68 166 -188v-294h-18v291c0 73 -21 124 -56 145c-33 23 -61 29 -94 29c-39 0 -76 -11 -111 -34s-61 -51 -78 -86c3 -21 4 -39 4 -52v-293h-18v291
c0 73 -21 124 -56 145c-33 23 -61 29 -94 29c-75 0 -150 -46 -186 -113v-352zM476 627c-8 -9 -26 -9 -35 0c-8 9 -8 25 0 34c23 23 57 -12 35 -34z" />
    <glyph glyph-name="uni1E56" unicode="&#x1e56;" horiz-adv-x="664" 
d="M350 805c-8 -9 -26 -9 -35 0c-8 9 -8 25 0 34c23 23 57 -12 35 -34zM130 0h-18v700h286c132 0 208 -70 208 -181s-76 -181 -208 -181h-268v-338zM130 683v-328h267c121 0 191 60 191 164s-70 164 -191 164h-267z" />
    <glyph glyph-name="uni1E57" unicode="&#x1e57;" horiz-adv-x="625" 
d="M114 -200h-18v670h18v-94c49 71 118 106 205 106c73 0 132 -25 177 -74c46 -49 69 -106 69 -173s-23 -125 -69 -174c-45 -49 -104 -73 -177 -73c-87 0 -156 35 -205 106v-294zM319 5c65 0 119 22 162 66c44 45 66 99 66 164s-22 119 -66 163c-43 45 -97 67 -162 67
c-88 0 -170 -51 -205 -124v-212c35 -73 117 -124 205 -124zM336 627c-8 -9 -26 -9 -35 0c-8 9 -8 25 0 34c23 23 57 -12 35 -34z" />
    <glyph glyph-name="uni1E60" unicode="&#x1e60;" horiz-adv-x="619" 
d="M300 -12c-52 0 -101 8 -147 23s-81 33 -105 52v22c52 -43 144 -80 249 -80c67 0 122 16 165 47c43 32 65 74 65 125c0 83 -53 129 -146 161c-9 3 -38 12 -86 25l-84 25c-95 33 -142 74 -142 158c0 46 19 85 58 117c39 33 94 49 166 49c81 0 150 -20 207 -59v-20
c-62 41 -130 62 -205 62c-68 0 -120 -15 -155 -44s-53 -64 -53 -105c0 -79 50 -116 139 -145l77 -22c48 -13 77 -22 88 -26c96 -35 154 -84 154 -176c0 -59 -24 -106 -72 -139s-106 -50 -173 -50zM307 805c-22 -22 -56 12 -34 34s56 -12 34 -34z" />
    <glyph glyph-name="uni1E61" unicode="&#x1e61;" horiz-adv-x="494" 
d="M240 -12c-77 0 -157 27 -194 54v21c43 -29 115 -58 194 -58c104 0 172 45 172 112c0 65 -53 88 -169 113c-123 27 -178 59 -178 132c0 72 63 120 175 120c67 0 122 -15 167 -45v-19c-49 31 -104 47 -165 47c-105 0 -159 -43 -159 -103c0 -29 15 -54 34 -69
c9 -7 22 -14 38 -21c33 -12 51 -17 91 -25c49 -11 75 -17 110 -32c47 -18 74 -47 74 -98c0 -41 -18 -72 -55 -95s-82 -34 -135 -34zM256 627c-8 -9 -26 -9 -35 0c-8 9 -8 25 0 34c23 23 57 -12 35 -34z" />
    <glyph glyph-name="uni1E6A" unicode="&#x1e6a;" horiz-adv-x="611" 
d="M314 0h-18v683h-259v17h537v-17h-260v-683zM322 805c-8 -9 -26 -9 -35 0c-8 9 -8 25 0 34c23 23 57 -12 35 -34z" />
    <glyph glyph-name="uni1E6B" unicode="&#x1e6b;" horiz-adv-x="415" 
d="M272 -12c-68 0 -114 37 -114 116v349h-128v17h128v160h18v-160h189v-17h-189v-344c0 -69 32 -104 96 -104c29 0 57 8 85 25v-19c-23 -15 -52 -23 -85 -23zM184 701c-8 -8 -26 -8 -35 0c-8 9 -8 27 0 35c23 23 58 -12 35 -35z" />
    <glyph glyph-name="Wgrave" unicode="&#x1e80;" horiz-adv-x="1029" 
d="M313 -4h-16l-246 704h20l234 -674l201 674h16l201 -674l234 674h20l-246 -704h-16l-201 668zM522 765h-22l-97 124h22z" />
    <glyph glyph-name="wgrave" unicode="&#x1e81;" horiz-adv-x="806" 
d="M243 -4h-16l-177 474h20l164 -445l161 447h16l161 -447l165 445h19l-176 -474h-16l-161 448zM417 576h-22l-97 124h22z" />
    <glyph glyph-name="Wacute" unicode="&#x1e82;" horiz-adv-x="1029" 
d="M313 -4h-16l-246 704h20l234 -674l201 674h16l201 -674l234 674h20l-246 -704h-16l-201 668zM520 765h-22l97 124h22z" />
    <glyph glyph-name="wacute" unicode="&#x1e83;" horiz-adv-x="806" 
d="M243 -4h-16l-177 474h20l164 -445l161 447h16l161 -447l165 445h19l-176 -474h-16l-161 448zM409 576h-22l97 124h22z" />
    <glyph glyph-name="Wdieresis" unicode="&#x1e84;" horiz-adv-x="1029" 
d="M313 -4h-16l-246 704h20l234 -674l201 674h16l201 -674l234 674h20l-246 -704h-16l-201 668zM441 805c-22 -22 -56 12 -34 34s56 -12 34 -34zM621 805c-22 -22 -56 12 -34 34s56 -12 34 -34z" />
    <glyph glyph-name="wdieresis" unicode="&#x1e85;" horiz-adv-x="806" 
d="M243 -4h-16l-177 474h20l164 -445l161 447h16l161 -447l165 445h19l-176 -474h-16l-161 448zM330 627c-8 -9 -26 -9 -35 0c-8 9 -8 25 0 34c23 23 57 -12 35 -34zM510 627c-8 -9 -26 -9 -35 0c-8 9 -8 25 0 34c23 23 57 -12 35 -34z" />
    <glyph glyph-name="Ygrave" unicode="&#x1ef2;" horiz-adv-x="626" 
d="M322 0h-18v327l-274 373h23l260 -354l260 354h23l-274 -373v-327zM339 765h-22l-97 124h22z" />
    <glyph glyph-name="ygrave" unicode="&#x1ef3;" horiz-adv-x="522" 
d="M85 -203c-24 0 -44 5 -61 15v18c19 -11 39 -16 60 -16c34 0 62 16 85 47s51 84 82 158l-215 451h20l205 -429l201 429h20l-245 -525c-47 -99 -87 -148 -152 -148zM289 576h-22l-97 124h22z" />
    <glyph glyph-name="endash" unicode="&#x2013;" horiz-adv-x="711" 
d="M601 259h-491v17h491v-17z" />
    <glyph glyph-name="emdash" unicode="&#x2014;" horiz-adv-x="911" 
d="M801 259h-691v17h691v-17z" />
    <glyph glyph-name="uni2015" unicode="&#x2015;" horiz-adv-x="711" 
d="M601 259h-491v17h491v-17z" />
    <glyph glyph-name="quoteleft" unicode="&#x2018;" horiz-adv-x="180" 
d="M118 700h19l-75 -218h-19z" />
    <glyph glyph-name="quoteright" unicode="&#x2019;" horiz-adv-x="180" 
d="M62 482h-19l75 218h19z" />
    <glyph glyph-name="quotesinglbase" unicode="&#x201a;" horiz-adv-x="208" 
d="M62 -152h-19l75 218h19z" />
    <glyph glyph-name="quotedblleft" unicode="&#x201c;" horiz-adv-x="281" 
d="M219 700h19l-75 -218h-19zM118 700h19l-75 -218h-19z" />
    <glyph glyph-name="quotedblright" unicode="&#x201d;" horiz-adv-x="281" 
d="M163 482h-19l75 218h19zM62 482h-19l75 218h19z" />
    <glyph glyph-name="quotedblbase" unicode="&#x201e;" horiz-adv-x="309" 
d="M163 -152h-19l75 218h19zM62 -152h-19l75 218h19z" />
    <glyph glyph-name="dagger" unicode="&#x2020;" horiz-adv-x="535" 
d="M276 0h-18v453h-187v17h187v230h18v-230h188v-17h-188v-453z" />
    <glyph glyph-name="daggerdbl" unicode="&#x2021;" horiz-adv-x="535" 
d="M277 0h-18v230h-188v17h188v206h-188v17h188v230h18v-230h187v-17h-187v-206h187v-17h-187v-230z" />
    <glyph glyph-name="bullet" unicode="&#x2022;" horiz-adv-x="400" 
d="M259 317c-33 -33 -87 -33 -120 0c-32 33 -32 87 0 119c33 33 87 33 120 0c33 -32 33 -86 0 -119z" />
    <glyph glyph-name="ellipsis" unicode="&#x2026;" horiz-adv-x="590" 
d="M121 5c-9 -8 -25 -8 -34 0c-9 9 -9 27 0 35c22 22 57 -12 34 -35zM312 5c-8 -8 -26 -8 -35 0c-8 9 -8 27 0 35c23 23 58 -12 35 -35zM503 5c-9 -8 -25 -8 -34 0c-9 9 -9 27 0 35c22 22 57 -12 34 -35z" />
    <glyph glyph-name="perthousand" unicode="&#x2030;" horiz-adv-x="1191" 
d="M362 548c0 42 -13 77 -40 105c-26 28 -60 42 -101 42s-75 -14 -102 -42c-26 -28 -39 -63 -39 -105c0 -43 13 -78 39 -106c27 -28 61 -42 102 -42s75 14 101 42c27 28 40 63 40 106zM62 548c0 45 15 84 45 116c31 32 69 48 114 48s83 -16 114 -48s46 -71 46 -116
c0 -46 -15 -85 -46 -117s-69 -48 -114 -48s-83 16 -114 48c-30 32 -45 71 -45 117zM217 0h-20l400 700h20zM734 152c0 43 -13 78 -40 106s-61 42 -102 42s-75 -14 -102 -42c-26 -28 -39 -63 -39 -106c0 -42 13 -77 39 -105c27 -28 61 -42 102 -42s75 14 102 42s40 63 40 105
zM433 152c0 46 15 85 45 117c31 32 69 48 114 48s83 -16 114 -48s46 -71 46 -117c0 -45 -15 -84 -46 -116s-69 -48 -114 -48s-83 16 -114 48c-30 32 -45 71 -45 116zM1111 152c0 43 -13 78 -40 106s-61 42 -102 42s-75 -14 -102 -42c-26 -28 -39 -63 -39 -106
c0 -42 13 -77 39 -105c27 -28 61 -42 102 -42s75 14 102 42s40 63 40 105zM810 152c0 46 15 85 45 117c31 32 69 48 114 48s83 -16 114 -48s46 -71 46 -117c0 -45 -15 -84 -46 -116s-69 -48 -114 -48s-83 16 -114 48c-30 32 -45 71 -45 116z" />
    <glyph glyph-name="guilsinglleft" unicode="&#x2039;" horiz-adv-x="305" 
d="M246 44h-24l-162 185v12l162 185h24l-167 -191z" />
    <glyph glyph-name="guilsinglright" unicode="&#x203a;" horiz-adv-x="305" 
d="M83 44h-24l167 191l-167 191h24l162 -185v-12z" />
    <glyph glyph-name="fraction" unicode="&#x2044;" horiz-adv-x="168" 
d="M-112 0h-20l400 700h20z" />
    <glyph glyph-name="zerosuperior" unicode="&#x2070;" horiz-adv-x="390" 
d="M45 511c0 55 14 101 43 138s64 55 107 55s78 -18 107 -55s43 -83 43 -138c0 -56 -14 -102 -43 -139c-29 -36 -64 -54 -107 -54s-78 18 -107 54c-29 37 -43 83 -43 139zM100 384c25 -33 57 -49 95 -49s69 16 94 49s38 76 38 127s-13 93 -38 126s-56 50 -94 50
s-70 -17 -95 -50s-37 -75 -37 -126s12 -94 37 -127z" />
    <glyph glyph-name="foursuperior" unicode="&#x2074;" horiz-adv-x="343" 
d="M252 322h-18v110h-208v14l212 254h14v-251h66v-17h-66v-110zM234 667l-182 -218h182v218z" />
    <glyph glyph-name="fivesuperior" unicode="&#x2075;" horiz-adv-x="335" 
d="M146 318c-40 0 -75 9 -104 26v18c31 -18 66 -27 104 -27c73 0 125 46 125 105c0 56 -47 99 -118 99c-33 0 -64 -5 -94 -15l25 176h180v-17h-166l-18 -136c21 6 46 9 74 9c77 0 135 -48 135 -116c0 -69 -62 -122 -143 -122z" />
    <glyph glyph-name="sixsuperior" unicode="&#x2076;" horiz-adv-x="351" 
d="M185 318c-89 0 -139 73 -139 176c0 62 15 112 44 151s67 59 114 59c31 0 57 -7 79 -22v-19c-23 16 -50 24 -79 24c-42 0 -76 -18 -102 -54c-25 -36 -38 -83 -38 -140c30 45 70 67 120 67c68 0 124 -50 124 -119s-54 -123 -123 -123zM185 335c59 0 105 45 105 106
s-47 102 -106 102c-50 0 -89 -26 -117 -77c5 -75 47 -131 118 -131z" />
    <glyph glyph-name="sevensuperior" unicode="&#x2077;" horiz-adv-x="301" 
d="M84 322h-20l184 361h-216v17h237v-14z" />
    <glyph glyph-name="eightsuperior" unicode="&#x2078;" horiz-adv-x="358" 
d="M38 423c0 50 29 84 87 101c-40 13 -66 45 -66 84c0 56 51 96 120 96s120 -40 120 -96c0 -39 -26 -71 -66 -84c58 -17 87 -51 87 -101c0 -63 -60 -105 -141 -105s-141 42 -141 105zM302 424c0 55 -51 90 -123 90s-123 -35 -123 -90c0 -52 52 -89 123 -89s123 37 123 89z
M281 608c0 48 -43 79 -102 79s-102 -31 -102 -79c0 -45 42 -77 102 -77s102 32 102 77z" />
    <glyph glyph-name="ninesuperior" unicode="&#x2079;" horiz-adv-x="351" 
d="M169 704c89 0 139 -73 139 -176c0 -62 -15 -113 -44 -152s-67 -58 -114 -58c-31 0 -57 7 -79 22v19c23 -16 50 -24 79 -24c42 0 76 18 101 54c26 36 39 83 39 140c-30 -45 -70 -67 -120 -67c-68 0 -124 50 -124 119s54 123 123 123zM169 687c-59 0 -105 -45 -105 -106
s47 -102 106 -102c50 0 89 26 117 77c-5 75 -47 131 -118 131z" />
    <glyph glyph-name="zeroinferior" unicode="&#x2080;" horiz-adv-x="390" 
d="M45 189c0 55 14 101 43 138s64 55 107 55s78 -18 107 -55s43 -83 43 -138c0 -56 -14 -102 -43 -139c-29 -36 -64 -54 -107 -54s-78 18 -107 54c-29 37 -43 83 -43 139zM100 62c25 -33 57 -49 95 -49s69 16 94 49s38 76 38 127s-13 93 -38 126s-56 50 -94 50
s-70 -17 -95 -50s-37 -75 -37 -126s12 -94 37 -127z" />
    <glyph glyph-name="oneinferior" unicode="&#x2081;" horiz-adv-x="222" 
d="M150 0h-18v357l-106 -68v20l108 69h16v-378z" />
    <glyph glyph-name="twoinferior" unicode="&#x2082;" horiz-adv-x="354" 
d="M297 0h-250v14l138 134c56 55 80 87 80 132c0 49 -38 85 -97 85c-41 0 -80 -17 -115 -51v21c33 31 71 47 116 47c68 0 114 -42 114 -102c0 -48 -28 -89 -85 -145l-122 -118h221v-17z" />
    <glyph glyph-name="threeinferior" unicode="&#x2083;" horiz-adv-x="315" 
d="M134 -4c-43 0 -79 9 -108 28v18c31 -19 67 -29 108 -29c64 0 120 41 120 104c0 60 -45 98 -117 98c-13 0 -25 -1 -36 -4v15l130 135h-187v17h216v-12l-129 -134h7c75 0 134 -42 134 -115c0 -71 -59 -121 -138 -121z" />
    <glyph glyph-name="fourinferior" unicode="&#x2084;" horiz-adv-x="343" 
d="M252 0h-18v110h-208v14l212 254h14v-251h66v-17h-66v-110zM234 345l-182 -218h182v218z" />
    <glyph glyph-name="fiveinferior" unicode="&#x2085;" horiz-adv-x="335" 
d="M146 -4c-40 0 -75 9 -104 26v18c31 -18 66 -27 104 -27c73 0 125 46 125 105c0 56 -47 99 -118 99c-33 0 -64 -5 -94 -15l25 176h180v-17h-166l-18 -136c21 6 46 9 74 9c77 0 135 -48 135 -116c0 -69 -62 -122 -143 -122z" />
    <glyph glyph-name="sixinferior" unicode="&#x2086;" horiz-adv-x="351" 
d="M185 -4c-89 0 -139 73 -139 176c0 62 15 112 44 151s67 59 114 59c31 0 57 -7 79 -22v-19c-23 16 -50 24 -79 24c-42 0 -76 -18 -102 -54c-25 -36 -38 -83 -38 -140c30 45 70 67 120 67c68 0 124 -50 124 -119s-54 -123 -123 -123zM185 13c59 0 105 45 105 106
s-47 102 -106 102c-50 0 -89 -26 -117 -77c5 -75 47 -131 118 -131z" />
    <glyph glyph-name="seveninferior" unicode="&#x2087;" horiz-adv-x="301" 
d="M84 0h-20l184 361h-216v17h237v-14z" />
    <glyph glyph-name="eightinferior" unicode="&#x2088;" horiz-adv-x="358" 
d="M38 101c0 50 29 84 87 101c-40 13 -66 45 -66 84c0 56 51 96 120 96s120 -40 120 -96c0 -39 -26 -71 -66 -84c58 -17 87 -51 87 -101c0 -63 -60 -105 -141 -105s-141 42 -141 105zM302 102c0 55 -51 90 -123 90s-123 -35 -123 -90c0 -52 52 -89 123 -89s123 37 123 89z
M281 286c0 48 -43 79 -102 79s-102 -31 -102 -79c0 -45 42 -77 102 -77s102 32 102 77z" />
    <glyph glyph-name="nineinferior" unicode="&#x2089;" horiz-adv-x="351" 
d="M169 382c89 0 139 -73 139 -176c0 -62 -15 -113 -44 -152s-67 -58 -114 -58c-31 0 -57 7 -79 22v19c23 -16 50 -24 79 -24c42 0 76 18 101 54c26 36 39 83 39 140c-30 -45 -70 -67 -120 -67c-68 0 -124 50 -124 119s54 123 123 123zM169 365c-59 0 -105 -45 -105 -106
s47 -102 106 -102c50 0 89 26 117 77c-5 75 -47 131 -118 131z" />
    <glyph glyph-name="franc" unicode="&#x20a3;" horiz-adv-x="652" 
d="M171 0h-18v186h-123v17h123v497h449v-17h-431v-307h363v-17h-363v-156h193v-17h-193v-186z" />
    <glyph glyph-name="lira" unicode="&#x20a4;" horiz-adv-x="572" 
d="M512 0h-439v17h27c23 0 37 24 37 53v166h-64v17h64v135h-64v17h64v92c0 137 78 215 211 215c65 0 120 -17 164 -50v-21c-40 36 -95 54 -165 54c-123 0 -192 -71 -192 -200v-90h314v-17h-314v-135h314v-17h-314v-168c0 -23 -7 -40 -20 -51h377v-17z" />
    <glyph glyph-name="peseta" unicode="&#x20a7;" horiz-adv-x="703" 
d="M112 510h-92v17h92v173h286c128 0 204 -68 208 -173h81v-17h-81c-4 -105 -80 -172 -208 -172h-268v-338h-18v510zM130 683v-328h267c121 0 191 60 191 164s-70 164 -191 164h-267z" />
    <glyph glyph-name="Euro" unicode="&#x20ac;" horiz-adv-x="699" 
d="M144 281h-94v17h92c-1 23 -2 40 -2 52c0 29 2 57 6 83h-96v17h99c17 81 52 145 106 192c55 47 119 70 194 70c71 0 132 -20 184 -59v-20c-55 41 -117 62 -184 62c-68 0 -128 -22 -179 -66c-51 -43 -85 -103 -102 -179h301v-17h-304c-5 -24 -7 -52 -7 -83
c0 -13 1 -31 2 -52h309v-17h-306c12 -85 44 -153 97 -202s116 -74 189 -74c79 0 145 26 200 77v-22c-54 -48 -121 -72 -200 -72s-147 26 -203 78c-56 53 -90 124 -102 215z" />
    <glyph glyph-name="uni20B4" unicode="&#x20b4;" horiz-adv-x="606" 
d="M322 -12c-135 0 -209 56 -209 145c0 55 28 102 85 141h-127v17h462v-17h-304c-65 -39 -98 -85 -98 -140c0 -83 68 -129 193 -129c61 0 117 12 168 37v-18c-48 -24 -105 -36 -170 -36zM533 426h-462v17h333c55 35 82 78 82 127c0 80 -65 125 -186 125
c-59 0 -114 -12 -163 -36v18c47 23 101 35 164 35c131 0 203 -54 203 -141c0 -50 -24 -93 -71 -128h100v-17z" />
    <glyph glyph-name="uni20B6" unicode="&#x20b6;" horiz-adv-x="645" 
d="M130 0h-18v186h-89v17h89v135h-89v17h89v345h261c132 0 208 -70 208 -181s-76 -181 -208 -181h-243v-135h323v-17h-323v-186zM130 683v-328h242c121 0 191 60 191 164s-70 164 -191 164h-242z" />
    <glyph glyph-name="uni20B6" unicode="&#x20cf;" horiz-adv-x="645" 
d="M130 0h-18v186h-89v17h89v135h-89v17h89v345h261c132 0 208 -70 208 -181s-76 -181 -208 -181h-243v-135h323v-17h-323v-186zM130 683v-328h242c121 0 191 60 191 164s-70 164 -191 164h-242z" />
    <glyph glyph-name="uni20B6" unicode="&#x20ce;" horiz-adv-x="645" 
d="M130 0h-18v186h-89v17h89v135h-89v17h89v345h261c132 0 208 -70 208 -181s-76 -181 -208 -181h-243v-135h323v-17h-323v-186zM130 683v-328h242c121 0 191 60 191 164s-70 164 -191 164h-242z" />
    <glyph glyph-name="uni20B6" unicode="&#x20cd;" horiz-adv-x="645" 
d="M130 0h-18v186h-89v17h89v135h-89v17h89v345h261c132 0 208 -70 208 -181s-76 -181 -208 -181h-243v-135h323v-17h-323v-186zM130 683v-328h242c121 0 191 60 191 164s-70 164 -191 164h-242z" />
    <glyph glyph-name="uni20B6" unicode="&#x20cc;" horiz-adv-x="645" 
d="M130 0h-18v186h-89v17h89v135h-89v17h89v345h261c132 0 208 -70 208 -181s-76 -181 -208 -181h-243v-135h323v-17h-323v-186zM130 683v-328h242c121 0 191 60 191 164s-70 164 -191 164h-242z" />
    <glyph glyph-name="uni20B6" unicode="&#x20cb;" horiz-adv-x="645" 
d="M130 0h-18v186h-89v17h89v135h-89v17h89v345h261c132 0 208 -70 208 -181s-76 -181 -208 -181h-243v-135h323v-17h-323v-186zM130 683v-328h242c121 0 191 60 191 164s-70 164 -191 164h-242z" />
    <glyph glyph-name="uni20B6" unicode="&#x20ca;" horiz-adv-x="645" 
d="M130 0h-18v186h-89v17h89v135h-89v17h89v345h261c132 0 208 -70 208 -181s-76 -181 -208 -181h-243v-135h323v-17h-323v-186zM130 683v-328h242c121 0 191 60 191 164s-70 164 -191 164h-242z" />
    <glyph glyph-name="uni20B6" unicode="&#x20c9;" horiz-adv-x="645" 
d="M130 0h-18v186h-89v17h89v135h-89v17h89v345h261c132 0 208 -70 208 -181s-76 -181 -208 -181h-243v-135h323v-17h-323v-186zM130 683v-328h242c121 0 191 60 191 164s-70 164 -191 164h-242z" />
    <glyph glyph-name="uni20B6" unicode="&#x20c8;" horiz-adv-x="645" 
d="M130 0h-18v186h-89v17h89v135h-89v17h89v345h261c132 0 208 -70 208 -181s-76 -181 -208 -181h-243v-135h323v-17h-323v-186zM130 683v-328h242c121 0 191 60 191 164s-70 164 -191 164h-242z" />
    <glyph glyph-name="uni20B6" unicode="&#x20c7;" horiz-adv-x="645" 
d="M130 0h-18v186h-89v17h89v135h-89v17h89v345h261c132 0 208 -70 208 -181s-76 -181 -208 -181h-243v-135h323v-17h-323v-186zM130 683v-328h242c121 0 191 60 191 164s-70 164 -191 164h-242z" />
    <glyph glyph-name="uni20B6" unicode="&#x20c6;" horiz-adv-x="645" 
d="M130 0h-18v186h-89v17h89v135h-89v17h89v345h261c132 0 208 -70 208 -181s-76 -181 -208 -181h-243v-135h323v-17h-323v-186zM130 683v-328h242c121 0 191 60 191 164s-70 164 -191 164h-242z" />
    <glyph glyph-name="uni20B6" unicode="&#x20c5;" horiz-adv-x="645" 
d="M130 0h-18v186h-89v17h89v135h-89v17h89v345h261c132 0 208 -70 208 -181s-76 -181 -208 -181h-243v-135h323v-17h-323v-186zM130 683v-328h242c121 0 191 60 191 164s-70 164 -191 164h-242z" />
    <glyph glyph-name="uni20B6" unicode="&#x20c4;" horiz-adv-x="645" 
d="M130 0h-18v186h-89v17h89v135h-89v17h89v345h261c132 0 208 -70 208 -181s-76 -181 -208 -181h-243v-135h323v-17h-323v-186zM130 683v-328h242c121 0 191 60 191 164s-70 164 -191 164h-242z" />
    <glyph glyph-name="uni20B6" unicode="&#x20c3;" horiz-adv-x="645" 
d="M130 0h-18v186h-89v17h89v135h-89v17h89v345h261c132 0 208 -70 208 -181s-76 -181 -208 -181h-243v-135h323v-17h-323v-186zM130 683v-328h242c121 0 191 60 191 164s-70 164 -191 164h-242z" />
    <glyph glyph-name="uni20B6" unicode="&#x20c2;" horiz-adv-x="645" 
d="M130 0h-18v186h-89v17h89v135h-89v17h89v345h261c132 0 208 -70 208 -181s-76 -181 -208 -181h-243v-135h323v-17h-323v-186zM130 683v-328h242c121 0 191 60 191 164s-70 164 -191 164h-242z" />
    <glyph glyph-name="uni20B6" unicode="&#x20c1;" horiz-adv-x="645" 
d="M130 0h-18v186h-89v17h89v135h-89v17h89v345h261c132 0 208 -70 208 -181s-76 -181 -208 -181h-243v-135h323v-17h-323v-186zM130 683v-328h242c121 0 191 60 191 164s-70 164 -191 164h-242z" />
    <glyph glyph-name="uni20B6" unicode="&#x20c0;" horiz-adv-x="645" 
d="M130 0h-18v186h-89v17h89v135h-89v17h89v345h261c132 0 208 -70 208 -181s-76 -181 -208 -181h-243v-135h323v-17h-323v-186zM130 683v-328h242c121 0 191 60 191 164s-70 164 -191 164h-242z" />
    <glyph glyph-name="uni20B6" unicode="&#x20bf;" horiz-adv-x="645" 
d="M130 0h-18v186h-89v17h89v135h-89v17h89v345h261c132 0 208 -70 208 -181s-76 -181 -208 -181h-243v-135h323v-17h-323v-186zM130 683v-328h242c121 0 191 60 191 164s-70 164 -191 164h-242z" />
    <glyph glyph-name="uni20B6" unicode="&#x20be;" horiz-adv-x="645" 
d="M130 0h-18v186h-89v17h89v135h-89v17h89v345h261c132 0 208 -70 208 -181s-76 -181 -208 -181h-243v-135h323v-17h-323v-186zM130 683v-328h242c121 0 191 60 191 164s-70 164 -191 164h-242z" />
    <glyph glyph-name="uni20B6" unicode="&#x20bd;" horiz-adv-x="645" 
d="M130 0h-18v186h-89v17h89v135h-89v17h89v345h261c132 0 208 -70 208 -181s-76 -181 -208 -181h-243v-135h323v-17h-323v-186zM130 683v-328h242c121 0 191 60 191 164s-70 164 -191 164h-242z" />
    <glyph glyph-name="uni20B6" unicode="&#x20bc;" horiz-adv-x="645" 
d="M130 0h-18v186h-89v17h89v135h-89v17h89v345h261c132 0 208 -70 208 -181s-76 -181 -208 -181h-243v-135h323v-17h-323v-186zM130 683v-328h242c121 0 191 60 191 164s-70 164 -191 164h-242z" />
    <glyph glyph-name="uni20B6" unicode="&#x20bb;" horiz-adv-x="645" 
d="M130 0h-18v186h-89v17h89v135h-89v17h89v345h261c132 0 208 -70 208 -181s-76 -181 -208 -181h-243v-135h323v-17h-323v-186zM130 683v-328h242c121 0 191 60 191 164s-70 164 -191 164h-242z" />
    <glyph glyph-name="uni20B6" unicode="&#x20ba;" horiz-adv-x="645" 
d="M130 0h-18v186h-89v17h89v135h-89v17h89v345h261c132 0 208 -70 208 -181s-76 -181 -208 -181h-243v-135h323v-17h-323v-186zM130 683v-328h242c121 0 191 60 191 164s-70 164 -191 164h-242z" />
    <glyph glyph-name="uni20B6" unicode="&#x20b9;" horiz-adv-x="645" 
d="M130 0h-18v186h-89v17h89v135h-89v17h89v345h261c132 0 208 -70 208 -181s-76 -181 -208 -181h-243v-135h323v-17h-323v-186zM130 683v-328h242c121 0 191 60 191 164s-70 164 -191 164h-242z" />
    <glyph glyph-name="uni20B6" unicode="&#x20b7;" horiz-adv-x="645" 
d="M130 0h-18v186h-89v17h89v135h-89v17h89v345h261c132 0 208 -70 208 -181s-76 -181 -208 -181h-243v-135h323v-17h-323v-186zM130 683v-328h242c121 0 191 60 191 164s-70 164 -191 164h-242z" />
    <glyph glyph-name="uni2113" unicode="&#x2113;" horiz-adv-x="411" 
d="M89 104v412c0 125 62 189 139 189c69 0 113 -46 113 -137c0 -119 -78 -249 -234 -388v-71c0 -69 32 -104 96 -104c29 0 57 8 85 25v-19c-23 -15 -51 -23 -85 -23c-68 0 -114 37 -114 116zM107 516v-314c144 136 216 258 216 366c0 80 -32 120 -95 120
c-67 0 -121 -56 -121 -172z" />
    <glyph glyph-name="uni2116" unicode="&#x2116;" horiz-adv-x="1103" 
d="M130 0h-18v700h18l512 -669v669h19v-700h-18l-513 670v-670zM753 297h140h141v-17h-281v17zM1034 548c0 42 -13 77 -40 105c-26 28 -60 42 -101 42s-75 -14 -102 -42c-26 -28 -39 -63 -39 -105c0 -43 13 -78 39 -106c27 -28 61 -42 102 -42s75 14 101 42
c27 28 40 63 40 106zM734 548c0 45 15 84 45 116c31 32 69 48 114 48s83 -16 114 -48s46 -71 46 -116c0 -46 -15 -85 -46 -117s-69 -48 -114 -48s-83 16 -114 48c-30 32 -45 71 -45 117z" />
    <glyph glyph-name="trademark" unicode="&#x2122;" horiz-adv-x="684" 
d="M346 393h-18v307h15l128 -154l128 154h15v-307h-18v277l-120 -143h-10l-120 143v-277zM151 393h-18v290h-107v17h236v-17h-111v-290z" />
    <glyph glyph-name="Omega" unicode="&#x2126;" horiz-adv-x="807" 
d="M286 0h-162v17h136c-41 41 -75 92 -102 151s-40 122 -40 189c0 105 27 191 80 256c53 66 122 99 205 99s152 -33 205 -98c54 -65 81 -151 81 -257c0 -67 -14 -130 -41 -189s-61 -110 -102 -151h137v-17h-162v17c42 37 77 86 106 147s44 126 44 193c0 100 -26 181 -77 244
s-114 94 -191 94c-76 0 -140 -31 -191 -94s-76 -144 -76 -244c0 -67 14 -132 43 -193s65 -110 107 -147v-17z" />
    <glyph glyph-name="estimated" unicode="&#x212e;" horiz-adv-x="814" 
d="M407 -12c-93 0 -171 31 -233 93c-62 63 -93 140 -93 232s31 169 93 231c62 63 140 94 233 94c92 0 169 -30 231 -91s94 -136 95 -227h-575v-193c56 -76 146 -122 249 -122c66 0 124 17 175 52s88 80 111 137h19c-23 -62 -62 -112 -117 -150c-55 -37 -117 -56 -188 -56z
M158 499v-162h498v162c-56 76 -146 122 -249 122s-193 -46 -249 -122z" />
    <glyph glyph-name="onethird" unicode="&#x2153;" horiz-adv-x="760" 
d="M150 322h-18v357l-106 -68v20l108 69h16v-378zM144 0h-20l400 700h20zM579 -4c-43 0 -79 9 -108 28v18c31 -19 67 -29 108 -29c64 0 120 41 120 104c0 60 -45 98 -117 98c-13 0 -25 -1 -36 -4v15l130 135h-187v17h216v-12l-129 -134h7c75 0 134 -42 134 -115
c0 -71 -59 -121 -138 -121z" />
    <glyph glyph-name="twothirds" unicode="&#x2154;" horiz-adv-x="882" 
d="M297 322h-250v14l138 134c56 55 80 87 80 132c0 49 -38 85 -97 85c-41 0 -80 -17 -115 -51v21c33 31 71 47 116 47c68 0 114 -42 114 -102c0 -48 -28 -89 -85 -145l-122 -118h221v-17zM701 -4c-43 0 -79 9 -108 28v18c31 -19 67 -29 108 -29c64 0 120 41 120 104
c0 60 -45 98 -117 98c-13 0 -25 -1 -36 -4v15l130 135h-187v17h216v-12l-129 -134h7c75 0 134 -42 134 -115c0 -71 -59 -121 -138 -121zM266 0h-20l400 700h20z" />
    <glyph glyph-name="uni2155" unicode="&#x2155;" horiz-adv-x="742" 
d="M150 322h-18v357l-106 -68v20l108 69h16v-378zM144 0h-20l400 700h20zM553 -4c-40 0 -75 9 -104 26v18c31 -18 66 -27 104 -27c73 0 125 46 125 105c0 56 -47 99 -118 99c-33 0 -64 -5 -94 -15l25 176h180v-17h-166l-18 -136c21 6 46 9 74 9c77 0 135 -48 135 -116
c0 -69 -62 -122 -143 -122z" />
    <glyph glyph-name="uni2156" unicode="&#x2156;" horiz-adv-x="864" 
d="M297 322h-250v14l138 134c56 55 80 87 80 132c0 49 -38 85 -97 85c-41 0 -80 -17 -115 -51v21c33 31 71 47 116 47c68 0 114 -42 114 -102c0 -48 -28 -89 -85 -145l-122 -118h221v-17zM675 -4c-40 0 -75 9 -104 26v18c31 -18 66 -27 104 -27c73 0 125 46 125 105
c0 56 -47 99 -118 99c-33 0 -64 -5 -94 -15l25 176h180v-17h-166l-18 -136c21 6 46 9 74 9c77 0 135 -48 135 -116c0 -69 -62 -122 -143 -122zM266 0h-20l400 700h20z" />
    <glyph glyph-name="uni2157" unicode="&#x2157;" horiz-adv-x="799" 
d="M201 0h-20l400 700h20zM610 -4c-40 0 -75 9 -104 26v18c31 -18 66 -27 104 -27c73 0 125 46 125 105c0 56 -47 99 -118 99c-33 0 -64 -5 -94 -15l25 176h180v-17h-166l-18 -136c21 6 46 9 74 9c77 0 135 -48 135 -116c0 -69 -62 -122 -143 -122zM134 318
c-43 0 -79 9 -108 28v18c31 -19 67 -29 108 -29c64 0 120 41 120 104c0 60 -45 98 -117 98c-13 0 -25 -1 -36 -4v15l130 135h-187v17h216v-12l-129 -134h7c75 0 134 -42 134 -115c0 -71 -59 -121 -138 -121z" />
    <glyph glyph-name="uni2158" unicode="&#x2158;" horiz-adv-x="842" 
d="M653 -4c-40 0 -75 9 -104 26v18c31 -18 66 -27 104 -27c73 0 125 46 125 105c0 56 -47 99 -118 99c-33 0 -64 -5 -94 -15l25 176h180v-17h-166l-18 -136c21 6 46 9 74 9c77 0 135 -48 135 -116c0 -69 -62 -122 -143 -122zM252 322h-18v110h-208v14l212 254h14v-251h66
v-17h-66v-110zM234 667l-182 -218h182v218zM244 0h-20l400 700h20z" />
    <glyph glyph-name="uni2159" unicode="&#x2159;" horiz-adv-x="747" 
d="M150 322h-18v357l-106 -68v20l108 69h16v-378zM144 0h-20l400 700h20zM581 -4c-89 0 -139 73 -139 176c0 62 15 112 44 151s67 59 114 59c31 0 57 -7 79 -22v-19c-23 16 -50 24 -79 24c-42 0 -76 -18 -102 -54c-25 -36 -38 -83 -38 -140c30 45 70 67 120 67
c68 0 124 -50 124 -119s-54 -123 -123 -123zM581 13c59 0 105 45 105 106s-47 102 -106 102c-50 0 -89 -26 -117 -77c5 -75 47 -131 118 -131z" />
    <glyph glyph-name="uni215A" unicode="&#x215a;" horiz-adv-x="822" 
d="M219 0h-20l400 700h20zM656 -4c-89 0 -139 73 -139 176c0 62 15 112 44 151s67 59 114 59c31 0 57 -7 79 -22v-19c-23 16 -50 24 -79 24c-42 0 -76 -18 -102 -54c-25 -36 -38 -83 -38 -140c30 45 70 67 120 67c68 0 124 -50 124 -119s-54 -123 -123 -123zM656 13
c59 0 105 45 105 106s-47 102 -106 102c-50 0 -89 -26 -117 -77c5 -75 47 -131 118 -131zM146 318c-40 0 -75 9 -104 26v18c31 -18 66 -27 104 -27c73 0 125 46 125 105c0 56 -47 99 -118 99c-33 0 -64 -5 -94 -15l25 176h180v-17h-166l-18 -136c21 6 46 9 74 9
c77 0 135 -48 135 -116c0 -69 -62 -122 -143 -122z" />
    <glyph glyph-name="oneeighth" unicode="&#x215b;" horiz-adv-x="760" 
d="M150 322h-18v357l-106 -68v20l108 69h16v-378zM144 0h-20l400 700h20zM440 101c0 50 29 84 87 101c-40 13 -66 45 -66 84c0 56 51 96 120 96s120 -40 120 -96c0 -39 -26 -71 -66 -84c58 -17 87 -51 87 -101c0 -63 -60 -105 -141 -105s-141 42 -141 105zM704 102
c0 55 -51 90 -123 90s-123 -35 -123 -90c0 -52 52 -89 123 -89s123 37 123 89zM683 286c0 48 -43 79 -102 79s-102 -31 -102 -79c0 -45 42 -77 102 -77s102 32 102 77z" />
    <glyph glyph-name="threeeighths" unicode="&#x215c;" horiz-adv-x="817" 
d="M201 0h-20l400 700h20zM497 101c0 50 29 84 87 101c-40 13 -66 45 -66 84c0 56 51 96 120 96s120 -40 120 -96c0 -39 -26 -71 -66 -84c58 -17 87 -51 87 -101c0 -63 -60 -105 -141 -105s-141 42 -141 105zM761 102c0 55 -51 90 -123 90s-123 -35 -123 -90
c0 -52 52 -89 123 -89s123 37 123 89zM740 286c0 48 -43 79 -102 79s-102 -31 -102 -79c0 -45 42 -77 102 -77s102 32 102 77zM134 318c-43 0 -79 9 -108 28v18c31 -19 67 -29 108 -29c64 0 120 41 120 104c0 60 -45 98 -117 98c-13 0 -25 -1 -36 -4v15l130 135h-187v17h216
v-12l-129 -134h7c75 0 134 -42 134 -115c0 -71 -59 -121 -138 -121z" />
    <glyph glyph-name="fiveeighths" unicode="&#x215d;" horiz-adv-x="835" 
d="M515 101c0 50 29 84 87 101c-40 13 -66 45 -66 84c0 56 51 96 120 96s120 -40 120 -96c0 -39 -26 -71 -66 -84c58 -17 87 -51 87 -101c0 -63 -60 -105 -141 -105s-141 42 -141 105zM779 102c0 55 -51 90 -123 90s-123 -35 -123 -90c0 -52 52 -89 123 -89s123 37 123 89z
M758 286c0 48 -43 79 -102 79s-102 -31 -102 -79c0 -45 42 -77 102 -77s102 32 102 77zM146 318c-40 0 -75 9 -104 26v18c31 -18 66 -27 104 -27c73 0 125 46 125 105c0 56 -47 99 -118 99c-33 0 -64 -5 -94 -15l25 176h180v-17h-166l-18 -136c21 6 46 9 74 9
c77 0 135 -48 135 -116c0 -69 -62 -122 -143 -122zM219 0h-20l400 700h20z" />
    <glyph glyph-name="seveneighths" unicode="&#x215e;" horiz-adv-x="753" 
d="M84 322h-20l184 361h-216v17h237v-14zM137 0h-20l400 700h20zM433 101c0 50 29 84 87 101c-40 13 -66 45 -66 84c0 56 51 96 120 96s120 -40 120 -96c0 -39 -26 -71 -66 -84c58 -17 87 -51 87 -101c0 -63 -60 -105 -141 -105s-141 42 -141 105zM697 102
c0 55 -51 90 -123 90s-123 -35 -123 -90c0 -52 52 -89 123 -89s123 37 123 89zM676 286c0 48 -43 79 -102 79s-102 -31 -102 -79c0 -45 42 -77 102 -77s102 32 102 77z" />
    <glyph glyph-name="uni215F" unicode="&#x215f;" horiz-adv-x="424" 
d="M150 322h-18v357l-106 -68v20l108 69h16v-378zM144 0h-20l400 700h20z" />
    <glyph glyph-name="arrowleft" unicode="&#x2190;" horiz-adv-x="732" 
d="M257 72l-182 195l182 195h24l-172 -186h533v-17h-534l173 -187h-24z" />
    <glyph glyph-name="arrowup" unicode="&#x2191;" horiz-adv-x="570" 
d="M293 533v-533h-17v532l-186 -171v24l195 182l195 -182v-24z" />
    <glyph glyph-name="arrowright" unicode="&#x2192;" horiz-adv-x="732" 
d="M623 259h-533v17h532l-171 186h24l182 -195l-182 -195h-24z" />
    <glyph glyph-name="arrowdown" unicode="&#x2193;" horiz-adv-x="570" 
d="M480 200v-24l-195 -182l-195 182v24l187 -173v534h17v-533z" />
    <glyph glyph-name="partialdiff" unicode="&#x2202;" horiz-adv-x="631" 
d="M273 -12c-61 0 -112 20 -153 60c-40 40 -60 91 -60 152c0 65 23 121 70 166s105 68 174 68c55 0 102 -15 141 -45s67 -67 82 -110c3 17 5 43 5 78c0 98 -23 177 -68 238s-105 91 -181 91c-51 0 -99 -14 -144 -43v18c42 28 90 42 144 42c81 0 146 -32 194 -95
c49 -63 73 -146 73 -250c0 -89 -19 -172 -60 -247c-41 -73 -118 -123 -217 -123zM273 5c136 0 221 95 248 243c-15 49 -42 90 -81 121c-39 32 -85 48 -137 48c-61 0 -113 -21 -158 -62s-67 -92 -67 -153c0 -57 19 -104 56 -141c38 -37 84 -56 139 -56z" />
    <glyph glyph-name="increment" unicode="&#x2206;" horiz-adv-x="734" 
d="M697 0h-660l322 700h16zM367 674l-303 -657h606z" />
    <glyph glyph-name="product" unicode="&#x220f;" horiz-adv-x="742" 
d="M213 -124h-18v807h-115v17h582v-17h-116v-807h-18v807h-315v-807z" />
    <glyph glyph-name="summation" unicode="&#x2211;" horiz-adv-x="583" 
d="M533 0h-463v14l279 336l-279 336v14h463v-17h-438l271 -326v-14l-271 -326h438v-17z" />
    <glyph glyph-name="minus" unicode="&#x2212;" horiz-adv-x="540" 
d="M470 313h-400v17h400v-17z" />
    <glyph glyph-name="uni2215" unicode="&#x2215;" horiz-adv-x="476" 
d="M57 0h-20l400 700h20z" />
    <glyph glyph-name="uni2219" unicode="&#x2219;" horiz-adv-x="208" 
d="M121 195c-22 -22 -56 12 -34 34s56 -12 34 -34z" />
    <glyph glyph-name="radical" unicode="&#x221a;" horiz-adv-x="630" 
d="M336 0h-17l-199 439h-140v17h153l194 -431l254 675h19z" />
    <glyph glyph-name="infinity" unicode="&#x221e;" horiz-adv-x="792" 
d="M215 175c-89 0 -145 63 -145 147s56 148 145 148c39 0 73 -13 105 -45c16 -15 29 -29 38 -40l38 -48c22 29 39 51 51 65c12 15 30 30 54 45c25 15 50 23 76 23c89 0 145 -64 145 -148s-56 -147 -145 -147c-32 0 -65 15 -86 28c-10 7 -22 17 -36 32l-29 33l-30 39l-38 -48
c-9 -11 -21 -24 -38 -40c-32 -31 -66 -44 -105 -44zM215 192c36 0 67 14 98 43c15 15 27 28 36 39s22 27 37 48c-15 21 -27 37 -36 48s-22 24 -37 39c-31 31 -62 44 -98 44c-170 5 -170 -267 0 -261zM577 192c170 -6 170 266 0 261c-36 0 -67 -12 -99 -44
c-15 -15 -27 -28 -36 -39l-37 -48l37 -48c8 -10 20 -23 36 -39c32 -31 63 -43 99 -43z" />
    <glyph glyph-name="integral" unicode="&#x222b;" horiz-adv-x="432" 
d="M371 705c29 0 55 -5 78 -16v-19c-24 12 -50 18 -78 18c-81 0 -129 -48 -148 -168l-83 -542c-17 -111 -73 -181 -166 -181c-27 0 -53 5 -76 16v19c24 -12 49 -18 76 -18c82 0 132 56 149 168l83 542c19 124 69 181 165 181z" />
    <glyph glyph-name="approxequal" unicode="&#x2248;" horiz-adv-x="663" 
d="M469 166c-39 0 -88 10 -145 31c-49 18 -93 27 -130 27c-52 0 -93 -16 -124 -48v21c20 25 72 44 124 44c39 0 88 -10 145 -31c49 -18 93 -27 130 -27c52 0 93 16 124 48v-21c-20 -25 -72 -44 -124 -44zM469 395c-39 0 -88 10 -145 31c-49 18 -93 27 -130 27
c-52 0 -93 -16 -124 -48v21c20 25 72 44 124 44c39 0 88 -10 145 -31c49 -18 93 -27 130 -27c52 0 93 16 124 48v-21c-20 -25 -72 -44 -124 -44z" />
    <glyph glyph-name="notequal" unicode="&#x2260;" horiz-adv-x="595" 
d="M175 68h-20l68 130h-153v17h162l110 211h-272v17h281l69 131h20l-69 -131h154v-17h-163l-110 -211h273v-17h-282z" />
    <glyph glyph-name="lessequal" unicode="&#x2264;" horiz-adv-x="595" 
d="M525 184v-19l-455 190v17l455 190v-20l-429 -179zM524 82h-454v17h454v-17z" />
    <glyph glyph-name="greaterequal" unicode="&#x2265;" horiz-adv-x="595" 
d="M525 355l-455 -190v19l429 179l-429 179v20l455 -190v-17zM525 82h-454v17h454v-17z" />
    <glyph glyph-name="dotmath" unicode="&#x22c5;" horiz-adv-x="208" 
d="M121 361c-22 -22 -56 12 -34 34s56 -12 34 -34z" />
    <glyph glyph-name="lozenge" unicode="&#x25ca;" horiz-adv-x="555" 
d="M286 0h-17l-209 350l209 350h17l209 -350zM82 350l196 -328l195 328l-195 328z" />
    <glyph glyph-name="uniF401" unicode="&#xf401;" horiz-adv-x="20" 
d="M-368 765h-22l97 124h22z" />
    <glyph glyph-name="uniF639" unicode="&#xf639;" 
d="M310 -12c-75 0 -136 34 -184 102c-47 69 -71 155 -71 260c0 104 24 190 71 259c48 69 109 103 184 103c74 0 135 -34 183 -103s72 -155 72 -259c0 -105 -24 -191 -72 -260c-48 -68 -109 -102 -183 -102zM310 5c68 0 124 32 169 97s68 148 68 248s-23 182 -68 247
s-101 98 -169 98c-69 0 -125 -33 -170 -98s-67 -147 -67 -247s22 -183 67 -248s101 -97 170 -97z" />
    <glyph glyph-name="uniF63A" unicode="&#xf63a;" 
d="M540 0h-461l1 16l260 254c37 36 65 65 84 87c39 44 70 105 70 168c0 50 -18 91 -53 122c-35 32 -81 48 -138 48c-80 0 -150 -34 -211 -102v27c56 61 126 92 211 92c63 0 113 -17 151 -52c39 -35 58 -80 58 -135c0 -47 -12 -89 -36 -127c-24 -37 -65 -84 -122 -140
l-247 -241h434z" />
    <glyph glyph-name="uniF63B" unicode="&#xf63b;" 
d="M283 -12c-78 0 -144 16 -197 49v21c51 -35 116 -53 196 -53c63 0 118 19 165 57s71 88 71 150c0 59 -21 106 -63 142c-41 36 -97 54 -167 54c-21 0 -41 -2 -61 -5v14l261 266h-367v17h394v-13l-257 -263c8 1 19 1 33 1c68 0 126 -19 173 -56c48 -37 72 -90 72 -157
c0 -65 -24 -119 -73 -161c-48 -42 -108 -63 -180 -63z" />
    <glyph glyph-name="uniF63C" unicode="&#xf63c;" 
d="M457 0h-18v214h-396v15l399 471h15v-469h126v-17h-126v-214zM439 669l-371 -438h371v438z" />
    <glyph glyph-name="uniF63D" unicode="&#xf63d;" 
d="M271 -12c-74 0 -137 15 -188 45v20c51 -32 114 -48 189 -48c71 0 130 20 176 60s69 89 69 146c0 55 -22 102 -65 140c-43 39 -99 58 -168 58c-59 0 -115 -9 -169 -28l47 319h324v-17h-309l-42 -278c44 14 94 21 151 21c71 0 130 -20 177 -61c48 -41 72 -92 72 -154
c0 -63 -25 -116 -75 -159c-49 -43 -112 -64 -189 -64z" />
    <glyph glyph-name="uniF63E" unicode="&#xf63e;" 
d="M331 -12c-77 0 -139 28 -185 85s-69 138 -69 243c0 116 27 211 81 285s124 111 211 111c54 0 101 -14 141 -42v-19c-43 29 -91 44 -142 44c-81 0 -146 -36 -197 -108c-51 -71 -76 -161 -76 -270c0 -18 0 -31 1 -38c18 43 48 79 89 109c41 31 90 46 145 46
c63 0 116 -21 161 -62s67 -92 67 -154c0 -66 -22 -121 -66 -165c-43 -43 -97 -65 -161 -65zM332 5c57 0 106 20 147 60c41 41 61 91 61 152c0 59 -21 107 -62 144s-90 56 -149 56c-52 0 -99 -16 -141 -48c-41 -31 -71 -72 -89 -121c17 -148 97 -243 233 -243z" />
    <glyph glyph-name="uniF63F" unicode="&#xf63f;" 
d="M185 0h-20l347 683h-413v17h435v-12z" />
    <glyph glyph-name="uniF640" unicode="&#xf640;" 
d="M53 183c0 97 70 165 186 189c-88 21 -147 82 -147 165c0 51 20 93 61 126s93 49 156 49s115 -16 156 -49s62 -75 62 -126c0 -83 -59 -144 -147 -165c116 -24 186 -92 186 -189c0 -57 -25 -104 -74 -141c-49 -36 -110 -54 -183 -54s-134 18 -183 55s-73 83 -73 140z
M548 184c0 53 -23 95 -68 128s-102 50 -171 50c-68 0 -125 -17 -170 -50s-68 -76 -68 -128c0 -51 23 -93 68 -128c46 -34 103 -51 170 -51s124 17 170 51c46 35 69 77 69 128zM510 537c0 47 -19 85 -58 114c-38 29 -86 44 -143 44s-104 -15 -142 -44s-57 -67 -57 -114
c0 -45 19 -83 57 -113s85 -45 142 -45s104 15 143 45s58 68 58 113z" />
    <glyph glyph-name="uniF641" unicode="&#xf641;" 
d="M251 -12c-54 0 -101 14 -141 42v19c43 -29 91 -44 142 -44c81 0 146 36 197 107c51 72 76 162 76 271c0 18 0 31 -1 38c-18 -43 -48 -79 -89 -110c-41 -30 -90 -45 -145 -45c-63 0 -116 20 -161 61s-67 93 -67 155c0 66 22 121 65 164c44 44 98 66 162 66
c77 0 139 -29 185 -86s69 -137 69 -242c0 -116 -27 -211 -81 -285s-124 -111 -211 -111zM291 283c52 0 99 16 140 47c42 32 72 73 90 122c-17 148 -97 243 -233 243c-57 0 -106 -20 -147 -61c-41 -40 -61 -90 -61 -151c0 -59 20 -108 61 -145s91 -55 150 -55z" />
    <glyph glyph-name="uniF643" unicode="&#xf643;" 
d="M310 5c64 0 118 22 161 66c44 45 66 99 66 164s-22 119 -66 163c-43 45 -97 67 -161 67c-65 0 -119 -22 -163 -67c-43 -44 -65 -98 -65 -163s22 -119 65 -164c44 -44 98 -66 163 -66zM64 235c0 67 23 124 68 173c46 49 105 74 178 74s132 -25 177 -74s68 -106 68 -173
s-23 -125 -68 -174s-104 -73 -177 -73s-132 24 -178 73c-45 49 -68 107 -68 174z" />
    <glyph glyph-name="uniF644" unicode="&#xf644;" 
d="M531 0h-426v17h207v432l-166 -106v20l166 107h18v-453h201v-17z" />
    <glyph glyph-name="uniF645" unicode="&#xf645;" 
d="M524 0h-425v15c119 66 195 110 229 133c19 13 33 21 40 26s20 15 37 29c17 15 30 27 38 37c16 21 34 55 34 86c0 81 -69 139 -170 139c-75 0 -141 -30 -200 -90v24c53 55 119 83 200 83c57 0 102 -15 136 -44c35 -29 52 -66 52 -109c0 -44 -18 -83 -54 -118
c-36 -33 -59 -49 -107 -80c-16 -11 -40 -26 -73 -45s-61 -35 -86 -48l-37 -21h386v-17z" />
    <glyph glyph-name="uniF646" unicode="&#xf646;" 
d="M283 -203c-78 0 -144 16 -197 49v21c51 -35 116 -53 196 -53c63 0 118 18 165 54s71 84 71 145c0 57 -21 103 -63 137s-98 51 -167 51c-21 0 -41 -2 -61 -5v14l253 243h-359v17h386v-13l-249 -240c8 1 19 1 33 1c67 0 125 -18 173 -53s72 -86 72 -152
c0 -64 -24 -116 -73 -156c-48 -40 -108 -60 -180 -60z" />
    <glyph glyph-name="uniF647" unicode="&#xf647;" 
d="M457 -200h-18v200h-396v15l399 455h15v-453h126v-17h-126v-200zM439 439l-371 -422h371v422z" />
    <glyph glyph-name="uniF648" unicode="&#xf648;" 
d="M271 -203c-74 0 -137 15 -188 45v20c51 -32 114 -48 189 -48c71 0 130 20 176 60s69 89 69 146c0 55 -22 100 -65 135s-99 53 -169 53c-59 0 -115 -9 -169 -28l43 290h324v-17h-309l-38 -249c44 14 94 21 151 21c72 0 132 -19 179 -57c47 -37 71 -87 71 -148
c0 -63 -25 -116 -75 -159c-49 -43 -112 -64 -189 -64z" />
    <glyph glyph-name="uniF649" unicode="&#xf649;" 
d="M331 -12c-77 0 -139 28 -185 85s-69 138 -69 243c0 116 27 211 81 285s124 111 211 111c54 0 101 -14 141 -42v-19c-43 29 -91 44 -142 44c-81 0 -146 -36 -197 -108c-51 -71 -76 -161 -76 -270c0 -18 0 -31 1 -38c18 43 48 79 89 109c41 31 90 46 145 46
c63 0 116 -21 161 -62s67 -92 67 -154c0 -66 -22 -121 -66 -165c-43 -43 -97 -65 -161 -65zM332 5c57 0 106 20 147 60c41 41 61 91 61 152c0 59 -21 107 -62 144s-90 56 -149 56c-52 0 -99 -16 -141 -48c-41 -31 -71 -72 -89 -121c17 -148 97 -243 233 -243z" />
    <glyph glyph-name="uniF64A" unicode="&#xf64a;" 
d="M200 -200h-20l332 653h-413v17h435v-12z" />
    <glyph glyph-name="uniF64B" unicode="&#xf64b;" 
d="M53 183c0 97 70 165 186 189c-88 21 -147 82 -147 165c0 51 20 93 61 126s93 49 156 49s115 -16 156 -49s62 -75 62 -126c0 -83 -59 -144 -147 -165c116 -24 186 -92 186 -189c0 -57 -25 -104 -74 -141c-49 -36 -110 -54 -183 -54s-134 18 -183 55s-73 83 -73 140z
M548 184c0 53 -23 95 -68 128s-102 50 -171 50c-68 0 -125 -17 -170 -50s-68 -76 -68 -128c0 -51 23 -93 68 -128c46 -34 103 -51 170 -51s124 17 170 51c46 35 69 77 69 128zM510 537c0 47 -19 85 -58 114c-38 29 -86 44 -143 44s-104 -15 -142 -44s-57 -67 -57 -114
c0 -45 19 -83 57 -113s85 -45 142 -45s104 15 143 45s58 68 58 113z" />
    <glyph glyph-name="uniF64C" unicode="&#xf64c;" 
d="M251 -203c-54 0 -101 14 -141 42v19c43 -29 91 -44 142 -44c83 0 149 30 198 90c50 60 75 143 75 249c0 18 0 31 -1 38c-18 -43 -48 -79 -89 -110c-41 -30 -90 -45 -145 -45c-63 0 -116 20 -161 61s-67 93 -67 155c0 66 22 121 65 164c44 44 98 66 162 66
c77 0 139 -29 184 -86c46 -57 69 -137 69 -242c0 -113 -26 -201 -79 -263c-53 -63 -123 -94 -212 -94zM291 53c52 0 99 16 140 47c41 32 71 73 89 122c-17 148 -96 243 -232 243c-57 0 -106 -20 -147 -61c-41 -40 -61 -90 -61 -151c0 -59 20 -108 61 -145s91 -55 150 -55z
" />
    <glyph glyph-name="uniF64E" unicode="&#xf64e;" horiz-adv-x="569" 
d="M115 164h-75v17h70c-7 37 -6 73 -1 101h-69v17h73c13 53 41 96 83 131s93 52 154 52c54 0 102 -13 143 -38v-20c-43 27 -91 41 -143 41c-53 0 -99 -15 -139 -46c-39 -31 -66 -71 -80 -120h259v-17h-263c-3 -13 -4 -29 -4 -47c0 -19 2 -37 6 -54h261v-17h-257
c15 -47 42 -86 81 -115s85 -44 136 -44c59 0 110 16 153 47v-20c-43 -29 -94 -44 -153 -44s-110 16 -152 49c-41 33 -69 76 -83 127z" />
    <glyph glyph-name="uniF653" unicode="&#xf653;" horiz-adv-x="494" 
d="M244 -12v-104h-18v104c-73 3 -145 29 -180 54v21c43 -29 115 -58 194 -58c104 0 172 45 172 112c0 65 -53 88 -169 113c-123 27 -178 59 -178 132c0 69 57 115 161 119v106h18v-105c65 -1 120 -16 163 -45v-19c-49 31 -104 47 -165 47c-105 0 -159 -43 -159 -103
c0 -29 15 -54 34 -69c9 -7 22 -14 38 -21c33 -12 51 -17 91 -25c49 -11 75 -17 110 -32c47 -18 74 -47 74 -98c0 -40 -18 -71 -54 -94c-35 -23 -79 -34 -132 -35z" />
    <glyph glyph-name="commaaccent" unicode="&#xf6c3;" horiz-adv-x="219" 
d="M95 -200h-19l54 156h19z" />
    <glyph glyph-name="cyrbreve" unicode="&#xf6d4;" horiz-adv-x="520" 
d="M261 579c-89 0 -147 54 -147 131h18c0 -67 50 -114 129 -114c76 0 127 49 127 114h18c0 -38 -14 -69 -42 -94c-27 -25 -62 -37 -103 -37z" />
    <glyph glyph-name="uniF6DC" unicode="&#xf6dc;" 
d="M551 0h-436v17h214v662l-166 -106v20l166 107h18v-683h204v-17z" />
    <glyph glyph-name="uniF721" unicode="&#xf721;" horiz-adv-x="516" 
d="M280 -12c-116 0 -177 36 -177 97c0 36 21 65 63 88h-96v17h376v-17h-244c-43 -17 -81 -51 -81 -87c0 -51 54 -81 161 -81c52 0 100 9 144 28v-19c-45 -17 -93 -26 -146 -26zM446 291h-376v17h270c45 23 67 49 67 79c0 52 -50 78 -151 78c-52 0 -101 -10 -147 -31v18
c42 20 92 30 149 30c111 0 167 -31 167 -94c0 -32 -18 -59 -53 -80h74v-17z" />
    <glyph glyph-name="uniF722" unicode="&#xf722;" horiz-adv-x="546" 
d="M134 0h-18v72h-69v17h69v101h-69v17h69v263h220c103 0 161 -55 161 -140s-58 -140 -161 -140h-202v-101h231v-17h-231v-72zM134 453v-246h201c92 0 144 44 144 123c0 77 -53 123 -144 123h-201z" />
    <glyph glyph-name="uniF725" unicode="&#xf725;" horiz-adv-x="572" 
d="M488 0h-410v17h27c23 0 37 24 37 53v105h-64v17h64v91c0 133 65 199 195 199c58 0 108 -15 151 -45v-19c-44 31 -94 47 -151 47c-118 0 -177 -61 -177 -184v-89h270v-17h-270v-107c0 -23 -7 -40 -20 -51h348v-17z" />
    <glyph glyph-name="uniF727" unicode="&#xf727;" horiz-adv-x="518" 
d="M268 0h-18v100h-165v17h165v101h-165v17h155l-190 235h23l186 -229l185 229h24l-191 -235h156v-17h-165v-101h165v-17h-165v-100z" />
    <glyph glyph-name="uniF730" unicode="&#xf730;" horiz-adv-x="610" 
d="M305 5c64 0 118 22 161 66c44 45 66 99 66 164s-22 119 -66 163c-43 45 -97 67 -161 67c-65 0 -119 -22 -163 -67c-43 -44 -65 -98 -65 -163s22 -119 65 -164c44 -44 98 -66 163 -66zM59 235c0 67 23 124 68 173c46 49 105 74 178 74s132 -25 177 -74s68 -106 68 -173
s-23 -125 -68 -174s-104 -73 -177 -73s-132 24 -178 73c-45 49 -68 107 -68 174z" />
    <glyph glyph-name="uniF731" unicode="&#xf731;" horiz-adv-x="340" 
d="M225 0h-18v449l-166 -106v20l166 107h18v-470z" />
    <glyph glyph-name="uniF732" unicode="&#xf732;" horiz-adv-x="554" 
d="M490 0h-425v15c119 66 195 110 229 133c19 13 33 21 40 26s20 15 37 29c17 15 30 27 38 37c16 21 34 55 34 86c0 81 -69 139 -170 139c-75 0 -141 -30 -200 -90v24c53 55 119 83 200 83c57 0 102 -15 136 -44c35 -29 52 -66 52 -109c0 -44 -18 -83 -54 -118
c-36 -33 -59 -49 -107 -80c-16 -11 -40 -26 -73 -45s-61 -35 -86 -48l-37 -21h386v-17z" />
    <glyph glyph-name="uniF733" unicode="&#xf733;" horiz-adv-x="529" 
d="M222 -203c-78 0 -144 16 -197 49v21c51 -35 116 -53 196 -53c63 0 118 18 165 54s71 84 71 145c0 57 -21 103 -63 137s-98 51 -167 51c-21 0 -41 -2 -61 -5v14l253 243h-359v17h386v-13l-249 -240c8 1 19 1 33 1c67 0 125 -18 173 -53s72 -86 72 -152
c0 -64 -24 -116 -73 -156c-48 -40 -108 -60 -180 -60z" />
    <glyph glyph-name="uniF734" unicode="&#xf734;" horiz-adv-x="621" 
d="M457 -200h-18v200h-396v15l399 455h15v-453h126v-17h-126v-200zM439 439l-371 -422h371v422z" />
    <glyph glyph-name="uniF735" unicode="&#xf735;" horiz-adv-x="590" 
d="M264 -203c-74 0 -137 15 -188 45v20c51 -32 114 -48 189 -48c71 0 130 20 176 60s69 89 69 146c0 55 -22 100 -65 135s-99 53 -169 53c-59 0 -115 -9 -169 -28l43 290h324v-17h-309l-38 -249c44 14 94 21 151 21c72 0 132 -19 179 -57c47 -37 71 -87 71 -148
c0 -63 -25 -116 -75 -159c-49 -43 -112 -64 -189 -64z" />
    <glyph glyph-name="uniF736" unicode="&#xf736;" horiz-adv-x="635" 
d="M333 -12c-77 0 -139 28 -185 85s-69 138 -69 243c0 116 27 211 81 285s124 111 211 111c54 0 101 -14 141 -42v-19c-43 29 -91 44 -142 44c-81 0 -146 -36 -197 -108c-51 -71 -76 -161 -76 -270c0 -18 0 -31 1 -38c18 43 48 79 89 109c41 31 90 46 145 46
c63 0 116 -21 161 -62s67 -92 67 -154c0 -66 -22 -121 -66 -165c-43 -43 -97 -65 -161 -65zM334 5c57 0 106 20 147 60c41 41 61 91 61 152c0 59 -21 107 -62 144s-90 56 -149 56c-52 0 -99 -16 -141 -48c-41 -31 -71 -72 -89 -121c17 -148 97 -243 233 -243z" />
    <glyph glyph-name="uniF737" unicode="&#xf737;" horiz-adv-x="517" 
d="M148 -200h-20l332 653h-413v17h435v-12z" />
    <glyph glyph-name="uniF738" unicode="&#xf738;" horiz-adv-x="647" 
d="M67 183c0 97 70 165 186 189c-88 21 -147 82 -147 165c0 51 20 93 61 126s93 49 156 49s115 -16 156 -49s62 -75 62 -126c0 -83 -59 -144 -147 -165c116 -24 186 -92 186 -189c0 -57 -25 -104 -74 -141c-49 -36 -110 -54 -183 -54s-134 18 -183 55s-73 83 -73 140z
M562 184c0 53 -23 95 -68 128s-102 50 -171 50c-68 0 -125 -17 -170 -50s-68 -76 -68 -128c0 -51 23 -93 68 -128c46 -34 103 -51 170 -51s124 17 170 51c46 35 69 77 69 128zM524 537c0 47 -19 85 -58 114c-38 29 -86 44 -143 44s-104 -15 -142 -44s-57 -67 -57 -114
c0 -45 19 -83 57 -113s85 -45 142 -45s104 15 143 45s58 68 58 113z" />
    <glyph glyph-name="uniF739" unicode="&#xf739;" horiz-adv-x="633" 
d="M262 -203c-54 0 -101 14 -141 42v19c43 -29 91 -44 142 -44c83 0 149 30 198 90c50 60 75 143 75 249c0 18 0 31 -1 38c-18 -43 -48 -79 -89 -110c-41 -30 -90 -45 -145 -45c-63 0 -116 20 -161 61s-67 93 -67 155c0 66 22 121 65 164c44 44 98 66 162 66
c77 0 139 -29 184 -86c46 -57 69 -137 69 -242c0 -113 -26 -201 -79 -263c-53 -63 -123 -94 -212 -94zM302 53c52 0 99 16 140 47c41 32 71 73 89 122c-17 148 -96 243 -232 243c-58 0 -107 -20 -148 -61c-40 -40 -60 -90 -60 -151c0 -59 20 -108 61 -145s91 -55 150 -55z
" />
    <glyph glyph-name="aogonek.alt" horiz-adv-x="625" 
d="M571 -189c-60 0 -99 41 -99 96c0 37 13 68 39 93v94c-49 -71 -118 -106 -205 -106c-73 0 -132 24 -178 73c-45 49 -68 107 -68 174s23 124 68 173c46 49 105 74 178 74c87 0 156 -35 205 -106v94h18v-470c-26 -29 -39 -60 -39 -91c0 -48 35 -81 84 -81c11 0 25 2 41 6
v-17c-15 -4 -29 -6 -44 -6zM306 5c88 0 170 51 205 124v212c-35 73 -117 124 -205 124c-65 0 -119 -22 -163 -67c-43 -44 -65 -98 -65 -163s22 -119 65 -164c44 -44 98 -66 163 -66z" />
    <glyph glyph-name="abreve.alt" horiz-adv-x="625" 
d="M306 -12c-73 0 -132 24 -178 73c-45 49 -68 107 -68 174s23 124 68 173c46 49 105 74 178 74c87 0 156 -35 205 -106v94h18v-470h-18v94c-49 -71 -118 -106 -205 -106zM306 5c88 0 170 51 205 124v212c-35 73 -117 124 -205 124c-65 0 -119 -22 -163 -67
c-43 -44 -65 -98 -65 -163s22 -119 65 -164c44 -44 98 -66 163 -66zM194 694h18c0 -55 44 -98 97 -98s97 43 97 98h18c0 -31 -11 -58 -34 -81s-50 -34 -81 -34s-58 11 -81 34s-34 50 -34 81z" />
    <glyph glyph-name="parenleft.cap" horiz-adv-x="343" 
d="M283 -106h-22c-101 127 -151 279 -151 456s50 329 151 456h22c-103 -134 -155 -286 -155 -456s52 -322 155 -456z" />
    <glyph glyph-name="acute.cap" horiz-adv-x="520" 
d="M209 765h-22l97 124h22z" />
    <glyph glyph-name="parenright.cap" horiz-adv-x="343" 
d="M82 -106h-22c103 134 155 286 155 456s-52 322 -155 456h22c101 -127 151 -279 151 -456s-50 -329 -151 -456z" />
    <glyph glyph-name="grave.cap" horiz-adv-x="520" 
d="M306 765h-22l-97 124h22z" />
    <glyph glyph-name="atilde.alt" horiz-adv-x="625" 
d="M306 -12c-73 0 -132 24 -178 73c-45 49 -68 107 -68 174s23 124 68 173c46 49 105 74 178 74c87 0 156 -35 205 -106v94h18v-470h-18v94c-49 -71 -118 -106 -205 -106zM306 5c88 0 170 51 205 124v212c-35 73 -117 124 -205 124c-65 0 -119 -22 -163 -67
c-43 -44 -65 -98 -65 -163s22 -119 65 -164c44 -44 98 -66 163 -66zM380 601c-18 0 -43 11 -76 34c-32 23 -56 35 -71 35c-27 0 -42 -21 -45 -62h-17c1 51 25 79 62 79c19 0 44 -12 76 -35c33 -23 56 -34 71 -34c27 0 42 21 45 63h17c-2 -53 -23 -80 -62 -80z" />
    <glyph glyph-name="amacron.alt" horiz-adv-x="625" 
d="M306 -12c-73 0 -132 24 -178 73c-45 49 -68 107 -68 174s23 124 68 173c46 49 105 74 178 74c87 0 156 -35 205 -106v94h18v-470h-18v94c-49 -71 -118 -106 -205 -106zM306 5c88 0 170 51 205 124v212c-35 73 -117 124 -205 124c-65 0 -119 -22 -163 -67
c-43 -44 -65 -98 -65 -163s22 -119 65 -164c44 -44 98 -66 163 -66zM417 635h-209v17h209v-17z" />
    <glyph glyph-name="acircumflex.alt" horiz-adv-x="625" 
d="M306 -12c-73 0 -132 24 -178 73c-45 49 -68 107 -68 174s23 124 68 173c46 49 105 74 178 74c87 0 156 -35 205 -106v94h18v-470h-18v94c-49 -71 -118 -106 -205 -106zM306 5c88 0 170 51 205 124v212c-35 73 -117 124 -205 124c-65 0 -119 -22 -163 -67
c-43 -44 -65 -98 -65 -163s22 -119 65 -164c44 -44 98 -66 163 -66zM215 576h-21l103 124h18l103 -124h-21l-91 108z" />
    <glyph glyph-name="breve.cap" horiz-adv-x="520" 
d="M145 877h18c0 -55 44 -98 97 -98s97 43 97 98h18c0 -31 -11 -58 -34 -81s-50 -34 -81 -34s-58 11 -81 34s-34 50 -34 81z" />
    <glyph glyph-name="agrave.alt" horiz-adv-x="625" 
d="M306 -12c-73 0 -132 24 -178 73c-45 49 -68 107 -68 174s23 124 68 173c46 49 105 74 178 74c87 0 156 -35 205 -106v94h18v-470h-18v94c-49 -71 -118 -106 -205 -106zM306 5c88 0 170 51 205 124v212c-35 73 -117 124 -205 124c-65 0 -119 -22 -163 -67
c-43 -44 -65 -98 -65 -163s22 -119 65 -164c44 -44 98 -66 163 -66zM347 576h-22l-97 124h22z" />
    <glyph glyph-name="aacute.alt" horiz-adv-x="625" 
d="M306 -12c-73 0 -132 24 -178 73c-45 49 -68 107 -68 174s23 124 68 173c46 49 105 74 178 74c87 0 156 -35 205 -106v94h18v-470h-18v94c-49 -71 -118 -106 -205 -106zM306 5c88 0 170 51 205 124v212c-35 73 -117 124 -205 124c-65 0 -119 -22 -163 -67
c-43 -44 -65 -98 -65 -163s22 -119 65 -164c44 -44 98 -66 163 -66zM293 576h-22l97 124h22z" />
    <glyph glyph-name="g.alt" horiz-adv-x="618" 
d="M452 419l-2 3l129 60v-20l-116 -55c28 -35 42 -75 42 -120c0 -37 -11 -73 -32 -106c46 -44 69 -97 69 -160c0 -61 -22 -113 -67 -157c-44 -45 -102 -67 -173 -67c-67 0 -122 20 -166 59c-43 39 -68 87 -74 144h18c5 -53 29 -98 71 -133s92 -53 151 -53
c63 0 115 20 158 60s64 89 64 147c0 57 -21 106 -62 145c-41 -49 -96 -74 -165 -74c-63 0 -113 19 -152 57c-39 39 -58 85 -58 138s19 98 58 137s90 58 152 58c63 0 115 -21 155 -63zM297 109c53 0 98 17 135 51c37 35 55 77 55 127s-18 92 -55 126c-37 35 -82 52 -135 52
c-55 0 -100 -17 -137 -52c-37 -34 -55 -76 -55 -126s18 -92 55 -127c37 -34 82 -51 137 -51z" />
    <glyph glyph-name="t_t" horiz-adv-x="683" 
d="M272 -12c-68 0 -114 37 -114 116v349h-128v17h128v160h18v-160h250v160h18v-160h189v-17h-189v-344c0 -69 32 -104 96 -104c29 0 57 8 85 25v-19c-23 -15 -52 -23 -85 -23c-68 0 -114 37 -114 116v349h-250v-344c0 -69 32 -104 96 -104c29 0 57 8 85 25v-19
c-23 -15 -52 -23 -85 -23z" />
    <glyph glyph-name="a.alt" horiz-adv-x="625" 
d="M306 -12c-73 0 -132 24 -178 73c-45 49 -68 107 -68 174s23 124 68 173c46 49 105 74 178 74c87 0 156 -35 205 -106v94h18v-470h-18v94c-49 -71 -118 -106 -205 -106zM306 5c88 0 170 51 205 124v212c-35 73 -117 124 -205 124c-65 0 -119 -22 -163 -67
c-43 -44 -65 -98 -65 -163s22 -119 65 -164c44 -44 98 -66 163 -66z" />
    <glyph glyph-name="sterling.mono" 
d="M512 0h-439v17h27c23 0 37 24 37 53v244h-64v17h64v166c0 137 78 215 211 215c65 0 120 -17 164 -50v-21c-40 36 -95 54 -165 54c-123 0 -192 -71 -192 -200v-164h314v-17h-314v-246c0 -23 -7 -40 -20 -51h377v-17z" />
    <glyph glyph-name="adieresis.alt" horiz-adv-x="625" 
d="M306 -12c-73 0 -132 24 -178 73c-45 49 -68 107 -68 174s23 124 68 173c46 49 105 74 178 74c87 0 156 -35 205 -106v94h18v-470h-18v94c-49 -71 -118 -106 -205 -106zM306 5c88 0 170 51 205 124v212c-35 73 -117 124 -205 124c-65 0 -119 -22 -163 -67
c-43 -44 -65 -98 -65 -163s22 -119 65 -164c44 -44 98 -66 163 -66zM231 627c-22 -22 -56 12 -34 34s56 -12 34 -34zM411 627c-22 -22 -56 12 -34 34s56 -12 34 -34z" />
    <glyph glyph-name="tilde.cap" horiz-adv-x="520" 
d="M334 784c-18 0 -43 11 -76 34c-32 23 -56 34 -71 34c-27 0 -42 -21 -45 -62h-17c2 53 23 79 62 79c19 0 44 -11 76 -34c33 -23 56 -34 71 -34c27 0 42 21 45 62h17c-2 -53 -23 -79 -62 -79z" />
    <glyph glyph-name="questiondown.cap" horiz-adv-x="458" 
d="M227 492h18v-142c-49 -10 -92 -31 -130 -64s-57 -73 -57 -120s17 -85 50 -116c34 -30 77 -45 130 -45c65 0 121 20 168 59v-21c-47 -37 -103 -55 -169 -55c-55 0 -102 17 -140 50s-57 76 -57 128c0 96 79 164 187 199v127zM217 687c23 23 57 -12 35 -34
c-8 -9 -26 -9 -35 0c-8 9 -8 25 0 34z" />
    <glyph glyph-name="dollar.mono" 
d="M309 -115h-18v103c-50 1 -97 9 -142 24c-44 15 -78 32 -101 51v21c52 -43 144 -79 249 -79c67 0 122 16 165 47c43 32 65 74 65 125c0 45 -20 82 -45 106c-12 12 -29 23 -52 33c-44 21 -72 30 -131 46c-33 9 -58 16 -77 22c-19 7 -39 15 -62 25c-62 30 -86 66 -91 137
c0 45 19 84 57 116c39 33 94 49 165 50v103h18v-103c73 -3 136 -23 191 -59v-20c-62 41 -130 62 -205 62c-68 0 -120 -15 -155 -44s-53 -64 -53 -105s19 -75 40 -96c11 -10 27 -20 46 -29c39 -17 63 -24 111 -37l22 -6c26 -7 45 -13 58 -17s30 -10 53 -19s40 -18 52 -27
c39 -26 81 -74 76 -138c0 -58 -23 -104 -69 -137s-102 -51 -167 -52v-103z" />
    <glyph glyph-name="ring.cap" horiz-adv-x="520" 
d="M172 827c0 47 40 88 88 88s88 -41 88 -88c0 -48 -40 -88 -88 -88s-88 40 -88 88zM210 776c27 -27 73 -27 100 0c27 28 27 74 0 101c-27 28 -73 28 -100 0c-27 -27 -27 -73 0 -101z" />
    <glyph glyph-name="dieresis.cap" horiz-adv-x="520" 
d="M187 805c-22 -22 -56 12 -34 34s56 -12 34 -34zM367 805c-22 -22 -56 12 -34 34s56 -12 34 -34z" />
    <glyph glyph-name="dotaccent.cap" horiz-adv-x="520" 
d="M277 805c-22 -22 -56 12 -34 34s56 -12 34 -34z" />
    <glyph glyph-name="circumflex.cap" horiz-adv-x="520" 
d="M169 765h-21l103 124h18l103 -124h-21l-91 108z" />
    <glyph glyph-name="cyrbreve.cap" horiz-adv-x="520" 
d="M261 762c-89 0 -147 54 -147 131h18c0 -67 50 -114 129 -114c76 0 127 49 127 114h18c0 -38 -14 -69 -42 -94c-27 -25 -62 -37 -103 -37z" />
    <glyph glyph-name="caron.cap" horiz-adv-x="520" 
d="M269 765h-18l-103 124h21l91 -108l91 108h21z" />
    <glyph glyph-name="peseta.mono" 
d="M79 510h-92v17h92v173h286c128 0 204 -68 208 -173h81v-17h-81c-4 -105 -80 -172 -208 -172h-268v-338h-18v510zM97 683v-328h267c121 0 191 60 191 164s-70 164 -191 164h-267z" />
    <glyph glyph-name="lira.mono" 
d="M527 0h-439v17h27c23 0 37 24 37 53v166h-64v17h64v135h-64v17h64v92c0 137 78 215 211 215c65 0 120 -17 164 -50v-21c-40 36 -95 54 -165 54c-123 0 -192 -71 -192 -200v-90h314v-17h-314v-135h314v-17h-314v-168c0 -23 -7 -40 -20 -51h377v-17z" />
    <glyph glyph-name="franc.mono" 
d="M150 0h-18v186h-123v17h123v497h449v-17h-431v-307h363v-17h-363v-156h193v-17h-193v-186z" />
    <glyph glyph-name="f_t" horiz-adv-x="657" 
d="M514 -12c-68 0 -114 37 -114 116v349h-250v-453h-18v453h-102v17h102v111c0 79 41 124 113 124c29 0 57 -7 83 -20v-19c-28 15 -56 22 -83 22c-61 0 -95 -41 -95 -113v-105h250v160h18v-160h189v-17h-189v-344c0 -69 32 -104 96 -104c29 0 57 8 85 25v-19
c-23 -15 -52 -23 -85 -23z" />
    <glyph glyph-name="yen.mono" 
d="M319 0h-18v169h-221v17h221v135h-221v17h212l-246 362h22l242 -355l242 355h22l-246 -362h212v-17h-221v-135h221v-17h-221v-169z" />
    <glyph glyph-name="aring.alt" horiz-adv-x="625" 
d="M306 -12c-73 0 -132 24 -178 73c-45 49 -68 107 -68 174s23 124 68 173c46 49 105 74 178 74c87 0 156 -35 205 -106v94h18v-470h-18v94c-49 -71 -118 -106 -205 -106zM306 5c88 0 170 51 205 124v212c-35 73 -117 124 -205 124c-65 0 -119 -22 -163 -67
c-43 -44 -65 -98 -65 -163s22 -119 65 -164c44 -44 98 -66 163 -66zM218 644c0 47 40 88 88 88s88 -41 88 -88c0 -48 -40 -88 -88 -88s-88 40 -88 88zM256 593c27 -27 73 -27 100 0c27 28 27 74 0 101c-27 28 -73 28 -100 0c-27 -27 -27 -73 0 -101z" />
    <glyph glyph-name="T_U" horiz-adv-x="941" 
d="M296 299v401h278v-17h-260v-383c0 -184 95 -295 254 -295s254 110 254 295v400h18v-401c0 -99 -25 -176 -74 -230s-115 -81 -198 -81s-149 27 -198 81s-74 131 -74 230zM37 700h259v-17h-259v17z" />
    <glyph glyph-name="U_T" horiz-adv-x="941" 
d="M101 299v401h18v-400c0 -185 95 -295 254 -295s254 111 254 295v383h-260v17h278v-401c0 -99 -25 -176 -74 -230s-115 -81 -198 -81s-149 27 -198 81s-74 131 -74 230zM904 683h-259v17h259v-17z" />
    <glyph glyph-name="f_j" horiz-adv-x="526" 
d="M307 -203c-24 0 -46 5 -66 16v20c20 -13 42 -19 66 -19c62 0 93 37 93 110v529h-250v-453h-18v453h-102v17h102v111c0 79 41 124 113 124c29 0 57 -7 83 -20v-19c-28 15 -56 22 -83 22c-61 0 -95 -41 -95 -113v-105h268v-551c0 -81 -37 -122 -111 -122zM426 627
c-8 -9 -26 -9 -35 0c-8 9 -8 25 0 34c23 23 57 -12 35 -34z" />
    <glyph glyph-name="T_h" horiz-adv-x="1057" 
d="M314 0h-18v683h-259v17h537v-323c43 56 123 105 212 105c123 0 185 -72 185 -197v-285h-18v282c0 122 -56 183 -169 183c-41 0 -82 -12 -122 -35s-69 -51 -88 -82v-348h-18v683h-242v-683z" />
    <glyph glyph-name="uni043F_uni0438" horiz-adv-x="976" 
d="M114 0h-18v470h395v-440l374 440h15v-470h-18v440l-374 -440h-15v453h-359v-453z" />
    <glyph glyph-name="uni041F_uni0418" horiz-adv-x="1273" 
d="M130 0h-18v700h520v-669l511 669h18v-700h-18v670l-512 -670h-17v683h-484v-683z" />
    <glyph glyph-name="uni041D_uni0418" horiz-adv-x="1287" 
d="M130 0h-18v700h18v-314h498v314h18v-669l511 669h18v-700h-18v670l-512 -670h-17v369h-498v-369z" />
    <glyph glyph-name="uni043D_uni0438" horiz-adv-x="985" 
d="M114 0h-18v470h18v-219h368v219h18v-440l374 440h15v-470h-18v440l-374 -440h-15v234h-368v-234z" />
    <glyph glyph-name="uni0418_uni041D" horiz-adv-x="1287" 
d="M129 0h-17v700h18v-669l511 669h18v-314h498v314h18v-700h-18v369h-498v-369h-18v670z" />
    <glyph glyph-name="uni0438_uni043D" horiz-adv-x="985" 
d="M111 0h-15v470h18v-440l374 440h15v-219h368v219h18v-470h-18v234h-368v-234h-18v440z" />
    <glyph glyph-name="uni0438_uni0439" horiz-adv-x="988" 
d="M111 0h-15v470h18v-440l374 440h15v-440l374 440h15v-470h-18v440l-374 -440h-15v440zM689 559c-89 0 -147 54 -147 131h18c0 -67 50 -114 129 -114c76 0 127 49 127 114h18c0 -38 -14 -69 -42 -94c-27 -25 -62 -37 -103 -37z" />
    <glyph glyph-name="uni0418_uni0419" horiz-adv-x="1300" 
d="M129 0h-17v700h18v-669l511 669h18v-669l511 669h18v-700h-18v670l-512 -670h-17v670zM915 752c-45 0 -83 12 -113 37c-29 25 -44 57 -44 94h18c0 -65 59 -114 139 -114s137 49 137 114h18c0 -37 -15 -69 -44 -94s-66 -37 -111 -37z" />
    <glyph glyph-name="f.alt01" horiz-adv-x="322" 
d="M114 453v-453h-18v581c0 79 41 124 113 124c29 0 57 -7 83 -20v-19c-28 15 -56 22 -83 22c-61 0 -95 -41 -95 -113v-105h178v-17h-178z" />
    <glyph glyph-name="guilsinglleft.cap" horiz-adv-x="305" 
d="M246 160h-24l-162 185v12l162 185h24l-167 -191z" />
    <glyph glyph-name="guilsinglright.cap" horiz-adv-x="305" 
d="M83 160h-24l167 191l-167 191h24l162 -185v-12z" />
    <glyph glyph-name="guillemotleft.cap" horiz-adv-x="520" 
d="M246 160h-24l-162 185v12l162 185h24l-167 -191zM461 160h-24l-162 185v12l162 185h24l-167 -191z" />
    <glyph glyph-name="guillemotright.cap" horiz-adv-x="520" 
d="M460 357v-12l-162 -185h-24l167 191l-167 191h24zM245 357v-12l-162 -185h-24l167 191l-167 191h24z" />
    <glyph glyph-name="braceright.cap" horiz-adv-x="316" 
d="M199 690v-186c0 -44 1 -60 9 -93c9 -32 32 -49 68 -52v-18c-36 -3 -59 -20 -68 -53c-8 -32 -9 -48 -9 -92v-186c0 -75 -42 -116 -114 -116h-39v17h38c65 0 97 34 97 101v184c0 87 9 133 61 154c-52 21 -61 67 -61 154v184c0 67 -32 101 -97 101h-38v17h39
c72 0 114 -41 114 -116z" />
    <glyph glyph-name="braceleft.cap" horiz-adv-x="326" 
d="M133 504v186c0 75 42 116 114 116h39v-17h-38c-65 0 -97 -34 -97 -101v-184c0 -87 -9 -133 -61 -154c52 -21 61 -67 61 -154v-184c0 -67 32 -101 97 -101h38v-17h-39c-72 0 -114 41 -114 116v186c0 44 -1 60 -10 92c-8 33 -31 50 -67 53v18c36 3 59 20 67 52
c9 33 10 49 10 93z" />
    <glyph glyph-name="t.alt" horiz-adv-x="346" 
d="M89 104v526h18v-160h189v-17h-189v-344c0 -69 32 -104 96 -104c29 0 57 8 85 25v-19c-23 -15 -51 -23 -85 -23c-68 0 -114 37 -114 116z" />
    <glyph glyph-name="onequarter.mono" horiz-adv-x="820" 
d="M205 322h-18v357l-106 -68v20l108 69h16v-378zM199 0h-20l400 700h20zM674 0h-18v110h-208v14l212 254h14v-251h66v-17h-66v-110zM656 345l-182 -218h182v218z" />
    <glyph glyph-name="bracketright.cap" horiz-adv-x="350" 
d="M40 806h204v-912h-204v17h186v878h-186v17z" />
    <glyph glyph-name="bracketleft.cap" horiz-adv-x="350" 
d="M310 -106h-204v912h204v-17h-186v-878h186v-17z" />
    <glyph glyph-name="hungarumlaut.cap" horiz-adv-x="520" 
d="M166 765h-22l97 124h22zM286 765h-22l97 124h22z" />
    <glyph glyph-name="exclamdown.cap" horiz-adv-x="242" 
d="M103 694c23 23 58 -12 35 -35c-8 -8 -26 -8 -35 0c-8 9 -8 27 0 35zM130 0h-18v499h18v-499z" />
    <glyph glyph-name="threequarters.mono" horiz-adv-x="820" 
d="M224 0h-20l400 700h20zM699 0h-18v110h-208v14l212 254h14v-251h66v-17h-66v-110zM681 345l-182 -218h182v218zM157 318c-43 0 -79 9 -108 28v18c31 -19 67 -29 108 -29c64 0 120 41 120 104c0 60 -45 98 -117 98c-13 0 -25 -1 -36 -4v15l130 135h-187v17h216v-12
l-129 -134h7c75 0 134 -42 134 -115c0 -71 -59 -121 -138 -121z" />
    <glyph glyph-name="Euro.mono" 
d="M101 281h-94v17h92c-1 23 -2 40 -2 52c0 29 2 57 6 83h-96v17h99c17 81 52 145 106 192c55 47 119 70 194 70c71 0 132 -20 184 -59v-20c-55 41 -117 62 -184 62c-68 0 -128 -22 -179 -66c-51 -43 -85 -103 -102 -179h301v-17h-304c-5 -24 -7 -52 -7 -83
c0 -13 1 -31 2 -52h309v-17h-306c12 -85 44 -153 97 -202s116 -74 189 -74c79 0 145 26 200 77v-22c-54 -48 -121 -72 -200 -72s-147 26 -203 78c-56 53 -90 124 -102 215z" />
    <glyph glyph-name="macron.cap" horiz-adv-x="520" 
d="M365 818h-209v17h209v-17z" />
    <glyph glyph-name="uni2156.mono" horiz-adv-x="820" 
d="M305 322h-250v14l138 134c56 55 80 87 80 132c0 49 -38 85 -97 85c-41 0 -80 -17 -115 -51v21c33 31 71 47 116 47c68 0 114 -42 114 -102c0 -48 -28 -89 -85 -145l-122 -118h221v-17zM623 -4c-40 0 -75 9 -104 26v18c31 -18 66 -27 104 -27c73 0 125 46 125 105
c0 56 -47 99 -118 99c-33 0 -64 -5 -94 -15l25 176h180v-17h-166l-18 -136c21 6 46 9 74 9c77 0 135 -48 135 -116c0 -69 -62 -122 -143 -122zM244 0h-20l400 700h20z" />
    <glyph glyph-name="uni2157.mono" horiz-adv-x="820" 
d="M220 0h-20l400 700h20zM629 -4c-40 0 -75 9 -104 26v18c31 -18 66 -27 104 -27c73 0 125 46 125 105c0 56 -47 99 -118 99c-33 0 -64 -5 -94 -15l25 176h180v-17h-166l-18 -136c21 6 46 9 74 9c77 0 135 -48 135 -116c0 -69 -62 -122 -143 -122zM153 318
c-43 0 -79 9 -108 28v18c31 -19 67 -29 108 -29c64 0 120 41 120 104c0 60 -45 98 -117 98c-13 0 -25 -1 -36 -4v15l130 135h-187v17h216v-12l-129 -134h7c75 0 134 -42 134 -115c0 -71 -59 -121 -138 -121z" />
    <glyph glyph-name="uni2158.mono" horiz-adv-x="820" 
d="M622 -4c-40 0 -75 9 -104 26v18c31 -18 66 -27 104 -27c73 0 125 46 125 105c0 56 -47 99 -118 99c-33 0 -64 -5 -94 -15l25 176h180v-17h-166l-18 -136c21 6 46 9 74 9c77 0 135 -48 135 -116c0 -69 -62 -122 -143 -122zM281 322h-18v110h-208v14l212 254h14v-251h66
v-17h-66v-110zM263 667l-182 -218h182v218zM243 0h-20l400 700h20z" />
    <glyph glyph-name="uni2159.mono" horiz-adv-x="820" 
d="M197 322h-18v357l-106 -68v20l108 69h16v-378zM191 0h-20l400 700h20zM628 -4c-89 0 -139 73 -139 176c0 62 15 112 44 151s67 59 114 59c31 0 57 -7 79 -22v-19c-23 16 -50 24 -79 24c-42 0 -76 -18 -102 -54c-25 -36 -38 -83 -38 -140c30 45 70 67 120 67
c68 0 124 -50 124 -119s-54 -123 -123 -123zM628 13c59 0 105 45 105 106s-47 102 -106 102c-50 0 -89 -26 -117 -77c5 -75 47 -131 118 -131z" />
    <glyph glyph-name="uni215A.mono" horiz-adv-x="820" 
d="M219 0h-20l400 700h20zM656 -4c-89 0 -139 73 -139 176c0 62 15 112 44 151s67 59 114 59c31 0 57 -7 79 -22v-19c-23 16 -50 24 -79 24c-42 0 -76 -18 -102 -54c-25 -36 -38 -83 -38 -140c30 45 70 67 120 67c68 0 124 -50 124 -119s-54 -123 -123 -123zM656 13
c59 0 105 45 105 106s-47 102 -106 102c-50 0 -89 -26 -117 -77c5 -75 47 -131 118 -131zM146 318c-40 0 -75 9 -104 26v18c31 -18 66 -27 104 -27c73 0 125 46 125 105c0 56 -47 99 -118 99c-33 0 -64 -5 -94 -15l25 176h180v-17h-166l-18 -136c21 6 46 9 74 9
c77 0 135 -48 135 -116c0 -69 -62 -122 -143 -122z" />
    <glyph glyph-name="liralow.mono" 
d="M495 0h-410v17h27c23 0 37 24 37 53v79h-64v17h64v101h-64v17h64c0 132 65 198 195 198c58 0 108 -15 151 -45v-19c-44 31 -94 47 -151 47c-117 0 -176 -60 -177 -181h270v-17h-270v-101h270v-17h-270v-81c0 -23 -7 -40 -20 -51h348v-17z" />
    <glyph glyph-name="onehalf.mono" horiz-adv-x="820" 
d="M762 0h-250v14l138 134c56 55 80 87 80 132c0 49 -38 85 -97 85c-41 0 -80 -17 -115 -51v21c33 31 71 47 116 47c68 0 114 -42 114 -102c0 -48 -28 -89 -85 -145l-122 -118h221v-17zM179 322h-18v357l-106 -68v20l108 69h16v-378zM173 0h-20l400 700h20z" />
    <glyph glyph-name="oneeighth.mono" horiz-adv-x="820" 
d="M184 322h-18v357l-106 -68v20l108 69h16v-378zM178 0h-20l400 700h20zM474 101c0 50 29 84 87 101c-40 13 -66 45 -66 84c0 56 51 96 120 96s120 -40 120 -96c0 -39 -26 -71 -66 -84c58 -17 87 -51 87 -101c0 -63 -60 -105 -141 -105s-141 42 -141 105zM738 102
c0 55 -51 90 -123 90s-123 -35 -123 -90c0 -52 52 -89 123 -89s123 37 123 89zM717 286c0 48 -43 79 -102 79s-102 -31 -102 -79c0 -45 42 -77 102 -77s102 32 102 77z" />
    <glyph glyph-name="threeeighths.mono" horiz-adv-x="820" 
d="M207 0h-20l400 700h20zM503 101c0 50 29 84 87 101c-40 13 -66 45 -66 84c0 56 51 96 120 96s120 -40 120 -96c0 -39 -26 -71 -66 -84c58 -17 87 -51 87 -101c0 -63 -60 -105 -141 -105s-141 42 -141 105zM767 102c0 55 -51 90 -123 90s-123 -35 -123 -90
c0 -52 52 -89 123 -89s123 37 123 89zM746 286c0 48 -43 79 -102 79s-102 -31 -102 -79c0 -45 42 -77 102 -77s102 32 102 77zM140 318c-43 0 -79 9 -108 28v18c31 -19 67 -29 108 -29c64 0 120 41 120 104c0 60 -45 98 -117 98c-13 0 -25 -1 -36 -4v15l130 135h-187v17h216
v-12l-129 -134h7c75 0 134 -42 134 -115c0 -71 -59 -121 -138 -121z" />
    <glyph glyph-name="fiveeighths.mono" horiz-adv-x="820" 
d="M503 101c0 50 29 84 87 101c-40 13 -66 45 -66 84c0 56 51 96 120 96s120 -40 120 -96c0 -39 -26 -71 -66 -84c58 -17 87 -51 87 -101c0 -63 -60 -105 -141 -105s-141 42 -141 105zM767 102c0 55 -51 90 -123 90s-123 -35 -123 -90c0 -52 52 -89 123 -89s123 37 123 89z
M746 286c0 48 -43 79 -102 79s-102 -31 -102 -79c0 -45 42 -77 102 -77s102 32 102 77zM143 318c-40 0 -75 9 -104 26v18c31 -18 66 -27 104 -27c73 0 125 46 125 105c0 56 -47 99 -118 99c-33 0 -64 -5 -94 -15l25 176h180v-17h-166l-18 -136c21 6 46 9 74 9
c77 0 135 -48 135 -116c0 -69 -62 -122 -143 -122zM207 0h-20l400 700h20z" />
    <glyph glyph-name="seveneighths.mono" horiz-adv-x="820" 
d="M123 322h-20l184 361h-216v17h237v-14zM176 0h-20l400 700h20zM472 101c0 50 29 84 87 101c-40 13 -66 45 -66 84c0 56 51 96 120 96s120 -40 120 -96c0 -39 -26 -71 -66 -84c58 -17 87 -51 87 -101c0 -63 -60 -105 -141 -105s-141 42 -141 105zM736 102
c0 55 -51 90 -123 90s-123 -35 -123 -90c0 -52 52 -89 123 -89s123 37 123 89zM715 286c0 48 -43 79 -102 79s-102 -31 -102 -79c0 -45 42 -77 102 -77s102 32 102 77z" />
    <glyph glyph-name="uni2155.mono" horiz-adv-x="820" 
d="M200 322h-18v357l-106 -68v20l108 69h16v-378zM194 0h-20l400 700h20zM603 -4c-40 0 -75 9 -104 26v18c31 -18 66 -27 104 -27c73 0 125 46 125 105c0 56 -47 99 -118 99c-33 0 -64 -5 -94 -15l25 176h180v-17h-166l-18 -136c21 6 46 9 74 9c77 0 135 -48 135 -116
c0 -69 -62 -122 -143 -122z" />
    <glyph glyph-name="twothirds.mono" horiz-adv-x="820" 
d="M297 322h-250v14l138 134c56 55 80 87 80 132c0 49 -38 85 -97 85c-41 0 -80 -17 -115 -51v21c33 31 71 47 116 47c68 0 114 -42 114 -102c0 -48 -28 -89 -85 -145l-122 -118h221v-17zM641 -4c-43 0 -79 9 -108 28v18c31 -19 67 -29 108 -29c64 0 120 41 120 104
c0 60 -45 98 -117 98c-13 0 -25 -1 -36 -4v15l130 135h-187v17h216v-12l-129 -134h7c75 0 134 -42 134 -115c0 -71 -59 -121 -138 -121zM236 0h-20l400 700h20z" />
    <glyph glyph-name="onethird.mono" horiz-adv-x="820" 
d="M189 322h-18v357l-106 -68v20l108 69h16v-378zM183 0h-20l400 700h20zM618 -4c-43 0 -79 9 -108 28v18c31 -19 67 -29 108 -29c64 0 120 41 120 104c0 60 -45 98 -117 98c-13 0 -25 -1 -36 -4v15l130 135h-187v17h216v-12l-129 -134h7c75 0 134 -42 134 -115
c0 -71 -59 -121 -138 -121z" />
    <glyph glyph-name="pesolow.mono" 
d="M116 321h-92v17h92v132h220c99 0 157 -52 161 -132h81v-17h-81c-4 -80 -62 -131 -161 -131h-202v-190h-18v321zM134 453v-246h201c92 0 144 44 144 123c0 77 -53 123 -144 123h-201z" />
    <glyph glyph-name="franclow.mono" 
d="M160 0h-18v72h-84v17h84v381h362v-17h-344v-215h283v-17h-283v-132h149v-17h-149v-72z" />
    <glyph glyph-name="uniF725.mono" 
d="M495 0h-410v17h27c23 0 37 24 37 53v105h-64v17h64v91c0 133 65 199 195 199c58 0 108 -15 151 -45v-19c-44 31 -94 47 -151 47c-118 0 -177 -61 -177 -184v-89h270v-17h-270v-107c0 -23 -7 -40 -20 -51h348v-17z" />
    <glyph glyph-name="uniF722.mono" 
d="M154 0h-18v72h-69v17h69v101h-69v17h69v263h220c103 0 161 -55 161 -140s-58 -140 -161 -140h-202v-101h231v-17h-231v-72zM154 453v-246h201c92 0 144 44 144 123c0 77 -53 123 -144 123h-201z" />
    <glyph glyph-name="uniF727.mono" 
d="M319 0h-18v100h-165v17h165v101h-165v17h155l-190 235h23l186 -229l185 229h24l-191 -235h156v-17h-165v-101h165v-17h-165v-100z" />
    <glyph glyph-name="uniF721.mono" 
d="M320 -12c-116 0 -177 36 -177 97c0 36 21 65 63 88h-96v17h376v-17h-244c-43 -17 -81 -51 -81 -87c0 -51 54 -81 161 -81c52 0 100 9 144 28v-19c-45 -17 -93 -26 -146 -26zM486 291h-376v17h270c45 23 67 49 67 79c0 52 -50 78 -151 78c-52 0 -101 -10 -147 -31v18
c42 20 92 30 149 30c111 0 167 -31 167 -94c0 -32 -18 -59 -53 -80h74v-17z" />
    <glyph glyph-name="uniF64E.mono" 
d="M135 164h-75v17h70c-7 37 -6 73 -1 101h-69v17h73c13 53 41 96 83 131s93 52 154 52c54 0 102 -13 143 -38v-20c-43 27 -91 41 -143 41c-53 0 -99 -15 -139 -46c-39 -31 -66 -71 -80 -120h259v-17h-263c-3 -13 -4 -29 -4 -47c0 -19 2 -37 6 -54h261v-17h-257
c15 -47 42 -86 81 -115s85 -44 136 -44c59 0 110 16 153 47v-20c-43 -29 -94 -44 -153 -44s-110 16 -152 49c-41 33 -69 76 -83 127z" />
    <glyph glyph-name="uniF653.mono" 
d="M314 -12v-104h-18v104c-73 3 -145 29 -180 54v21c43 -29 115 -58 194 -58c104 0 172 45 172 112c0 65 -53 88 -169 113c-123 27 -178 59 -178 132c0 69 57 115 161 119v106h18v-105c65 -1 120 -16 163 -45v-19c-49 31 -104 47 -165 47c-105 0 -159 -43 -159 -103
c0 -29 15 -54 34 -69c9 -7 22 -14 38 -21c33 -12 51 -17 91 -25c49 -11 75 -17 110 -32c47 -18 74 -47 74 -98c0 -40 -18 -71 -54 -94c-35 -23 -79 -34 -132 -35z" />
    <glyph glyph-name="franclow" horiz-adv-x="524" 
d="M130 0h-18v72h-84v17h84v381h362v-17h-344v-215h283v-17h-283v-132h149v-17h-149v-72z" />
    <glyph glyph-name="pesolow" horiz-adv-x="593" 
d="M116 321h-92v17h92v132h220c99 0 157 -52 161 -132h81v-17h-81c-4 -80 -62 -131 -161 -131h-202v-190h-18v321zM134 453v-246h201c92 0 144 44 144 123c0 77 -53 123 -144 123h-201z" />
    <glyph glyph-name="uni20B4.mono" 
d="M327 -12c-135 0 -209 56 -209 145c0 55 28 102 85 141h-127v17h462v-17h-304c-65 -39 -98 -85 -98 -140c0 -83 68 -129 193 -129c61 0 117 12 168 37v-18c-48 -24 -105 -36 -170 -36zM538 426h-462v17h333c55 35 82 78 82 127c0 80 -65 125 -186 125
c-59 0 -114 -12 -163 -36v18c47 23 101 35 164 35c131 0 203 -54 203 -141c0 -50 -24 -93 -71 -128h100v-17z" />
    <glyph glyph-name="uni20B6.mono" 
d="M125 0h-18v186h-89v17h89v135h-89v17h89v345h261c132 0 208 -70 208 -181s-76 -181 -208 -181h-243v-135h323v-17h-323v-186zM125 683v-328h242c121 0 191 60 191 164s-70 164 -191 164h-242z" />
    <glyph glyph-name="uni041D_uni0422" horiz-adv-x="943" 
d="M130 0h-18v700h18v-314h498v297h-259v17h537v-17h-260v-683h-18v369h-498v-369z" />
    <glyph glyph-name="uni0422_uni041D" horiz-adv-x="942" 
d="M314 0h-18v683h-259v17h537v-17h-260v-297h498v314h18v-700h-18v369h-498v-369z" />
    <glyph glyph-name="N_T" horiz-adv-x="958" 
d="M661 0h-18l-513 670v-670h-18v700h18l513 -669v652h-259v17h537v-17h-260v-683z" />
    <glyph glyph-name="uni0422_uni0418" horiz-adv-x="955" 
d="M313 0h-17v700h238v-17h-220v-652l511 669h18v-700h-18v670zM314 0h-18v683h-259v17h537v-17h-260v-683z" />
    <glyph glyph-name="f_f_t" horiz-adv-x="925" 
d="M782 -12c-68 0 -114 37 -114 116v349h-250v-453h-18v453h-250v-453h-18v453h-102v17h102v111c0 79 41 124 113 124c29 0 57 -7 83 -20v-19c-28 15 -56 22 -83 22c-61 0 -95 -41 -95 -113v-105h250v111c0 79 41 124 113 124c29 0 57 -7 83 -20v-19c-28 15 -56 22 -83 22
c-61 0 -95 -41 -95 -113v-105h250v160h18v-160h189v-17h-189v-344c0 -69 32 -104 96 -104c29 0 57 8 85 25v-19c-23 -15 -52 -23 -85 -23z" />
    <glyph glyph-name="Q.alt01" horiz-adv-x="848" 
d="M424 5c85 0 158 29 219 86l-201 219h25l189 -206c62 66 93 148 93 246c0 99 -31 181 -94 246c-63 66 -140 99 -231 99s-168 -33 -231 -99s-94 -148 -94 -246s31 -180 94 -246s140 -99 231 -99zM424 -12c-97 0 -179 34 -245 102c-65 69 -98 155 -98 260
c0 104 33 190 98 259c66 69 148 103 245 103s179 -34 244 -103c66 -69 99 -155 99 -259c0 -105 -33 -192 -99 -260l84 -90h-24l-72 78c-64 -60 -141 -90 -232 -90z" />
    <glyph glyph-name="uni0407_uni0407" horiz-adv-x="492" 
d="M137 0h-18v700h18v-700zM372 0h-18v700h18v-700zM55 805c-22 -22 -56 12 -34 34s56 -12 34 -34zM471 805c-22 -22 -56 12 -34 34s56 -12 34 -34zM263 805c-22 -22 -56 12 -34 34s56 -12 34 -34z" />
    <glyph glyph-name="uni041E_uni0421" horiz-adv-x="1363" 
d="M1092 -12c-83 0 -155 25 -216 75c-61 51 -101 117 -118 199c-17 -82 -57 -148 -118 -199c-61 -50 -133 -75 -216 -75c-97 0 -179 34 -245 102c-65 69 -98 155 -98 260c0 104 33 190 98 259c66 69 148 103 245 103c83 0 155 -25 216 -76s101 -117 118 -199
c17 82 57 148 118 199s133 76 216 76c78 0 146 -20 203 -59v-20c-61 41 -128 62 -203 62c-91 0 -168 -33 -231 -99c-63 -65 -94 -147 -94 -246s31 -181 94 -247c63 -65 140 -98 231 -98c86 0 160 25 221 76v-22c-59 -47 -132 -71 -221 -71zM193 104c63 -66 140 -99 231 -99
s168 33 231 98c63 66 94 148 94 247s-31 181 -94 246c-63 66 -140 99 -231 99s-168 -33 -231 -99s-94 -148 -94 -246s31 -180 94 -246z" />
    <glyph glyph-name="uni041E_uni041E" horiz-adv-x="1516" 
d="M1092 -12c-83 0 -155 25 -216 75c-61 51 -101 117 -118 199c-17 -82 -57 -148 -118 -199c-61 -50 -133 -75 -216 -75c-97 0 -179 34 -245 102c-65 69 -98 155 -98 260c0 104 33 190 98 259c66 69 148 103 245 103c83 0 155 -25 216 -76s101 -117 118 -199
c17 82 57 148 118 199s133 76 216 76c97 0 179 -34 244 -103c66 -69 99 -155 99 -259c0 -105 -33 -191 -99 -260c-65 -68 -147 -102 -244 -102zM861 104c63 -66 140 -99 231 -99s168 33 231 98c63 66 94 148 94 247s-31 181 -94 246c-63 66 -140 99 -231 99
s-168 -33 -231 -99s-94 -148 -94 -246s31 -180 94 -246zM193 104c63 -66 140 -99 231 -99s168 33 231 98c63 66 94 148 94 247s-31 181 -94 246c-63 66 -140 99 -231 99s-168 -33 -231 -99s-94 -148 -94 -246s31 -180 94 -246z" />
    <glyph glyph-name="uni043E_uni0441" horiz-adv-x="997" 
d="M306 -12c-73 0 -132 24 -178 73c-45 49 -68 107 -68 174s23 124 68 173c46 49 105 74 178 74c59 0 110 -17 152 -51c42 -33 70 -76 84 -128c14 52 42 95 84 128c42 34 93 51 152 51c54 0 102 -13 143 -38v-20c-43 27 -91 41 -143 41c-63 0 -117 -22 -161 -66
s-66 -99 -66 -164s22 -119 65 -164c44 -44 98 -66 162 -66c59 0 110 16 153 47v-20c-43 -29 -94 -44 -153 -44c-120 0 -208 75 -236 179c-14 -52 -42 -95 -84 -129c-42 -33 -93 -50 -152 -50zM306 5c64 0 118 22 161 66c44 45 66 99 66 164s-22 119 -66 163
c-43 45 -97 67 -161 67c-65 0 -119 -22 -163 -67c-43 -44 -65 -98 -65 -163s22 -119 65 -164c44 -44 98 -66 163 -66z" />
    </font>
</defs>
</svg>
