<?xml version="1.0" standalone="no"?>
<!DOCTYPE svg PUBLIC "-//W3C//DTD SVG 1.1//EN" "http://www.w3.org/Graphics/SVG/1.1/DTD/svg11.dtd" >
<svg xmlns="http://www.w3.org/2000/svg" xmlns:xlink="http://www.w3.org/1999/xlink" version="1.1">
<metadata>
Created by FontForge 20170910 at Wed Dec 11 00:50:34 2013
 By Jimmy Wärting
Copyright (c) 2012 by Vyacheslav Kirilenko, Gayane Bagdasaryan. All rights reserved.
</metadata>
<defs>
<font id="Geometria-ThinItalic" horiz-adv-x="620" >
  <font-face 
    font-family="Geometria"
    font-weight="100"
    font-style="italic"
    font-stretch="normal"
    units-per-em="1000"
    panose-1="2 11 2 3 2 2 4 9 2 4"
    ascent="776"
    descent="-224"
    x-height="470"
    cap-height="700"
    bbox="-270 -206 1494 915"
    underline-thickness="50"
    underline-position="-100"
    slope="-9"
    unicode-range="U+0020-FB04"
  />
<missing-glyph horiz-adv-x="681" 
d="M477 0h-391l110 700h391zM212 683l-106 -666h355l106 666h-355z" />
    <glyph glyph-name="ij" unicode="ij" horiz-adv-x="449" 
d="M397 470h18l-89 -563c-9 -63 -46 -97 -75 -104c-15 -4 -32 -6 -53 -6c-24 0 -45 5 -63 16l3 20c18 -13 39 -19 63 -19c64 0 95 26 107 98zM413 627c-22 22 12 56 34 34s-12 -56 -34 -34zM201 470l-74 -470h-18l74 470h18zM199 627c-22 22 12 56 34 34s-12 -56 -34 -34z
" />
    <glyph glyph-name="f_f" unicode="ff" horiz-adv-x="626" 
d="M492 470h178l-3 -17h-178l-71 -453h-18l71 453h-250l-71 -453h-18l71 453h-102l3 17h102l19 123c12 75 56 112 131 112c29 0 56 -7 80 -20l-3 -19c-27 15 -53 22 -80 22c-63 0 -100 -34 -111 -101l-18 -117h250l19 123c12 75 56 112 131 112c29 0 56 -7 80 -20l-3 -19
c-27 15 -53 22 -80 22c-63 0 -100 -34 -111 -101z" />
    <glyph glyph-name="fi" unicode="fi" horiz-adv-x="526" 
d="M492 470l-74 -470h-18l71 453h-250l-71 -453h-18l71 453h-102l3 17h102l19 123c12 75 56 112 131 112c29 0 56 -7 80 -20l-3 -19c-27 15 -53 22 -80 22c-63 0 -100 -34 -111 -101l-18 -117h268zM489 627c-8 9 -8 25 0 34c9 9 27 9 35 0c22 -22 -12 -57 -35 -34z" />
    <glyph glyph-name="fl" unicode="fl" horiz-adv-x="570" 
d="M510 700h18l-93 -593c-3 -25 -5 -42 -5 -50c0 -35 20 -52 60 -52c23 0 44 6 63 17l-3 -20c-20 -9 -42 -14 -65 -14c-49 0 -73 23 -73 69c0 7 2 23 5 48l54 348h-250l-71 -453h-18l71 453h-102l3 17h102l19 123c12 75 56 112 131 112c29 0 56 -7 80 -20l-3 -19
c-27 15 -53 22 -80 22c-63 0 -100 -34 -111 -101l-18 -117h250z" />
    <glyph glyph-name="f_f_i" unicode="ffi" horiz-adv-x="794" 
d="M760 470l-74 -470h-18l71 453h-250l-71 -453h-18l71 453h-250l-71 -453h-18l71 453h-102l3 17h102l19 123c12 75 56 112 131 112c29 0 56 -7 80 -20l-3 -19c-27 15 -53 22 -80 22c-63 0 -100 -34 -111 -101l-18 -117h250l19 123c12 75 56 112 131 112c29 0 56 -7 80 -20
l-3 -19c-27 15 -53 22 -80 22c-63 0 -100 -34 -111 -101l-18 -117h268zM757 627c-8 9 -8 25 0 34c9 9 27 9 35 0c22 -22 -12 -57 -35 -34z" />
    <glyph glyph-name="f_f_l" unicode="ffl" horiz-adv-x="838" 
d="M778 700h18l-93 -593c-3 -25 -5 -42 -5 -50c0 -35 20 -52 60 -52c23 0 44 6 63 17l-3 -20c-20 -9 -42 -14 -65 -14c-49 0 -73 23 -73 69c0 7 2 23 5 48l54 348h-250l-71 -453h-18l71 453h-250l-71 -453h-18l71 453h-102l3 17h102l19 123c12 75 56 112 131 112
c29 0 56 -7 80 -20l-3 -19c-27 15 -53 22 -80 22c-63 0 -100 -34 -111 -101l-18 -117h250l19 123c12 75 56 112 131 112c29 0 56 -7 80 -20l-3 -19c-27 15 -53 22 -80 22c-63 0 -100 -34 -111 -101l-18 -117h250z" />
    <glyph glyph-name=".notdef" horiz-adv-x="681" 
d="M477 0h-391l110 700h391zM212 683l-106 -666h355l106 666h-355z" />
    <glyph glyph-name="NULL" horiz-adv-x="0" 
 />
    <glyph glyph-name="CR" horiz-adv-x="333" 
 />
    <glyph glyph-name="space" unicode=" " horiz-adv-x="276" 
 />
    <glyph glyph-name="exclam" unicode="!" horiz-adv-x="242" 
d="M161 200h-18l79 500h18zM107 5c-8 9 -8 27 0 35c9 9 27 9 35 0c9 -8 9 -26 0 -35c-8 -8 -26 -8 -35 0z" />
    <glyph glyph-name="quotedbl" unicode="&#x22;" horiz-adv-x="321" 
d="M333 482h-18l34 218h18zM162 482h-18l34 218h18z" />
    <glyph glyph-name="numbersign" unicode="#" horiz-adv-x="678" 
d="M305 700h17l-34 -211h236l34 211h17l-34 -211h151l-3 -17h-150l-39 -245h150l-2 -17h-151l-33 -210h-17l33 210h-236l-33 -210h-17l33 210h-149l2 17h150l39 245h-150l3 17h149zM522 472h-236l-39 -245h236z" />
    <glyph glyph-name="dollar" unicode="$" horiz-adv-x="619" 
d="M316 -12l-16 -103h-18l16 104c-50 2 -98 10 -144 25s-78 32 -97 49l4 21c21 -20 55 -38 102 -55c47 -16 98 -24 152 -24c38 0 75 6 112 19s69 34 96 64s41 66 41 107c0 40 -18 73 -41 94c-11 11 -27 21 -48 30c-40 20 -66 28 -119 43c-59 17 -86 25 -127 44
c-58 28 -81 60 -86 121c0 59 24 104 72 136c49 33 106 49 171 49c11 0 20 0 26 -1l17 104h18l-18 -105c71 -7 129 -26 174 -59l-3 -18c-61 41 -132 62 -214 62c-35 0 -68 -5 -101 -16c-32 -10 -61 -28 -86 -54s-38 -58 -38 -95c0 -21 3 -41 15 -57s18 -27 39 -39
s26 -16 55 -27l30 -10l33 -10l32 -9c27 -8 48 -15 63 -20s33 -12 56 -23s41 -22 53 -33c24 -21 46 -60 46 -105c0 -65 -27 -116 -81 -153c-53 -37 -115 -56 -186 -56z" />
    <glyph glyph-name="percent" unicode="%" horiz-adv-x="814" 
d="M195 0l510 700h22l-510 -700h-22zM316 712c47 0 84 -15 111 -45c27 -29 41 -65 41 -107c0 -49 -17 -90 -50 -125c-33 -34 -73 -51 -122 -51c-47 0 -84 15 -111 44c-27 30 -41 66 -41 108c0 49 16 90 49 124c33 35 74 52 123 52zM297 401c43 0 79 16 108 47
c30 31 45 69 45 112c0 77 -54 135 -135 135c-43 0 -79 -16 -109 -47c-29 -31 -44 -69 -44 -112c0 -77 55 -135 135 -135zM626 316c47 0 84 -15 111 -45c27 -29 41 -65 41 -107c0 -49 -17 -90 -50 -125c-33 -34 -73 -51 -122 -51c-47 0 -84 15 -111 44c-27 30 -41 66 -41 108
c0 49 16 90 49 124c33 35 74 52 123 52zM607 5c43 0 79 16 108 47c30 31 45 69 45 112c0 77 -54 135 -135 135c-43 0 -79 -16 -109 -47c-29 -31 -44 -69 -44 -112c0 -77 55 -135 135 -135z" />
    <glyph glyph-name="ampersand" unicode="&#x26;" horiz-adv-x="693" 
d="M672 367h17c-15 -115 -55 -207 -120 -278l75 -89h-22l-65 77c-61 -59 -135 -89 -223 -89c-68 0 -126 19 -174 57c-48 39 -72 92 -72 161c0 58 18 106 55 144s77 62 120 73c-28 39 -42 79 -42 122c0 49 17 89 52 120s80 47 133 47c69 0 139 -33 175 -70l-4 -22
c-40 43 -105 75 -173 75c-48 0 -87 -15 -118 -44s-46 -64 -46 -106c0 -46 18 -90 54 -132l263 -310c61 65 99 153 115 264zM334 5c82 0 152 28 211 85l-269 317c-46 -10 -86 -33 -119 -70c-33 -36 -50 -80 -50 -131c0 -63 22 -112 66 -148c44 -35 98 -53 161 -53z" />
    <glyph glyph-name="quotesingle" unicode="'" horiz-adv-x="150" 
d="M162 482h-18l34 218h18z" />
    <glyph glyph-name="parenleft" unicode="(" horiz-adv-x="309" 
d="M338 706h22c-136 -148 -204 -334 -204 -558c0 -137 31 -255 92 -354h-21c-59 96 -89 214 -89 353c0 228 67 414 200 559z" />
    <glyph glyph-name="parenright" unicode=")" horiz-adv-x="318" 
d="M73 -206h-22c136 148 204 334 204 558c0 137 -31 255 -92 354h21c59 -96 89 -214 89 -353c0 -228 -67 -414 -200 -559z" />
    <glyph glyph-name="asterisk" unicode="*" horiz-adv-x="426" 
d="M152 608l12 13l122 -78l25 157h18l-24 -155l147 78l6 -17l-148 -78l124 -79l-12 -13l-122 78l-25 -158h-18l24 156l-147 -78l-6 17l147 78z" />
    <glyph glyph-name="plus" unicode="+" horiz-adv-x="595" 
d="M359 330h218l-3 -17h-218l-35 -219h-18l35 219h-219l3 17h219l34 219h18z" />
    <glyph glyph-name="comma" unicode="," horiz-adv-x="208" 
d="M17 -152l109 218h19l-109 -218h-19z" />
    <glyph glyph-name="hyphen" unicode="-" horiz-adv-x="479" 
d="M151 259l2 17h259l-2 -17h-259z" />
    <glyph glyph-name="period" unicode="." horiz-adv-x="208" 
d="M87 5c-23 23 12 57 34 35c9 -8 9 -26 0 -35c-9 -8 -25 -8 -34 0z" />
    <glyph glyph-name="slash" unicode="/" horiz-adv-x="487" 
d="M591 792l-569 -932h-21l568 932h22z" />
    <glyph glyph-name="zero" unicode="0" horiz-adv-x="706" 
d="M442 712c75 0 135 -28 179 -85c44 -56 66 -129 66 -219c0 -69 -13 -135 -38 -198s-62 -116 -111 -159c-49 -42 -103 -63 -164 -63c-75 0 -135 28 -179 84c-44 57 -66 130 -66 220c0 69 12 135 37 198c25 64 62 117 111 159s104 63 165 63zM373 5c58 0 110 21 157 63
c93 84 139 213 139 340c0 80 -19 148 -58 203c-39 56 -95 84 -168 84c-59 0 -111 -21 -158 -63c-92 -84 -138 -213 -138 -340c0 -80 19 -148 58 -204c39 -55 95 -83 168 -83z" />
    <glyph glyph-name="one" unicode="1" horiz-adv-x="354" 
d="M335 700l-110 -700h-18l107 678l-183 -106l3 21l183 107h18z" />
    <glyph glyph-name="two" unicode="2" horiz-adv-x="566" 
d="M136 599l3 27c59 56 129 84 210 84c62 0 111 -18 148 -54c37 -35 56 -79 56 -132c0 -92 -64 -169 -196 -277l-280 -230h435l-3 -17h-461l2 16l294 243c64 53 112 99 143 138c32 39 48 81 48 125c0 52 -18 93 -55 124c-36 31 -80 47 -131 47c-78 0 -149 -31 -213 -94z" />
    <glyph glyph-name="three" unicode="3" horiz-adv-x="560" 
d="M569 687l-293 -264h10c70 0 127 -17 172 -52s68 -82 68 -143c0 -73 -28 -132 -83 -175s-120 -65 -196 -65c-81 0 -148 19 -202 56l4 20c50 -39 116 -59 198 -59c69 0 129 20 182 60s79 94 79 161c0 59 -22 103 -65 134s-95 46 -157 46c-17 0 -32 -1 -44 -3l3 16l294 264
h-376l2 17h406z" />
    <glyph glyph-name="four" unicode="4" horiz-adv-x="621" 
d="M493 231h126l-3 -17h-126l-33 -214h-18l33 214h-396l3 16l472 470h16zM104 231h371l69 438z" />
    <glyph glyph-name="five" unicode="5" horiz-adv-x="593" 
d="M319 424c73 0 131 -20 174 -60c44 -39 66 -87 66 -144c0 -71 -29 -128 -87 -170c-57 -41 -125 -62 -202 -62c-79 0 -144 17 -194 52l3 20c49 -37 113 -55 191 -55c43 0 84 7 124 22s74 39 103 72c29 34 44 74 44 119c0 51 -20 96 -59 133s-94 56 -164 56
c-52 0 -104 -7 -155 -22l93 315h329l-2 -17h-314l-81 -274c38 10 82 15 131 15z" />
    <glyph glyph-name="six" unicode="6" horiz-adv-x="636" 
d="M388 432c61 0 112 -19 152 -57c41 -37 61 -84 61 -141c0 -67 -23 -125 -68 -174c-45 -48 -102 -72 -171 -72s-126 24 -170 72c-43 49 -65 113 -65 192c0 19 2 42 5 71c13 113 51 206 112 279s134 110 218 110c65 0 117 -16 155 -48l-3 -19c-41 33 -93 50 -154 50
c-79 0 -147 -35 -204 -106c-57 -70 -93 -158 -106 -265l-4 -36c23 41 55 75 98 102c43 28 91 42 144 42zM364 5c61 0 112 22 155 67s64 100 64 163c0 53 -19 96 -56 129c-37 34 -84 51 -141 51c-51 0 -98 -15 -141 -45s-76 -69 -100 -116c0 -71 19 -131 58 -178
s92 -71 161 -71z" />
    <glyph glyph-name="seven" unicode="7" horiz-adv-x="535" 
d="M160 700h435l-2 -12l-457 -688h-22l455 683h-411z" />
    <glyph glyph-name="eight" unicode="8" horiz-adv-x="662" 
d="M365 -12c-73 0 -134 18 -185 53s-76 82 -76 141c0 50 19 93 58 129c39 37 91 59 156 67c-76 24 -125 80 -125 151c0 54 22 98 65 132s95 51 156 51c57 0 108 -15 152 -44s66 -70 66 -122c0 -95 -71 -162 -170 -179c100 -28 159 -91 159 -174c0 -62 -25 -112 -76 -149
c-50 -37 -110 -56 -180 -56zM122 181c0 -36 13 -68 38 -96c51 -55 125 -80 201 -80c63 0 119 17 168 51s74 80 74 137c0 50 -23 91 -70 122c-46 32 -102 48 -169 48c-66 0 -123 -16 -171 -49c-47 -33 -71 -77 -71 -133zM211 531c0 -47 20 -85 61 -112s86 -41 137 -41
c52 0 99 15 141 44c43 29 64 70 64 121c0 48 -20 85 -60 112s-87 40 -140 40c-52 0 -99 -15 -141 -44c-41 -29 -62 -69 -62 -120z" />
    <glyph glyph-name="nine" unicode="9" horiz-adv-x="636" 
d="M356 268c-61 0 -112 19 -153 56c-40 38 -60 85 -60 142c0 67 23 125 68 173c45 49 102 73 171 73s126 -24 169 -73c44 -48 66 -112 66 -191c0 -19 -2 -42 -5 -71c-13 -113 -51 -207 -112 -280s-134 -109 -218 -109c-65 0 -117 16 -155 48l3 19c41 -33 93 -50 154 -50
c79 0 147 35 204 105c57 71 93 159 106 266l4 36c-23 -41 -55 -75 -98 -103c-43 -27 -91 -41 -144 -41zM380 695c-61 0 -112 -23 -155 -68s-64 -99 -64 -162c0 -53 18 -96 55 -130c37 -33 85 -50 142 -50c51 0 97 15 140 45s77 69 101 116c0 71 -19 131 -58 178
s-92 71 -161 71z" />
    <glyph glyph-name="colon" unicode=":" horiz-adv-x="208" 
d="M87 5c-23 23 12 57 34 35c9 -8 9 -26 0 -35c-9 -8 -25 -8 -34 0zM151 411c-22 22 12 56 34 34s-12 -56 -34 -34z" />
    <glyph glyph-name="semicolon" unicode=";" horiz-adv-x="255" 
d="M17 -152l109 218h19l-109 -218h-19zM151 411c-22 22 12 56 34 34s-12 -56 -34 -34z" />
    <glyph glyph-name="less" unicode="&#x3c;" horiz-adv-x="595" 
d="M121 326l487 203l-3 -21l-459 -191l399 -191l-3 -19l-424 202z" />
    <glyph glyph-name="equal" unicode="=" horiz-adv-x="595" 
d="M101 198l3 17h455l-3 -17h-455zM137 426l3 17h455l-3 -17h-455z" />
    <glyph glyph-name="greater" unicode="&#x3e;" horiz-adv-x="595" 
d="M549 319l-399 191l3 19l423 -203l-3 -17l-487 -202l4 21z" />
    <glyph glyph-name="question" unicode="?" horiz-adv-x="458" 
d="M189 7c-8 9 -8 25 0 34c9 9 27 9 35 0c22 -22 -12 -57 -35 -34zM243 201h-18l23 145c55 9 105 32 150 67s68 79 68 131c0 83 -65 144 -170 144c-61 0 -116 -17 -164 -50l3 21c47 31 102 46 163 46c55 0 100 -15 134 -46c35 -30 52 -68 52 -114c0 -54 -22 -100 -65 -137
s-95 -63 -156 -78z" />
    <glyph glyph-name="at" unicode="@" horiz-adv-x="975" 
d="M563 712c115 0 210 -37 283 -110s110 -162 110 -268c0 -38 -6 -76 -19 -114c-12 -38 -33 -72 -63 -102c-29 -29 -64 -44 -105 -44c-60 0 -95 39 -99 82c-49 -54 -105 -81 -166 -81c-57 0 -102 18 -135 53s-50 78 -50 129c0 60 20 111 61 153c41 43 91 64 152 64
c73 0 136 -38 169 -87l11 69h18l-41 -262c-1 -9 -2 -17 -2 -22c0 -52 36 -81 85 -81c35 0 66 14 92 41c53 56 74 131 74 202c0 99 -34 183 -103 254s-159 107 -272 107c-238 6 -459 -210 -454 -457c0 -107 35 -197 106 -270c71 -74 159 -111 264 -111c66 0 132 14 198 42
l-4 -20c-61 -26 -126 -39 -195 -39c-111 0 -203 38 -277 115c-73 77 -110 171 -110 283c0 83 20 161 61 233c41 73 98 131 171 175s153 66 240 66zM669 184l28 176c-27 52 -91 97 -166 97c-53 0 -99 -19 -137 -58s-57 -86 -57 -141c0 -47 15 -87 46 -119
c31 -31 72 -47 122 -47c31 0 61 9 92 27s55 40 72 65z" />
    <glyph glyph-name="A" unicode="A" horiz-adv-x="734" 
d="M697 0h-19l-66 219h-420l-135 -219h-20l433 705h16zM607 236l-132 443l-273 -443h405z" />
    <glyph glyph-name="B" unicode="B" horiz-adv-x="728" 
d="M540 379c93 -13 145 -77 145 -161c0 -69 -24 -122 -71 -161c-47 -38 -107 -57 -181 -57h-321l110 700h284c108 0 169 -60 169 -145s-50 -151 -135 -176zM503 683h-265l-48 -300h265c56 0 104 15 143 44s59 72 59 128c0 79 -55 128 -154 128zM187 366l-55 -349h302
c66 0 121 17 166 51c45 35 67 85 67 150c0 91 -65 148 -178 148h-302z" />
    <glyph glyph-name="C" unicode="C" horiz-adv-x="694" 
d="M152 320c0 -89 28 -164 84 -225c57 -60 130 -90 220 -90c80 0 151 23 214 68l-3 -22c-59 -42 -130 -63 -211 -63c-96 0 -174 31 -233 94s-89 142 -89 237c0 106 35 198 104 276c70 78 158 117 265 117c83 0 153 -22 210 -65l-3 -19c-59 45 -128 67 -207 67
c-97 0 -180 -37 -249 -110c-68 -73 -102 -161 -102 -265z" />
    <glyph glyph-name="D" unicode="D" horiz-adv-x="772" 
d="M222 700h185c103 0 186 -28 248 -85s93 -131 93 -224c0 -115 -39 -209 -117 -282s-177 -109 -297 -109h-222zM132 17h195c116 0 212 34 288 102c77 68 115 159 115 272c0 89 -29 159 -88 212s-140 80 -244 80h-160z" />
    <glyph glyph-name="E" unicode="E" horiz-adv-x="634" 
d="M554 386l-3 -17h-363l-56 -352h454l-2 -17h-472l110 700h454l-2 -17h-436l-47 -297h363z" />
    <glyph glyph-name="F" unicode="F" horiz-adv-x="611" 
d="M189 376h363l-3 -17h-363l-56 -359h-18l110 700h449l-2 -17h-431z" />
    <glyph glyph-name="G" unicode="G" horiz-adv-x="784" 
d="M684 93l50 306h18l-51 -316c-73 -63 -155 -95 -244 -95c-97 0 -175 31 -234 93c-59 63 -89 141 -89 236c0 107 35 199 104 277c70 79 158 118 265 118c100 0 180 -29 240 -88l-3 -19c-65 60 -144 90 -237 90c-97 0 -179 -37 -248 -111c-69 -73 -103 -162 -103 -266
c0 -89 28 -164 85 -224c57 -59 131 -89 222 -89c86 0 161 29 225 88z" />
    <glyph glyph-name="H" unicode="H" horiz-adv-x="758" 
d="M646 0h-18l58 369h-498l-58 -369h-18l110 700h18l-49 -314h498l49 314h18z" />
    <glyph glyph-name="I" unicode="I" horiz-adv-x="256" 
d="M247 700l-110 -700h-18l110 700h18z" />
    <glyph glyph-name="J" unicode="J" horiz-adv-x="498" 
d="M487 700h18l-81 -512c-21 -133 -99 -200 -233 -200c-60 0 -109 17 -147 50l3 22c35 -37 84 -55 147 -55c124 0 192 57 212 185z" />
    <glyph glyph-name="K" unicode="K" horiz-adv-x="645" 
d="M679 700l-422 -323l368 -377h-27l-364 374l2 10l415 316h28zM130 0h-18l110 700h18z" />
    <glyph glyph-name="L" unicode="L" horiz-adv-x="586" 
d="M112 0l110 700h18l-108 -683h422l-2 -17h-440z" />
    <glyph glyph-name="M" unicode="M" horiz-adv-x="845" 
d="M843 700l-110 -700h-18l106 670l-341 -365h-17l-227 366l-106 -671h-18l110 700h18l233 -377l351 377h19z" />
    <glyph glyph-name="N" unicode="N" horiz-adv-x="773" 
d="M661 0h-18l-407 671l-106 -671h-18l110 700h18l407 -671l106 671h18z" />
    <glyph glyph-name="O" unicode="O" horiz-adv-x="848" 
d="M503 712c95 0 173 -31 232 -94s89 -141 89 -236c0 -107 -35 -199 -105 -277s-158 -117 -264 -117c-95 0 -173 31 -232 94s-89 142 -89 237c0 107 35 199 105 276c70 78 158 117 264 117zM455 5c97 0 179 37 248 110s103 162 103 266c0 90 -28 165 -85 224
c-56 60 -129 90 -218 90c-97 0 -179 -37 -248 -110s-103 -161 -103 -265c0 -90 28 -165 84 -225c57 -60 130 -90 219 -90z" />
    <glyph glyph-name="P" unicode="P" horiz-adv-x="664" 
d="M112 0l110 700h276c123 0 191 -63 191 -160c0 -61 -22 -110 -65 -147s-98 -55 -164 -55h-277l-53 -338h-18zM186 355h275c58 1 107 17 148 49s62 77 62 134c0 92 -63 145 -175 145h-258z" />
    <glyph glyph-name="Q" unicode="Q" horiz-adv-x="848" 
d="M503 712c95 0 173 -31 232 -94s89 -141 89 -236s-29 -180 -87 -255c-57 -75 -131 -119 -222 -134l30 -32c29 -31 64 -47 106 -47c33 0 62 8 87 24l-3 -20c-26 -14 -55 -21 -87 -21c-42 0 -81 18 -116 53l-39 40c-17 -1 -30 -2 -38 -2c-95 0 -173 31 -232 94
s-89 142 -89 237c0 107 35 199 105 276c70 78 158 117 264 117zM455 5c97 0 179 37 248 110s103 162 103 266c0 90 -28 165 -85 224c-56 60 -129 90 -218 90c-97 0 -179 -37 -248 -110s-103 -161 -103 -265c0 -90 28 -165 84 -225c57 -60 130 -90 219 -90z" />
    <glyph glyph-name="R" unicode="R" horiz-adv-x="735" 
d="M503 346l172 -346h-21l-173 346h-297l-54 -346h-18l110 700h296c120 0 187 -62 187 -157c0 -111 -82 -185 -202 -197zM515 683h-277l-51 -320h297c55 0 103 16 143 48c40 33 60 76 60 131c0 89 -61 141 -172 141z" />
    <glyph glyph-name="S" unicode="S" horiz-adv-x="619" 
d="M333 387l32 -9c27 -8 48 -15 63 -20s33 -12 56 -23s41 -22 53 -33c24 -21 46 -60 46 -105c0 -65 -27 -116 -81 -153c-53 -37 -115 -56 -186 -56c-53 0 -104 8 -154 23c-49 16 -84 33 -105 52l4 21c21 -20 55 -38 102 -55c47 -16 98 -24 152 -24c38 0 75 6 112 19
s69 34 96 64s41 66 41 107c0 40 -18 73 -41 94c-11 11 -27 21 -48 30c-40 20 -66 28 -119 43c-59 17 -86 25 -127 44c-58 28 -81 60 -86 121c0 59 24 104 72 136c49 33 106 49 171 49c90 0 162 -20 217 -61l-3 -18c-61 41 -132 62 -214 62c-35 0 -68 -5 -101 -16
c-32 -10 -61 -28 -86 -54s-38 -58 -38 -95c0 -21 3 -41 15 -57s18 -27 39 -39s26 -16 55 -27l30 -10z" />
    <glyph glyph-name="T" unicode="T" horiz-adv-x="611" 
d="M147 700h537l-2 -17h-260l-108 -683h-18l108 683h-259z" />
    <glyph glyph-name="U" unicode="U" horiz-adv-x="749" 
d="M674 284l66 416h18l-66 -418c-31 -189 -145 -294 -301 -294c-155 0 -249 91 -249 248c0 25 3 53 8 85l60 379h18l-60 -380c-5 -32 -8 -59 -8 -81c0 -144 79 -234 230 -234c149 0 256 106 284 279z" />
    <glyph glyph-name="V" unicode="V" horiz-adv-x="742" 
d="M373 23l414 677h21l-430 -704h-16l-208 704h19z" />
    <glyph glyph-name="W" unicode="W" horiz-adv-x="1029" 
d="M308 27l307 673h16l96 -671l339 671h21l-357 -704h-16l-96 667l-306 -667h-16l-135 704h19z" />
    <glyph glyph-name="X" unicode="X" horiz-adv-x="689" 
d="M623 0l-218 367l-335 -367h-25l348 382l-190 318h21l181 -303l277 303h25l-291 -317l230 -383h-23z" />
    <glyph glyph-name="Y" unicode="Y" horiz-adv-x="626" 
d="M365 346l316 354h25l-333 -373l-51 -327h-18l51 327l-215 373h21z" />
    <glyph glyph-name="Z" unicode="Z" horiz-adv-x="637" 
d="M657 700l-2 -13l-565 -670h489l-2 -17h-517l2 13l566 670h-446l2 17h473z" />
    <glyph glyph-name="bracketleft" unicode="[" horiz-adv-x="350" 
d="M277 -206h-204l144 912h204l-2 -17h-186l-139 -878h186z" />
    <glyph glyph-name="backslash" unicode="\" horiz-adv-x="486" 
d="M168 792l273 -932h-19l-273 932h19z" />
    <glyph glyph-name="bracketright" unicode="]" horiz-adv-x="350" 
d="M151 706h204l-144 -912h-203l2 17h186l139 878h-186z" />
    <glyph glyph-name="asciicircum" unicode="^" horiz-adv-x="486" 
d="M344 700h17l113 -349h-20l-104 326l-208 -326h-20z" />
    <glyph glyph-name="underscore" unicode="_" horiz-adv-x="595" 
d="M-9 -110l3 17h578l-3 -17h-578z" />
    <glyph glyph-name="grave" unicode="`" horiz-adv-x="520" 
d="M307 700h22l78 -124h-22z" />
    <glyph glyph-name="a" unicode="a" horiz-adv-x="583" 
d="M537 12c7 0 14 1 20 3l-2 -17c-7 -2 -15 -3 -22 -3c-41 0 -68 26 -68 69c0 6 0 11 1 15c-61 -61 -133 -91 -216 -91c-51 0 -93 13 -127 39c-33 26 -50 61 -50 105c0 52 21 92 63 120c43 28 91 42 144 42c76 0 145 -23 208 -68l12 74c2 14 3 27 3 39
c0 80 -55 126 -160 126c-68 0 -126 -14 -173 -43l4 21c43 26 101 39 173 39c104 0 174 -46 174 -141c0 -5 -1 -19 -4 -43l-31 -200c-2 -14 -3 -25 -3 -33c0 -35 18 -53 54 -53zM256 5c80 0 151 34 213 101l16 101c-59 47 -127 70 -204 70c-50 0 -94 -13 -133 -38
c-38 -25 -57 -61 -57 -106c0 -81 70 -128 165 -128z" />
    <glyph glyph-name="b" unicode="b" horiz-adv-x="629" 
d="M130 98l-16 -98h-18l111 700h18l-50 -312c56 63 123 94 200 94c71 0 126 -22 167 -66c41 -43 62 -97 62 -160c0 -74 -25 -137 -76 -190c-50 -52 -112 -78 -187 -78c-96 0 -171 47 -211 110zM374 465c-40 0 -79 -11 -117 -33c-37 -21 -67 -49 -88 -82l-35 -224
c17 -33 43 -61 80 -85s80 -36 128 -36c67 0 124 24 172 73s72 109 72 178c0 59 -20 109 -59 149s-90 60 -153 60z" />
    <glyph glyph-name="c" unicode="c" horiz-adv-x="512" 
d="M321 -12c-73 0 -129 22 -170 66c-40 44 -60 97 -60 158c0 77 26 141 77 192c51 52 114 78 188 78c63 0 115 -15 156 -45l-3 -18c-41 31 -91 46 -150 46c-71 0 -130 -24 -178 -73c-47 -49 -71 -108 -71 -179c0 -59 19 -108 57 -148c39 -40 91 -60 156 -60
c54 0 102 13 144 40l-3 -21c-41 -24 -89 -36 -143 -36z" />
    <glyph glyph-name="d" unicode="d" horiz-adv-x="621" 
d="M565 372l52 328h18l-110 -700h-18l13 82c-56 -63 -123 -94 -200 -94c-71 0 -127 22 -168 65c-41 44 -61 98 -61 161c0 74 25 137 75 189c51 53 113 79 188 79c96 0 171 -47 211 -110zM321 5c40 0 79 11 116 32c38 22 68 50 89 83l35 224c-17 33 -44 61 -81 85
s-79 36 -127 36c-67 0 -124 -25 -172 -74s-72 -108 -72 -177c0 -59 19 -109 58 -149s91 -60 154 -60z" />
    <glyph glyph-name="e" unicode="e" horiz-adv-x="560" 
d="M328 5c51 0 99 14 144 42l-3 -21c-39 -25 -86 -38 -141 -38c-67 0 -124 21 -169 62c-45 42 -68 96 -68 162c0 71 24 133 71 188s108 82 183 82c66 0 115 -21 148 -64s50 -90 50 -142c0 -8 -1 -19 -2 -34h-431c-1 -7 -1 -17 -1 -30c0 -60 21 -110 62 -149s94 -58 157 -58z
M343 465c-59 0 -109 -20 -152 -60c-42 -39 -68 -88 -78 -146h411c0 3 1 12 1 17c0 49 -15 93 -46 131c-30 39 -75 58 -136 58z" />
    <glyph glyph-name="f" unicode="f" horiz-adv-x="358" 
d="M224 470h178l-3 -17h-178l-71 -453h-18l71 453h-102l3 17h102l19 123c12 75 56 112 131 112c29 0 56 -7 80 -20l-3 -19c-27 15 -53 22 -80 22c-63 0 -100 -34 -111 -101z" />
    <glyph glyph-name="g" unicode="g" horiz-adv-x="621" 
d="M565 372l16 98h18l-74 -467c-21 -137 -111 -206 -269 -206c-69 0 -129 15 -179 45l4 19c49 -31 107 -47 176 -47c139 0 229 61 250 189l13 79c-56 -63 -123 -94 -200 -94c-71 0 -127 22 -168 65c-41 44 -61 98 -61 161c0 74 25 137 75 189c51 53 113 79 188 79
c96 0 171 -47 211 -110zM526 120l35 224c-17 33 -44 61 -81 85s-79 36 -127 36c-67 0 -124 -25 -172 -74s-72 -108 -72 -177c0 -59 19 -109 58 -149s91 -60 154 -60c40 0 79 11 116 32c38 22 68 50 89 83z" />
    <glyph glyph-name="h" unicode="h" horiz-adv-x="597" 
d="M551 252l-40 -252h-18l39 249c6 42 9 67 9 75c0 89 -56 141 -148 141c-44 0 -86 -12 -127 -36c-40 -23 -72 -51 -97 -82l-55 -347h-18l110 700h18l-51 -322c68 69 142 104 223 104c99 0 164 -60 164 -156c0 -9 -3 -34 -9 -74z" />
    <glyph glyph-name="i" unicode="i" horiz-adv-x="235" 
d="M201 470l-74 -470h-18l74 470h18zM199 627c-22 22 12 56 34 34s-12 -56 -34 -34z" />
    <glyph glyph-name="j" unicode="j" horiz-adv-x="235" 
d="M183 470h18l-89 -563c-9 -63 -46 -97 -75 -104c-15 -4 -32 -6 -53 -6c-24 0 -45 5 -63 16l3 20c18 -13 39 -19 63 -19c64 0 95 26 107 98zM199 627c-22 22 12 56 34 34s-12 -56 -34 -34z" />
    <glyph glyph-name="k" unicode="k" horiz-adv-x="510" 
d="M507 470l-291 -214l253 -256h-26l-250 253l1 10l284 207h29zM114 0h-18l110 700h18z" />
    <glyph glyph-name="l" unicode="l" horiz-adv-x="262" 
d="M202 700h18l-93 -593c-3 -25 -5 -41 -5 -50c0 -35 20 -52 60 -52c23 0 44 6 63 17l-3 -20c-20 -9 -42 -14 -65 -14c-49 0 -73 23 -73 69c0 7 2 23 5 48z" />
    <glyph glyph-name="m" unicode="m" horiz-adv-x="908" 
d="M722 482c93 0 149 -57 149 -146c0 -13 -2 -31 -6 -54l-44 -282h-18l44 279c4 23 6 40 6 52c0 87 -47 134 -134 134c-79 0 -153 -49 -201 -121c0 -18 -1 -35 -4 -51l-46 -293h-18l46 291c3 15 4 31 4 46c0 113 -86 128 -131 128c-76 0 -152 -46 -200 -114l-55 -351h-18
l74 470h18l-14 -86c56 65 122 98 197 98c77 0 134 -40 145 -111c57 74 126 111 206 111z" />
    <glyph glyph-name="n" unicode="n" horiz-adv-x="597" 
d="M551 252l-40 -252h-18l39 249c6 42 9 67 9 75c0 89 -56 141 -148 141c-44 0 -86 -12 -127 -36c-40 -23 -72 -51 -97 -82l-55 -347h-18l74 470h18l-15 -92c68 69 142 104 223 104c99 0 164 -60 164 -156c0 -9 -3 -34 -9 -74z" />
    <glyph glyph-name="o" unicode="o" horiz-adv-x="611" 
d="M354 482c71 0 127 -23 169 -68s63 -98 63 -161c0 -73 -25 -135 -76 -187c-50 -52 -112 -78 -187 -78c-71 0 -127 22 -169 67s-63 99 -63 162c0 73 25 135 75 187c51 52 113 78 188 78zM324 5c67 0 125 24 172 73c48 49 72 107 72 176c0 60 -20 110 -60 150
c-39 41 -91 61 -155 61c-67 0 -125 -24 -173 -73c-47 -49 -71 -107 -71 -176c0 -60 20 -110 59 -151c40 -40 92 -60 156 -60z" />
    <glyph glyph-name="p" unicode="p" horiz-adv-x="629" 
d="M130 98l-47 -298h-18l105 670h18l-13 -82c56 63 123 94 200 94c71 0 126 -22 167 -66c41 -43 62 -97 62 -160c0 -74 -25 -137 -76 -190c-50 -52 -112 -78 -187 -78c-96 0 -171 47 -211 110zM374 465c-40 0 -79 -11 -117 -33c-37 -21 -67 -49 -88 -82l-35 -224
c17 -33 43 -61 80 -85s80 -36 128 -36c67 0 124 24 172 73s72 109 72 178c0 59 -20 109 -59 149s-90 60 -153 60z" />
    <glyph glyph-name="q" unicode="q" horiz-adv-x="621" 
d="M565 372l16 98h18l-106 -670h-18l45 282c-56 -63 -123 -94 -200 -94c-71 0 -127 22 -168 65c-41 44 -61 98 -61 161c0 74 25 137 75 189c51 53 113 79 188 79c96 0 171 -47 211 -110zM321 5c40 0 79 11 116 32c38 22 68 50 89 83l35 224c-17 33 -44 61 -81 85
s-79 36 -127 36c-67 0 -124 -25 -172 -74s-72 -108 -72 -177c0 -59 19 -109 58 -149s91 -60 154 -60z" />
    <glyph glyph-name="r" unicode="r" horiz-adv-x="321" 
d="M382 482l-3 -17c-41 0 -80 -13 -119 -40s-70 -58 -94 -95l-52 -330h-18l74 470h18l-17 -106c19 28 47 54 85 79s80 38 126 39z" />
    <glyph glyph-name="s" unicode="s" horiz-adv-x="484" 
d="M256 -12c-91 0 -165 32 -204 64l2 20c53 -45 121 -67 204 -67c25 0 50 3 74 9c49 13 98 52 98 107c0 28 -12 50 -43 66c-15 9 -28 15 -39 19s-27 10 -49 17c-19 6 -31 10 -37 11l-32 11c-32 11 -35 14 -59 25c-23 12 -28 22 -41 35c-12 13 -15 29 -15 48
c0 41 17 73 51 95c35 23 75 34 122 34c73 0 133 -18 181 -54l-3 -17c-48 36 -107 54 -178 54c-23 0 -46 -3 -68 -10c-44 -12 -87 -48 -87 -99c0 -17 6 -32 13 -43c8 -11 26 -23 37 -30s38 -17 49 -21l55 -18l28 -9l32 -11l28 -12c28 -11 35 -19 51 -34s22 -34 22 -55
c-2 -95 -102 -138 -192 -135z" />
    <glyph glyph-name="t" unicode="t" horiz-adv-x="415" 
d="M173 97l56 356h-128l3 17h128l25 160h18l-25 -160h189l-3 -17h-189l-54 -344c-3 -15 -4 -27 -4 -37c0 -45 28 -67 83 -67c29 0 58 9 89 26l-3 -20c-25 -15 -54 -23 -88 -23c-66 0 -99 28 -99 83c0 5 1 14 2 26z" />
    <glyph glyph-name="u" unicode="u" horiz-adv-x="597" 
d="M120 218l40 252h18l-39 -249c-6 -42 -9 -67 -9 -75c0 -89 56 -141 148 -141c44 0 86 12 126 35c41 24 73 52 98 83l55 347h18l-74 -470h-18l15 92c-68 -69 -142 -104 -223 -104c-99 0 -164 60 -164 156c0 9 3 34 9 74z" />
    <glyph glyph-name="v" unicode="v" horiz-adv-x="543" 
d="M271 22l284 448h22l-301 -474h-17l-151 474h19z" />
    <glyph glyph-name="w" unicode="w" horiz-adv-x="806" 
d="M575 27l234 443h21l-251 -474h-16l-90 448l-231 -448h-16l-102 474h19l95 -442l231 444h16z" />
    <glyph glyph-name="x" unicode="x" horiz-adv-x="527" 
d="M510 470h25l-217 -218l174 -252h-23l-165 239l-237 -239h-26l253 253l-149 217h23l139 -204z" />
    <glyph glyph-name="y" unicode="y" horiz-adv-x="522" 
d="M527 470h21l-311 -525c-59 -97 -109 -148 -176 -148c-23 0 -42 5 -57 15l3 18c16 -11 35 -16 56 -16c34 0 64 16 91 47s63 83 107 158l-159 451h20l151 -429z" />
    <glyph glyph-name="z" unicode="z" horiz-adv-x="480" 
d="M41 13l416 440h-333l3 17h360l-2 -13l-415 -440h372l-2 -17h-401z" />
    <glyph glyph-name="braceleft" unicode="{" horiz-adv-x="326" 
d="M189 364l7 40l30 186c13 77 57 116 132 116h39l-2 -17h-38c-65 0 -102 -34 -113 -101l-30 -184c-5 -29 -9 -52 -14 -69c-8 -33 -32 -73 -71 -86c29 -13 44 -40 44 -82c0 -18 -2 -42 -7 -71l-26 -165c-3 -23 -5 -38 -5 -45c0 -50 28 -75 83 -75h38l-3 -17h-39
c-65 0 -98 30 -98 89c0 7 2 23 5 46l27 167c5 27 7 50 7 69c0 47 -20 72 -61 76l3 18c29 3 53 19 65 35c7 8 12 19 17 34s9 27 10 36z" />
    <glyph glyph-name="bar" unicode="|" horiz-adv-x="272" 
d="M128 -111h-18l138 871h18z" />
    <glyph glyph-name="braceright" unicode="}" horiz-adv-x="326" 
d="M209 96l-30 -186c-13 -77 -57 -116 -132 -116h-39l2 17h38c65 0 102 34 113 101l30 184c5 29 9 51 13 68c9 35 33 74 72 87c-29 13 -44 40 -44 82c0 18 2 42 7 71l26 165c3 23 5 38 5 45c0 50 -28 75 -83 75h-38l3 17h39c65 0 98 -30 98 -89c0 -7 -2 -23 -5 -46l-27 -167
c-5 -27 -7 -50 -7 -69c0 -47 20 -72 61 -76l-3 -18c-29 -3 -53 -19 -66 -35c-6 -8 -12 -20 -17 -35c-9 -29 -11 -39 -16 -75z" />
    <glyph glyph-name="asciitilde" unicode="~" horiz-adv-x="544" 
d="M416 243c41 0 75 14 102 41l-3 -22c-21 -25 -55 -37 -102 -37c-25 0 -59 8 -102 24s-77 24 -102 24c-41 0 -75 -14 -103 -42l3 22c23 25 57 38 102 38c25 0 59 -8 102 -24c44 -16 78 -24 103 -24z" />
    <glyph glyph-name="nbspace" unicode="&#xa0;" horiz-adv-x="276" 
 />
    <glyph glyph-name="exclamdown" unicode="&#xa1;" horiz-adv-x="242" 
d="M156 276h18l-76 -476h-18zM208 464c9 -8 9 -26 0 -35c-8 -8 -26 -8 -35 0c-8 9 -8 27 0 35c9 9 27 9 35 0z" />
    <glyph glyph-name="cent" unicode="&#xa2;" horiz-adv-x="512" 
d="M321 -12c-7 0 -13 0 -17 1l-16 -105h-18l16 106c-62 7 -110 32 -144 74c-34 43 -51 92 -51 148c0 77 26 141 77 192c51 52 114 78 188 78h9l16 105h18l-16 -106c51 -5 94 -19 129 -44l-3 -18c-41 31 -91 46 -150 46c-71 0 -130 -24 -178 -73c-47 -49 -71 -108 -71 -179
c0 -59 19 -108 57 -148c39 -40 91 -60 156 -60c54 0 102 13 144 40l-3 -21c-41 -24 -89 -36 -143 -36z" />
    <glyph glyph-name="sterling" unicode="&#xa3;" horiz-adv-x="572" 
d="M457 695c-123 0 -203 -71 -224 -200l-26 -164h314l-3 -17h-314l-39 -245c-4 -25 -13 -43 -26 -52h375l-2 -17h-439l2 17h27c23 0 41 25 45 54l39 243h-64l3 17h64l26 166c21 137 112 215 245 215c66 0 118 -17 156 -50l-3 -21c-32 35 -95 54 -156 54z" />
    <glyph glyph-name="currency" unicode="&#xa4;" horiz-adv-x="545" 
d="M329 178c48 0 88 17 121 50s49 74 49 123s-16 90 -49 123s-73 50 -121 50c-49 0 -89 -17 -122 -50s-49 -74 -49 -123s16 -90 49 -123s73 -50 122 -50zM470 222l64 -64l-13 -12l-64 63c-35 -32 -78 -48 -128 -48c-51 0 -94 16 -129 49l-64 -64l-13 12l64 64
c-31 37 -47 80 -47 129s16 91 47 128l-64 64l13 13l64 -64c35 33 78 49 129 49s93 -16 128 -49l64 64l13 -13l-65 -64c32 -36 48 -79 48 -128s-16 -92 -47 -129z" />
    <glyph glyph-name="yen" unicode="&#xa5;" horiz-adv-x="588" 
d="M646 700h23l-303 -362h212l-3 -17h-221l-21 -135h221l-3 -17h-221l-27 -169h-18l27 169h-221l3 17h221l21 135h-221l3 17h212l-189 362h21l186 -355z" />
    <glyph glyph-name="brokenbar" unicode="&#xa6;" horiz-adv-x="272" 
d="M210 407h-18l56 353h18zM128 -111h-18l56 353h18z" />
    <glyph glyph-name="section" unicode="&#xa7;" horiz-adv-x="638" 
d="M400 695c-28 0 -55 -4 -82 -11c-52 -13 -103 -54 -103 -114c0 -32 17 -59 54 -82c39 -23 64 -34 124 -57c139 -53 205 -102 205 -174c0 -79 -66 -136 -153 -157c54 -30 81 -65 81 -106c0 -47 -20 -83 -59 -107c-39 -25 -87 -37 -144 -37c-85 0 -161 23 -228 70l3 19
c67 -48 142 -72 225 -72c28 0 55 4 81 11c53 13 104 54 104 114c0 32 -16 58 -55 81c-19 12 -37 22 -54 29c-16 7 -39 17 -69 29c-139 53 -205 102 -205 174c0 79 66 136 153 157c-54 30 -81 65 -81 106c0 47 20 83 59 107c39 25 87 37 144 37c85 0 161 -23 228 -70l-3 -19
c-67 48 -142 72 -225 72zM388 415l-39 15c-23 9 -40 16 -50 21c-40 -9 -76 -26 -108 -51s-48 -56 -48 -94c0 -31 19 -61 42 -81c12 -10 28 -20 47 -31c39 -21 60 -30 103 -47l39 -16c23 -9 40 -15 50 -20c40 9 76 25 108 50s48 57 48 95c0 31 -19 61 -43 81
c-11 10 -27 20 -46 31c-39 21 -60 30 -103 47z" />
    <glyph glyph-name="dieresis" unicode="&#xa8;" horiz-adv-x="520" 
d="M255 627c-22 22 12 56 34 34s-12 -56 -34 -34zM435 627c-22 22 12 56 34 34s-12 -56 -34 -34z" />
    <glyph glyph-name="copyright" unicode="&#xa9;" horiz-adv-x="882" 
d="M514 179c45 0 83 13 114 39v-18c-31 -25 -69 -38 -114 -38c-51 0 -93 18 -127 53c-34 36 -51 81 -51 135s17 99 51 134c34 36 76 54 127 54c38 0 72 -9 101 -28v-18c-29 19 -62 29 -101 29c-46 0 -84 -16 -115 -49c-30 -32 -45 -73 -45 -122s15 -90 45 -123
c31 -32 69 -48 115 -48zM840 349c0 96 -34 178 -101 245s-148 101 -243 101s-177 -34 -244 -101s-100 -149 -100 -245c0 -95 34 -177 101 -244s148 -100 243 -100s176 33 243 100s101 149 101 244zM858 349c0 -99 -35 -184 -106 -255s-156 -106 -256 -106s-185 35 -256 106
s-106 156 -106 257c0 99 35 184 106 255s156 106 256 106s185 -35 256 -106s106 -156 106 -257z" />
    <glyph glyph-name="ordfeminine" unicode="&#xaa;" horiz-adv-x="414" 
d="M225 332c61 0 115 26 163 78l11 74c-44 35 -96 53 -155 53c-39 0 -73 -9 -102 -28c-29 -18 -43 -44 -43 -79c0 -64 53 -98 126 -98zM444 339c5 0 10 1 17 2l-3 -17c-3 -1 -10 -2 -19 -2c-32 0 -53 19 -54 52c0 5 0 9 1 12c-47 -47 -103 -71 -167 -71
c-80 0 -138 45 -138 114c0 41 16 72 48 93c33 21 70 32 113 32c58 0 111 -17 160 -52l9 56c2 14 3 25 3 32c0 65 -41 97 -123 97c-53 0 -98 -11 -135 -33l4 19c33 21 78 31 135 31c83 0 137 -37 137 -112c0 -8 -1 -19 -3 -33l-24 -154c-1 -9 -2 -18 -2 -27
c0 -26 14 -39 41 -39z" />
    <glyph glyph-name="guillemotleft" unicode="&#xab;" horiz-adv-x="534" 
d="M228 44h-23l-133 185l1 12l192 185h26l-200 -193zM442 44h-23l-133 185l1 12l192 185h26l-200 -193z" />
    <glyph glyph-name="logicalnot" unicode="&#xac;" horiz-adv-x="540" 
d="M127 360h400l-32 -197h-18l29 180h-382z" />
    <glyph glyph-name="uni00AD" unicode="&#xad;" horiz-adv-x="479" 
d="M151 259l2 17h259l-2 -17h-259z" />
    <glyph glyph-name="registered" unicode="&#xae;" horiz-adv-x="882" 
d="M394 515v-156h145c59 0 91 29 91 78s-32 78 -91 78h-145zM648 437c0 -52 -34 -89 -91 -94l123 -175h-22l-123 174h-141v-174h-18v364h163c69 0 109 -38 109 -95zM840 349c0 96 -34 178 -101 245s-148 101 -243 101s-177 -34 -244 -101s-100 -149 -100 -245
c0 -95 34 -177 101 -244s148 -100 243 -100s176 33 243 100s101 149 101 244zM858 349c0 -99 -35 -184 -106 -255s-156 -106 -256 -106s-185 35 -256 106s-106 156 -106 257c0 99 35 184 106 255s156 106 256 106s185 -35 256 -106s106 -156 106 -257z" />
    <glyph glyph-name="overscore" unicode="&#xaf;" horiz-adv-x="520" 
d="M256 635l3 17h209l-3 -17h-209z" />
    <glyph glyph-name="degree" unicode="&#xb0;" horiz-adv-x="445" 
d="M311 423c-39 0 -73 14 -102 42c-28 29 -42 63 -42 103c0 39 14 73 42 101c29 29 63 43 102 43c40 0 74 -14 102 -43c29 -28 43 -62 43 -101c0 -40 -14 -74 -43 -103c-28 -28 -62 -42 -102 -42zM311 440c35 0 65 12 90 37s37 56 37 91s-12 64 -37 89s-55 38 -90 38
s-64 -12 -89 -37s-37 -55 -37 -90s12 -66 37 -91s54 -37 89 -37z" />
    <glyph glyph-name="plusminus" unicode="&#xb1;" horiz-adv-x="595" 
d="M366 375h218l-3 -17h-218l-28 -176h-18l28 176h-219l3 17h219l27 174h18zM82 82l3 17h455l-3 -17h-455z" />
    <glyph glyph-name="twosuperior" unicode="&#xb2;" horiz-adv-x="346" 
d="M143 637l3 23c33 29 71 44 114 44c69 0 112 -45 112 -102c0 -49 -36 -93 -104 -150l-138 -113h222l-3 -17h-252l2 14l155 128c67 56 100 92 100 137c0 52 -42 86 -94 86c-39 0 -78 -17 -117 -50z" />
    <glyph glyph-name="threesuperior" unicode="&#xb3;" horiz-adv-x="312" 
d="M367 700l-2 -12l-147 -133c72 -3 125 -42 125 -106c0 -41 -15 -73 -45 -96c-29 -23 -65 -35 -106 -35c-45 0 -82 10 -112 31l2 19c28 -22 65 -33 110 -33c35 0 65 10 92 30c27 21 41 48 41 83c0 57 -49 89 -113 89c-11 0 -20 0 -27 -1l2 15l146 132h-189l2 17h221z" />
    <glyph glyph-name="acute" unicode="&#xb4;" horiz-adv-x="520" 
d="M294 576l116 124h24l-116 -124h-24z" />
    <glyph glyph-name="mu" unicode="&#xb5;" horiz-adv-x="607" 
d="M128 90l-45 -290h-18l105 670h18l-39 -249c-6 -42 -9 -67 -9 -75c0 -89 56 -141 148 -141c44 0 86 12 126 35c41 24 73 52 98 83l55 347h18l-74 -470h-18l15 92c-68 -69 -142 -104 -223 -104c-79 0 -137 37 -157 102z" />
    <glyph glyph-name="paragraph" unicode="&#xb6;" horiz-adv-x="482" 
d="M374 700h106l-110 -700h-18l53 338h-88c-116 0 -182 62 -182 154c0 65 22 115 67 152s102 56 172 56z" />
    <glyph glyph-name="middot" unicode="&#xb7;" horiz-adv-x="208" 
d="M127 361c-8 9 -8 25 0 34c9 9 27 9 35 0c22 -22 -12 -57 -35 -34z" />
    <glyph glyph-name="cedilla" unicode="&#xb8;" horiz-adv-x="459" 
d="M241 3h18l-96 -124h-23z" />
    <glyph glyph-name="onesuperior" unicode="&#xb9;" horiz-adv-x="225" 
d="M204 322h-18l56 356l-116 -68l3 21l118 69h16z" />
    <glyph glyph-name="ordmasculine" unicode="&#xba;" horiz-adv-x="444" 
d="M313 704c54 0 97 -18 130 -53s49 -77 49 -126c0 -57 -19 -105 -58 -146s-87 -61 -145 -61c-55 0 -98 17 -131 52c-32 35 -48 78 -48 127c0 57 19 105 58 146s87 61 145 61zM290 335c51 0 94 19 130 56s54 82 54 134c0 46 -15 84 -45 115c-29 31 -68 47 -117 47
c-51 0 -94 -19 -130 -56s-54 -82 -54 -134c0 -46 15 -85 45 -116s69 -46 117 -46z" />
    <glyph glyph-name="guillemotright" unicode="&#xbb;" horiz-adv-x="534" 
d="M380 426h23l133 -185l-1 -12l-192 -185h-26l200 193zM166 426h23l133 -185l-1 -12l-192 -185h-26l200 193z" />
    <glyph glyph-name="onequarter" unicode="&#xbc;" horiz-adv-x="711" 
d="M204 322h-18l56 356l-116 -68l3 21l118 69h16zM126 0l510 700h22l-510 -700h-22zM621 0h-18l17 110h-208l2 14l252 254h14l-39 -251h66l-3 -17h-66zM657 344l-215 -217h181z" />
    <glyph glyph-name="onehalf" unicode="&#xbd;" horiz-adv-x="786" 
d="M204 322h-18l56 356l-116 -68l3 21l118 69h16zM126 0l510 700h22l-510 -700h-22zM533 315l3 23c33 29 71 44 114 44c69 0 112 -45 112 -102c0 -49 -36 -93 -104 -150l-138 -113h222l-3 -17h-252l2 14l155 128c67 56 100 92 100 137c0 52 -42 86 -94 86
c-39 0 -78 -17 -117 -50z" />
    <glyph glyph-name="threequarters" unicode="&#xbe;" horiz-adv-x="762" 
d="M177 0l510 700h22l-510 -700h-22zM672 0h-18l17 110h-208l2 14l252 254h14l-39 -251h66l-3 -17h-66zM708 344l-215 -217h181zM367 700l-2 -12l-147 -133c72 -3 125 -42 125 -106c0 -41 -15 -73 -45 -96c-29 -23 -65 -35 -106 -35c-45 0 -82 10 -112 31l2 19
c28 -22 65 -33 110 -33c35 0 65 10 92 30c27 21 41 48 41 83c0 57 -49 89 -113 89c-11 0 -20 0 -27 -1l2 15l146 132h-189l2 17h221z" />
    <glyph glyph-name="questiondown" unicode="&#xbf;" horiz-adv-x="458" 
d="M355 464c9 -8 9 -26 0 -35c-9 -8 -25 -8 -34 0c-23 23 12 57 34 35zM304 276h18l-18 -120c-55 -9 -106 -32 -151 -67s-67 -79 -67 -131c0 -83 65 -144 170 -144c61 0 116 17 164 50l-3 -21c-47 -31 -102 -46 -163 -46c-55 0 -100 15 -135 46c-34 30 -51 68 -51 114
c0 54 21 99 64 136s96 64 157 79z" />
    <glyph glyph-name="Agrave" unicode="&#xc0;" horiz-adv-x="734" 
d="M697 0h-19l-66 219h-420l-135 -219h-20l433 705h16zM607 236l-132 443l-273 -443h405zM398 889h22l78 -124h-22z" />
    <glyph glyph-name="Aacute" unicode="&#xc1;" horiz-adv-x="734" 
d="M697 0h-19l-66 219h-420l-135 -219h-20l433 705h16zM607 236l-132 443l-273 -443h405zM474 765l116 124h24l-116 -124h-24z" />
    <glyph glyph-name="Acircumflex" unicode="&#xc2;" horiz-adv-x="734" 
d="M697 0h-19l-66 219h-420l-135 -219h-20l433 705h16zM607 236l-132 443l-273 -443h405zM516 889l84 -124h-20l-74 108l-108 -108h-22l122 124h18z" />
    <glyph glyph-name="Atilde" unicode="&#xc3;" horiz-adv-x="734" 
d="M697 0h-19l-66 219h-420l-135 -219h-20l433 705h16zM607 236l-132 443l-273 -443h405zM621 863h18c-10 -53 -35 -80 -74 -80c-18 0 -41 11 -70 34s-51 35 -66 35c-27 0 -45 -21 -54 -62h-18c9 51 37 79 74 79c19 0 42 -12 71 -35s50 -34 65 -34c27 0 45 21 54 63z" />
    <glyph glyph-name="Adieresis" unicode="&#xc4;" horiz-adv-x="734" 
d="M697 0h-19l-66 219h-420l-135 -219h-20l433 705h16zM607 236l-132 443l-273 -443h405zM389 805c-8 9 -8 25 0 34c9 9 27 9 35 0c22 -22 -12 -57 -35 -34zM569 805c-8 9 -8 25 0 34c9 9 27 9 35 0c22 -22 -12 -57 -35 -34z" />
    <glyph glyph-name="Aring" unicode="&#xc5;" horiz-adv-x="734" 
d="M697 0h-19l-66 219h-420l-135 -219h-20l433 705h16zM607 236l-132 443l-273 -443h405zM586 827c0 -48 -40 -88 -88 -88s-88 40 -88 88c0 47 40 88 88 88s88 -41 88 -88zM448 776c27 -27 73 -27 100 0c27 28 27 74 0 101c-27 28 -73 28 -100 0c-27 -27 -27 -73 0 -101z
" />
    <glyph glyph-name="AE" unicode="&#xc6;" horiz-adv-x="1013" 
d="M933 386l-3 -17h-361l-56 -352h452l-2 -17h-470l34 219h-318l-178 -219h-21l567 700h478l-2 -17h-434l-47 -297h361zM600 683h-14l-363 -447h307z" />
    <glyph glyph-name="Ccedilla" unicode="&#xc7;" horiz-adv-x="694" 
d="M152 320c0 -89 28 -164 84 -225c57 -60 130 -90 220 -90c80 0 151 23 214 68l-3 -22c-59 -42 -130 -63 -211 -63c-9 0 -16 0 -21 1l-85 -110h-23l90 111c-86 9 -155 43 -206 104s-77 136 -77 225c0 106 35 198 104 276c70 78 158 117 265 117c83 0 153 -22 210 -65
l-3 -19c-59 45 -128 67 -207 67c-97 0 -180 -37 -249 -110c-68 -73 -102 -161 -102 -265z" />
    <glyph glyph-name="Egrave" unicode="&#xc8;" horiz-adv-x="634" 
d="M554 386l-3 -17h-363l-56 -352h454l-2 -17h-472l110 700h454l-2 -17h-436l-47 -297h363zM377 889h22l78 -124h-22z" />
    <glyph glyph-name="Eacute" unicode="&#xc9;" horiz-adv-x="634" 
d="M554 386l-3 -17h-363l-56 -352h454l-2 -17h-472l110 700h454l-2 -17h-436l-47 -297h363zM424 765l116 124h24l-116 -124h-24z" />
    <glyph glyph-name="Ecircumflex" unicode="&#xca;" horiz-adv-x="634" 
d="M554 386l-3 -17h-363l-56 -352h454l-2 -17h-472l110 700h454l-2 -17h-436l-47 -297h363zM488 889l84 -124h-20l-74 108l-108 -108h-22l122 124h18z" />
    <glyph glyph-name="Edieresis" unicode="&#xcb;" horiz-adv-x="634" 
d="M554 386l-3 -17h-363l-56 -352h454l-2 -17h-472l110 700h454l-2 -17h-436l-47 -297h363zM353 805c-22 22 12 56 34 34s-12 -56 -34 -34zM533 805c-22 22 12 56 34 34s-12 -56 -34 -34z" />
    <glyph glyph-name="Igrave" unicode="&#xcc;" horiz-adv-x="256" 
d="M247 700l-110 -700h-18l110 700h18zM157 889h22l78 -124h-22z" />
    <glyph glyph-name="Iacute" unicode="&#xcd;" horiz-adv-x="256" 
d="M247 700l-110 -700h-18l110 700h18zM232 765l116 124h24l-116 -124h-24z" />
    <glyph glyph-name="Icircumflex" unicode="&#xce;" horiz-adv-x="256" 
d="M277 889l84 -124h-20l-74 108l-108 -108h-22l122 124h18zM247 700l-110 -700h-18l110 700h18z" />
    <glyph glyph-name="Idieresis" unicode="&#xcf;" horiz-adv-x="256" 
d="M247 700l-110 -700h-18l110 700h18zM151 805c-22 22 12 56 34 34s-12 -56 -34 -34zM331 805c-22 22 12 56 34 34s-12 -56 -34 -34z" />
    <glyph glyph-name="Eth" unicode="&#xd0;" horiz-adv-x="772" 
d="M222 700h185c103 0 186 -28 248 -85s93 -131 93 -224c0 -115 -39 -209 -117 -282s-177 -109 -297 -109h-222l53 342h-81l2 17h82zM132 17h195c116 0 212 34 288 102c77 68 115 159 115 272c0 89 -29 159 -88 212s-140 80 -244 80h-160l-52 -324h222l-2 -17h-222z" />
    <glyph glyph-name="Ntilde" unicode="&#xd1;" horiz-adv-x="773" 
d="M661 0h-18l-407 671l-106 -671h-18l110 700h18l407 -671l106 671h18zM648 863h18c-10 -53 -35 -80 -74 -80c-18 0 -41 11 -70 34s-51 35 -66 35c-27 0 -45 -21 -54 -62h-18c9 51 37 79 74 79c19 0 42 -12 71 -35s50 -34 65 -34c27 0 45 21 54 63z" />
    <glyph glyph-name="Ograve" unicode="&#xd2;" horiz-adv-x="848" 
d="M503 712c95 0 173 -31 232 -94s89 -141 89 -236c0 -107 -35 -199 -105 -277s-158 -117 -264 -117c-95 0 -173 31 -232 94s-89 142 -89 237c0 107 35 199 105 276c70 78 158 117 264 117zM455 5c97 0 179 37 248 110s103 162 103 266c0 90 -28 165 -85 224
c-56 60 -129 90 -218 90c-97 0 -179 -37 -248 -110s-103 -161 -103 -265c0 -90 28 -165 84 -225c57 -60 130 -90 219 -90zM455 889h22l78 -124h-22z" />
    <glyph glyph-name="Oacute" unicode="&#xd3;" horiz-adv-x="848" 
d="M503 712c95 0 173 -31 232 -94s89 -141 89 -236c0 -107 -35 -199 -105 -277s-158 -117 -264 -117c-95 0 -173 31 -232 94s-89 142 -89 237c0 107 35 199 105 276c70 78 158 117 264 117zM455 5c97 0 179 37 248 110s103 162 103 266c0 90 -28 165 -85 224
c-56 60 -129 90 -218 90c-97 0 -179 -37 -248 -110s-103 -161 -103 -265c0 -90 28 -165 84 -225c57 -60 130 -90 219 -90zM510 765l116 124h24l-116 -124h-24z" />
    <glyph glyph-name="Ocircumflex" unicode="&#xd4;" horiz-adv-x="848" 
d="M573 889l84 -124h-20l-74 108l-108 -108h-22l122 124h18zM503 712c95 0 173 -31 232 -94s89 -141 89 -236c0 -107 -35 -199 -105 -277s-158 -117 -264 -117c-95 0 -173 31 -232 94s-89 142 -89 237c0 107 35 199 105 276c70 78 158 117 264 117zM455 5
c97 0 179 37 248 110s103 162 103 266c0 90 -28 165 -85 224c-56 60 -129 90 -218 90c-97 0 -179 -37 -248 -110s-103 -161 -103 -265c0 -90 28 -165 84 -225c57 -60 130 -90 219 -90z" />
    <glyph glyph-name="Otilde" unicode="&#xd5;" horiz-adv-x="848" 
d="M503 712c95 0 173 -31 232 -94s89 -141 89 -236c0 -107 -35 -199 -105 -277s-158 -117 -264 -117c-95 0 -173 31 -232 94s-89 142 -89 237c0 107 35 199 105 276c70 78 158 117 264 117zM455 5c97 0 179 37 248 110s103 162 103 266c0 90 -28 165 -85 224
c-56 60 -129 90 -218 90c-97 0 -179 -37 -248 -110s-103 -161 -103 -265c0 -90 28 -165 84 -225c57 -60 130 -90 219 -90zM678 863h18c-10 -53 -35 -80 -74 -80c-18 0 -41 11 -70 34s-51 35 -66 35c-27 0 -45 -21 -54 -62h-18c9 51 37 79 74 79c19 0 42 -12 71 -35
s50 -34 65 -34c27 0 45 21 54 63z" />
    <glyph glyph-name="Odieresis" unicode="&#xd6;" horiz-adv-x="848" 
d="M503 712c95 0 173 -31 232 -94s89 -141 89 -236c0 -107 -35 -199 -105 -277s-158 -117 -264 -117c-95 0 -173 31 -232 94s-89 142 -89 237c0 107 35 199 105 276c70 78 158 117 264 117zM455 5c97 0 179 37 248 110s103 162 103 266c0 90 -28 165 -85 224
c-56 60 -129 90 -218 90c-97 0 -179 -37 -248 -110s-103 -161 -103 -265c0 -90 28 -165 84 -225c57 -60 130 -90 219 -90zM443 805c-22 22 12 56 34 34s-12 -56 -34 -34zM623 805c-22 22 12 56 34 34s-12 -56 -34 -34z" />
    <glyph glyph-name="multiply" unicode="&#xd7;" horiz-adv-x="493" 
d="M297 333l191 165l12 -13l-191 -165l138 -163l-12 -12l-138 163l-192 -164l-11 12l191 165l-139 165l12 12z" />
    <glyph glyph-name="Oslash" unicode="&#xd8;" horiz-adv-x="860" 
d="M503 712c93 0 170 -31 230 -92l78 80h25l-91 -93c53 -61 79 -136 79 -225c0 -107 -35 -199 -105 -277s-158 -117 -264 -117c-93 0 -169 31 -229 92l-79 -80h-25l91 93c-53 60 -79 135 -79 226c0 107 35 199 105 276c70 78 158 117 264 117zM152 320
c0 -85 25 -156 75 -214l492 501c-57 59 -129 88 -216 88c-97 0 -179 -37 -248 -110s-103 -161 -103 -265zM455 5c97 0 179 37 248 110s103 162 103 266c0 83 -25 154 -75 213l-493 -501c57 -59 129 -88 217 -88z" />
    <glyph glyph-name="Ugrave" unicode="&#xd9;" horiz-adv-x="749" 
d="M674 284l66 416h18l-66 -418c-31 -189 -145 -294 -301 -294c-155 0 -249 91 -249 248c0 25 3 53 8 85l60 379h18l-60 -380c-5 -32 -8 -59 -8 -81c0 -144 79 -234 230 -234c149 0 256 106 284 279zM423 889h22l78 -124h-22z" />
    <glyph glyph-name="Uacute" unicode="&#xda;" horiz-adv-x="749" 
d="M674 284l66 416h18l-66 -418c-31 -189 -145 -294 -301 -294c-155 0 -249 91 -249 248c0 25 3 53 8 85l60 379h18l-60 -380c-5 -32 -8 -59 -8 -81c0 -144 79 -234 230 -234c149 0 256 106 284 279zM478 765l116 124h24l-116 -124h-24z" />
    <glyph glyph-name="Ucircumflex" unicode="&#xdb;" horiz-adv-x="749" 
d="M674 284l66 416h18l-66 -418c-31 -189 -145 -294 -301 -294c-155 0 -249 91 -249 248c0 25 3 53 8 85l60 379h18l-60 -380c-5 -32 -8 -59 -8 -81c0 -144 79 -234 230 -234c149 0 256 106 284 279zM524 889l84 -124h-20l-74 108l-108 -108h-22l122 124h18z" />
    <glyph glyph-name="Udieresis" unicode="&#xdc;" horiz-adv-x="749" 
d="M674 284l66 416h18l-66 -418c-31 -189 -145 -294 -301 -294c-155 0 -249 91 -249 248c0 25 3 53 8 85l60 379h18l-60 -380c-5 -32 -8 -59 -8 -81c0 -144 79 -234 230 -234c149 0 256 106 284 279zM397 805c-8 9 -8 25 0 34c9 9 27 9 35 0c22 -22 -12 -57 -35 -34z
M577 805c-8 9 -8 25 0 34c9 9 27 9 35 0c22 -22 -12 -57 -35 -34z" />
    <glyph glyph-name="Yacute" unicode="&#xdd;" horiz-adv-x="626" 
d="M365 346l316 354h25l-333 -373l-51 -327h-18l51 327l-215 373h21zM410 765l116 124h24l-116 -124h-24z" />
    <glyph glyph-name="Thorn" unicode="&#xde;" horiz-adv-x="664" 
d="M214 531h257c123 0 191 -63 191 -160c0 -61 -22 -110 -65 -147s-98 -55 -164 -55h-277l-26 -169h-18l110 700h18zM159 186h275c58 1 107 17 148 49s62 77 62 134c0 92 -63 145 -175 145h-258z" />
    <glyph glyph-name="germandbls" unicode="&#xdf;" horiz-adv-x="605" 
d="M346 -11c-47 1 -83 8 -109 21l3 18c23 -15 58 -23 106 -23c59 0 109 19 152 57c43 39 64 88 64 147c0 101 -76 172 -204 179l-23 1l3 16h38c47 0 87 13 122 39c35 27 53 64 53 111c0 77 -59 133 -159 133s-178 -67 -195 -174l-83 -514h-18l83 515c9 57 33 103 72 138
s86 52 142 52c55 0 98 -14 129 -43c31 -28 47 -63 47 -104c0 -85 -59 -150 -147 -163c45 -10 83 -32 113 -65s45 -73 45 -119c0 -63 -23 -116 -68 -159c-45 -42 -100 -63 -166 -63z" />
    <glyph glyph-name="agrave" unicode="&#xe0;" horiz-adv-x="583" 
d="M537 12c7 0 14 1 20 3l-2 -17c-7 -2 -15 -3 -22 -3c-41 0 -68 26 -68 69c0 6 0 11 1 15c-61 -61 -133 -91 -216 -91c-51 0 -93 13 -127 39c-33 26 -50 61 -50 105c0 52 21 92 63 120c43 28 91 42 144 42c76 0 145 -23 208 -68l12 74c2 14 3 27 3 39
c0 80 -55 126 -160 126c-68 0 -126 -14 -173 -43l4 21c43 26 101 39 173 39c104 0 174 -46 174 -141c0 -5 -1 -19 -4 -43l-31 -200c-2 -14 -3 -25 -3 -33c0 -35 18 -53 54 -53zM256 5c80 0 151 34 213 101l16 101c-59 47 -127 70 -204 70c-50 0 -94 -13 -133 -38
c-38 -25 -57 -61 -57 -106c0 -81 70 -128 165 -128zM328 700h22l78 -124h-22z" />
    <glyph glyph-name="aacute" unicode="&#xe1;" horiz-adv-x="583" 
d="M537 12c7 0 14 1 20 3l-2 -17c-7 -2 -15 -3 -22 -3c-41 0 -68 26 -68 69c0 6 0 11 1 15c-61 -61 -133 -91 -216 -91c-51 0 -93 13 -127 39c-33 26 -50 61 -50 105c0 52 21 92 63 120c43 28 91 42 144 42c76 0 145 -23 208 -68l12 74c2 14 3 27 3 39
c0 80 -55 126 -160 126c-68 0 -126 -14 -173 -43l4 21c43 26 101 39 173 39c104 0 174 -46 174 -141c0 -5 -1 -19 -4 -43l-31 -200c-2 -14 -3 -25 -3 -33c0 -35 18 -53 54 -53zM256 5c80 0 151 34 213 101l16 101c-59 47 -127 70 -204 70c-50 0 -94 -13 -133 -38
c-38 -25 -57 -61 -57 -106c0 -81 70 -128 165 -128zM340 576l116 124h24l-116 -124h-24z" />
    <glyph glyph-name="acircumflex" unicode="&#xe2;" horiz-adv-x="583" 
d="M537 12c7 0 14 1 20 3l-2 -17c-7 -2 -15 -3 -22 -3c-41 0 -68 26 -68 69c0 6 0 11 1 15c-61 -61 -133 -91 -216 -91c-51 0 -93 13 -127 39c-33 26 -50 61 -50 105c0 52 21 92 63 120c43 28 91 42 144 42c76 0 145 -23 208 -68l12 74c2 14 3 27 3 39
c0 80 -55 126 -160 126c-68 0 -126 -14 -173 -43l4 21c43 26 101 39 173 39c104 0 174 -46 174 -141c0 -5 -1 -19 -4 -43l-31 -200c-2 -14 -3 -25 -3 -33c0 -35 18 -53 54 -53zM256 5c80 0 151 34 213 101l16 101c-59 47 -127 70 -204 70c-50 0 -94 -13 -133 -38
c-38 -25 -57 -61 -57 -106c0 -81 70 -128 165 -128zM400 700l84 -124h-20l-74 108l-108 -108h-22l122 124h18z" />
    <glyph glyph-name="atilde" unicode="&#xe3;" horiz-adv-x="583" 
d="M537 12c7 0 14 1 20 3l-2 -17c-7 -2 -15 -3 -22 -3c-41 0 -68 26 -68 69c0 6 0 11 1 15c-61 -61 -133 -91 -216 -91c-51 0 -93 13 -127 39c-33 26 -50 61 -50 105c0 52 21 92 63 120c43 28 91 42 144 42c76 0 145 -23 208 -68l12 74c2 14 3 27 3 39
c0 80 -55 126 -160 126c-68 0 -126 -14 -173 -43l4 21c43 26 101 39 173 39c104 0 174 -46 174 -141c0 -5 -1 -19 -4 -43l-31 -200c-2 -14 -3 -25 -3 -33c0 -35 18 -53 54 -53zM256 5c80 0 151 34 213 101l16 101c-59 47 -127 70 -204 70c-50 0 -94 -13 -133 -38
c-38 -25 -57 -61 -57 -106c0 -81 70 -128 165 -128zM508 681h18c-10 -53 -35 -80 -74 -80c-18 0 -41 11 -70 34s-51 35 -66 35c-27 0 -45 -21 -54 -62h-18c9 51 37 79 74 79c19 0 42 -12 71 -35s50 -34 65 -34c27 0 45 21 54 63z" />
    <glyph glyph-name="adieresis" unicode="&#xe4;" horiz-adv-x="583" 
d="M537 12c7 0 14 1 20 3l-2 -17c-7 -2 -15 -3 -22 -3c-41 0 -68 26 -68 69c0 6 0 11 1 15c-61 -61 -133 -91 -216 -91c-51 0 -93 13 -127 39c-33 26 -50 61 -50 105c0 52 21 92 63 120c43 28 91 42 144 42c76 0 145 -23 208 -68l12 74c2 14 3 27 3 39
c0 80 -55 126 -160 126c-68 0 -126 -14 -173 -43l4 21c43 26 101 39 173 39c104 0 174 -46 174 -141c0 -5 -1 -19 -4 -43l-31 -200c-2 -14 -3 -25 -3 -33c0 -35 18 -53 54 -53zM256 5c80 0 151 34 213 101l16 101c-59 47 -127 70 -204 70c-50 0 -94 -13 -133 -38
c-38 -25 -57 -61 -57 -106c0 -81 70 -128 165 -128zM277 627c-8 9 -8 25 0 34c9 9 27 9 35 0c22 -22 -12 -57 -35 -34zM457 627c-8 9 -8 25 0 34c9 9 27 9 35 0c22 -22 -12 -57 -35 -34z" />
    <glyph glyph-name="aring" unicode="&#xe5;" horiz-adv-x="583" 
d="M537 12c7 0 14 1 20 3l-2 -17c-7 -2 -15 -3 -22 -3c-41 0 -68 26 -68 69c0 6 0 11 1 15c-61 -61 -133 -91 -216 -91c-51 0 -93 13 -127 39c-33 26 -50 61 -50 105c0 52 21 92 63 120c43 28 91 42 144 42c76 0 145 -23 208 -68l12 74c2 14 3 27 3 39
c0 80 -55 126 -160 126c-68 0 -126 -14 -173 -43l4 21c43 26 101 39 173 39c104 0 174 -46 174 -141c0 -5 -1 -19 -4 -43l-31 -200c-2 -14 -3 -25 -3 -33c0 -35 18 -53 54 -53zM256 5c80 0 151 34 213 101l16 101c-59 47 -127 70 -204 70c-50 0 -94 -13 -133 -38
c-38 -25 -57 -61 -57 -106c0 -81 70 -128 165 -128zM494 621c0 -48 -40 -88 -88 -88s-88 40 -88 88c0 47 40 88 88 88s88 -41 88 -88zM356 570c27 -27 73 -27 100 0c27 28 27 74 0 101c-27 28 -73 28 -100 0c-27 -27 -27 -73 0 -101z" />
    <glyph glyph-name="ae" unicode="&#xe6;" horiz-adv-x="959" 
d="M744 482c66 0 115 -21 148 -64s50 -90 50 -142c0 -8 -1 -19 -2 -34h-431c-1 -7 -1 -17 -1 -30c0 -60 21 -110 62 -149s94 -58 157 -58c51 0 99 14 144 42l-3 -21c-39 -25 -86 -38 -141 -38c-95 0 -175 45 -212 118c-26 -30 -62 -57 -109 -82c-46 -24 -98 -36 -156 -36
c-51 0 -93 13 -127 39c-33 26 -50 61 -50 105c0 52 21 92 63 120c43 28 91 42 144 42c76 0 146 -23 210 -69l10 75c2 14 3 27 3 39c0 80 -55 126 -160 126c-68 0 -126 -14 -173 -43l4 21c43 26 101 39 173 39c104 0 173 -47 174 -142c43 85 122 142 223 142zM256 5
c105 0 196 54 251 118c-11 26 -16 53 -17 81c-59 49 -128 73 -209 73c-50 0 -94 -13 -133 -38c-38 -25 -57 -61 -57 -106c0 -81 70 -128 165 -128zM742 465c-59 0 -109 -20 -152 -60c-42 -39 -68 -88 -78 -146h411c0 3 1 12 1 17c0 49 -15 93 -46 131c-30 39 -75 58 -136 58
z" />
    <glyph glyph-name="ccedilla" unicode="&#xe7;" horiz-adv-x="512" 
d="M322 -12l-84 -109h-23l89 110c-67 4 -120 27 -157 70s-56 94 -56 153c0 77 26 141 77 192c51 52 114 78 188 78c63 0 115 -15 156 -45l-3 -18c-41 31 -91 46 -150 46c-71 0 -130 -24 -178 -73c-47 -49 -71 -108 -71 -179c0 -59 19 -108 57 -148c39 -40 91 -60 156 -60
c54 0 102 13 144 40l-3 -21c-41 -24 -89 -36 -142 -36z" />
    <glyph glyph-name="egrave" unicode="&#xe8;" horiz-adv-x="560" 
d="M328 5c51 0 99 14 144 42l-3 -21c-39 -25 -86 -38 -141 -38c-67 0 -124 21 -169 62c-45 42 -68 96 -68 162c0 71 24 133 71 188s108 82 183 82c66 0 115 -21 148 -64s50 -90 50 -142c0 -8 -1 -19 -2 -34h-431c-1 -7 -1 -17 -1 -30c0 -60 21 -110 62 -149s94 -58 157 -58z
M343 465c-59 0 -109 -20 -152 -60c-42 -39 -68 -88 -78 -146h411c0 3 1 12 1 17c0 49 -15 93 -46 131c-30 39 -75 58 -136 58zM299 700h22l78 -124h-22z" />
    <glyph glyph-name="eacute" unicode="&#xe9;" horiz-adv-x="560" 
d="M328 5c51 0 99 14 144 42l-3 -21c-39 -25 -86 -38 -141 -38c-67 0 -124 21 -169 62c-45 42 -68 96 -68 162c0 71 24 133 71 188s108 82 183 82c66 0 115 -21 148 -64s50 -90 50 -142c0 -8 -1 -19 -2 -34h-431c-1 -7 -1 -17 -1 -30c0 -60 21 -110 62 -149s94 -58 157 -58z
M343 465c-59 0 -109 -20 -152 -60c-42 -39 -68 -88 -78 -146h411c0 3 1 12 1 17c0 49 -15 93 -46 131c-30 39 -75 58 -136 58zM338 576l116 124h24l-116 -124h-24z" />
    <glyph glyph-name="ecircumflex" unicode="&#xea;" horiz-adv-x="560" 
d="M328 5c51 0 99 14 144 42l-3 -21c-39 -25 -86 -38 -141 -38c-67 0 -124 21 -169 62c-45 42 -68 96 -68 162c0 71 24 133 71 188s108 82 183 82c66 0 115 -21 148 -64s50 -90 50 -142c0 -8 -1 -19 -2 -34h-431c-1 -7 -1 -17 -1 -30c0 -60 21 -110 62 -149s94 -58 157 -58z
M343 465c-59 0 -109 -20 -152 -60c-42 -39 -68 -88 -78 -146h411c0 3 1 12 1 17c0 49 -15 93 -46 131c-30 39 -75 58 -136 58zM403 700l84 -124h-20l-74 108l-108 -108h-22l122 124h18z" />
    <glyph glyph-name="edieresis" unicode="&#xeb;" horiz-adv-x="560" 
d="M328 5c51 0 99 14 144 42l-3 -21c-39 -25 -86 -38 -141 -38c-67 0 -124 21 -169 62c-45 42 -68 96 -68 162c0 71 24 133 71 188s108 82 183 82c66 0 115 -21 148 -64s50 -90 50 -142c0 -8 -1 -19 -2 -34h-431c-1 -7 -1 -17 -1 -30c0 -60 21 -110 62 -149s94 -58 157 -58z
M343 465c-59 0 -109 -20 -152 -60c-42 -39 -68 -88 -78 -146h411c0 3 1 12 1 17c0 49 -15 93 -46 131c-30 39 -75 58 -136 58zM279 627c-22 22 12 56 34 34s-12 -56 -34 -34zM459 627c-22 22 12 56 34 34s-12 -56 -34 -34z" />
    <glyph glyph-name="igrave" unicode="&#xec;" horiz-adv-x="235" 
d="M201 470l-74 -470h-18l74 470h18zM122 700h22l78 -124h-22z" />
    <glyph glyph-name="iacute" unicode="&#xed;" horiz-adv-x="235" 
d="M201 470l-74 -470h-18l74 470h18zM195 576l116 124h24l-116 -124h-24z" />
    <glyph glyph-name="icircumflex" unicode="&#xee;" horiz-adv-x="235" 
d="M233 700l84 -124h-20l-74 108l-108 -108h-22l122 124h18zM201 470l-74 -470h-18l74 470h18z" />
    <glyph glyph-name="idieresis" unicode="&#xef;" horiz-adv-x="235" 
d="M113 627c-22 22 12 56 34 34s-12 -56 -34 -34zM293 627c-22 22 12 56 34 34s-12 -56 -34 -34zM201 470l-74 -470h-18l74 470h18z" />
    <glyph glyph-name="eth" unicode="&#xf0;" horiz-adv-x="587" 
d="M514 685l-139 -57l153 -258c23 -37 34 -79 34 -127c0 -71 -24 -131 -72 -181c-47 -49 -107 -74 -179 -74c-67 0 -121 22 -161 65c-39 43 -59 95 -59 155c0 71 24 130 71 179s107 73 179 73c55 0 100 -13 137 -40l-119 202l-148 -60l-11 15l150 60l-36 63h19l33 -56
l138 56zM313 5c63 0 118 23 163 70s68 104 68 169c0 57 -19 104 -57 142c-37 38 -86 57 -147 57c-63 0 -118 -23 -163 -69s-68 -101 -68 -166c0 -57 19 -106 56 -145c38 -39 87 -58 148 -58z" />
    <glyph glyph-name="ntilde" unicode="&#xf1;" horiz-adv-x="597" 
d="M551 252l-40 -252h-18l39 249c6 42 9 67 9 75c0 89 -56 141 -148 141c-44 0 -86 -12 -127 -36c-40 -23 -72 -51 -97 -82l-55 -347h-18l74 470h18l-15 -92c68 69 142 104 223 104c99 0 164 -60 164 -156c0 -9 -3 -34 -9 -74zM530 681h18c-10 -53 -35 -80 -74 -80
c-18 0 -41 11 -70 34s-51 35 -66 35c-27 0 -45 -21 -54 -62h-18c9 51 37 79 74 79c19 0 42 -12 71 -35s50 -34 65 -34c27 0 45 21 54 63z" />
    <glyph glyph-name="ograve" unicode="&#xf2;" horiz-adv-x="611" 
d="M354 482c71 0 127 -23 169 -68s63 -98 63 -161c0 -73 -25 -135 -76 -187c-50 -52 -112 -78 -187 -78c-71 0 -127 22 -169 67s-63 99 -63 162c0 73 25 135 75 187c51 52 113 78 188 78zM324 5c67 0 125 24 172 73c48 49 72 107 72 176c0 60 -20 110 -60 150
c-39 41 -91 61 -155 61c-67 0 -125 -24 -173 -73c-47 -49 -71 -107 -71 -176c0 -60 20 -110 59 -151c40 -40 92 -60 156 -60zM335 700h22l78 -124h-22z" />
    <glyph glyph-name="oacute" unicode="&#xf3;" horiz-adv-x="611" 
d="M354 482c71 0 127 -23 169 -68s63 -98 63 -161c0 -73 -25 -135 -76 -187c-50 -52 -112 -78 -187 -78c-71 0 -127 22 -169 67s-63 99 -63 162c0 73 25 135 75 187c51 52 113 78 188 78zM324 5c67 0 125 24 172 73c48 49 72 107 72 176c0 60 -20 110 -60 150
c-39 41 -91 61 -155 61c-67 0 -125 -24 -173 -73c-47 -49 -71 -107 -71 -176c0 -60 20 -110 59 -151c40 -40 92 -60 156 -60zM370 576l116 124h24l-116 -124h-24z" />
    <glyph glyph-name="ocircumflex" unicode="&#xf4;" horiz-adv-x="611" 
d="M423 700l84 -124h-20l-74 108l-108 -108h-22l122 124h18zM354 482c71 0 127 -23 169 -68s63 -98 63 -161c0 -73 -25 -135 -76 -187c-50 -52 -112 -78 -187 -78c-71 0 -127 22 -169 67s-63 99 -63 162c0 73 25 135 75 187c51 52 113 78 188 78zM324 5c67 0 125 24 172 73
c48 49 72 107 72 176c0 60 -20 110 -60 150c-39 41 -91 61 -155 61c-67 0 -125 -24 -173 -73c-47 -49 -71 -107 -71 -176c0 -60 20 -110 59 -151c40 -40 92 -60 156 -60z" />
    <glyph glyph-name="otilde" unicode="&#xf5;" horiz-adv-x="611" 
d="M354 482c71 0 127 -23 169 -68s63 -98 63 -161c0 -73 -25 -135 -76 -187c-50 -52 -112 -78 -187 -78c-71 0 -127 22 -169 67s-63 99 -63 162c0 73 25 135 75 187c51 52 113 78 188 78zM324 5c67 0 125 24 172 73c48 49 72 107 72 176c0 60 -20 110 -60 150
c-39 41 -91 61 -155 61c-67 0 -125 -24 -173 -73c-47 -49 -71 -107 -71 -176c0 -60 20 -110 59 -151c40 -40 92 -60 156 -60zM532 681h18c-10 -53 -35 -80 -74 -80c-18 0 -41 11 -70 34s-51 35 -66 35c-27 0 -45 -21 -54 -62h-18c9 51 37 79 74 79c19 0 42 -12 71 -35
s50 -34 65 -34c27 0 45 21 54 63z" />
    <glyph glyph-name="odieresis" unicode="&#xf6;" horiz-adv-x="611" 
d="M354 482c71 0 127 -23 169 -68s63 -98 63 -161c0 -73 -25 -135 -76 -187c-50 -52 -112 -78 -187 -78c-71 0 -127 22 -169 67s-63 99 -63 162c0 73 25 135 75 187c51 52 113 78 188 78zM324 5c67 0 125 24 172 73c48 49 72 107 72 176c0 60 -20 110 -60 150
c-39 41 -91 61 -155 61c-67 0 -125 -24 -173 -73c-47 -49 -71 -107 -71 -176c0 -60 20 -110 59 -151c40 -40 92 -60 156 -60zM299 627c-8 9 -8 25 0 34c9 9 27 9 35 0c22 -22 -12 -57 -35 -34zM479 627c-8 9 -8 25 0 34c9 9 27 9 35 0c22 -22 -12 -57 -35 -34z" />
    <glyph glyph-name="divide" unicode="&#xf7;" horiz-adv-x="560" 
d="M118 313l2 17h420l-2 -17h-420zM276 115c-11 11 -11 31 0 42s31 11 42 0s11 -31 0 -42s-31 -11 -42 0zM335 487c-11 11 -11 31 0 42s31 11 42 0s11 -31 0 -42s-31 -11 -42 0z" />
    <glyph glyph-name="oslash" unicode="&#xf8;" horiz-adv-x="611" 
d="M354 482c65 0 118 -20 160 -60l47 48h25l-59 -60c39 -43 59 -96 59 -157c0 -73 -25 -135 -76 -187c-50 -52 -112 -78 -187 -78c-63 0 -115 18 -156 55l-43 -43h-25l55 56c-42 43 -63 97 -63 161c0 73 25 135 75 187c51 52 113 78 188 78zM109 216c0 -59 19 -109 57 -148
l336 342c-40 37 -90 55 -149 55c-67 0 -125 -24 -173 -73c-47 -49 -71 -107 -71 -176zM324 5c67 0 125 24 172 73c48 49 72 107 72 176c0 57 -18 104 -53 143l-336 -341c38 -34 86 -51 145 -51z" />
    <glyph glyph-name="ugrave" unicode="&#xf9;" horiz-adv-x="597" 
d="M120 218l40 252h18l-39 -249c-6 -42 -9 -67 -9 -75c0 -89 56 -141 148 -141c44 0 86 12 126 35c41 24 73 52 98 83l55 347h18l-74 -470h-18l15 92c-68 -69 -142 -104 -223 -104c-99 0 -164 60 -164 156c0 9 3 34 9 74zM331 700h22l78 -124h-22z" />
    <glyph glyph-name="uacute" unicode="&#xfa;" horiz-adv-x="597" 
d="M120 218l40 252h18l-39 -249c-6 -42 -9 -67 -9 -75c0 -89 56 -141 148 -141c44 0 86 12 126 35c41 24 73 52 98 83l55 347h18l-74 -470h-18l15 92c-68 -69 -142 -104 -223 -104c-99 0 -164 60 -164 156c0 9 3 34 9 74zM340 576l116 124h24l-116 -124h-24z" />
    <glyph glyph-name="ucircumflex" unicode="&#xfb;" horiz-adv-x="597" 
d="M120 218l40 252h18l-39 -249c-6 -42 -9 -67 -9 -75c0 -89 56 -141 148 -141c44 0 86 12 126 35c41 24 73 52 98 83l55 347h18l-74 -470h-18l15 92c-68 -69 -142 -104 -223 -104c-99 0 -164 60 -164 156c0 9 3 34 9 74zM411 700l84 -124h-20l-74 108l-108 -108h-22
l122 124h18z" />
    <glyph glyph-name="udieresis" unicode="&#xfc;" horiz-adv-x="597" 
d="M120 218l40 252h18l-39 -249c-6 -42 -9 -67 -9 -75c0 -89 56 -141 148 -141c44 0 86 12 126 35c41 24 73 52 98 83l55 347h18l-74 -470h-18l15 92c-68 -69 -142 -104 -223 -104c-99 0 -164 60 -164 156c0 9 3 34 9 74zM287 627c-22 22 12 56 34 34s-12 -56 -34 -34z
M467 627c-22 22 12 56 34 34s-12 -56 -34 -34z" />
    <glyph glyph-name="yacute" unicode="&#xfd;" horiz-adv-x="522" 
d="M527 470h21l-311 -525c-59 -97 -109 -148 -176 -148c-23 0 -42 5 -57 15l3 18c16 -11 35 -16 56 -16c34 0 64 16 91 47s63 83 107 158l-159 451h20l151 -429zM317 576l116 124h24l-116 -124h-24z" />
    <glyph glyph-name="thorn" unicode="&#xfe;" horiz-adv-x="629" 
d="M130 98l-47 -298h-18l142 900h18l-50 -312c56 63 123 94 200 94c71 0 126 -22 167 -66c41 -43 62 -97 62 -160c0 -74 -25 -137 -76 -190c-50 -52 -112 -78 -187 -78c-96 0 -171 47 -211 110zM374 465c-40 0 -79 -11 -117 -33c-37 -21 -67 -49 -88 -82l-35 -224
c17 -33 43 -61 80 -85s80 -36 128 -36c67 0 124 24 172 73s72 109 72 178c0 59 -20 109 -59 149s-90 60 -153 60z" />
    <glyph glyph-name="ydieresis" unicode="&#xff;" horiz-adv-x="522" 
d="M527 470h21l-311 -525c-59 -97 -109 -148 -176 -148c-23 0 -42 5 -57 15l3 18c16 -11 35 -16 56 -16c34 0 64 16 91 47s63 83 107 158l-159 451h20l151 -429zM235 627c-22 22 12 56 34 34s-12 -56 -34 -34zM415 627c-22 22 12 56 34 34s-12 -56 -34 -34z" />
    <glyph glyph-name="Amacron" unicode="&#x100;" horiz-adv-x="734" 
d="M697 0h-19l-66 219h-420l-135 -219h-20l433 705h16zM607 236l-132 443l-273 -443h405zM393 818l3 17h209l-3 -17h-209z" />
    <glyph glyph-name="amacron" unicode="&#x101;" horiz-adv-x="583" 
d="M537 12c7 0 14 1 20 3l-2 -17c-7 -2 -15 -3 -22 -3c-41 0 -68 26 -68 69c0 6 0 11 1 15c-61 -61 -133 -91 -216 -91c-51 0 -93 13 -127 39c-33 26 -50 61 -50 105c0 52 21 92 63 120c43 28 91 42 144 42c76 0 145 -23 208 -68l12 74c2 14 3 27 3 39
c0 80 -55 126 -160 126c-68 0 -126 -14 -173 -43l4 21c43 26 101 39 173 39c104 0 174 -46 174 -141c0 -5 -1 -19 -4 -43l-31 -200c-2 -14 -3 -25 -3 -33c0 -35 18 -53 54 -53zM256 5c80 0 151 34 213 101l16 101c-59 47 -127 70 -204 70c-50 0 -94 -13 -133 -38
c-38 -25 -57 -61 -57 -106c0 -81 70 -128 165 -128zM285 635l3 17h209l-3 -17h-209z" />
    <glyph glyph-name="Abreve" unicode="&#x102;" horiz-adv-x="734" 
d="M697 0h-19l-66 219h-420l-135 -219h-20l433 705h16zM607 236l-132 443l-273 -443h405zM601 877h19c-11 -65 -60 -115 -128 -115c-61 0 -103 43 -103 99c0 7 0 12 1 16h18c-1 -3 -1 -8 -1 -15c0 -49 33 -83 86 -83c56 0 99 42 108 98z" />
    <glyph glyph-name="abreve" unicode="&#x103;" horiz-adv-x="583" 
d="M537 12c7 0 14 1 20 3l-2 -17c-7 -2 -15 -3 -22 -3c-41 0 -68 26 -68 69c0 6 0 11 1 15c-61 -61 -133 -91 -216 -91c-51 0 -93 13 -127 39c-33 26 -50 61 -50 105c0 52 21 92 63 120c43 28 91 42 144 42c76 0 145 -23 208 -68l12 74c2 14 3 27 3 39
c0 80 -55 126 -160 126c-68 0 -126 -14 -173 -43l4 21c43 26 101 39 173 39c104 0 174 -46 174 -141c0 -5 -1 -19 -4 -43l-31 -200c-2 -14 -3 -25 -3 -33c0 -35 18 -53 54 -53zM256 5c80 0 151 34 213 101l16 101c-59 47 -127 70 -204 70c-50 0 -94 -13 -133 -38
c-38 -25 -57 -61 -57 -106c0 -81 70 -128 165 -128zM495 694h19c-11 -65 -60 -115 -128 -115c-61 0 -103 43 -103 99c0 7 0 12 1 16h18c-1 -3 -1 -8 -1 -15c0 -49 33 -83 86 -83c56 0 99 42 108 98z" />
    <glyph glyph-name="Aogonek" unicode="&#x104;" horiz-adv-x="734" 
d="M486 705l211 -705c-37 -34 -55 -69 -55 -105c0 -41 29 -67 73 -67c11 0 25 2 41 6l-2 -17c-16 -4 -31 -6 -45 -6c-53 0 -85 36 -85 83c0 41 18 76 54 106l-66 219h-420l-135 -219h-20l433 705h16zM607 236l-132 443l-273 -443h405z" />
    <glyph glyph-name="aogonek" unicode="&#x105;" horiz-adv-x="569" 
d="M544 20l-3 -18c-37 -34 -55 -69 -55 -105c0 -41 29 -67 73 -67c11 0 25 2 41 6l-2 -17c-16 -4 -31 -6 -45 -6c-53 0 -85 36 -85 83c0 38 15 72 46 101c-36 0 -62 22 -62 66c0 5 1 12 2 20c-66 -63 -139 -95 -219 -95c-43 0 -81 12 -114 37c-32 25 -48 58 -48 99
c0 36 12 67 35 93c47 53 113 74 178 74c71 0 134 -19 191 -58l13 82c2 11 3 22 3 33c0 78 -52 117 -156 117c-59 0 -115 -18 -168 -53l3 22c49 32 105 48 169 48c101 0 170 -43 170 -134c0 -11 -1 -22 -3 -34l-34 -217c-2 -11 -3 -22 -3 -32c0 -34 15 -51 46 -51
c9 0 18 2 27 6zM459 114l15 100c-53 40 -115 60 -185 60c-53 0 -99 -13 -139 -40c-39 -27 -59 -63 -59 -110c0 -39 15 -68 44 -89c29 -20 65 -30 106 -30c81 0 154 36 218 109z" />
    <glyph glyph-name="Cacute" unicode="&#x106;" horiz-adv-x="694" 
d="M152 320c0 -89 28 -164 84 -225c57 -60 130 -90 220 -90c80 0 151 23 214 68l-3 -22c-59 -42 -130 -63 -211 -63c-96 0 -174 31 -233 94s-89 142 -89 237c0 106 35 198 104 276c70 78 158 117 265 117c83 0 153 -22 210 -65l-3 -19c-59 45 -128 67 -207 67
c-97 0 -180 -37 -249 -110c-68 -73 -102 -161 -102 -265zM505 765l116 124h24l-116 -124h-24z" />
    <glyph glyph-name="cacute" unicode="&#x107;" horiz-adv-x="515" 
d="M321 -12c-73 0 -129 22 -170 66c-40 44 -60 97 -60 158c0 77 26 141 77 192c51 52 114 78 188 78c63 0 115 -15 156 -45l-3 -18c-41 31 -91 46 -150 46c-71 0 -130 -24 -178 -73c-47 -49 -71 -108 -71 -179c0 -59 19 -108 57 -148c39 -40 91 -60 156 -60
c54 0 102 13 144 40l-3 -21c-41 -24 -89 -36 -143 -36zM345 576l116 124h24l-116 -124h-24z" />
    <glyph glyph-name="Ccircumflex" unicode="&#x108;" horiz-adv-x="694" 
d="M557 889l84 -124h-20l-74 108l-108 -108h-22l122 124h18zM152 320c0 -89 28 -164 84 -225c57 -60 130 -90 220 -90c80 0 151 23 214 68l-3 -22c-59 -42 -130 -63 -211 -63c-96 0 -174 31 -233 94s-89 142 -89 237c0 106 35 198 104 276c70 78 158 117 265 117
c83 0 153 -22 210 -65l-3 -19c-59 45 -128 67 -207 67c-97 0 -180 -37 -249 -110c-68 -73 -102 -161 -102 -265z" />
    <glyph glyph-name="ccircumflex" unicode="&#x109;" horiz-adv-x="515" 
d="M397 700l84 -124h-20l-74 108l-108 -108h-22l122 124h18zM321 -12c-73 0 -129 22 -170 66c-40 44 -60 97 -60 158c0 77 26 141 77 192c51 52 114 78 188 78c63 0 115 -15 156 -45l-3 -18c-41 31 -91 46 -150 46c-71 0 -130 -24 -178 -73c-47 -49 -71 -108 -71 -179
c0 -59 19 -108 57 -148c39 -40 91 -60 156 -60c54 0 102 13 144 40l-3 -21c-41 -24 -89 -36 -143 -36z" />
    <glyph glyph-name="Cdotaccent" unicode="&#x10a;" horiz-adv-x="694" 
d="M152 320c0 -89 28 -164 84 -225c57 -60 130 -90 220 -90c80 0 151 23 214 68l-3 -22c-59 -42 -130 -63 -211 -63c-96 0 -174 31 -233 94s-89 142 -89 237c0 106 35 198 104 276c70 78 158 117 265 117c83 0 153 -22 210 -65l-3 -19c-59 45 -128 67 -207 67
c-97 0 -180 -37 -249 -110c-68 -73 -102 -161 -102 -265zM525 805c-8 9 -8 25 0 34c9 9 27 9 35 0c22 -22 -12 -57 -35 -34z" />
    <glyph glyph-name="cdotaccent" unicode="&#x10b;" horiz-adv-x="512" 
d="M321 -12c-73 0 -129 22 -170 66c-40 44 -60 97 -60 158c0 77 26 141 77 192c51 52 114 78 188 78c63 0 115 -15 156 -45l-3 -18c-41 31 -91 46 -150 46c-71 0 -130 -24 -178 -73c-47 -49 -71 -108 -71 -179c0 -59 19 -108 57 -148c39 -40 91 -60 156 -60
c54 0 102 13 144 40l-3 -21c-41 -24 -89 -36 -143 -36zM371 627c-8 9 -8 25 0 34c9 9 27 9 35 0c22 -22 -12 -57 -35 -34z" />
    <glyph glyph-name="Ccaron" unicode="&#x10c;" horiz-adv-x="694" 
d="M542 781l108 108h22l-122 -124h-18l-84 124h20zM152 320c0 -89 28 -164 84 -225c57 -60 130 -90 220 -90c80 0 151 23 214 68l-3 -22c-59 -42 -130 -63 -211 -63c-96 0 -174 31 -233 94s-89 142 -89 237c0 106 35 198 104 276c70 78 158 117 265 117
c83 0 153 -22 210 -65l-3 -19c-59 45 -128 67 -207 67c-97 0 -180 -37 -249 -110c-68 -73 -102 -161 -102 -265z" />
    <glyph glyph-name="ccaron" unicode="&#x10d;" horiz-adv-x="515" 
d="M385 592l108 108h22l-122 -124h-18l-84 124h20zM321 -12c-73 0 -129 22 -170 66c-40 44 -60 97 -60 158c0 77 26 141 77 192c51 52 114 78 188 78c63 0 115 -15 156 -45l-3 -18c-41 31 -91 46 -150 46c-71 0 -130 -24 -178 -73c-47 -49 -71 -108 -71 -179
c0 -59 19 -108 57 -148c39 -40 91 -60 156 -60c54 0 102 13 144 40l-3 -21c-41 -24 -89 -36 -143 -36z" />
    <glyph glyph-name="Dcaron" unicode="&#x10e;" horiz-adv-x="772" 
d="M457 781l108 108h22l-122 -124h-18l-84 124h20zM222 700h185c103 0 186 -28 248 -85s93 -131 93 -224c0 -115 -39 -209 -117 -282s-177 -109 -297 -109h-222zM132 17h195c116 0 212 34 288 102c77 68 115 159 115 272c0 89 -29 159 -88 212s-140 80 -244 80h-160z" />
    <glyph glyph-name="dcaron" unicode="&#x10f;" horiz-adv-x="691" 
d="M565 372l52 328h18l-110 -700h-18l13 82c-56 -63 -123 -94 -200 -94c-71 0 -127 22 -168 65c-41 44 -61 98 -61 161c0 74 25 137 75 189c51 53 113 79 188 79c96 0 171 -47 211 -110zM321 5c40 0 79 11 116 32c38 22 68 50 89 83l35 224c-17 33 -44 61 -81 85
s-79 36 -127 36c-67 0 -124 -25 -172 -74s-72 -108 -72 -177c0 -59 19 -109 58 -149s91 -60 154 -60zM795 700l-78 -156h-19l78 156h19z" />
    <glyph glyph-name="Dcroat" unicode="&#x110;" horiz-adv-x="772" 
d="M222 700h185c103 0 186 -28 248 -85s93 -131 93 -224c0 -115 -39 -209 -117 -282s-177 -109 -297 -109h-222l53 342h-81l2 17h82zM132 17h195c116 0 212 34 288 102c77 68 115 159 115 272c0 89 -29 159 -88 212s-140 80 -244 80h-160l-52 -324h222l-2 -17h-222z" />
    <glyph glyph-name="dslash" unicode="&#x111;" horiz-adv-x="621" 
d="M597 575l20 125h18l-20 -125h104l-3 -17h-104l-87 -558h-18l13 82c-56 -63 -123 -94 -200 -94c-71 0 -127 22 -168 65c-41 44 -61 98 -61 161c0 74 25 137 75 189c51 53 113 79 188 79c96 0 171 -47 211 -110l29 186h-127l3 17h127zM321 5c40 0 79 11 116 32
c38 22 68 50 89 83l35 224c-17 33 -44 61 -81 85s-79 36 -127 36c-67 0 -124 -25 -172 -74s-72 -108 -72 -177c0 -59 19 -109 58 -149s91 -60 154 -60z" />
    <glyph glyph-name="Emacron" unicode="&#x112;" horiz-adv-x="634" 
d="M554 386l-3 -17h-363l-56 -352h454l-2 -17h-472l110 700h454l-2 -17h-436l-47 -297h363zM362 818l3 17h209l-3 -17h-209z" />
    <glyph glyph-name="emacron" unicode="&#x113;" horiz-adv-x="560" 
d="M328 5c51 0 99 14 144 42l-3 -21c-39 -25 -86 -38 -141 -38c-67 0 -124 21 -169 62c-45 42 -68 96 -68 162c0 71 24 133 71 188s108 82 183 82c66 0 115 -21 148 -64s50 -90 50 -142c0 -8 -1 -19 -2 -34h-431c-1 -7 -1 -17 -1 -30c0 -60 21 -110 62 -149s94 -58 157 -58z
M343 465c-59 0 -109 -20 -152 -60c-42 -39 -68 -88 -78 -146h411c0 3 1 12 1 17c0 49 -15 93 -46 131c-30 39 -75 58 -136 58zM284 635l3 17h209l-3 -17h-209z" />
    <glyph glyph-name="Ebreve" unicode="&#x114;" horiz-adv-x="634" 
d="M554 386l-3 -17h-363l-56 -352h454l-2 -17h-472l110 700h454l-2 -17h-436l-47 -297h363zM565 877h19c-11 -65 -60 -115 -128 -115c-61 0 -103 43 -103 99c0 7 0 12 1 16h18c-1 -3 -1 -8 -1 -15c0 -49 33 -83 86 -83c56 0 99 42 108 98z" />
    <glyph glyph-name="ebreve" unicode="&#x115;" horiz-adv-x="560" 
d="M328 5c51 0 99 14 144 42l-3 -21c-39 -25 -86 -38 -141 -38c-67 0 -124 21 -169 62c-45 42 -68 96 -68 162c0 71 24 133 71 188s108 82 183 82c66 0 115 -21 148 -64s50 -90 50 -142c0 -8 -1 -19 -2 -34h-431c-1 -7 -1 -17 -1 -30c0 -60 21 -110 62 -149s94 -58 157 -58z
M343 465c-59 0 -109 -20 -152 -60c-42 -39 -68 -88 -78 -146h411c0 3 1 12 1 17c0 49 -15 93 -46 131c-30 39 -75 58 -136 58zM490 694h19c-11 -65 -60 -115 -128 -115c-61 0 -103 43 -103 99c0 7 0 12 1 16h18c-1 -3 -1 -8 -1 -15c0 -49 33 -83 86 -83c56 0 99 42 108 98z
" />
    <glyph glyph-name="Edotaccent" unicode="&#x116;" horiz-adv-x="634" 
d="M554 386l-3 -17h-363l-56 -352h454l-2 -17h-472l110 700h454l-2 -17h-436l-47 -297h363zM451 805c-22 22 12 56 34 34s-12 -56 -34 -34z" />
    <glyph glyph-name="edotaccent" unicode="&#x117;" horiz-adv-x="560" 
d="M328 5c51 0 99 14 144 42l-3 -21c-39 -25 -86 -38 -141 -38c-67 0 -124 21 -169 62c-45 42 -68 96 -68 162c0 71 24 133 71 188s108 82 183 82c66 0 115 -21 148 -64s50 -90 50 -142c0 -8 -1 -19 -2 -34h-431c-1 -7 -1 -17 -1 -30c0 -60 21 -110 62 -149s94 -58 157 -58z
M343 465c-59 0 -109 -20 -152 -60c-42 -39 -68 -88 -78 -146h411c0 3 1 12 1 17c0 49 -15 93 -46 131c-30 39 -75 58 -136 58zM373 627c-22 22 12 56 34 34s-12 -56 -34 -34z" />
    <glyph glyph-name="Eogonek" unicode="&#x118;" horiz-adv-x="634" 
d="M554 386l-3 -17h-363l-56 -352h454l-2 -17c-37 -34 -55 -69 -55 -105c0 -41 29 -67 73 -67c11 0 25 2 41 6l-2 -17c-16 -4 -31 -6 -45 -6c-53 0 -85 36 -85 83c0 39 17 75 52 106h-451l110 700h454l-2 -17h-436l-47 -297h363z" />
    <glyph glyph-name="eogonek" unicode="&#x119;" horiz-adv-x="560" 
d="M321 -12c-67 0 -123 21 -166 62c-43 42 -64 95 -64 158c0 73 24 137 72 192c49 55 110 82 185 82c72 0 127 -28 155 -71c28 -41 40 -85 40 -130c0 -13 -1 -26 -3 -39h-429c-1 -13 -2 -24 -2 -35c0 -59 20 -107 59 -145c40 -38 92 -57 155 -57c51 0 100 15 148 46l-3 -21
c-37 -34 -55 -69 -55 -105c0 -41 29 -67 73 -67c11 0 25 2 41 6l-2 -17c-16 -4 -31 -6 -45 -6c-53 0 -85 36 -85 83c0 31 10 59 31 84c-35 -13 -70 -20 -105 -20zM347 465c-63 0 -115 -21 -157 -64c-42 -42 -67 -89 -76 -142h410c1 11 2 20 2 27c0 46 -15 87 -44 124
s-74 55 -135 55z" />
    <glyph glyph-name="Ecaron" unicode="&#x11a;" horiz-adv-x="634" 
d="M554 386l-3 -17h-363l-56 -352h454l-2 -17h-472l110 700h454l-2 -17h-436l-47 -297h363zM460 781l108 108h22l-122 -124h-18l-84 124h20z" />
    <glyph glyph-name="ecaron" unicode="&#x11b;" horiz-adv-x="560" 
d="M328 5c51 0 99 14 144 42l-3 -21c-39 -25 -86 -38 -141 -38c-67 0 -124 21 -169 62c-45 42 -68 96 -68 162c0 71 24 133 71 188s108 82 183 82c66 0 115 -21 148 -64s50 -90 50 -142c0 -8 -1 -19 -2 -34h-431c-1 -7 -1 -17 -1 -30c0 -60 21 -110 62 -149s94 -58 157 -58z
M343 465c-59 0 -109 -20 -152 -60c-42 -39 -68 -88 -78 -146h411c0 3 1 12 1 17c0 49 -15 93 -46 131c-30 39 -75 58 -136 58zM375 592l108 108h22l-122 -124h-18l-84 124h20z" />
    <glyph glyph-name="Gcircumflex" unicode="&#x11c;" horiz-adv-x="784" 
d="M684 93l50 306h18l-51 -316c-73 -63 -155 -95 -244 -95c-97 0 -175 31 -234 93c-59 63 -89 141 -89 236c0 107 35 199 104 277c70 79 158 118 265 118c100 0 180 -29 240 -88l-3 -19c-65 60 -144 90 -237 90c-97 0 -179 -37 -248 -111c-69 -73 -103 -162 -103 -266
c0 -89 28 -164 85 -224c57 -59 131 -89 222 -89c86 0 161 29 225 88zM557 889l84 -124h-20l-74 108l-108 -108h-22l122 124h18z" />
    <glyph glyph-name="gcircumflex" unicode="&#x11d;" horiz-adv-x="621" 
d="M565 372l16 98h18l-74 -467c-21 -137 -111 -206 -269 -206c-69 0 -129 15 -179 45l4 19c49 -31 107 -47 176 -47c139 0 229 61 250 189l13 79c-56 -63 -123 -94 -200 -94c-71 0 -127 22 -168 65c-41 44 -61 98 -61 161c0 74 25 137 75 189c51 53 113 79 188 79
c96 0 171 -47 211 -110zM526 120l35 224c-17 33 -44 61 -81 85s-79 36 -127 36c-67 0 -124 -25 -172 -74s-72 -108 -72 -177c0 -59 19 -109 58 -149s91 -60 154 -60c40 0 79 11 116 32c38 22 68 50 89 83zM418 700l84 -124h-20l-74 108l-108 -108h-22l122 124h18z" />
    <glyph glyph-name="Gbreve" unicode="&#x11e;" horiz-adv-x="784" 
d="M684 93l50 306h18l-51 -316c-73 -63 -155 -95 -244 -95c-97 0 -175 31 -234 93c-59 63 -89 141 -89 236c0 107 35 199 104 277c70 79 158 118 265 118c100 0 180 -29 240 -88l-3 -19c-65 60 -144 90 -237 90c-97 0 -179 -37 -248 -111c-69 -73 -103 -162 -103 -266
c0 -89 28 -164 85 -224c57 -59 131 -89 222 -89c86 0 161 29 225 88zM656 877h19c-11 -65 -60 -115 -128 -115c-61 0 -103 43 -103 99c0 7 0 12 1 16h18c-1 -3 -1 -8 -1 -15c0 -49 33 -83 86 -83c56 0 99 42 108 98z" />
    <glyph glyph-name="gbreve" unicode="&#x11f;" horiz-adv-x="621" 
d="M565 372l16 98h18l-74 -467c-21 -137 -111 -206 -269 -206c-69 0 -129 15 -179 45l4 19c49 -31 107 -47 176 -47c139 0 229 61 250 189l13 79c-56 -63 -123 -94 -200 -94c-71 0 -127 22 -168 65c-41 44 -61 98 -61 161c0 74 25 137 75 189c51 53 113 79 188 79
c96 0 171 -47 211 -110zM526 120l35 224c-17 33 -44 61 -81 85s-79 36 -127 36c-67 0 -124 -25 -172 -74s-72 -108 -72 -177c0 -59 19 -109 58 -149s91 -60 154 -60c40 0 79 11 116 32c38 22 68 50 89 83zM501 694h19c-11 -65 -60 -115 -128 -115c-61 0 -103 43 -103 99
c0 7 0 12 1 16h18c-1 -3 -1 -8 -1 -15c0 -49 33 -83 86 -83c56 0 99 42 108 98z" />
    <glyph glyph-name="Gdotaccent" unicode="&#x120;" horiz-adv-x="784" 
d="M684 93l50 306h18l-51 -316c-73 -63 -155 -95 -244 -95c-97 0 -175 31 -234 93c-59 63 -89 141 -89 236c0 107 35 199 104 277c70 79 158 118 265 118c100 0 180 -29 240 -88l-3 -19c-65 60 -144 90 -237 90c-97 0 -179 -37 -248 -111c-69 -73 -103 -162 -103 -266
c0 -89 28 -164 85 -224c57 -59 131 -89 222 -89c86 0 161 29 225 88zM527 805c-8 9 -8 25 0 34c9 9 27 9 35 0c22 -22 -12 -57 -35 -34z" />
    <glyph glyph-name="gdotaccent" unicode="&#x121;" horiz-adv-x="621" 
d="M565 372l16 98h18l-74 -467c-21 -137 -111 -206 -269 -206c-69 0 -129 15 -179 45l4 19c49 -31 107 -47 176 -47c139 0 229 61 250 189l13 79c-56 -63 -123 -94 -200 -94c-71 0 -127 22 -168 65c-41 44 -61 98 -61 161c0 74 25 137 75 189c51 53 113 79 188 79
c96 0 171 -47 211 -110zM526 120l35 224c-17 33 -44 61 -81 85s-79 36 -127 36c-67 0 -124 -25 -172 -74s-72 -108 -72 -177c0 -59 19 -109 58 -149s91 -60 154 -60c40 0 79 11 116 32c38 22 68 50 89 83zM395 627c-22 22 12 56 34 34s-12 -56 -34 -34z" />
    <glyph glyph-name="uni0122" unicode="&#x122;" horiz-adv-x="784" 
d="M684 93l50 306h18l-51 -316c-73 -63 -155 -95 -244 -95c-97 0 -175 31 -234 93c-59 63 -89 141 -89 236c0 107 35 199 104 277c70 79 158 118 265 118c100 0 180 -29 240 -88l-3 -19c-65 60 -144 90 -237 90c-97 0 -179 -37 -248 -111c-69 -73 -103 -162 -103 -266
c0 -89 28 -164 85 -224c57 -59 131 -89 222 -89c86 0 161 29 225 88zM457 -44l-78 -156h-19l78 156h19z" />
    <glyph glyph-name="uni0123" unicode="&#x123;" horiz-adv-x="621" 
d="M565 372l16 98h18l-74 -467c-21 -137 -111 -206 -269 -206c-69 0 -129 15 -179 45l4 19c49 -31 107 -47 176 -47c139 0 229 61 250 189l13 79c-56 -63 -123 -94 -200 -94c-71 0 -127 22 -168 65c-41 44 -61 98 -61 161c0 74 25 137 75 189c51 53 113 79 188 79
c96 0 171 -47 211 -110zM526 120l35 224c-17 33 -44 61 -81 85s-79 36 -127 36c-67 0 -124 -25 -172 -74s-72 -108 -72 -177c0 -59 19 -109 58 -149s91 -60 154 -60c40 0 79 11 116 32c38 22 68 50 89 83zM369 545l78 156h19l-78 -156h-19z" />
    <glyph glyph-name="Hcircumflex" unicode="&#x124;" horiz-adv-x="758" 
d="M646 0h-18l58 369h-498l-58 -369h-18l110 700h18l-49 -314h498l49 314h18zM523 889l84 -124h-20l-74 108l-108 -108h-22l122 124h18z" />
    <glyph glyph-name="hcircumflex" unicode="&#x125;" horiz-adv-x="597" 
d="M551 252l-40 -252h-18l39 249c6 42 9 67 9 75c0 89 -56 141 -148 141c-44 0 -86 -12 -127 -36c-40 -23 -72 -51 -97 -82l-55 -347h-18l110 700h18l-51 -322c68 69 142 104 223 104c99 0 164 -60 164 -156c0 -9 -3 -34 -9 -74zM254 889l84 -124h-20l-74 108l-108 -108h-22
l122 124h18z" />
    <glyph glyph-name="Hbar" unicode="&#x126;" horiz-adv-x="798" 
d="M666 0h-18l58 369h-498l-58 -369h-18l87 558h-103l3 17h103l20 125h18l-20 -125h498l20 125h18l-20 -125h101l-3 -17h-101zM238 558l-27 -172h498l27 172h-498z" />
    <glyph glyph-name="hbar" unicode="&#x127;" horiz-adv-x="610" 
d="M569 230l-36 -230h-18l35 227c3 16 4 33 4 50c0 89 -48 133 -144 133c-41 0 -84 -12 -128 -36c-43 -23 -77 -51 -100 -82l-46 -292h-18l87 558h-102l3 17h102l20 125h18l-20 -125h129l-3 -17h-129l-37 -235c52 56 140 104 229 104c105 0 158 -53 158 -148
c0 -17 -1 -34 -4 -49z" />
    <glyph glyph-name="Itilde" unicode="&#x128;" horiz-adv-x="256" 
d="M382 863h18c-10 -53 -35 -80 -74 -80c-18 0 -41 11 -70 34s-51 35 -66 35c-27 0 -45 -21 -54 -62h-18c9 51 37 79 74 79c19 0 42 -12 71 -35s50 -34 65 -34c27 0 45 21 54 63zM247 700l-110 -700h-18l110 700h18z" />
    <glyph glyph-name="itilde" unicode="&#x129;" horiz-adv-x="235" 
d="M343 681h18c-10 -53 -35 -80 -74 -80c-18 0 -41 11 -70 34s-51 35 -66 35c-27 0 -45 -21 -54 -62h-18c9 51 37 79 74 79c19 0 42 -12 71 -35s50 -34 65 -34c27 0 45 21 54 63zM201 470l-74 -470h-18l74 470h18z" />
    <glyph glyph-name="Imacron" unicode="&#x12a;" horiz-adv-x="256" 
d="M247 700l-110 -700h-18l110 700h18zM153 818l3 17h209l-3 -17h-209z" />
    <glyph glyph-name="imacron" unicode="&#x12b;" horiz-adv-x="235" 
d="M201 470l-74 -470h-18l74 470h18zM114 635l3 17h209l-3 -17h-209z" />
    <glyph glyph-name="Ibreve" unicode="&#x12c;" horiz-adv-x="256" 
d="M362 877h19c-11 -65 -60 -115 -128 -115c-61 0 -103 43 -103 99c0 7 0 12 1 16h18c-1 -3 -1 -8 -1 -15c0 -49 33 -83 86 -83c56 0 99 42 108 98zM247 700l-110 -700h-18l110 700h18z" />
    <glyph glyph-name="ibreve" unicode="&#x12d;" horiz-adv-x="235" 
d="M320 694h19c-11 -65 -60 -115 -128 -115c-61 0 -103 43 -103 99c0 7 0 12 1 16h18c-1 -3 -1 -8 -1 -15c0 -49 33 -83 86 -83c56 0 99 42 108 98zM201 470l-74 -470h-18l74 470h18z" />
    <glyph glyph-name="Iogonek" unicode="&#x12e;" horiz-adv-x="256" 
d="M247 700l-110 -700c-37 -34 -55 -69 -55 -105c0 -41 29 -67 73 -67c11 0 25 2 41 6l-2 -17c-16 -4 -31 -6 -45 -6c-53 0 -85 36 -85 83c0 37 18 73 55 106l110 700h18z" />
    <glyph glyph-name="iogonek" unicode="&#x12f;" horiz-adv-x="235" 
d="M127 0c-37 -34 -55 -69 -55 -105c0 -41 29 -67 73 -67c11 0 25 2 41 6l-2 -17c-16 -4 -31 -6 -45 -6c-53 0 -85 36 -85 83c0 37 18 73 55 106l74 470h18zM199 627c-22 22 12 56 34 34s-12 -56 -34 -34z" />
    <glyph glyph-name="Idot" unicode="&#x130;" horiz-adv-x="256" 
d="M247 700l-110 -700h-18l110 700h18zM241 805c-22 22 12 56 34 34s-12 -56 -34 -34z" />
    <glyph glyph-name="dotlessi" unicode="&#x131;" horiz-adv-x="235" 
d="M201 470l-74 -470h-18l74 470h18z" />
    <glyph glyph-name="IJ" unicode="&#x132;" horiz-adv-x="579" 
d="M568 700h18l-81 -512c-21 -133 -99 -200 -233 -200c-60 0 -109 17 -147 50l3 22c35 -37 84 -55 147 -55c124 0 192 57 212 185zM247 700l-74 -470h-18l74 470h18z" />
    <glyph glyph-name="Jcircumflex" unicode="&#x134;" horiz-adv-x="498" 
d="M535 889l84 -124h-20l-74 108l-108 -108h-22l122 124h18zM487 700h18l-81 -512c-21 -133 -99 -200 -233 -200c-60 0 -109 17 -147 50l3 22c35 -37 84 -55 147 -55c124 0 192 57 212 185z" />
    <glyph glyph-name="jcircumflex" unicode="&#x135;" horiz-adv-x="238" 
d="M183 470h18l-89 -563c-9 -63 -46 -97 -75 -104c-15 -4 -32 -6 -53 -6c-24 0 -45 5 -63 16l3 20c18 -13 39 -19 63 -19c64 0 95 26 107 98zM236 700l84 -124h-20l-74 108l-108 -108h-22l122 124h18z" />
    <glyph glyph-name="uni0136" unicode="&#x136;" horiz-adv-x="645" 
d="M679 700l-422 -323l368 -377h-27l-364 374l2 10l415 316h28zM130 0h-18l110 700h18zM351 -44l-78 -156h-19l78 156h19z" />
    <glyph glyph-name="uni0137" unicode="&#x137;" horiz-adv-x="510" 
d="M507 470l-291 -214l253 -256h-26l-250 253l1 10l284 207h29zM114 0h-18l110 700h18zM283 -44l-78 -156h-19l78 156h19z" />
    <glyph glyph-name="kgreenlandic" unicode="&#x138;" horiz-adv-x="510" 
d="M114 0h-18l74 470h18zM507 470l-291 -214l253 -256h-26l-250 253l1 10l284 207h29z" />
    <glyph glyph-name="Lacute" unicode="&#x139;" horiz-adv-x="586" 
d="M112 0l110 700h18l-108 -683h422l-2 -17h-440zM227 765l116 124h24l-116 -124h-24z" />
    <glyph glyph-name="lacute" unicode="&#x13a;" horiz-adv-x="262" 
d="M202 700h18l-93 -593c-3 -25 -5 -41 -5 -50c0 -35 20 -52 60 -52c23 0 44 6 63 17l-3 -20c-20 -9 -42 -14 -65 -14c-49 0 -73 23 -73 69c0 7 2 23 5 48zM214 765l116 124h24l-116 -124h-24z" />
    <glyph glyph-name="uni013B" unicode="&#x13b;" horiz-adv-x="586" 
d="M112 0l110 700h18l-108 -683h422l-2 -17h-440zM347 -44l-78 -156h-19l78 156h19z" />
    <glyph glyph-name="lcommaaccent" unicode="&#x13c;" horiz-adv-x="262" 
d="M202 700h18l-93 -593c-3 -25 -5 -41 -5 -50c0 -35 20 -52 60 -52c23 0 44 6 63 17l-3 -20c-20 -9 -42 -14 -65 -14c-49 0 -73 23 -73 69c0 7 2 23 5 48zM181 -44l-78 -156h-19l78 156h19z" />
    <glyph glyph-name="Lcaron" unicode="&#x13d;" horiz-adv-x="619" 
d="M112 0l110 700h18l-108 -683h422l-2 -17h-440zM657 700l-78 -156h-19l78 156h19z" />
    <glyph glyph-name="lcaron" unicode="&#x13e;" horiz-adv-x="319" 
d="M212 700h18l-93 -593c-3 -25 -5 -41 -5 -50c0 -35 20 -52 60 -52c23 0 44 6 63 17l-3 -20c-20 -9 -42 -14 -65 -14c-49 0 -73 23 -73 69c0 7 2 23 5 48zM423 700l-78 -156h-19l78 156h19z" />
    <glyph glyph-name="Ldot" unicode="&#x13f;" horiz-adv-x="586" 
d="M112 0l110 700h18l-108 -683h422l-2 -17h-440zM567 359c-23 23 12 57 34 35c9 -8 9 -26 0 -35c-9 -8 -25 -8 -34 0z" />
    <glyph glyph-name="ldot" unicode="&#x140;" horiz-adv-x="333" 
d="M212 700h18l-93 -593c-3 -25 -5 -41 -5 -50c0 -35 20 -52 60 -52c23 0 44 6 63 17l-3 -20c-20 -9 -42 -14 -65 -14c-49 0 -73 23 -73 69c0 7 2 23 5 48zM297 359c-22 22 12 56 34 34s-12 -56 -34 -34z" />
    <glyph glyph-name="Lslash" unicode="&#x141;" horiz-adv-x="596" 
d="M182 385l50 315h18l-48 -304l179 96l-3 -22l-180 -96l-56 -357h422l-2 -17h-440l57 363l-102 -54l3 22z" />
    <glyph glyph-name="lslash" unicode="&#x142;" horiz-adv-x="371" 
d="M271 700h18l-46 -295l109 59l-3 -22l-110 -59l-43 -276c-3 -25 -5 -42 -5 -50c0 -35 20 -52 60 -52c23 0 44 6 63 17l-3 -20c-20 -9 -42 -14 -65 -14c-49 0 -73 23 -73 69c0 7 2 23 5 48l42 268l-110 -59l3 22l110 59z" />
    <glyph glyph-name="Nacute" unicode="&#x143;" horiz-adv-x="773" 
d="M661 0h-18l-407 671l-106 -671h-18l110 700h18l407 -671l106 671h18zM488 765l116 124h24l-116 -124h-24z" />
    <glyph glyph-name="nacute" unicode="&#x144;" horiz-adv-x="597" 
d="M551 252l-40 -252h-18l39 249c6 42 9 67 9 75c0 89 -56 141 -148 141c-44 0 -86 -12 -127 -36c-40 -23 -72 -51 -97 -82l-55 -347h-18l74 470h18l-15 -92c68 69 142 104 223 104c99 0 164 -60 164 -156c0 -9 -3 -34 -9 -74zM352 576l116 124h24l-116 -124h-24z" />
    <glyph glyph-name="uni0145" unicode="&#x145;" horiz-adv-x="773" 
d="M661 0h-18l-407 671l-106 -671h-18l110 700h18l407 -671l106 671h18zM402 -44l-78 -156h-19l78 156h19z" />
    <glyph glyph-name="uni0146" unicode="&#x146;" horiz-adv-x="597" 
d="M551 252l-40 -252h-18l39 249c6 42 9 67 9 75c0 89 -56 141 -148 141c-44 0 -86 -12 -127 -36c-40 -23 -72 -51 -97 -82l-55 -347h-18l74 470h18l-15 -92c68 69 142 104 223 104c99 0 164 -60 164 -156c0 -9 -3 -34 -9 -74zM324 -44l-78 -156h-19l78 156h19z" />
    <glyph glyph-name="Ncaron" unicode="&#x147;" horiz-adv-x="773" 
d="M661 0h-18l-407 671l-106 -671h-18l110 700h18l407 -671l106 671h18zM499 781l108 108h22l-122 -124h-18l-84 124h20z" />
    <glyph glyph-name="ncaron" unicode="&#x148;" horiz-adv-x="597" 
d="M551 252l-40 -252h-18l39 249c6 42 9 67 9 75c0 89 -56 141 -148 141c-44 0 -86 -12 -127 -36c-40 -23 -72 -51 -97 -82l-55 -347h-18l74 470h18l-15 -92c68 69 142 104 223 104c99 0 164 -60 164 -156c0 -9 -3 -34 -9 -74zM413 592l108 108h22l-122 -124h-18l-84 124h20
z" />
    <glyph glyph-name="napostrophe" unicode="&#x149;" horiz-adv-x="623" 
d="M577 252l-40 -252h-18l39 249c6 42 9 67 9 75c0 89 -56 141 -148 141c-44 0 -86 -12 -127 -36c-40 -23 -72 -51 -97 -82l-55 -347h-18l74 470h18l-15 -92c68 69 142 104 223 104c99 0 164 -60 164 -156c0 -9 -3 -34 -9 -74zM193 700l-78 -156h-19l78 156h19z" />
    <glyph glyph-name="Eng" unicode="&#x14a;" horiz-adv-x="774" 
d="M754 700h18l-113 -714c-20 -126 -87 -189 -201 -189c-39 0 -72 8 -99 25l6 17c25 -17 56 -25 93 -25c104 0 165 59 184 178l1 8l-407 670l-106 -670h-18l111 700h18l407 -669z" />
    <glyph glyph-name="eng" unicode="&#x14b;" horiz-adv-x="597" 
d="M188 470l-15 -92c52 56 140 104 229 104c105 0 158 -53 158 -148c0 -17 -1 -34 -4 -49l-61 -378c-5 -31 -15 -56 -30 -73c-31 -35 -57 -37 -98 -37c-24 0 -45 5 -63 16l3 20c18 -13 39 -19 63 -19c64 0 95 26 107 98l60 370c3 16 4 33 4 50c0 89 -48 133 -144 133
c-41 0 -84 -12 -127 -35s-77 -51 -101 -82l-55 -348h-18l74 470h18z" />
    <glyph glyph-name="Omacron" unicode="&#x14c;" horiz-adv-x="848" 
d="M503 712c95 0 173 -31 232 -94s89 -141 89 -236c0 -107 -35 -199 -105 -277s-158 -117 -264 -117c-95 0 -173 31 -232 94s-89 142 -89 237c0 107 35 199 105 276c70 78 158 117 264 117zM455 5c97 0 179 37 248 110s103 162 103 266c0 90 -28 165 -85 224
c-56 60 -129 90 -218 90c-97 0 -179 -37 -248 -110s-103 -161 -103 -265c0 -90 28 -165 84 -225c57 -60 130 -90 219 -90zM448 818l3 17h209l-3 -17h-209z" />
    <glyph glyph-name="omacron" unicode="&#x14d;" horiz-adv-x="611" 
d="M354 482c71 0 127 -23 169 -68s63 -98 63 -161c0 -73 -25 -135 -76 -187c-50 -52 -112 -78 -187 -78c-71 0 -127 22 -169 67s-63 99 -63 162c0 73 25 135 75 187c51 52 113 78 188 78zM324 5c67 0 125 24 172 73c48 49 72 107 72 176c0 60 -20 110 -60 150
c-39 41 -91 61 -155 61c-67 0 -125 -24 -173 -73c-47 -49 -71 -107 -71 -176c0 -60 20 -110 59 -151c40 -40 92 -60 156 -60zM303 635l3 17h209l-3 -17h-209z" />
    <glyph glyph-name="Obreve" unicode="&#x14e;" horiz-adv-x="848" 
d="M503 712c95 0 173 -31 232 -94s89 -141 89 -236c0 -107 -35 -199 -105 -277s-158 -117 -264 -117c-95 0 -173 31 -232 94s-89 142 -89 237c0 107 35 199 105 276c70 78 158 117 264 117zM455 5c97 0 179 37 248 110s103 162 103 266c0 90 -28 165 -85 224
c-56 60 -129 90 -218 90c-97 0 -179 -37 -248 -110s-103 -161 -103 -265c0 -90 28 -165 84 -225c57 -60 130 -90 219 -90zM658 877h19c-11 -65 -60 -115 -128 -115c-61 0 -103 43 -103 99c0 7 0 12 1 16h18c-1 -3 -1 -8 -1 -15c0 -49 33 -83 86 -83c56 0 99 42 108 98z" />
    <glyph glyph-name="obreve" unicode="&#x14f;" horiz-adv-x="611" 
d="M354 482c71 0 127 -23 169 -68s63 -98 63 -161c0 -73 -25 -135 -76 -187c-50 -52 -112 -78 -187 -78c-71 0 -127 22 -169 67s-63 99 -63 162c0 73 25 135 75 187c51 52 113 78 188 78zM324 5c67 0 125 24 172 73c48 49 72 107 72 176c0 60 -20 110 -60 150
c-39 41 -91 61 -155 61c-67 0 -125 -24 -173 -73c-47 -49 -71 -107 -71 -176c0 -60 20 -110 59 -151c40 -40 92 -60 156 -60zM511 694h19c-11 -65 -60 -115 -128 -115c-61 0 -103 43 -103 99c0 7 0 12 1 16h18c-1 -3 -1 -8 -1 -15c0 -49 33 -83 86 -83c56 0 99 42 108 98z
" />
    <glyph glyph-name="Ohungarumlaut" unicode="&#x150;" horiz-adv-x="848" 
d="M463 765l116 124h24l-116 -124h-24zM583 765l116 124h24l-116 -124h-24zM503 712c95 0 173 -31 232 -94s89 -141 89 -236c0 -107 -35 -199 -105 -277s-158 -117 -264 -117c-95 0 -173 31 -232 94s-89 142 -89 237c0 107 35 199 105 276c70 78 158 117 264 117zM455 5
c97 0 179 37 248 110s103 162 103 266c0 90 -28 165 -85 224c-56 60 -129 90 -218 90c-97 0 -179 -37 -248 -110s-103 -161 -103 -265c0 -90 28 -165 84 -225c57 -60 130 -90 219 -90z" />
    <glyph glyph-name="ohungarumlaut" unicode="&#x151;" horiz-adv-x="611" 
d="M354 482c71 0 127 -23 169 -68s63 -98 63 -161c0 -73 -25 -135 -76 -187c-50 -52 -112 -78 -187 -78c-71 0 -127 22 -169 67s-63 99 -63 162c0 73 25 135 75 187c51 52 113 78 188 78zM324 5c67 0 125 24 172 73c48 49 72 107 72 176c0 60 -20 110 -60 150
c-39 41 -91 61 -155 61c-67 0 -125 -24 -173 -73c-47 -49 -71 -107 -71 -176c0 -60 20 -110 59 -151c40 -40 92 -60 156 -60zM309 576l116 124h24l-116 -124h-24zM429 576l116 124h24l-116 -124h-24z" />
    <glyph glyph-name="OE" unicode="&#x152;" horiz-adv-x="1163" 
d="M548 700h657l-2 -17h-434l-47 -297h361l-3 -17h-361l-56 -352h452l-2 -17h-638c-103 0 -186 28 -248 85s-93 131 -93 224c0 115 39 208 117 281s177 110 297 110zM152 309c0 -89 29 -160 88 -213s140 -79 244 -79h161l105 666h-195c-116 0 -212 -34 -289 -102
c-76 -68 -114 -159 -114 -272z" />
    <glyph glyph-name="oe" unicode="&#x153;" horiz-adv-x="1037" 
d="M805 5c51 0 99 14 144 42l-3 -21c-39 -25 -86 -38 -141 -38c-59 0 -111 16 -154 49s-69 76 -79 130c-18 -53 -49 -96 -94 -129s-96 -50 -155 -50c-71 0 -127 22 -169 67s-63 99 -63 162c0 73 25 135 75 187c51 52 113 78 188 78c61 0 112 -18 152 -53s65 -78 75 -131
c17 53 46 97 89 132s93 52 152 52c66 0 115 -21 148 -64s50 -90 50 -142c0 -8 -1 -19 -2 -34h-431c-1 -7 -1 -17 -1 -30c0 -60 21 -110 62 -149s94 -58 157 -58zM324 5c67 0 125 24 172 73c48 49 72 107 72 176c0 60 -20 110 -60 150c-39 41 -91 61 -155 61
c-67 0 -125 -24 -173 -73c-47 -49 -71 -107 -71 -176c0 -60 20 -110 59 -151c40 -40 92 -60 156 -60zM820 465c-59 0 -109 -20 -152 -60c-42 -39 -68 -88 -78 -146h411c0 3 1 12 1 17c0 49 -15 93 -46 131c-30 39 -75 58 -136 58z" />
    <glyph glyph-name="Racute" unicode="&#x154;" horiz-adv-x="735" 
d="M503 346l172 -346h-21l-173 346h-297l-54 -346h-18l110 700h296c120 0 187 -62 187 -157c0 -111 -82 -185 -202 -197zM515 683h-277l-51 -320h297c55 0 103 16 143 48c40 33 60 76 60 131c0 89 -61 141 -172 141zM427 765l116 124h24l-116 -124h-24z" />
    <glyph glyph-name="racute" unicode="&#x155;" horiz-adv-x="321" 
d="M382 482l-3 -17c-41 0 -80 -13 -119 -40s-70 -58 -94 -95l-52 -330h-18l74 470h18l-17 -106c19 28 47 54 85 79s80 38 126 39zM243 576l116 124h24l-116 -124h-24z" />
    <glyph glyph-name="uni0156" unicode="&#x156;" horiz-adv-x="735" 
d="M503 346l172 -346h-21l-173 346h-297l-54 -346h-18l110 700h296c120 0 187 -62 187 -157c0 -111 -82 -185 -202 -197zM515 683h-277l-51 -320h297c55 0 103 16 143 48c40 33 60 76 60 131c0 89 -61 141 -172 141zM380 -44l-78 -156h-19l78 156h19z" />
    <glyph glyph-name="uni0157" unicode="&#x157;" horiz-adv-x="321" 
d="M382 482l-3 -17c-41 0 -80 -13 -119 -40s-70 -58 -94 -95l-52 -330h-18l74 470h18l-17 -106c19 28 47 54 85 79s80 38 126 39zM109 -44l-78 -156h-19l78 156h19z" />
    <glyph glyph-name="Rcaron" unicode="&#x158;" horiz-adv-x="735" 
d="M503 346l172 -346h-21l-173 346h-297l-54 -346h-18l110 700h296c120 0 187 -62 187 -157c0 -111 -82 -185 -202 -197zM515 683h-277l-51 -320h297c55 0 103 16 143 48c40 33 60 76 60 131c0 89 -61 141 -172 141zM459 781l108 108h22l-122 -124h-18l-84 124h20z" />
    <glyph glyph-name="rcaron" unicode="&#x159;" horiz-adv-x="321" 
d="M382 482l-3 -17c-41 0 -80 -13 -119 -40s-70 -58 -94 -95l-52 -330h-18l74 470h18l-17 -106c19 28 47 54 85 79s80 38 126 39zM286 592l108 108h22l-122 -124h-18l-84 124h20z" />
    <glyph glyph-name="Sacute" unicode="&#x15a;" horiz-adv-x="619" 
d="M333 387l32 -9c27 -8 48 -15 63 -20s33 -12 56 -23s41 -22 53 -33c24 -21 46 -60 46 -105c0 -65 -27 -116 -81 -153c-53 -37 -115 -56 -186 -56c-53 0 -104 8 -154 23c-49 16 -84 33 -105 52l4 21c21 -20 55 -38 102 -55c47 -16 98 -24 152 -24c38 0 75 6 112 19
s69 34 96 64s41 66 41 107c0 40 -18 73 -41 94c-11 11 -27 21 -48 30c-40 20 -66 28 -119 43c-59 17 -86 25 -127 44c-58 28 -81 60 -86 121c0 59 24 104 72 136c49 33 106 49 171 49c90 0 162 -20 217 -61l-3 -18c-61 41 -132 62 -214 62c-35 0 -68 -5 -101 -16
c-32 -10 -61 -28 -86 -54s-38 -58 -38 -95c0 -21 3 -41 15 -57s18 -27 39 -39s26 -16 55 -27l30 -10zM388 765l116 124h24l-116 -124h-24z" />
    <glyph glyph-name="sacute" unicode="&#x15b;" horiz-adv-x="484" 
d="M256 -12c-91 0 -165 32 -204 64l2 20c53 -45 121 -67 204 -67c25 0 50 3 74 9c49 13 98 52 98 107c0 28 -12 50 -43 66c-15 9 -28 15 -39 19s-27 10 -49 17c-19 6 -31 10 -37 11l-32 11c-32 11 -35 14 -59 25c-23 12 -28 22 -41 35c-12 13 -15 29 -15 48
c0 41 17 73 51 95c35 23 75 34 122 34c73 0 133 -18 181 -54l-3 -17c-48 36 -107 54 -178 54c-23 0 -46 -3 -68 -10c-44 -12 -87 -48 -87 -99c0 -17 6 -32 13 -43c8 -11 26 -23 37 -30s38 -17 49 -21l55 -18l28 -9l32 -11l28 -12c28 -11 35 -19 51 -34s22 -34 22 -55
c-2 -95 -102 -138 -192 -135zM290 576l116 124h24l-116 -124h-24z" />
    <glyph glyph-name="Scircumflex" unicode="&#x15c;" horiz-adv-x="619" 
d="M333 387l32 -9c27 -8 48 -15 63 -20s33 -12 56 -23s41 -22 53 -33c24 -21 46 -60 46 -105c0 -65 -27 -116 -81 -153c-53 -37 -115 -56 -186 -56c-53 0 -104 8 -154 23c-49 16 -84 33 -105 52l4 21c21 -20 55 -38 102 -55c47 -16 98 -24 152 -24c38 0 75 6 112 19
s69 34 96 64s41 66 41 107c0 40 -18 73 -41 94c-11 11 -27 21 -48 30c-40 20 -66 28 -119 43c-59 17 -86 25 -127 44c-58 28 -81 60 -86 121c0 59 24 104 72 136c49 33 106 49 171 49c90 0 162 -20 217 -61l-3 -18c-61 41 -132 62 -214 62c-35 0 -68 -5 -101 -16
c-32 -10 -61 -28 -86 -54s-38 -58 -38 -95c0 -21 3 -41 15 -57s18 -27 39 -39s26 -16 55 -27l30 -10zM440 889l84 -124h-20l-74 108l-108 -108h-22l122 124h18z" />
    <glyph glyph-name="scircumflex" unicode="&#x15d;" horiz-adv-x="484" 
d="M256 -12c-91 0 -165 32 -204 64l2 20c53 -45 121 -67 204 -67c25 0 50 3 74 9c49 13 98 52 98 107c0 28 -12 50 -43 66c-15 9 -28 15 -39 19s-27 10 -49 17c-19 6 -31 10 -37 11l-32 11c-32 11 -35 14 -59 25c-23 12 -28 22 -41 35c-12 13 -15 29 -15 48
c0 41 17 73 51 95c35 23 75 34 122 34c73 0 133 -18 181 -54l-3 -17c-48 36 -107 54 -178 54c-23 0 -46 -3 -68 -10c-44 -12 -87 -48 -87 -99c0 -17 6 -32 13 -43c8 -11 26 -23 37 -30s38 -17 49 -21l55 -18l28 -9l32 -11l28 -12c28 -11 35 -19 51 -34s22 -34 22 -55
c-2 -95 -102 -138 -192 -135zM349 700l84 -124h-20l-74 108l-108 -108h-22l122 124h18z" />
    <glyph glyph-name="Scedilla" unicode="&#x15e;" horiz-adv-x="619" 
d="M333 387l32 -9c27 -8 48 -15 63 -20s33 -12 56 -23s41 -22 53 -33c24 -21 46 -60 46 -105c0 -63 -26 -114 -78 -151c-51 -37 -112 -57 -181 -58l-84 -109h-23l89 109c-51 1 -101 10 -148 25s-81 32 -101 50l4 21c21 -20 55 -38 102 -55c47 -16 98 -24 152 -24
c38 0 75 6 112 19s69 34 96 64s41 66 41 107c0 40 -18 73 -41 94c-11 11 -27 21 -48 30c-40 20 -66 28 -119 43c-59 17 -86 25 -127 44c-58 28 -81 60 -86 121c0 59 24 104 72 136c49 33 106 49 171 49c90 0 162 -20 217 -61l-3 -18c-61 41 -132 62 -214 62
c-35 0 -68 -5 -101 -16c-32 -10 -61 -28 -86 -54s-38 -58 -38 -95c0 -21 3 -41 15 -57s18 -27 39 -39s26 -16 55 -27l30 -10z" />
    <glyph glyph-name="scedilla" unicode="&#x15f;" horiz-adv-x="484" 
d="M448 123c-2 -95 -102 -138 -192 -135l-84 -109h-23l89 110c-84 4 -151 34 -186 63l2 20c53 -45 121 -67 204 -67c25 0 50 3 74 9c49 13 98 52 98 107c0 28 -12 50 -43 66c-15 9 -28 15 -39 19s-27 10 -49 17c-19 6 -31 10 -37 11l-32 11c-32 11 -35 14 -59 25
c-23 12 -28 22 -41 35c-12 13 -15 29 -15 48c0 41 17 73 51 95c35 23 75 34 122 34c73 0 133 -18 181 -54l-3 -17c-48 36 -107 54 -178 54c-23 0 -46 -3 -68 -10c-44 -12 -87 -48 -87 -99c0 -17 6 -32 13 -43c8 -11 26 -23 37 -30s38 -17 49 -21l55 -18l28 -9l32 -11l28 -12
c28 -11 35 -19 51 -34s22 -34 22 -55z" />
    <glyph glyph-name="Scaron" unicode="&#x160;" horiz-adv-x="619" 
d="M333 387l32 -9c27 -8 48 -15 63 -20s33 -12 56 -23s41 -22 53 -33c24 -21 46 -60 46 -105c0 -65 -27 -116 -81 -153c-53 -37 -115 -56 -186 -56c-53 0 -104 8 -154 23c-49 16 -84 33 -105 52l4 21c21 -20 55 -38 102 -55c47 -16 98 -24 152 -24c38 0 75 6 112 19
s69 34 96 64s41 66 41 107c0 40 -18 73 -41 94c-11 11 -27 21 -48 30c-40 20 -66 28 -119 43c-59 17 -86 25 -127 44c-58 28 -81 60 -86 121c0 59 24 104 72 136c49 33 106 49 171 49c90 0 162 -20 217 -61l-3 -18c-61 41 -132 62 -214 62c-35 0 -68 -5 -101 -16
c-32 -10 -61 -28 -86 -54s-38 -58 -38 -95c0 -21 3 -41 15 -57s18 -27 39 -39s26 -16 55 -27l30 -10zM415 781l108 108h22l-122 -124h-18l-84 124h20z" />
    <glyph glyph-name="scaron" unicode="&#x161;" horiz-adv-x="484" 
d="M256 -12c-91 0 -165 32 -204 64l2 20c53 -45 121 -67 204 -67c25 0 50 3 74 9c49 13 98 52 98 107c0 28 -12 50 -43 66c-15 9 -28 15 -39 19s-27 10 -49 17c-19 6 -31 10 -37 11l-32 11c-32 11 -35 14 -59 25c-23 12 -28 22 -41 35c-12 13 -15 29 -15 48
c0 41 17 73 51 95c35 23 75 34 122 34c73 0 133 -18 181 -54l-3 -17c-48 36 -107 54 -178 54c-23 0 -46 -3 -68 -10c-44 -12 -87 -48 -87 -99c0 -17 6 -32 13 -43c8 -11 26 -23 37 -30s38 -17 49 -21l55 -18l28 -9l32 -11l28 -12c28 -11 35 -19 51 -34s22 -34 22 -55
c-2 -95 -102 -138 -192 -135zM326 592l108 108h22l-122 -124h-18l-84 124h20z" />
    <glyph glyph-name="uni0162" unicode="&#x162;" horiz-adv-x="611" 
d="M197 -121l99 121l108 683h-259l2 17h537l-2 -17h-260l-108 -683l-94 -121h-23z" />
    <glyph glyph-name="uni0163" unicode="&#x163;" horiz-adv-x="415" 
d="M173 97l56 356h-128l3 17h128l25 160h18l-25 -160h189l-3 -17h-189l-54 -344c-3 -15 -4 -27 -4 -37c0 -45 28 -67 83 -67c29 0 58 9 89 26l-3 -20c-25 -15 -54 -23 -88 -23l-84 -109h-23l89 110c-54 5 -81 32 -81 82c0 5 1 14 2 26z" />
    <glyph glyph-name="Tcaron" unicode="&#x164;" horiz-adv-x="611" 
d="M427 781l108 108h22l-122 -124h-18l-84 124h20zM147 700h537l-2 -17h-260l-108 -683h-18l108 683h-259z" />
    <glyph glyph-name="tcaron" unicode="&#x165;" horiz-adv-x="487" 
d="M173 97l56 356h-128l3 17h128l25 160h18l-25 -160h189l-3 -17h-189l-54 -344c-3 -15 -4 -27 -4 -37c0 -45 28 -67 83 -67c29 0 58 9 89 26l-3 -20c-25 -15 -54 -23 -88 -23c-66 0 -99 28 -99 83c0 5 1 14 2 26zM591 700l-78 -156h-19l78 156h19z" />
    <glyph glyph-name="Tbar" unicode="&#x166;" horiz-adv-x="611" 
d="M147 700h537l-2 -17h-260l-47 -297h166l-3 -17h-166l-58 -369h-18l58 369h-165l3 17h165l47 297h-259z" />
    <glyph glyph-name="tbar" unicode="&#x167;" horiz-adv-x="415" 
d="M173 97l24 152h-122l3 17h121l30 187h-128l3 17h128l25 160h18l-25 -160h189l-3 -17h-189l-30 -187h190l-3 -17h-189l-22 -140c-3 -15 -4 -27 -4 -37c0 -45 28 -67 83 -67c29 0 58 9 89 26l-3 -20c-25 -15 -54 -23 -88 -23c-66 0 -99 28 -99 83c0 5 1 14 2 26z" />
    <glyph glyph-name="Utilde" unicode="&#x168;" horiz-adv-x="749" 
d="M674 284l66 416h18l-66 -418c-31 -189 -145 -294 -301 -294c-155 0 -249 91 -249 248c0 25 3 53 8 85l60 379h18l-60 -380c-5 -32 -8 -59 -8 -81c0 -144 79 -234 230 -234c149 0 256 106 284 279zM635 863h18c-10 -53 -35 -80 -74 -80c-18 0 -41 11 -70 34s-51 35 -66 35
c-27 0 -45 -21 -54 -62h-18c9 51 37 79 74 79c19 0 42 -12 71 -35s50 -34 65 -34c27 0 45 21 54 63z" />
    <glyph glyph-name="utilde" unicode="&#x169;" horiz-adv-x="597" 
d="M120 218l40 252h18l-39 -249c-6 -42 -9 -67 -9 -75c0 -89 56 -141 148 -141c44 0 86 12 126 35c41 24 73 52 98 83l55 347h18l-74 -470h-18l15 92c-68 -69 -142 -104 -223 -104c-99 0 -164 60 -164 156c0 9 3 34 9 74zM520 681h18c-10 -53 -35 -80 -74 -80
c-18 0 -41 11 -70 34s-51 35 -66 35c-27 0 -45 -21 -54 -62h-18c9 51 37 79 74 79c19 0 42 -12 71 -35s50 -34 65 -34c27 0 45 21 54 63z" />
    <glyph glyph-name="Umacron" unicode="&#x16a;" horiz-adv-x="749" 
d="M674 284l66 416h18l-66 -418c-31 -189 -145 -294 -301 -294c-155 0 -249 91 -249 248c0 25 3 53 8 85l60 379h18l-60 -380c-5 -32 -8 -59 -8 -81c0 -144 79 -234 230 -234c149 0 256 106 284 279zM404 818l3 17h209l-3 -17h-209z" />
    <glyph glyph-name="umacron" unicode="&#x16b;" horiz-adv-x="597" 
d="M120 218l40 252h18l-39 -249c-6 -42 -9 -67 -9 -75c0 -89 56 -141 148 -141c44 0 86 12 126 35c41 24 73 52 98 83l55 347h18l-74 -470h-18l15 92c-68 -69 -142 -104 -223 -104c-99 0 -164 60 -164 156c0 9 3 34 9 74zM291 635l3 17h209l-3 -17h-209z" />
    <glyph glyph-name="Ubreve" unicode="&#x16c;" horiz-adv-x="749" 
d="M674 284l66 416h18l-66 -418c-31 -189 -145 -294 -301 -294c-155 0 -249 91 -249 248c0 25 3 53 8 85l60 379h18l-60 -380c-5 -32 -8 -59 -8 -81c0 -144 79 -234 230 -234c149 0 256 106 284 279zM600 877h19c-11 -65 -60 -115 -128 -115c-61 0 -103 43 -103 99
c0 7 0 12 1 16h18c-1 -3 -1 -8 -1 -15c0 -49 33 -83 86 -83c56 0 99 42 108 98z" />
    <glyph glyph-name="ubreve" unicode="&#x16d;" horiz-adv-x="597" 
d="M120 218l40 252h18l-39 -249c-6 -42 -9 -67 -9 -75c0 -89 56 -141 148 -141c44 0 86 12 126 35c41 24 73 52 98 83l55 347h18l-74 -470h-18l15 92c-68 -69 -142 -104 -223 -104c-99 0 -164 60 -164 156c0 9 3 34 9 74zM491 694h19c-11 -65 -60 -115 -128 -115
c-61 0 -103 43 -103 99c0 7 0 12 1 16h18c-1 -3 -1 -8 -1 -15c0 -49 33 -83 86 -83c56 0 99 42 108 98z" />
    <glyph glyph-name="Uring" unicode="&#x16e;" horiz-adv-x="749" 
d="M674 284l66 416h18l-66 -418c-31 -189 -145 -294 -301 -294c-155 0 -249 91 -249 248c0 25 3 53 8 85l60 379h18l-60 -380c-5 -32 -8 -59 -8 -81c0 -144 79 -234 230 -234c149 0 256 106 284 279zM585 827c0 -48 -40 -88 -88 -88s-88 40 -88 88c0 47 40 88 88 88
s88 -41 88 -88zM447 776c27 -27 73 -27 100 0c27 28 27 74 0 101c-27 28 -73 28 -100 0c-27 -27 -27 -73 0 -101z" />
    <glyph glyph-name="uring" unicode="&#x16f;" horiz-adv-x="597" 
d="M120 218l40 252h18l-39 -249c-6 -42 -9 -67 -9 -75c0 -89 56 -141 148 -141c44 0 86 12 126 35c41 24 73 52 98 83l55 347h18l-74 -470h-18l15 92c-68 -69 -142 -104 -223 -104c-99 0 -164 60 -164 156c0 9 3 34 9 74zM474 644c0 -48 -40 -88 -88 -88s-88 40 -88 88
c0 47 40 88 88 88s88 -41 88 -88zM336 593c27 -27 73 -27 100 0c27 28 27 74 0 101c-27 28 -73 28 -100 0c-27 -27 -27 -73 0 -101z" />
    <glyph glyph-name="Uhungarumlaut" unicode="&#x170;" horiz-adv-x="749" 
d="M674 284l66 416h18l-66 -418c-31 -189 -145 -294 -301 -294c-155 0 -249 91 -249 248c0 25 3 53 8 85l60 379h18l-60 -380c-5 -32 -8 -59 -8 -81c0 -144 79 -234 230 -234c149 0 256 106 284 279zM409 765l116 124h24l-116 -124h-24zM529 765l116 124h24l-116 -124h-24z
" />
    <glyph glyph-name="uhungarumlaut" unicode="&#x171;" horiz-adv-x="597" 
d="M120 218l40 252h18l-39 -249c-6 -42 -9 -67 -9 -75c0 -89 56 -141 148 -141c44 0 86 12 126 35c41 24 73 52 98 83l55 347h18l-74 -470h-18l15 92c-68 -69 -142 -104 -223 -104c-99 0 -164 60 -164 156c0 9 3 34 9 74zM293 576l116 124h24l-116 -124h-24zM413 576
l116 124h24l-116 -124h-24z" />
    <glyph glyph-name="Uogonek" unicode="&#x172;" horiz-adv-x="746" 
d="M737 700h18l-63 -401c-25 -160 -95 -249 -204 -294c-52 -21 -79 -66 -79 -110c0 -41 29 -67 73 -67c11 0 25 2 41 6l-2 -17c-16 -4 -31 -6 -45 -6c-53 0 -85 36 -85 83c0 35 14 67 42 97c-15 -2 -31 -3 -47 -3c-73 0 -132 21 -177 62s-67 100 -67 177c0 23 2 47 6 72
l63 401h18l-63 -400c-4 -24 -6 -47 -6 -70c0 -143 85 -225 224 -225c157 0 261 108 290 295z" />
    <glyph glyph-name="uogonek" unicode="&#x173;" horiz-adv-x="597" 
d="M115 185l45 285h18l-44 -282c-3 -16 -4 -33 -4 -50c0 -89 48 -133 144 -133c41 0 84 12 127 35c44 24 78 52 101 83l55 347h18l-74 -470c-37 -34 -55 -69 -55 -105c0 -41 29 -67 73 -67c11 0 25 2 41 6l-2 -17c-16 -4 -31 -6 -45 -6c-53 0 -85 36 -85 83
c0 37 18 73 55 106l15 92c-52 -56 -140 -104 -229 -104c-105 0 -158 53 -158 148c0 17 1 34 4 49z" />
    <glyph glyph-name="Wcircumflex" unicode="&#x174;" horiz-adv-x="1029" 
d="M308 27l307 673h16l96 -671l339 671h21l-357 -704h-16l-96 667l-306 -667h-16l-135 704h19zM657 889l84 -124h-20l-74 108l-108 -108h-22l122 124h18z" />
    <glyph glyph-name="wcircumflex" unicode="&#x175;" horiz-adv-x="806" 
d="M575 27l234 443h21l-251 -474h-16l-90 448l-231 -448h-16l-102 474h19l95 -442l231 444h16zM513 700l84 -124h-20l-74 108l-108 -108h-22l122 124h18z" />
    <glyph glyph-name="Ycircumflex" unicode="&#x176;" horiz-adv-x="626" 
d="M365 346l316 354h25l-333 -373l-51 -327h-18l51 327l-215 373h21zM453 889l84 -124h-20l-74 108l-108 -108h-22l122 124h18z" />
    <glyph glyph-name="ycircumflex" unicode="&#x177;" horiz-adv-x="522" 
d="M527 470h21l-311 -525c-59 -97 -109 -148 -176 -148c-23 0 -42 5 -57 15l3 18c16 -11 35 -16 56 -16c34 0 64 16 91 47s63 83 107 158l-159 451h20l151 -429zM363 700l84 -124h-20l-74 108l-108 -108h-22l122 124h18z" />
    <glyph glyph-name="Ydieresis" unicode="&#x178;" horiz-adv-x="626" 
d="M365 346l316 354h25l-333 -373l-51 -327h-18l51 327l-215 373h21zM319 805c-22 22 12 56 34 34s-12 -56 -34 -34zM499 805c-22 22 12 56 34 34s-12 -56 -34 -34z" />
    <glyph glyph-name="Zacute" unicode="&#x179;" horiz-adv-x="637" 
d="M657 700l-2 -13l-565 -670h489l-2 -17h-517l2 13l566 670h-446l2 17h473zM420 765l116 124h24l-116 -124h-24z" />
    <glyph glyph-name="zacute" unicode="&#x17a;" horiz-adv-x="480" 
d="M41 13l416 440h-333l3 17h360l-2 -13l-415 -440h372l-2 -17h-401zM297 576l116 124h24l-116 -124h-24z" />
    <glyph glyph-name="Zdotaccent" unicode="&#x17b;" horiz-adv-x="637" 
d="M657 700l-2 -13l-565 -670h489l-2 -17h-517l2 13l566 670h-446l2 17h473zM409 805c-22 22 12 56 34 34s-12 -56 -34 -34z" />
    <glyph glyph-name="zdotaccent" unicode="&#x17c;" horiz-adv-x="480" 
d="M41 13l416 440h-333l3 17h360l-2 -13l-415 -440h372l-2 -17h-401zM295 627c-8 9 -8 25 0 34c9 9 27 9 35 0c22 -22 -12 -57 -35 -34z" />
    <glyph glyph-name="Zcaron" unicode="&#x17d;" horiz-adv-x="637" 
d="M449 781l108 108h22l-122 -124h-18l-84 124h20zM657 700l-2 -13l-565 -670h489l-2 -17h-517l2 13l566 670h-446l2 17h473z" />
    <glyph glyph-name="zcaron" unicode="&#x17e;" horiz-adv-x="480" 
d="M330 592l108 108h22l-122 -124h-18l-84 124h20zM41 13l416 440h-333l3 17h360l-2 -13l-415 -440h372l-2 -17h-401z" />
    <glyph glyph-name="longs" unicode="&#x17f;" horiz-adv-x="303" 
d="M242 587l-21 -134l-71 -453h-18l71 453h-102l3 17h102l19 123c12 75 56 112 131 112c29 0 56 -7 80 -20l-3 -19c-27 15 -53 22 -80 22c-63 0 -100 -34 -111 -101z" />
    <glyph glyph-name="florin" unicode="&#x192;" horiz-adv-x="432" 
d="M433 705c29 0 55 -5 78 -16v-19c-24 12 -50 18 -78 18c-81 0 -129 -48 -148 -168l-21 -138h178l1 -17h-182l-59 -387c-17 -111 -73 -181 -166 -181c-27 0 -53 5 -76 16v19c24 -12 49 -18 76 -18c82 0 132 56 149 168l58 383h-148l-1 17h152l22 142c19 124 69 181 165 181
z" />
    <glyph glyph-name="uni0218" unicode="&#x218;" horiz-adv-x="619" 
d="M333 387l32 -9c27 -8 48 -15 63 -20s33 -12 56 -23s41 -22 53 -33c24 -21 46 -60 46 -105c0 -65 -27 -116 -81 -153c-53 -37 -115 -56 -186 -56c-53 0 -104 8 -154 23c-49 16 -84 33 -105 52l4 21c21 -20 55 -38 102 -55c47 -16 98 -24 152 -24c38 0 75 6 112 19
s69 34 96 64s41 66 41 107c0 40 -18 73 -41 94c-11 11 -27 21 -48 30c-40 20 -66 28 -119 43c-59 17 -86 25 -127 44c-58 28 -81 60 -86 121c0 59 24 104 72 136c49 33 106 49 171 49c90 0 162 -20 217 -61l-3 -18c-61 41 -132 62 -214 62c-35 0 -68 -5 -101 -16
c-32 -10 -61 -28 -86 -54s-38 -58 -38 -95c0 -21 3 -41 15 -57s18 -27 39 -39s26 -16 55 -27l30 -10zM327 -44l-78 -156h-19l78 156h19z" />
    <glyph glyph-name="uni0219" unicode="&#x219;" horiz-adv-x="484" 
d="M256 -12c-91 0 -165 32 -204 64l2 20c53 -45 121 -67 204 -67c25 0 50 3 74 9c49 13 98 52 98 107c0 28 -12 50 -43 66c-15 9 -28 15 -39 19s-27 10 -49 17c-19 6 -31 10 -37 11l-32 11c-32 11 -35 14 -59 25c-23 12 -28 22 -41 35c-12 13 -15 29 -15 48
c0 41 17 73 51 95c35 23 75 34 122 34c73 0 133 -18 181 -54l-3 -17c-48 36 -107 54 -178 54c-23 0 -46 -3 -68 -10c-44 -12 -87 -48 -87 -99c0 -17 6 -32 13 -43c8 -11 26 -23 37 -30s38 -17 49 -21l55 -18l28 -9l32 -11l28 -12c28 -11 35 -19 51 -34s22 -34 22 -55
c-2 -95 -102 -138 -192 -135zM251 -44l-78 -156h-19l78 156h19z" />
    <glyph glyph-name="uni021A" unicode="&#x21a;" horiz-adv-x="611" 
d="M147 700h537l-2 -17h-260l-108 -683h-18l108 683h-259zM308 -44l-78 -156h-19l78 156h19z" />
    <glyph glyph-name="uni021B" unicode="&#x21b;" horiz-adv-x="415" 
d="M173 97l56 356h-128l3 17h128l25 160h18l-25 -160h189l-3 -17h-189l-54 -344c-3 -15 -4 -27 -4 -37c0 -45 28 -67 83 -67c29 0 58 9 89 26l-3 -20c-25 -15 -54 -23 -88 -23c-66 0 -99 28 -99 83c0 5 1 14 2 26zM265 -44l-78 -156h-19l78 156h19z" />
    <glyph glyph-name="circumflex" unicode="&#x2c6;" horiz-adv-x="520" 
d="M377 700l84 -124h-20l-74 108l-108 -108h-22l122 124h18z" />
    <glyph glyph-name="caron" unicode="&#x2c7;" horiz-adv-x="520" 
d="M349 592l108 108h22l-122 -124h-18l-84 124h20z" />
    <glyph glyph-name="uni02C9" unicode="&#x2c9;" horiz-adv-x="520" 
d="M196 635l3 17h329l-3 -17h-329z" />
    <glyph glyph-name="breve" unicode="&#x2d8;" horiz-adv-x="520" 
d="M462 694h19c-11 -65 -60 -115 -128 -115c-61 0 -103 43 -103 99c0 7 0 12 1 16h18c-1 -3 -1 -8 -1 -15c0 -49 33 -83 86 -83c56 0 99 42 108 98z" />
    <glyph glyph-name="dotaccent" unicode="&#x2d9;" horiz-adv-x="520" 
d="M343 627c-8 9 -8 25 0 34c9 9 27 9 35 0c22 -22 -12 -57 -35 -34z" />
    <glyph glyph-name="ring" unicode="&#x2da;" horiz-adv-x="520" 
d="M348 644c0 -48 -40 -88 -88 -88s-88 40 -88 88c0 47 40 88 88 88s88 -41 88 -88zM210 593c27 -27 73 -27 100 0c27 28 27 74 0 101c-27 28 -73 28 -100 0c-27 -27 -27 -73 0 -101z" />
    <glyph glyph-name="ogonek" unicode="&#x2db;" horiz-adv-x="520" 
d="M247 8h21c-37 -34 -55 -69 -55 -105c0 -41 29 -67 73 -67c11 0 25 2 41 6l-2 -17c-16 -4 -31 -6 -45 -6c-53 0 -85 36 -85 83c0 39 17 75 52 106z" />
    <glyph glyph-name="tilde" unicode="&#x2dc;" horiz-adv-x="520" 
d="M485 681h18c-10 -53 -35 -80 -74 -80c-18 0 -41 11 -70 34s-51 35 -66 35c-27 0 -45 -21 -54 -62h-18c9 51 37 79 74 79c19 0 42 -12 71 -35s50 -34 65 -34c27 0 45 21 54 63z" />
    <glyph glyph-name="hungarumlaut" unicode="&#x2dd;" horiz-adv-x="520" 
d="M230 576l116 124h24l-116 -124h-24zM350 576l116 124h24l-116 -124h-24z" />
    <glyph glyph-name="acutecomb" unicode="&#x301;" horiz-adv-x="20" 
d="M-205 576l116 124h24l-116 -124h-24z" />
    <glyph glyph-name="uni037E" unicode="&#x37e;" horiz-adv-x="255" 
d="M17 -152l109 218h19l-109 -218h-19zM151 411c-22 22 12 56 34 34s-12 -56 -34 -34z" />
    <glyph glyph-name="uni0394" unicode="&#x394;" horiz-adv-x="734" 
d="M469 700h16l212 -700h-660zM474 674l-407 -657h606z" />
    <glyph glyph-name="uni03A9" unicode="&#x3a9;" horiz-adv-x="807" 
d="M751 416c0 -156 -74 -299 -199 -399h135l-2 -17h-163l2 17c63 47 114 105 152 175s57 144 57 222c0 49 -9 94 -26 135c-33 83 -112 146 -216 146c-60 0 -114 -20 -162 -59c-96 -77 -144 -198 -144 -318c0 -55 10 -110 31 -167s45 -101 74 -134l-2 -17h-162l2 17h139
c-28 36 -52 81 -71 136s-29 109 -29 162c0 91 30 187 82 264c52 79 141 133 241 133c80 0 143 -28 190 -84c47 -55 71 -126 71 -212z" />
    <glyph glyph-name="uni03BC" unicode="&#x3bc;" horiz-adv-x="607" 
d="M128 90l-45 -290h-18l105 670h18l-39 -249c-6 -42 -9 -67 -9 -75c0 -89 56 -141 148 -141c44 0 86 12 126 35c41 24 73 52 98 83l55 347h18l-74 -470h-18l15 92c-68 -69 -142 -104 -223 -104c-79 0 -137 37 -157 102z" />
    <glyph glyph-name="pi" unicode="&#x3c0;" horiz-adv-x="661" 
d="M665 470l-3 -17h-98l-53 -339c-3 -20 -4 -34 -4 -41c0 -39 18 -59 54 -59c10 0 21 2 33 7l-3 -18c-11 -4 -22 -6 -33 -6c-46 0 -69 25 -69 75c0 9 1 22 4 41l53 340h-317l-71 -453h-18l71 453h-90l3 17h541z" />
    <glyph glyph-name="uni0401" unicode="&#x401;" horiz-adv-x="634" 
d="M554 386l-3 -17h-363l-56 -352h454l-2 -17h-472l110 700h454l-2 -17h-436l-47 -297h363zM357 805c-8 9 -8 25 0 34c9 9 27 9 35 0c22 -22 -12 -57 -35 -34zM537 805c-8 9 -8 25 0 34c9 9 27 9 35 0c22 -22 -12 -57 -35 -34z" />
    <glyph glyph-name="uni0402" unicode="&#x402;" horiz-adv-x="732" 
d="M490 396c65 0 117 -18 156 -54c40 -36 60 -81 60 -136c0 -63 -22 -116 -67 -157s-101 -61 -169 -61c-43 0 -85 8 -126 25l3 19c35 -18 76 -27 124 -27c59 0 110 18 153 55s64 86 64 146c0 48 -17 89 -52 122c-35 34 -84 51 -148 51c-76 0 -155 -18 -236 -55l-51 -324h-18
l108 683h-146l2 17h459l-2 -17h-295l-54 -339c80 35 158 52 235 52z" />
    <glyph glyph-name="uni0403" unicode="&#x403;" horiz-adv-x="588" 
d="M222 700h439l-2 -17h-421l-108 -683h-18zM420 765l116 124h24l-116 -124h-24z" />
    <glyph glyph-name="uni0404" unicode="&#x404;" horiz-adv-x="694" 
d="M152 320c0 -89 28 -164 84 -225c57 -60 130 -90 220 -90c80 0 151 23 214 68l-3 -22c-59 -42 -130 -63 -211 -63c-96 0 -174 31 -233 94s-89 142 -89 237c0 106 35 198 104 276c70 78 158 117 265 117c83 0 153 -22 210 -65l-3 -19c-59 45 -128 67 -207 67
c-89 0 -167 -32 -234 -95c-66 -63 -104 -142 -115 -235h372l-2 -17h-371c-1 -6 -1 -15 -1 -28z" />
    <glyph glyph-name="uni0405" unicode="&#x405;" horiz-adv-x="619" 
d="M333 387l32 -9c27 -8 48 -15 63 -20s33 -12 56 -23s41 -22 53 -33c24 -21 46 -60 46 -105c0 -65 -27 -116 -81 -153c-53 -37 -115 -56 -186 -56c-53 0 -104 8 -154 23c-49 16 -84 33 -105 52l4 21c21 -20 55 -38 102 -55c47 -16 98 -24 152 -24c38 0 75 6 112 19
s69 34 96 64s41 66 41 107c0 40 -18 73 -41 94c-11 11 -27 21 -48 30c-40 20 -66 28 -119 43c-59 17 -86 25 -127 44c-58 28 -81 60 -86 121c0 59 24 104 72 136c49 33 106 49 171 49c90 0 162 -20 217 -61l-3 -18c-61 41 -132 62 -214 62c-35 0 -68 -5 -101 -16
c-32 -10 -61 -28 -86 -54s-38 -58 -38 -95c0 -21 3 -41 15 -57s18 -27 39 -39s26 -16 55 -27l30 -10z" />
    <glyph glyph-name="uni0406" unicode="&#x406;" horiz-adv-x="256" 
d="M247 700l-110 -700h-18l110 700h18z" />
    <glyph glyph-name="uni0407" unicode="&#x407;" horiz-adv-x="256" 
d="M247 700l-110 -700h-18l110 700h18zM151 805c-22 22 12 56 34 34s-12 -56 -34 -34zM331 805c-22 22 12 56 34 34s-12 -56 -34 -34z" />
    <glyph glyph-name="uni0408" unicode="&#x408;" horiz-adv-x="498" 
d="M487 700h18l-81 -512c-21 -133 -99 -200 -233 -200c-60 0 -109 17 -147 50l3 22c35 -37 84 -55 147 -55c124 0 192 57 212 185z" />
    <glyph glyph-name="uni0409" unicode="&#x409;" horiz-adv-x="1124" 
d="M663 411h221c139 0 214 -69 214 -178c0 -72 -24 -129 -71 -171c-47 -41 -109 -62 -186 -62h-261l107 683h-346l-34 -175c-11 -57 -21 -104 -30 -143c-9 -38 -19 -78 -32 -121c-12 -42 -25 -76 -39 -103c-42 -83 -103 -146 -191 -141l2 18c74 5 125 40 165 119
c14 28 26 54 35 78c9 25 19 57 29 97s18 74 23 101l22 110l34 177h383zM880 394h-220l-60 -377h240c70 0 128 19 173 56s68 91 68 160c0 103 -72 161 -201 161z" />
    <glyph glyph-name="uni040A" unicode="&#x40a;" horiz-adv-x="1152" 
d="M691 411h221c139 0 214 -69 214 -178c0 -72 -24 -129 -71 -171c-47 -41 -109 -62 -186 -62h-261l62 394h-478l-62 -394h-18l110 700h18l-45 -289h477l46 289h18zM908 394h-220l-60 -377h240c70 0 128 19 173 56s68 91 68 160c0 103 -72 161 -201 161z" />
    <glyph glyph-name="uni040B" unicode="&#x40b;" horiz-adv-x="756" 
d="M253 331l-52 -331h-18l107 683h-145l2 17h459l-2 -17h-296l-52 -333c86 31 169 46 248 46c135 0 207 -40 207 -151c0 -14 -2 -32 -5 -54l-30 -191h-18l28 178c5 34 7 56 7 66c0 99 -58 135 -193 135c-83 0 -166 -16 -247 -48z" />
    <glyph glyph-name="uni040C" unicode="&#x40c;" horiz-adv-x="645" 
d="M679 700l-422 -323l368 -377h-27l-364 374l2 10l415 316h28zM130 0h-18l110 700h18zM400 765l116 124h24l-116 -124h-24z" />
    <glyph glyph-name="uni040E" unicode="&#x40e;" 
d="M657 700h21l-330 -554c-35 -59 -66 -101 -91 -124s-55 -34 -88 -34c-25 0 -47 4 -68 11l2 18c21 -8 42 -12 65 -12c31 0 58 12 83 37s57 71 96 138l4 7l-223 513h20l215 -495zM275 893h18c-1 -4 -1 -10 -1 -19c0 -56 41 -95 112 -95c76 0 133 47 144 114h19
c-12 -77 -78 -131 -162 -131c-80 0 -131 44 -131 109c0 9 0 17 1 22z" />
    <glyph glyph-name="uni040F" unicode="&#x40f;" horiz-adv-x="739" 
d="M719 700h18l-110 -700h-249l-27 -167h-18l27 167h-248l110 700h18l-108 -683h479z" />
    <glyph glyph-name="uni0410" unicode="&#x410;" horiz-adv-x="734" 
d="M697 0h-19l-66 219h-420l-135 -219h-20l433 705h16zM607 236l-132 443l-273 -443h405z" />
    <glyph glyph-name="uni0411" unicode="&#x411;" horiz-adv-x="699" 
d="M195 411h241c139 0 217 -69 217 -178c0 -72 -24 -129 -71 -171c-47 -41 -109 -62 -186 -62h-284l110 700h455l-2 -17h-437zM192 394l-60 -377h263c70 0 128 19 173 56s68 91 68 160c0 103 -75 161 -204 161h-240z" />
    <glyph glyph-name="uni0412" unicode="&#x412;" horiz-adv-x="728" 
d="M540 379c93 -13 145 -77 145 -161c0 -69 -24 -122 -71 -161c-47 -38 -107 -57 -181 -57h-321l110 700h284c108 0 169 -60 169 -145s-50 -151 -135 -176zM503 683h-265l-48 -300h265c56 0 104 15 143 44s59 72 59 128c0 79 -55 128 -154 128zM187 366l-55 -349h302
c66 0 121 17 166 51c45 35 67 85 67 150c0 91 -65 148 -178 148h-302z" />
    <glyph glyph-name="uni0413" unicode="&#x413;" horiz-adv-x="588" 
d="M222 700h439l-2 -17h-421l-108 -683h-18z" />
    <glyph glyph-name="uni0414" unicode="&#x414;" horiz-adv-x="763" 
d="M731 17l-29 -184h-18l27 167h-673l-27 -167h-17l28 184h64c63 69 113 151 152 244c39 94 70 220 93 377l9 62h385l-108 -683h114zM109 17h490l106 666h-349l-8 -52c-23 -151 -53 -274 -90 -369c-36 -94 -86 -176 -149 -245z" />
    <glyph glyph-name="uni0415" unicode="&#x415;" horiz-adv-x="634" 
d="M554 386l-3 -17h-363l-56 -352h454l-2 -17h-472l110 700h454l-2 -17h-436l-47 -297h363z" />
    <glyph glyph-name="uni0416" unicode="&#x416;" horiz-adv-x="1003" 
d="M1040 700l-405 -328l336 -372h-24l-333 367l1 11l397 322h28zM510 0h-18l110 700h18zM48 0h-28l465 373l-301 327h25l297 -322l-1 -11z" />
    <glyph glyph-name="uni0417" unicode="&#x417;" horiz-adv-x="617" 
d="M422 386c43 -9 80 -29 111 -61c31 -31 47 -70 47 -116c0 -70 -28 -124 -85 -163c-56 -39 -123 -58 -201 -58c-82 0 -156 17 -223 51l3 20c65 -36 138 -54 220 -54c41 0 81 6 120 19s74 36 103 67c30 32 45 71 45 116c0 49 -20 90 -59 122c-39 33 -91 49 -156 49h-83l3 17
h88c54 0 102 14 143 42c42 28 63 69 63 122c0 85 -78 136 -194 136c-68 0 -133 -13 -195 -40l3 20c65 25 129 37 192 37c127 0 212 -57 212 -154c0 -91 -65 -153 -157 -172z" />
    <glyph glyph-name="uni0418" unicode="&#x418;" horiz-adv-x="771" 
d="M641 0l106 670l-618 -670h-17l110 700h18l-106 -669l617 669h18l-110 -700h-18z" />
    <glyph glyph-name="uni0419" unicode="&#x419;" horiz-adv-x="771" 
d="M641 0l106 670l-618 -670h-17l110 700h18l-106 -669l617 669h18l-110 -700h-18zM380 893h18c-1 -4 -1 -10 -1 -19c0 -56 41 -95 112 -95c76 0 133 47 144 114h19c-12 -77 -78 -131 -162 -131c-80 0 -131 44 -131 109c0 9 0 17 1 22z" />
    <glyph glyph-name="uni041A" unicode="&#x41a;" horiz-adv-x="645" 
d="M679 700l-422 -323l368 -377h-27l-364 374l2 10l415 316h28zM130 0h-18l110 700h18z" />
    <glyph glyph-name="uni041B" unicode="&#x41b;" horiz-adv-x="720" 
d="M718 700l-110 -700h-18l108 683h-357l-34 -175c-11 -57 -21 -104 -30 -143c-9 -38 -19 -78 -32 -121c-12 -42 -25 -76 -39 -103c-42 -83 -103 -146 -191 -141l2 18c74 5 125 40 165 119c14 28 26 54 35 78c9 25 19 57 29 97s18 74 23 101l22 110l34 177h393z" />
    <glyph glyph-name="uni041C" unicode="&#x41c;" horiz-adv-x="845" 
d="M843 700l-110 -700h-18l106 670l-341 -365h-17l-227 366l-106 -671h-18l110 700h18l233 -377l351 377h19z" />
    <glyph glyph-name="uni041D" unicode="&#x41d;" horiz-adv-x="758" 
d="M646 0h-18l58 369h-498l-58 -369h-18l110 700h18l-49 -314h498l49 314h18z" />
    <glyph glyph-name="uni041E" unicode="&#x41e;" horiz-adv-x="848" 
d="M503 712c95 0 173 -31 232 -94s89 -141 89 -236c0 -107 -35 -199 -105 -277s-158 -117 -264 -117c-95 0 -173 31 -232 94s-89 142 -89 237c0 107 35 199 105 276c70 78 158 117 264 117zM455 5c97 0 179 37 248 110s103 162 103 266c0 90 -28 165 -85 224
c-56 60 -129 90 -218 90c-97 0 -179 -37 -248 -110s-103 -161 -103 -265c0 -90 28 -165 84 -225c57 -60 130 -90 219 -90z" />
    <glyph glyph-name="uni041F" unicode="&#x41f;" horiz-adv-x="744" 
d="M112 0l110 700h520l-110 -700h-18l108 683h-484l-108 -683h-18z" />
    <glyph glyph-name="uni0420" unicode="&#x420;" horiz-adv-x="664" 
d="M112 0l110 700h276c123 0 191 -63 191 -160c0 -61 -22 -110 -65 -147s-98 -55 -164 -55h-277l-53 -338h-18zM186 355h275c58 1 107 17 148 49s62 77 62 134c0 92 -63 145 -175 145h-258z" />
    <glyph glyph-name="uni0421" unicode="&#x421;" horiz-adv-x="694" 
d="M152 320c0 -89 28 -164 84 -225c57 -60 130 -90 220 -90c80 0 151 23 214 68l-3 -22c-59 -42 -130 -63 -211 -63c-96 0 -174 31 -233 94s-89 142 -89 237c0 106 35 198 104 276c70 78 158 117 265 117c83 0 153 -22 210 -65l-3 -19c-59 45 -128 67 -207 67
c-97 0 -180 -37 -249 -110c-68 -73 -102 -161 -102 -265z" />
    <glyph glyph-name="uni0422" unicode="&#x422;" horiz-adv-x="611" 
d="M147 700h537l-2 -17h-260l-108 -683h-18l108 683h-259z" />
    <glyph glyph-name="uni0423" unicode="&#x423;" 
d="M657 700h21l-330 -554c-35 -59 -66 -101 -91 -124s-55 -34 -88 -34c-25 0 -47 4 -68 11l2 18c21 -8 42 -12 65 -12c31 0 58 12 83 37s57 71 96 138l4 7l-223 513h20l215 -495z" />
    <glyph glyph-name="uni0424" unicode="&#x424;" horiz-adv-x="896" 
d="M454 -26h-18l11 68c-95 3 -171 29 -228 78s-85 113 -85 191c0 105 36 187 108 245c73 59 167 88 284 88h16l11 68h18l-11 -68c94 -3 169 -29 226 -78s86 -113 86 -191c0 -105 -36 -187 -108 -246c-72 -58 -166 -87 -283 -87h-16zM854 371c0 75 -27 135 -80 181
s-125 71 -217 75l-90 -568h16c107 0 196 27 266 81c70 55 105 132 105 231zM152 315c0 -75 26 -135 79 -181s126 -71 218 -75l90 568h-16c-107 0 -196 -27 -266 -82c-70 -54 -105 -131 -105 -230z" />
    <glyph glyph-name="uni0425" unicode="&#x425;" horiz-adv-x="689" 
d="M623 0l-218 367l-335 -367h-25l348 382l-190 318h21l181 -303l277 303h25l-291 -317l230 -383h-23z" />
    <glyph glyph-name="uni0426" unicode="&#x426;" horiz-adv-x="775" 
d="M629 17h114l-29 -184h-18l27 167h-611l110 700h18l-108 -683h479l108 683h18z" />
    <glyph glyph-name="uni0427" unicode="&#x427;" horiz-adv-x="685" 
d="M613 369l52 331h18l-110 -700h-18l55 350c-86 -31 -169 -46 -248 -46c-135 0 -207 40 -207 151c0 14 2 32 5 54l30 191h18l-28 -178c-5 -34 -7 -56 -7 -66c0 -99 58 -135 193 -135c83 0 166 16 247 48z" />
    <glyph glyph-name="uni0428" unicode="&#x428;" horiz-adv-x="1004" 
d="M876 17l108 683h18l-110 -700h-780l110 700h18l-108 -683h363l108 683h18l-108 -683h363z" />
    <glyph glyph-name="uni0429" unicode="&#x429;" horiz-adv-x="1041" 
d="M895 17h114l-29 -184h-18l27 167h-877l110 700h19l-108 -683h363l108 683h18l-108 -683h363l108 683h18z" />
    <glyph glyph-name="uni042A" unicode="&#x42a;" horiz-adv-x="778" 
d="M122 700h220l-45 -289h241c139 0 214 -69 214 -178c0 -72 -24 -129 -71 -171c-47 -41 -109 -62 -186 -62h-281l107 683h-201zM294 394l-60 -377h260c70 0 128 19 173 56s68 91 68 160c0 103 -72 161 -201 161h-240z" />
    <glyph glyph-name="uni042B" unicode="&#x42b;" horiz-adv-x="849" 
d="M847 700l-110 -700h-18l110 700h18zM195 411h220c139 0 214 -69 214 -178c0 -72 -24 -129 -71 -171c-47 -41 -109 -62 -186 -62h-260l110 700h18zM192 394l-60 -377h239c70 0 128 19 173 56s68 91 68 160c0 103 -72 161 -201 161h-219z" />
    <glyph glyph-name="uni042C" unicode="&#x42c;" horiz-adv-x="676" 
d="M195 411h241c139 0 214 -69 214 -178c0 -72 -24 -129 -71 -171c-47 -41 -109 -62 -186 -62h-281l110 700h18zM192 394l-60 -377h260c70 0 128 19 173 56s68 91 68 160c0 103 -72 161 -201 161h-240z" />
    <glyph glyph-name="uni042D" unicode="&#x42d;" horiz-adv-x="675" 
d="M329 712c96 0 174 -32 233 -95s89 -141 89 -236c0 -106 -35 -198 -105 -276c-69 -78 -157 -117 -264 -117c-83 0 -153 22 -210 65l3 19c59 -45 128 -67 207 -67c92 0 171 33 238 99s105 147 112 244h-372l2 17h370c0 4 1 12 1 15c0 89 -28 164 -85 224
c-56 61 -129 91 -219 91c-65 0 -126 -17 -183 -51l3 20c55 32 115 48 180 48z" />
    <glyph glyph-name="uni042E" unicode="&#x42e;" horiz-adv-x="1031" 
d="M712 712c88 0 159 -31 213 -93c55 -62 82 -140 82 -233c0 -65 -14 -128 -41 -188c-27 -59 -67 -109 -122 -150c-55 -40 -117 -60 -186 -60c-88 0 -159 31 -214 93c-54 63 -81 141 -81 234c0 17 0 30 1 39h-178l-56 -354h-18l111 700h18l-52 -329h178
c12 93 49 173 111 240c63 67 141 101 234 101zM660 5c63 0 120 19 171 56c103 75 158 198 158 326c0 91 -26 165 -79 222s-119 86 -200 86c-63 0 -120 -19 -171 -56c-103 -73 -158 -197 -158 -325c0 -91 26 -165 79 -223c53 -57 119 -86 200 -86z" />
    <glyph glyph-name="uni042F" unicode="&#x42f;" horiz-adv-x="733" 
d="M370 346l-287 -346h-23l287 346c-100 7 -157 69 -157 152c0 62 22 111 67 147c45 37 101 55 168 55h306l-110 -700h-18l54 346h-287zM374 363h286l51 320h-286c-60 0 -111 -16 -154 -48c-42 -32 -63 -78 -63 -137c0 -84 61 -135 166 -135z" />
    <glyph glyph-name="uni0430" unicode="&#x430;" horiz-adv-x="583" 
d="M537 12c7 0 14 1 20 3l-2 -17c-7 -2 -15 -3 -22 -3c-41 0 -68 26 -68 69c0 6 0 11 1 15c-61 -61 -133 -91 -216 -91c-51 0 -93 13 -127 39c-33 26 -50 61 -50 105c0 52 21 92 63 120c43 28 91 42 144 42c76 0 145 -23 208 -68l12 74c2 14 3 27 3 39
c0 80 -55 126 -160 126c-68 0 -126 -14 -173 -43l4 21c43 26 101 39 173 39c104 0 174 -46 174 -141c0 -5 -1 -19 -4 -43l-31 -200c-2 -14 -3 -25 -3 -33c0 -35 18 -53 54 -53zM256 5c80 0 151 34 213 101l16 101c-59 47 -127 70 -204 70c-50 0 -94 -13 -133 -38
c-38 -25 -57 -61 -57 -106c0 -81 70 -128 165 -128z" />
    <glyph glyph-name="uni0431" unicode="&#x431;" horiz-adv-x="613" 
d="M617 698l-3 -18l-91 -14c-41 -5 -78 -11 -109 -17c-159 -29 -251 -132 -274 -337c52 83 139 141 243 141c62 0 113 -20 152 -60c40 -40 60 -90 60 -150c0 -68 -23 -128 -70 -179s-105 -76 -176 -76s-127 24 -168 72s-61 112 -61 193c0 19 1 39 3 60c12 112 42 195 91 249
c49 55 116 90 200 105c22 4 54 9 97 15s79 11 106 16zM350 5c64 0 118 23 161 70c44 47 66 104 66 170c0 56 -19 102 -56 137c-37 36 -83 54 -138 54c-53 0 -102 -16 -145 -47s-76 -67 -99 -110c-1 -7 -1 -16 -1 -27c0 -148 75 -247 212 -247z" />
    <glyph glyph-name="uni0432" unicode="&#x432;" horiz-adv-x="564" 
d="M96 0l74 470h230c75 0 118 -43 118 -103c0 -56 -32 -100 -87 -123c52 -12 82 -52 82 -103c0 -89 -68 -141 -165 -141h-252zM397 453h-212l-32 -202h211c75 0 136 40 136 115c0 53 -38 87 -103 87zM116 17h234c83 1 145 44 145 124c0 56 -41 93 -110 93h-234z" />
    <glyph glyph-name="uni0433" unicode="&#x433;" horiz-adv-x="478" 
d="M96 0l74 470h335l-3 -17h-317l-71 -453h-18z" />
    <glyph glyph-name="uni0434" unicode="&#x434;" horiz-adv-x="619" 
d="M587 17l-27 -172h-18l24 155h-528l-25 -155h-17l27 172h56c80 79 135 214 166 407l7 46h312l-72 -453h95zM103 17h371l70 436h-276l-6 -36c-31 -189 -84 -322 -159 -400z" />
    <glyph glyph-name="uni0435" unicode="&#x435;" horiz-adv-x="560" 
d="M328 5c51 0 99 14 144 42l-3 -21c-39 -25 -86 -38 -141 -38c-67 0 -124 21 -169 62c-45 42 -68 96 -68 162c0 71 24 133 71 188s108 82 183 82c66 0 115 -21 148 -64s50 -90 50 -142c0 -8 -1 -19 -2 -34h-431c-1 -7 -1 -17 -1 -30c0 -60 21 -110 62 -149s94 -58 157 -58z
M343 465c-59 0 -109 -20 -152 -60c-42 -39 -68 -88 -78 -146h411c0 3 1 12 1 17c0 49 -15 93 -46 131c-30 39 -75 58 -136 58z" />
    <glyph glyph-name="uni0436" unicode="&#x436;" horiz-adv-x="772" 
d="M760 470l-268 -217l227 -253h-25l-223 249l1 9l260 212h28zM77 0h-28l311 255l-193 215h24l189 -212l-1 -9zM395 0h-18l74 470h18z" />
    <glyph glyph-name="uni0437" unicode="&#x437;" horiz-adv-x="508" 
d="M347 253c63 -13 110 -51 110 -114c0 -51 -21 -89 -64 -114s-95 -37 -157 -37c-61 0 -116 11 -165 32l3 20c49 -23 104 -35 164 -35c89 0 201 34 201 132c0 65 -63 107 -154 107h-74l3 17h73c99 0 155 48 155 108c0 61 -58 96 -150 96c-52 0 -104 -10 -155 -30l3 18
c51 19 103 29 156 29c96 0 164 -44 164 -112c0 -60 -50 -105 -113 -117z" />
    <glyph glyph-name="uni0438" unicode="&#x438;" horiz-adv-x="599" 
d="M118 32l444 438h15l-74 -470h-18l69 438l-443 -438h-15l74 470h18z" />
    <glyph glyph-name="uni0439" unicode="&#x439;" horiz-adv-x="599" 
d="M118 32l444 438h15l-74 -470h-18l69 438l-443 -438h-15l74 470h18zM265 710h18c-1 -4 -1 -10 -1 -19c0 -56 41 -95 112 -95c76 0 133 47 144 114h19c-12 -77 -78 -131 -162 -131c-80 0 -131 44 -131 109c0 9 0 17 1 22z" />
    <glyph glyph-name="uni043A" unicode="&#x43a;" horiz-adv-x="510" 
d="M114 0h-18l74 470h18zM507 470l-291 -214l253 -256h-26l-250 253l1 10l284 207h29z" />
    <glyph glyph-name="uni043B" unicode="&#x43b;" horiz-adv-x="572" 
d="M550 470l-74 -470h-18l71 453h-273l-23 -120c-43 -225 -101 -333 -213 -333l2 17c100 0 154 112 194 319l25 134h309z" />
    <glyph glyph-name="uni043C" unicode="&#x43c;" horiz-adv-x="683" 
d="M373 215l271 255h17l-74 -470h-18l70 441l-265 -249h-6l-184 250l-70 -442h-18l74 470h15z" />
    <glyph glyph-name="uni043D" unicode="&#x43d;" horiz-adv-x="596" 
d="M521 251l35 219h18l-74 -470h-18l37 234h-368l-37 -234h-18l74 470h18l-35 -219h368z" />
    <glyph glyph-name="uni043E" unicode="&#x43e;" horiz-adv-x="611" 
d="M354 482c71 0 127 -23 169 -68s63 -98 63 -161c0 -73 -25 -135 -76 -187c-50 -52 -112 -78 -187 -78c-71 0 -127 22 -169 67s-63 99 -63 162c0 73 25 135 75 187c51 52 113 78 188 78zM324 5c67 0 125 24 172 73c48 49 72 107 72 176c0 60 -20 110 -60 150
c-39 41 -91 61 -155 61c-67 0 -125 -24 -173 -73c-47 -49 -71 -107 -71 -176c0 -60 20 -110 59 -151c40 -40 92 -60 156 -60z" />
    <glyph glyph-name="uni043F" unicode="&#x43f;" horiz-adv-x="587" 
d="M96 0l74 470h395l-74 -470h-18l71 453h-359l-71 -453h-18z" />
    <glyph glyph-name="uni0440" unicode="&#x440;" horiz-adv-x="629" 
d="M130 98l-47 -298h-18l105 670h18l-13 -82c56 63 123 94 200 94c71 0 126 -22 167 -66c41 -43 62 -97 62 -160c0 -74 -25 -137 -76 -190c-50 -52 -112 -78 -187 -78c-96 0 -171 47 -211 110zM374 465c-40 0 -79 -11 -117 -33c-37 -21 -67 -49 -88 -82l-35 -224
c17 -33 43 -61 80 -85s80 -36 128 -36c67 0 124 24 172 73s72 109 72 178c0 59 -20 109 -59 149s-90 60 -153 60z" />
    <glyph glyph-name="uni0441" unicode="&#x441;" horiz-adv-x="512" 
d="M321 -12c-73 0 -129 22 -170 66c-40 44 -60 97 -60 158c0 77 26 141 77 192c51 52 114 78 188 78c63 0 115 -15 156 -45l-3 -18c-41 31 -91 46 -150 46c-71 0 -130 -24 -178 -73c-47 -49 -71 -108 -71 -179c0 -59 19 -108 57 -148c39 -40 91 -60 156 -60
c54 0 102 13 144 40l-3 -21c-41 -24 -89 -36 -143 -36z" />
    <glyph glyph-name="uni0442" unicode="&#x442;" horiz-adv-x="460" 
d="M103 453l3 17h396l-3 -17h-189l-71 -453h-18l71 453h-189z" />
    <glyph glyph-name="uni0443" unicode="&#x443;" horiz-adv-x="522" 
d="M527 470h21l-311 -525c-59 -97 -109 -148 -176 -148c-23 0 -42 5 -57 15l3 18c16 -11 35 -16 56 -16c34 0 64 16 91 47s63 83 107 158l-159 451h20l151 -429z" />
    <glyph glyph-name="uni0444" unicode="&#x444;" horiz-adv-x="700" 
d="M395 479h18l34 221h18l-34 -221c153 -13 244 -97 244 -224c0 -79 -27 -142 -82 -191s-129 -73 -222 -73h-18l-30 -191h-18l30 191c-153 13 -244 99 -244 224c0 79 27 142 82 191s129 73 222 73zM428 462l-72 -454h18c83 0 151 23 204 68s79 105 79 179
c0 120 -92 195 -229 207zM338 8l72 454h-18c-83 0 -151 -23 -204 -68s-79 -105 -79 -179c0 -120 92 -195 229 -207z" />
    <glyph glyph-name="uni0445" unicode="&#x445;" horiz-adv-x="527" 
d="M510 470h25l-217 -218l174 -252h-23l-165 239l-237 -239h-26l253 253l-149 217h23l139 -204z" />
    <glyph glyph-name="uni0446" unicode="&#x446;" horiz-adv-x="614" 
d="M559 470l-72 -453h95l-27 -172h-18l24 155h-465l74 470h18l-72 -453h353l72 453h18z" />
    <glyph glyph-name="uni0447" unicode="&#x447;" horiz-adv-x="548" 
d="M280 179c-105 0 -159 37 -159 125c0 14 2 31 5 51l18 115h18l-18 -113c-3 -20 -5 -37 -5 -50c0 -81 49 -111 152 -111c49 0 127 16 180 40l37 234h18l-74 -470h-18l34 217c-61 -25 -124 -38 -188 -38z" />
    <glyph glyph-name="uni0448" unicode="&#x448;" horiz-adv-x="796" 
d="M684 17l72 453h18l-74 -470h-604l74 470h18l-72 -453h275l72 453h18l-72 -453h275z" />
    <glyph glyph-name="uni0449" unicode="&#x449;" horiz-adv-x="829" 
d="M774 470l-72 -453h95l-27 -172h-17l24 155h-681l74 470h18l-72 -453h275l72 453h18l-72 -453h275l72 453h18z" />
    <glyph glyph-name="uni044A" unicode="&#x44a;" horiz-adv-x="618" 
d="M232 288h198c97 0 152 -50 152 -127c0 -48 -17 -87 -51 -117c-34 -29 -77 -44 -130 -44h-232l71 454h-154l3 16h172zM189 17h212c45 1 83 13 115 38s48 61 48 106c0 71 -49 110 -137 110h-198z" />
    <glyph glyph-name="uni044B" unicode="&#x44b;" horiz-adv-x="666" 
d="M552 0l74 470h18l-74 -470h-18zM159 288h168c97 0 152 -50 152 -127c0 -48 -17 -87 -51 -117c-34 -29 -77 -44 -130 -44h-202l74 470h18zM116 17h182c45 1 83 13 115 38s48 61 48 106c0 71 -49 110 -137 110h-168z" />
    <glyph glyph-name="uni044C" unicode="&#x44c;" horiz-adv-x="546" 
d="M159 288h199c97 0 152 -50 152 -127c0 -48 -17 -87 -51 -117c-34 -29 -77 -44 -130 -44h-233l74 470h18zM116 17h213c45 1 83 13 115 38s48 61 48 106c0 71 -49 110 -137 110h-199z" />
    <glyph glyph-name="uni044D" unicode="&#x44d;" horiz-adv-x="527" 
d="M81 37l3 20c43 -35 95 -52 156 -52c67 0 123 22 167 65c45 44 70 97 76 160h-275l2 17h274v5c0 60 -20 110 -59 151s-90 62 -154 62c-51 0 -97 -12 -139 -36l3 20c39 22 84 33 137 33c71 0 127 -23 168 -68s62 -99 62 -162c0 -75 -25 -138 -76 -189
c-51 -50 -113 -75 -186 -75c-63 0 -116 16 -159 49z" />
    <glyph glyph-name="uni044E" unicode="&#x44e;" horiz-adv-x="778" 
d="M542 482c63 0 114 -22 153 -66c39 -43 58 -97 58 -161c0 -69 -23 -131 -70 -186c-47 -54 -106 -81 -177 -81c-63 0 -114 22 -153 66s-58 98 -58 162v10h-146l-35 -226h-18l74 470h18l-36 -227h144c6 64 32 120 77 167c46 48 102 72 169 72zM506 5c63 0 116 25 161 75
s68 109 68 176c0 59 -18 109 -53 149s-82 60 -140 60c-63 0 -117 -25 -162 -75c-45 -49 -67 -108 -67 -175c0 -59 18 -109 53 -150c35 -40 82 -60 140 -60z" />
    <glyph glyph-name="uni044F" unicode="&#x44f;" horiz-adv-x="557" 
d="M295 470h240l-74 -470h-18l31 200h-197l-189 -200h-24l188 200c-83 4 -128 48 -128 116c0 93 66 150 171 154zM267 217h210l37 236h-218c-43 0 -79 -12 -109 -36s-45 -58 -45 -101c0 -63 45 -99 125 -99z" />
    <glyph glyph-name="uni0451" unicode="&#x451;" horiz-adv-x="560" 
d="M328 5c51 0 99 14 144 42l-3 -21c-39 -25 -86 -38 -141 -38c-67 0 -124 21 -169 62c-45 42 -68 96 -68 162c0 71 24 133 71 188s108 82 183 82c66 0 115 -21 148 -64s50 -90 50 -142c0 -8 -1 -19 -2 -34h-431c-1 -7 -1 -17 -1 -30c0 -60 21 -110 62 -149s94 -58 157 -58z
M343 465c-59 0 -109 -20 -152 -60c-42 -39 -68 -88 -78 -146h411c0 3 1 12 1 17c0 49 -15 93 -46 131c-30 39 -75 58 -136 58zM267 597c-8 9 -8 25 0 34c9 9 27 9 35 0c22 -22 -12 -57 -35 -34zM447 597c-8 9 -8 25 0 34c9 9 27 9 35 0c22 -22 -12 -57 -35 -34z" />
    <glyph glyph-name="uni0452" unicode="&#x452;" horiz-adv-x="610" 
d="M499 -88l51 315c3 16 4 33 4 50c0 89 -48 133 -144 133c-41 0 -84 -12 -128 -36c-43 -23 -77 -51 -100 -82l-46 -292h-18l87 558h-102l3 17h102l20 125h18l-20 -125h129l-3 -17h-129l-37 -235c52 56 140 104 229 104c105 0 158 -53 158 -148c0 -17 -1 -34 -4 -49
l-52 -323c-5 -31 -15 -56 -30 -73c-31 -35 -57 -37 -98 -37c-24 0 -45 5 -63 16l3 20c18 -13 39 -19 63 -19c64 0 95 26 107 98z" />
    <glyph glyph-name="uni0453" unicode="&#x453;" horiz-adv-x="478" 
d="M96 0l74 470h335l-3 -17h-317l-71 -453h-18zM314 576l116 124h24l-116 -124h-24z" />
    <glyph glyph-name="uni0454" unicode="&#x454;" horiz-adv-x="512" 
d="M321 -12c-73 0 -129 22 -170 66c-40 44 -60 97 -60 158c0 77 26 141 77 192c51 52 114 78 188 78c63 0 115 -15 156 -45l-3 -18c-41 31 -91 46 -150 46c-65 0 -120 -21 -167 -63c-46 -41 -73 -93 -80 -156h269l-2 -17h-269v-16c0 -59 19 -108 57 -148
c39 -40 91 -60 156 -60c54 0 102 13 144 40l-3 -21c-41 -24 -89 -36 -143 -36z" />
    <glyph glyph-name="uni0455" unicode="&#x455;" horiz-adv-x="484" 
d="M256 -12c-91 0 -165 32 -204 64l2 20c53 -45 121 -67 204 -67c25 0 50 3 74 9c49 13 98 52 98 107c0 28 -12 50 -43 66c-15 9 -28 15 -39 19s-27 10 -49 17c-19 6 -31 10 -37 11l-32 11c-32 11 -35 14 -59 25c-23 12 -28 22 -41 35c-12 13 -15 29 -15 48
c0 41 17 73 51 95c35 23 75 34 122 34c73 0 133 -18 181 -54l-3 -17c-48 36 -107 54 -178 54c-23 0 -46 -3 -68 -10c-44 -12 -87 -48 -87 -99c0 -17 6 -32 13 -43c8 -11 26 -23 37 -30s38 -17 49 -21l55 -18l28 -9l32 -11l28 -12c28 -11 35 -19 51 -34s22 -34 22 -55
c-2 -95 -102 -138 -192 -135z" />
    <glyph glyph-name="uni0456" unicode="&#x456;" horiz-adv-x="235" 
d="M201 470l-74 -470h-18l74 470h18zM199 627c-22 22 12 56 34 34s-12 -56 -34 -34z" />
    <glyph glyph-name="uni0457" unicode="&#x457;" horiz-adv-x="235" 
d="M113 627c-22 22 12 56 34 34s-12 -56 -34 -34zM293 627c-22 22 12 56 34 34s-12 -56 -34 -34zM201 470l-74 -470h-18l74 470h18z" />
    <glyph glyph-name="uni0458" unicode="&#x458;" horiz-adv-x="235" 
d="M183 470h18l-89 -563c-9 -63 -46 -97 -75 -104c-15 -4 -32 -6 -53 -6c-24 0 -45 5 -63 16l3 20c18 -13 39 -19 63 -19c64 0 95 26 107 98zM199 627c-22 22 12 56 34 34s-12 -56 -34 -34z" />
    <glyph glyph-name="uni0459" unicode="&#x459;" horiz-adv-x="898" 
d="M521 288h189c97 0 152 -50 152 -127c0 -48 -17 -87 -51 -117c-34 -29 -77 -44 -130 -44h-223l71 453h-273l-23 -120c-43 -225 -101 -333 -213 -333l2 17c100 0 154 112 194 319l25 134h309zM478 17h203c45 1 83 13 115 38s48 61 48 106c0 71 -49 110 -137 110h-189z" />
    <glyph glyph-name="uni045A" unicode="&#x45a;" horiz-adv-x="889" 
d="M531 265h171c96 0 151 -47 151 -118c0 -47 -18 -83 -53 -109c-35 -25 -78 -38 -130 -38h-198l39 248h-358l-39 -248h-18l74 470h18l-33 -205h358l33 205h18zM492 17h179c44 1 82 12 115 33s49 54 49 97c0 64 -49 101 -136 101h-170z" />
    <glyph glyph-name="uni045B" unicode="&#x45b;" horiz-adv-x="610" 
d="M569 230l-36 -230h-18l35 227c3 16 4 33 4 50c0 89 -48 133 -144 133c-41 0 -84 -12 -128 -36c-43 -23 -77 -51 -100 -82l-46 -292h-18l87 558h-102l3 17h102l20 125h18l-20 -125h129l-3 -17h-129l-37 -235c52 56 140 104 229 104c105 0 158 -53 158 -148
c0 -17 -1 -34 -4 -49z" />
    <glyph glyph-name="uni045C" unicode="&#x45c;" horiz-adv-x="510" 
d="M114 0h-18l74 470h18zM507 470l-291 -214l253 -256h-26l-250 253l1 10l284 207h29zM306 576l116 124h24l-116 -124h-24z" />
    <glyph glyph-name="uni045E" unicode="&#x45e;" horiz-adv-x="522" 
d="M527 470h21l-311 -525c-59 -97 -109 -148 -176 -148c-23 0 -42 5 -57 15l3 18c16 -11 35 -16 56 -16c34 0 64 16 91 47s63 83 107 158l-159 451h20l151 -429zM204 710h18c-1 -4 -1 -10 -1 -19c0 -56 41 -95 112 -95c76 0 133 47 144 114h19c-12 -77 -78 -131 -162 -131
c-80 0 -131 44 -131 109c0 9 0 17 1 22z" />
    <glyph glyph-name="uni045F" unicode="&#x45f;" horiz-adv-x="581" 
d="M469 17l72 453h18l-74 -470h-186l-25 -155h-18l25 155h-185l74 470h18l-72 -453h353z" />
    <glyph glyph-name="uni0490" unicode="&#x490;" horiz-adv-x="583" 
d="M130 0h-18l110 700h416l24 150h18l-26 -167h-416z" />
    <glyph glyph-name="uni0491" unicode="&#x491;" horiz-adv-x="478" 
d="M96 0l74 470h317l22 138h18l-25 -155h-317l-71 -453h-18z" />
    <glyph glyph-name="uni1E02" unicode="&#x1e02;" horiz-adv-x="728" 
d="M540 379c93 -13 145 -77 145 -161c0 -69 -24 -122 -71 -161c-47 -38 -107 -57 -181 -57h-321l110 700h284c108 0 169 -60 169 -145s-50 -151 -135 -176zM503 683h-265l-48 -300h265c56 0 104 15 143 44s59 72 59 128c0 79 -55 128 -154 128zM187 366l-55 -349h302
c66 0 121 17 166 51c45 35 67 85 67 150c0 91 -65 148 -178 148h-302zM445 805c-8 9 -8 25 0 34c9 9 27 9 35 0c22 -22 -12 -57 -35 -34z" />
    <glyph glyph-name="uni1E03" unicode="&#x1e03;" horiz-adv-x="629" 
d="M130 98l-16 -98h-18l111 700h18l-50 -312c56 63 123 94 200 94c71 0 126 -22 167 -66c41 -43 62 -97 62 -160c0 -74 -25 -137 -76 -190c-50 -52 -112 -78 -187 -78c-96 0 -171 47 -211 110zM374 465c-40 0 -79 -11 -117 -33c-37 -21 -67 -49 -88 -82l-35 -224
c17 -33 43 -61 80 -85s80 -36 128 -36c67 0 124 24 172 73s72 109 72 178c0 59 -20 109 -59 149s-90 60 -153 60zM423 805c-22 22 12 56 34 34s-12 -56 -34 -34z" />
    <glyph glyph-name="uni1E0A" unicode="&#x1e0a;" horiz-adv-x="772" 
d="M222 700h185c103 0 186 -28 248 -85s93 -131 93 -224c0 -115 -39 -209 -117 -282s-177 -109 -297 -109h-222zM132 17h195c116 0 212 34 288 102c77 68 115 159 115 272c0 89 -29 159 -88 212s-140 80 -244 80h-160zM443 805c-22 22 12 56 34 34s-12 -56 -34 -34z" />
    <glyph glyph-name="uni1E0B" unicode="&#x1e0b;" horiz-adv-x="621" 
d="M565 372l52 328h18l-110 -700h-18l13 82c-56 -63 -123 -94 -200 -94c-71 0 -127 22 -168 65c-41 44 -61 98 -61 161c0 74 25 137 75 189c51 53 113 79 188 79c96 0 171 -47 211 -110zM321 5c40 0 79 11 116 32c38 22 68 50 89 83l35 224c-17 33 -44 61 -81 85
s-79 36 -127 36c-67 0 -124 -25 -172 -74s-72 -108 -72 -177c0 -59 19 -109 58 -149s91 -60 154 -60zM421 805c-8 9 -8 25 0 34c9 9 27 9 35 0c22 -22 -12 -57 -35 -34z" />
    <glyph glyph-name="uni1E1E" unicode="&#x1e1e;" horiz-adv-x="611" 
d="M189 376h363l-3 -17h-363l-56 -359h-18l110 700h449l-2 -17h-431zM445 805c-22 22 12 56 34 34s-12 -56 -34 -34z" />
    <glyph glyph-name="uni1E1F" unicode="&#x1e1f;" horiz-adv-x="358" 
d="M399 453h-178l-71 -453h-18l71 453h-102l3 17h102l19 123c12 75 56 112 131 112c29 0 56 -7 80 -20l-3 -19c-27 15 -53 22 -80 22c-63 0 -100 -34 -111 -101l-18 -117h178zM347 805c-22 22 12 56 34 34s-12 -56 -34 -34z" />
    <glyph glyph-name="uni1E40" unicode="&#x1e40;" horiz-adv-x="845" 
d="M843 700l-110 -700h-18l106 670l-341 -365h-17l-227 366l-106 -671h-18l110 700h18l233 -377l351 377h19zM527 805c-22 22 12 56 34 34s-12 -56 -34 -34z" />
    <glyph glyph-name="uni1E41" unicode="&#x1e41;" horiz-adv-x="908" 
d="M722 482c93 0 149 -57 149 -146c0 -13 -2 -31 -6 -54l-44 -282h-18l44 279c4 23 6 40 6 52c0 87 -47 134 -134 134c-79 0 -153 -49 -201 -121c0 -18 -1 -35 -4 -51l-46 -293h-18l46 291c3 15 4 31 4 46c0 113 -86 128 -131 128c-76 0 -152 -46 -200 -114l-55 -351h-18
l74 470h18l-14 -86c56 65 122 98 197 98c77 0 134 -40 145 -111c57 74 126 111 206 111zM543 627c-22 22 12 56 34 34s-12 -56 -34 -34z" />
    <glyph glyph-name="uni1E56" unicode="&#x1e56;" horiz-adv-x="664" 
d="M112 0l110 700h276c123 0 191 -63 191 -160c0 -61 -22 -110 -65 -147s-98 -55 -164 -55h-277l-53 -338h-18zM186 355h275c58 1 107 17 148 49s62 77 62 134c0 92 -63 145 -175 145h-258zM445 805c-8 9 -8 25 0 34c9 9 27 9 35 0c22 -22 -12 -57 -35 -34z" />
    <glyph glyph-name="uni1E57" unicode="&#x1e57;" horiz-adv-x="629" 
d="M130 98l-47 -298h-18l105 670h18l-13 -82c56 63 123 94 200 94c71 0 126 -22 167 -66c41 -43 62 -97 62 -160c0 -74 -25 -137 -76 -190c-50 -52 -112 -78 -187 -78c-96 0 -171 47 -211 110zM374 465c-40 0 -79 -11 -117 -33c-37 -21 -67 -49 -88 -82l-35 -224
c17 -33 43 -61 80 -85s80 -36 128 -36c67 0 124 24 172 73s72 109 72 178c0 59 -20 109 -59 149s-90 60 -153 60zM403 627c-22 22 12 56 34 34s-12 -56 -34 -34z" />
    <glyph glyph-name="uni1E60" unicode="&#x1e60;" horiz-adv-x="619" 
d="M333 387l32 -9c27 -8 48 -15 63 -20s33 -12 56 -23s41 -22 53 -33c24 -21 46 -60 46 -105c0 -65 -27 -116 -81 -153c-53 -37 -115 -56 -186 -56c-53 0 -104 8 -154 23c-49 16 -84 33 -105 52l4 21c21 -20 55 -38 102 -55c47 -16 98 -24 152 -24c38 0 75 6 112 19
s69 34 96 64s41 66 41 107c0 40 -18 73 -41 94c-11 11 -27 21 -48 30c-40 20 -66 28 -119 43c-59 17 -86 25 -127 44c-58 28 -81 60 -86 121c0 59 24 104 72 136c49 33 106 49 171 49c90 0 162 -20 217 -61l-3 -18c-61 41 -132 62 -214 62c-35 0 -68 -5 -101 -16
c-32 -10 -61 -28 -86 -54s-38 -58 -38 -95c0 -21 3 -41 15 -57s18 -27 39 -39s26 -16 55 -27l30 -10zM403 805c-22 22 12 56 34 34s-12 -56 -34 -34z" />
    <glyph glyph-name="uni1E61" unicode="&#x1e61;" horiz-adv-x="484" 
d="M256 -12c-91 0 -165 32 -204 64l2 20c53 -45 121 -67 204 -67c25 0 50 3 74 9c49 13 98 52 98 107c0 28 -12 50 -43 66c-15 9 -28 15 -39 19s-27 10 -49 17c-19 6 -31 10 -37 11l-32 11c-32 11 -35 14 -59 25c-23 12 -28 22 -41 35c-12 13 -15 29 -15 48
c0 41 17 73 51 95c35 23 75 34 122 34c73 0 133 -18 181 -54l-3 -17c-48 36 -107 54 -178 54c-23 0 -46 -3 -68 -10c-44 -12 -87 -48 -87 -99c0 -17 6 -32 13 -43c8 -11 26 -23 37 -30s38 -17 49 -21l55 -18l28 -9l32 -11l28 -12c28 -11 35 -19 51 -34s22 -34 22 -55
c-2 -95 -102 -138 -192 -135zM307 627c-8 9 -8 25 0 34c9 9 27 9 35 0c22 -22 -12 -57 -35 -34z" />
    <glyph glyph-name="uni1E6A" unicode="&#x1e6a;" horiz-adv-x="611" 
d="M147 700h537l-2 -17h-260l-108 -683h-18l108 683h-259zM417 805c-8 9 -8 25 0 34c9 9 27 9 35 0c22 -22 -12 -57 -35 -34z" />
    <glyph glyph-name="uni1E6B" unicode="&#x1e6b;" horiz-adv-x="415" 
d="M173 97l56 356h-128l3 17h128l25 160h18l-25 -160h189l-3 -17h-189l-54 -344c-3 -15 -4 -27 -4 -37c0 -45 28 -67 83 -67c29 0 58 9 89 26l-3 -20c-25 -15 -54 -23 -88 -23c-66 0 -99 28 -99 83c0 5 1 14 2 26zM263 701c-23 23 12 57 34 35c9 -8 9 -26 0 -35
c-9 -8 -25 -8 -34 0z" />
    <glyph glyph-name="Wgrave" unicode="&#x1e80;" horiz-adv-x="1029" 
d="M308 27l307 673h16l96 -671l339 671h21l-357 -704h-16l-96 667l-306 -667h-16l-135 704h19zM543 889h22l78 -124h-22z" />
    <glyph glyph-name="wgrave" unicode="&#x1e81;" horiz-adv-x="806" 
d="M575 27l234 443h21l-251 -474h-16l-90 448l-231 -448h-16l-102 474h19l95 -442l231 444h16zM403 700h22l78 -124h-22z" />
    <glyph glyph-name="Wacute" unicode="&#x1e82;" horiz-adv-x="1029" 
d="M308 27l307 673h16l96 -671l339 671h21l-357 -704h-16l-96 667l-306 -667h-16l-135 704h19zM618 765l116 124h24l-116 -124h-24z" />
    <glyph glyph-name="wacute" unicode="&#x1e83;" horiz-adv-x="806" 
d="M575 27l234 443h21l-251 -474h-16l-90 448l-231 -448h-16l-102 474h19l95 -442l231 444h16zM482 576l116 124h24l-116 -124h-24z" />
    <glyph glyph-name="Wdieresis" unicode="&#x1e84;" horiz-adv-x="1029" 
d="M308 27l307 673h16l96 -671l339 671h21l-357 -704h-16l-96 667l-306 -667h-16l-135 704h19zM531 805c-8 9 -8 25 0 34c9 9 27 9 35 0c22 -22 -12 -57 -35 -34zM711 805c-8 9 -8 25 0 34c9 9 27 9 35 0c22 -22 -12 -57 -35 -34z" />
    <glyph glyph-name="wdieresis" unicode="&#x1e85;" horiz-adv-x="806" 
d="M575 27l234 443h21l-251 -474h-16l-90 448l-231 -448h-16l-102 474h19l95 -442l231 444h16zM393 627c-8 9 -8 25 0 34c9 9 27 9 35 0c22 -22 -12 -57 -35 -34zM573 627c-8 9 -8 25 0 34c9 9 27 9 35 0c22 -22 -12 -57 -35 -34z" />
    <glyph glyph-name="Ygrave" unicode="&#x1ef2;" horiz-adv-x="626" 
d="M365 346l316 354h25l-333 -373l-51 -327h-18l51 327l-215 373h21zM360 889h22l78 -124h-22z" />
    <glyph glyph-name="ygrave" unicode="&#x1ef3;" horiz-adv-x="522" 
d="M527 470h21l-311 -525c-59 -97 -109 -148 -176 -148c-23 0 -42 5 -57 15l3 18c16 -11 35 -16 56 -16c34 0 64 16 91 47s63 83 107 158l-159 451h20l151 -429zM265 700h22l78 -124h-22z" />
    <glyph glyph-name="endash" unicode="&#x2013;" horiz-adv-x="711" 
d="M151 259l2 17h491l-2 -17h-491z" />
    <glyph glyph-name="emdash" unicode="&#x2014;" horiz-adv-x="911" 
d="M151 259l2 17h691l-2 -17h-691z" />
    <glyph glyph-name="uni2015" unicode="&#x2015;" horiz-adv-x="711" 
d="M151 259l2 17h491l-2 -17h-491z" />
    <glyph glyph-name="quoteleft" unicode="&#x2018;" horiz-adv-x="180" 
d="M233 700l-109 -218h-19l109 218h19z" />
    <glyph glyph-name="quoteright" unicode="&#x2019;" horiz-adv-x="180" 
d="M105 482l109 218h19l-109 -218h-19z" />
    <glyph glyph-name="quotesinglbase" unicode="&#x201a;" horiz-adv-x="208" 
d="M17 -152l109 218h19l-109 -218h-19z" />
    <glyph glyph-name="quotedblleft" unicode="&#x201c;" horiz-adv-x="281" 
d="M334 700l-109 -218h-19l109 218h19zM233 700l-109 -218h-19l109 218h19z" />
    <glyph glyph-name="quotedblright" unicode="&#x201d;" horiz-adv-x="281" 
d="M206 482l109 218h19l-109 -218h-19zM105 482l109 218h19l-109 -218h-19z" />
    <glyph glyph-name="quotedblbase" unicode="&#x201e;" horiz-adv-x="309" 
d="M118 -152l109 218h19l-109 -218h-19zM17 -152l109 218h19l-109 -218h-19z" />
    <glyph glyph-name="dagger" unicode="&#x2020;" horiz-adv-x="535" 
d="M276 0h-18l71 453h-187l3 17h187l36 230h18l-36 -230h188l-3 -17h-188z" />
    <glyph glyph-name="daggerdbl" unicode="&#x2021;" horiz-adv-x="535" 
d="M538 470l-3 -17h-187l-32 -206h187l-3 -17h-187l-36 -230h-18l36 230h-188l3 17h188l32 206h-188l3 17h188l36 230h18l-36 -230h187z" />
    <glyph glyph-name="bullet" unicode="&#x2022;" horiz-adv-x="400" 
d="M254 461c47 0 85 -37 85 -84s-38 -85 -85 -85s-84 38 -84 85s39 84 84 84z" />
    <glyph glyph-name="ellipsis" unicode="&#x2026;" horiz-adv-x="590" 
d="M87 5c-23 23 12 57 34 35c9 -8 9 -26 0 -35c-9 -8 -25 -8 -34 0zM277 5c-8 9 -8 27 0 35c9 9 27 9 35 0c9 -8 9 -26 0 -35c-8 -8 -26 -8 -35 0zM469 5c-23 23 12 57 34 35c9 -8 9 -26 0 -35c-9 -8 -25 -8 -34 0z" />
    <glyph glyph-name="perthousand" unicode="&#x2030;" horiz-adv-x="1191" 
d="M195 0l510 700h22l-510 -700h-22zM316 712c47 0 84 -15 111 -45c27 -29 41 -65 41 -107c0 -49 -17 -90 -50 -125c-33 -34 -73 -51 -122 -51c-47 0 -84 15 -111 44c-27 30 -41 66 -41 108c0 49 16 90 49 124c33 35 74 52 123 52zM297 401c43 0 79 16 108 47
c30 31 45 69 45 112c0 77 -54 135 -135 135c-43 0 -79 -16 -109 -47c-29 -31 -44 -69 -44 -112c0 -77 55 -135 135 -135zM626 316c47 0 84 -15 111 -45c27 -29 41 -65 41 -107c0 -49 -17 -90 -50 -125c-33 -34 -73 -51 -122 -51c-47 0 -84 15 -111 44c-27 30 -41 66 -41 108
c0 49 16 90 49 124c33 35 74 52 123 52zM607 5c43 0 79 16 108 47c30 31 45 69 45 112c0 77 -54 135 -135 135c-43 0 -79 -16 -109 -47c-29 -31 -44 -69 -44 -112c0 -77 55 -135 135 -135zM995 316c47 0 84 -15 111 -45c27 -29 41 -65 41 -107c0 -49 -17 -90 -50 -125
c-33 -34 -73 -51 -122 -51c-47 0 -84 15 -111 44c-27 30 -41 66 -41 108c0 49 16 90 49 124c33 35 74 52 123 52zM976 5c43 0 79 16 108 47c30 31 45 69 45 112c0 77 -54 135 -135 135c-43 0 -79 -16 -109 -47c-29 -31 -44 -69 -44 -112c0 -77 55 -135 135 -135z" />
    <glyph glyph-name="guilsinglleft" unicode="&#x2039;" horiz-adv-x="320" 
d="M228 44h-23l-133 185l1 12l192 185h26l-200 -193z" />
    <glyph glyph-name="guilsinglright" unicode="&#x203a;" horiz-adv-x="320" 
d="M166 426h23l133 -185l-1 -12l-192 -185h-26l200 193z" />
    <glyph glyph-name="fraction" unicode="&#x2044;" horiz-adv-x="167" 
d="M-145 0l510 700h22l-510 -700h-22z" />
    <glyph glyph-name="zerosuperior" unicode="&#x2070;" horiz-adv-x="383" 
d="M289 704c81 0 133 -67 133 -163c0 -57 -16 -108 -48 -154c-31 -46 -72 -69 -121 -69c-81 0 -132 66 -132 163c0 57 16 109 47 154c31 46 72 69 121 69zM253 335c44 0 80 21 108 64c29 43 43 91 43 142c0 81 -40 146 -115 146c-44 0 -80 -22 -108 -65s-42 -90 -42 -141
c0 -81 39 -146 114 -146z" />
    <glyph glyph-name="foursuperior" unicode="&#x2074;" horiz-adv-x="343" 
d="M303 322h-18l17 110h-208l2 14l252 254h14l-39 -251h66l-3 -17h-66zM339 666l-215 -217h181z" />
    <glyph glyph-name="fivesuperior" unicode="&#x2075;" horiz-adv-x="334" 
d="M228 556c81 0 131 -50 131 -111c0 -40 -16 -71 -47 -94c-31 -22 -67 -33 -109 -33c-43 0 -78 10 -107 29l2 19c32 -21 67 -31 105 -31c35 0 66 9 95 28s43 46 43 80c0 52 -42 96 -114 96c-25 0 -54 -4 -87 -13l53 174h180l-1 -17h-166l-40 -133c19 4 39 6 62 6z" />
    <glyph glyph-name="sixsuperior" unicode="&#x2076;" horiz-adv-x="346" 
d="M298 687c-84 0 -148 -75 -159 -192c31 43 72 64 122 64c67 0 116 -47 116 -107c0 -37 -13 -68 -38 -95c-25 -26 -56 -39 -93 -39c-73 0 -126 56 -126 153c0 35 6 70 17 104s31 64 59 90c29 26 63 39 103 39c35 0 64 -9 87 -26l-2 -19c-25 19 -53 28 -86 28zM260 542
c-51 0 -97 -31 -122 -78c0 -73 41 -130 109 -130c31 0 58 11 79 34c22 23 33 51 33 84c0 53 -42 90 -99 90z" />
    <glyph glyph-name="sevensuperior" unicode="&#x2077;" horiz-adv-x="300" 
d="M134 322h-20l241 361h-216l2 17h237l-2 -14z" />
    <glyph glyph-name="eightsuperior" unicode="&#x2078;" horiz-adv-x="353" 
d="M306 519c48 -15 79 -48 79 -91c0 -33 -14 -60 -42 -80c-27 -20 -60 -30 -98 -30c-79 0 -142 40 -142 104c0 52 43 95 107 104c-41 16 -61 43 -61 80c0 59 55 98 122 98c31 0 59 -8 84 -25c25 -16 37 -38 37 -66c0 -48 -38 -85 -86 -94zM167 605c0 -47 49 -75 102 -75
s105 30 105 81c0 47 -48 76 -103 76c-53 0 -104 -31 -104 -82zM243 335c33 0 61 8 86 25s38 39 38 68c0 51 -54 86 -122 86s-124 -35 -124 -92c0 -52 58 -87 122 -87z" />
    <glyph glyph-name="ninesuperior" unicode="&#x2079;" horiz-adv-x="346" 
d="M212 335c84 0 148 75 159 192c-31 -43 -72 -64 -122 -64c-67 0 -116 47 -116 107c0 37 12 68 37 94c25 27 57 40 94 40c73 0 126 -56 126 -153c0 -35 -6 -70 -17 -104s-31 -64 -60 -90c-28 -26 -62 -39 -102 -39c-35 0 -64 9 -87 26l2 19c25 -19 53 -28 86 -28zM250 480
c51 0 97 31 122 78c0 73 -41 130 -109 130c-31 0 -58 -12 -80 -35c-21 -23 -32 -50 -32 -83c0 -53 42 -90 99 -90z" />
    <glyph glyph-name="zeroinferior" unicode="&#x2080;" horiz-adv-x="383" 
d="M239 382c81 0 133 -67 133 -163c0 -57 -16 -108 -48 -154c-31 -46 -72 -69 -121 -69c-81 0 -132 66 -132 163c0 57 16 109 47 154c31 46 72 69 121 69zM203 13c44 0 80 21 108 64c29 43 43 91 43 142c0 81 -40 146 -115 146c-44 0 -80 -22 -108 -65s-42 -90 -42 -141
c0 -81 39 -146 114 -146z" />
    <glyph glyph-name="oneinferior" unicode="&#x2081;" horiz-adv-x="225" 
d="M154 0h-18l56 356l-116 -68l3 21l118 69h16z" />
    <glyph glyph-name="twoinferior" unicode="&#x2082;" horiz-adv-x="346" 
d="M93 315l3 23c33 29 71 44 114 44c69 0 112 -45 112 -102c0 -49 -36 -93 -104 -150l-138 -113h222l-3 -17h-252l2 14l155 128c67 56 100 92 100 137c0 52 -42 86 -94 86c-39 0 -78 -17 -117 -50z" />
    <glyph glyph-name="threeinferior" unicode="&#x2083;" horiz-adv-x="312" 
d="M317 378l-2 -12l-147 -133c72 -3 125 -42 125 -106c0 -41 -15 -73 -45 -96c-29 -23 -65 -35 -106 -35c-45 0 -82 10 -112 31l2 19c28 -22 65 -33 110 -33c35 0 65 10 92 30c27 21 41 48 41 83c0 57 -49 89 -113 89c-11 0 -20 0 -27 -1l2 15l146 132h-189l2 17h221z" />
    <glyph glyph-name="fourinferior" unicode="&#x2084;" horiz-adv-x="343" 
d="M253 0h-18l17 110h-208l2 14l252 254h14l-39 -251h66l-3 -17h-66zM289 344l-215 -217h181z" />
    <glyph glyph-name="fiveinferior" unicode="&#x2085;" horiz-adv-x="334" 
d="M178 234c81 0 131 -50 131 -111c0 -40 -16 -71 -47 -94c-31 -22 -67 -33 -109 -33c-43 0 -78 10 -107 29l2 19c32 -21 67 -31 105 -31c35 0 66 9 95 28s43 46 43 80c0 52 -42 96 -114 96c-25 0 -54 -4 -87 -13l53 174h180l-1 -17h-166l-40 -133c19 4 40 6 62 6z" />
    <glyph glyph-name="sixinferior" unicode="&#x2086;" horiz-adv-x="346" 
d="M248 365c-84 0 -148 -75 -159 -192c31 43 72 64 122 64c67 0 116 -47 116 -107c0 -37 -13 -68 -38 -95c-25 -26 -56 -39 -93 -39c-73 0 -126 56 -126 153c0 35 6 70 17 104s31 64 59 90c29 26 63 39 103 39c35 0 64 -9 87 -26l-2 -19c-25 19 -53 28 -86 28zM210 220
c-51 0 -97 -31 -122 -78c0 -73 41 -130 109 -130c31 0 58 11 79 34c22 23 33 51 33 84c0 53 -42 90 -99 90z" />
    <glyph glyph-name="seveninferior" unicode="&#x2087;" horiz-adv-x="300" 
d="M84 0h-20l241 361h-216l2 17h237l-2 -14z" />
    <glyph glyph-name="eightinferior" unicode="&#x2088;" horiz-adv-x="353" 
d="M256 197c48 -15 79 -48 79 -91c0 -33 -14 -60 -42 -80c-27 -20 -60 -30 -98 -30c-79 0 -142 40 -142 104c0 52 43 95 107 104c-41 16 -61 43 -61 80c0 59 55 98 122 98c31 0 59 -8 84 -25c25 -16 37 -38 37 -66c0 -48 -38 -85 -86 -94zM117 283c0 -47 49 -75 102 -75
s105 30 105 81c0 47 -48 76 -103 76c-53 0 -104 -31 -104 -82zM193 13c33 0 61 8 86 25s38 39 38 68c0 51 -54 86 -122 86s-124 -35 -124 -92c0 -52 58 -87 122 -87z" />
    <glyph glyph-name="nineinferior" unicode="&#x2089;" horiz-adv-x="346" 
d="M162 13c84 0 148 75 159 192c-31 -43 -72 -64 -122 -64c-67 0 -116 47 -116 107c0 37 12 68 37 94c25 27 57 40 94 40c73 0 126 -56 126 -153c0 -35 -6 -70 -17 -104s-31 -64 -60 -90c-28 -26 -62 -39 -102 -39c-35 0 -64 9 -87 26l2 19c25 -19 53 -28 86 -28zM200 158
c51 0 97 31 122 78c0 73 -41 130 -109 130c-31 0 -58 -12 -80 -35c-21 -23 -32 -50 -32 -83c0 -53 42 -90 99 -90z" />
    <glyph glyph-name="franc" unicode="&#x20a3;" horiz-adv-x="652" 
d="M170 0h-18l30 186h-123l2 17h123l79 497h449l-3 -17h-431l-48 -307h363l-3 -17h-363l-25 -156h193l-2 -17h-193z" />
    <glyph glyph-name="lira" unicode="&#x20a4;" horiz-adv-x="572" 
d="M112 247l2 17h64l20 124h-64l3 17h64l14 92c21 137 112 215 245 215c66 0 118 -17 156 -50l-3 -21c-32 35 -95 54 -156 54c-123 0 -204 -71 -224 -200l-14 -90h314l-3 -17h-314l-20 -124h314l-2 -17h-315l-28 -177c-4 -26 -13 -44 -26 -53h375l-2 -17h-439l2 17h27
c23 0 41 26 45 55l28 175h-63z" />
    <glyph glyph-name="peseta" unicode="&#x20a7;" horiz-adv-x="703" 
d="M192 510h-91l3 17h90l28 173h276c123 0 191 -63 191 -160v-13h82l-3 -17h-81c-7 -52 -32 -94 -74 -125s-93 -47 -153 -47h-277l-53 -338h-18zM186 355h275c58 1 107 17 148 49s62 77 62 134c0 92 -63 145 -175 145h-258z" />
    <glyph glyph-name="Euro" unicode="&#x20ac;" horiz-adv-x="698" 
d="M117 430l3 17h88c23 77 61 140 116 190s123 75 204 75c75 0 138 -22 189 -65l-2 -20c-54 45 -117 68 -188 68c-73 0 -135 -23 -188 -70c-52 -47 -89 -106 -112 -178h312l-3 -17h-314c-11 -43 -16 -83 -16 -122v-13h309l-3 -17h-305c5 -84 33 -151 82 -200
s112 -73 188 -73c75 0 141 22 196 67l-2 -21c-50 -42 -114 -63 -193 -63c-83 0 -151 26 -203 79s-81 123 -86 211h-96l3 17h92v14c0 41 5 81 15 121h-86z" />
    <glyph glyph-name="uni20B4" unicode="&#x20b4;" horiz-adv-x="606" 
d="M320 -12c-121 0 -188 50 -188 126c0 59 36 113 107 160h-125l3 17h462l-3 -17h-304c-81 -44 -122 -97 -122 -160c0 -69 61 -109 174 -109c61 0 119 13 174 38l-3 -19c-51 -24 -110 -36 -175 -36zM413 712c119 0 183 -48 183 -123c0 -57 -31 -106 -92 -146h99l-3 -17h-462
l3 17h333c69 41 104 90 104 146c0 68 -59 106 -168 106c-59 0 -115 -12 -169 -37l3 19c50 23 106 35 169 35z" />
    <glyph glyph-name="uni20B6" unicode="&#x20b6;" horiz-adv-x="645" 
d="M167 355l55 345h253c123 0 191 -63 191 -160c0 -61 -22 -110 -65 -147s-98 -55 -164 -55h-254l-21 -135h323l-3 -17h-323l-29 -186h-18l29 186h-89l3 17h88l22 135h-89l3 17h88zM186 355h252c58 1 107 17 148 49s62 77 62 134c0 92 -63 145 -175 145h-235z" />
    <glyph glyph-name="uni20B6" unicode="&#x20cf;" horiz-adv-x="645" 
d="M167 355l55 345h253c123 0 191 -63 191 -160c0 -61 -22 -110 -65 -147s-98 -55 -164 -55h-254l-21 -135h323l-3 -17h-323l-29 -186h-18l29 186h-89l3 17h88l22 135h-89l3 17h88zM186 355h252c58 1 107 17 148 49s62 77 62 134c0 92 -63 145 -175 145h-235z" />
    <glyph glyph-name="uni20B6" unicode="&#x20ce;" horiz-adv-x="645" 
d="M167 355l55 345h253c123 0 191 -63 191 -160c0 -61 -22 -110 -65 -147s-98 -55 -164 -55h-254l-21 -135h323l-3 -17h-323l-29 -186h-18l29 186h-89l3 17h88l22 135h-89l3 17h88zM186 355h252c58 1 107 17 148 49s62 77 62 134c0 92 -63 145 -175 145h-235z" />
    <glyph glyph-name="uni20B6" unicode="&#x20cd;" horiz-adv-x="645" 
d="M167 355l55 345h253c123 0 191 -63 191 -160c0 -61 -22 -110 -65 -147s-98 -55 -164 -55h-254l-21 -135h323l-3 -17h-323l-29 -186h-18l29 186h-89l3 17h88l22 135h-89l3 17h88zM186 355h252c58 1 107 17 148 49s62 77 62 134c0 92 -63 145 -175 145h-235z" />
    <glyph glyph-name="uni20B6" unicode="&#x20cc;" horiz-adv-x="645" 
d="M167 355l55 345h253c123 0 191 -63 191 -160c0 -61 -22 -110 -65 -147s-98 -55 -164 -55h-254l-21 -135h323l-3 -17h-323l-29 -186h-18l29 186h-89l3 17h88l22 135h-89l3 17h88zM186 355h252c58 1 107 17 148 49s62 77 62 134c0 92 -63 145 -175 145h-235z" />
    <glyph glyph-name="uni20B6" unicode="&#x20cb;" horiz-adv-x="645" 
d="M167 355l55 345h253c123 0 191 -63 191 -160c0 -61 -22 -110 -65 -147s-98 -55 -164 -55h-254l-21 -135h323l-3 -17h-323l-29 -186h-18l29 186h-89l3 17h88l22 135h-89l3 17h88zM186 355h252c58 1 107 17 148 49s62 77 62 134c0 92 -63 145 -175 145h-235z" />
    <glyph glyph-name="uni20B6" unicode="&#x20ca;" horiz-adv-x="645" 
d="M167 355l55 345h253c123 0 191 -63 191 -160c0 -61 -22 -110 -65 -147s-98 -55 -164 -55h-254l-21 -135h323l-3 -17h-323l-29 -186h-18l29 186h-89l3 17h88l22 135h-89l3 17h88zM186 355h252c58 1 107 17 148 49s62 77 62 134c0 92 -63 145 -175 145h-235z" />
    <glyph glyph-name="uni20B6" unicode="&#x20c9;" horiz-adv-x="645" 
d="M167 355l55 345h253c123 0 191 -63 191 -160c0 -61 -22 -110 -65 -147s-98 -55 -164 -55h-254l-21 -135h323l-3 -17h-323l-29 -186h-18l29 186h-89l3 17h88l22 135h-89l3 17h88zM186 355h252c58 1 107 17 148 49s62 77 62 134c0 92 -63 145 -175 145h-235z" />
    <glyph glyph-name="uni20B6" unicode="&#x20c8;" horiz-adv-x="645" 
d="M167 355l55 345h253c123 0 191 -63 191 -160c0 -61 -22 -110 -65 -147s-98 -55 -164 -55h-254l-21 -135h323l-3 -17h-323l-29 -186h-18l29 186h-89l3 17h88l22 135h-89l3 17h88zM186 355h252c58 1 107 17 148 49s62 77 62 134c0 92 -63 145 -175 145h-235z" />
    <glyph glyph-name="uni20B6" unicode="&#x20c7;" horiz-adv-x="645" 
d="M167 355l55 345h253c123 0 191 -63 191 -160c0 -61 -22 -110 -65 -147s-98 -55 -164 -55h-254l-21 -135h323l-3 -17h-323l-29 -186h-18l29 186h-89l3 17h88l22 135h-89l3 17h88zM186 355h252c58 1 107 17 148 49s62 77 62 134c0 92 -63 145 -175 145h-235z" />
    <glyph glyph-name="uni20B6" unicode="&#x20c6;" horiz-adv-x="645" 
d="M167 355l55 345h253c123 0 191 -63 191 -160c0 -61 -22 -110 -65 -147s-98 -55 -164 -55h-254l-21 -135h323l-3 -17h-323l-29 -186h-18l29 186h-89l3 17h88l22 135h-89l3 17h88zM186 355h252c58 1 107 17 148 49s62 77 62 134c0 92 -63 145 -175 145h-235z" />
    <glyph glyph-name="uni20B6" unicode="&#x20c5;" horiz-adv-x="645" 
d="M167 355l55 345h253c123 0 191 -63 191 -160c0 -61 -22 -110 -65 -147s-98 -55 -164 -55h-254l-21 -135h323l-3 -17h-323l-29 -186h-18l29 186h-89l3 17h88l22 135h-89l3 17h88zM186 355h252c58 1 107 17 148 49s62 77 62 134c0 92 -63 145 -175 145h-235z" />
    <glyph glyph-name="uni20B6" unicode="&#x20c4;" horiz-adv-x="645" 
d="M167 355l55 345h253c123 0 191 -63 191 -160c0 -61 -22 -110 -65 -147s-98 -55 -164 -55h-254l-21 -135h323l-3 -17h-323l-29 -186h-18l29 186h-89l3 17h88l22 135h-89l3 17h88zM186 355h252c58 1 107 17 148 49s62 77 62 134c0 92 -63 145 -175 145h-235z" />
    <glyph glyph-name="uni20B6" unicode="&#x20c3;" horiz-adv-x="645" 
d="M167 355l55 345h253c123 0 191 -63 191 -160c0 -61 -22 -110 -65 -147s-98 -55 -164 -55h-254l-21 -135h323l-3 -17h-323l-29 -186h-18l29 186h-89l3 17h88l22 135h-89l3 17h88zM186 355h252c58 1 107 17 148 49s62 77 62 134c0 92 -63 145 -175 145h-235z" />
    <glyph glyph-name="uni20B6" unicode="&#x20c2;" horiz-adv-x="645" 
d="M167 355l55 345h253c123 0 191 -63 191 -160c0 -61 -22 -110 -65 -147s-98 -55 -164 -55h-254l-21 -135h323l-3 -17h-323l-29 -186h-18l29 186h-89l3 17h88l22 135h-89l3 17h88zM186 355h252c58 1 107 17 148 49s62 77 62 134c0 92 -63 145 -175 145h-235z" />
    <glyph glyph-name="uni20B6" unicode="&#x20c1;" horiz-adv-x="645" 
d="M167 355l55 345h253c123 0 191 -63 191 -160c0 -61 -22 -110 -65 -147s-98 -55 -164 -55h-254l-21 -135h323l-3 -17h-323l-29 -186h-18l29 186h-89l3 17h88l22 135h-89l3 17h88zM186 355h252c58 1 107 17 148 49s62 77 62 134c0 92 -63 145 -175 145h-235z" />
    <glyph glyph-name="uni20B6" unicode="&#x20c0;" horiz-adv-x="645" 
d="M167 355l55 345h253c123 0 191 -63 191 -160c0 -61 -22 -110 -65 -147s-98 -55 -164 -55h-254l-21 -135h323l-3 -17h-323l-29 -186h-18l29 186h-89l3 17h88l22 135h-89l3 17h88zM186 355h252c58 1 107 17 148 49s62 77 62 134c0 92 -63 145 -175 145h-235z" />
    <glyph glyph-name="uni20B6" unicode="&#x20bf;" horiz-adv-x="645" 
d="M167 355l55 345h253c123 0 191 -63 191 -160c0 -61 -22 -110 -65 -147s-98 -55 -164 -55h-254l-21 -135h323l-3 -17h-323l-29 -186h-18l29 186h-89l3 17h88l22 135h-89l3 17h88zM186 355h252c58 1 107 17 148 49s62 77 62 134c0 92 -63 145 -175 145h-235z" />
    <glyph glyph-name="uni20B6" unicode="&#x20be;" horiz-adv-x="645" 
d="M167 355l55 345h253c123 0 191 -63 191 -160c0 -61 -22 -110 -65 -147s-98 -55 -164 -55h-254l-21 -135h323l-3 -17h-323l-29 -186h-18l29 186h-89l3 17h88l22 135h-89l3 17h88zM186 355h252c58 1 107 17 148 49s62 77 62 134c0 92 -63 145 -175 145h-235z" />
    <glyph glyph-name="uni20B6" unicode="&#x20bd;" horiz-adv-x="645" 
d="M167 355l55 345h253c123 0 191 -63 191 -160c0 -61 -22 -110 -65 -147s-98 -55 -164 -55h-254l-21 -135h323l-3 -17h-323l-29 -186h-18l29 186h-89l3 17h88l22 135h-89l3 17h88zM186 355h252c58 1 107 17 148 49s62 77 62 134c0 92 -63 145 -175 145h-235z" />
    <glyph glyph-name="uni20B6" unicode="&#x20bc;" horiz-adv-x="645" 
d="M167 355l55 345h253c123 0 191 -63 191 -160c0 -61 -22 -110 -65 -147s-98 -55 -164 -55h-254l-21 -135h323l-3 -17h-323l-29 -186h-18l29 186h-89l3 17h88l22 135h-89l3 17h88zM186 355h252c58 1 107 17 148 49s62 77 62 134c0 92 -63 145 -175 145h-235z" />
    <glyph glyph-name="uni20B6" unicode="&#x20bb;" horiz-adv-x="645" 
d="M167 355l55 345h253c123 0 191 -63 191 -160c0 -61 -22 -110 -65 -147s-98 -55 -164 -55h-254l-21 -135h323l-3 -17h-323l-29 -186h-18l29 186h-89l3 17h88l22 135h-89l3 17h88zM186 355h252c58 1 107 17 148 49s62 77 62 134c0 92 -63 145 -175 145h-235z" />
    <glyph glyph-name="uni20B6" unicode="&#x20ba;" horiz-adv-x="645" 
d="M167 355l55 345h253c123 0 191 -63 191 -160c0 -61 -22 -110 -65 -147s-98 -55 -164 -55h-254l-21 -135h323l-3 -17h-323l-29 -186h-18l29 186h-89l3 17h88l22 135h-89l3 17h88zM186 355h252c58 1 107 17 148 49s62 77 62 134c0 92 -63 145 -175 145h-235z" />
    <glyph glyph-name="uni20B6" unicode="&#x20b9;" horiz-adv-x="645" 
d="M167 355l55 345h253c123 0 191 -63 191 -160c0 -61 -22 -110 -65 -147s-98 -55 -164 -55h-254l-21 -135h323l-3 -17h-323l-29 -186h-18l29 186h-89l3 17h88l22 135h-89l3 17h88zM186 355h252c58 1 107 17 148 49s62 77 62 134c0 92 -63 145 -175 145h-235z" />
    <glyph glyph-name="uni20B6" unicode="&#x20b7;" horiz-adv-x="645" 
d="M167 355l55 345h253c123 0 191 -63 191 -160c0 -61 -22 -110 -65 -147s-98 -55 -164 -55h-254l-21 -135h323l-3 -17h-323l-29 -186h-18l29 186h-89l3 17h88l22 135h-89l3 17h88zM186 355h252c58 1 107 17 148 49s62 77 62 134c0 92 -63 145 -175 145h-235z" />
    <glyph glyph-name="uni2113" unicode="&#x2113;" horiz-adv-x="419" 
d="M143 180l-8 -49c-4 -30 -6 -48 -6 -55c0 -47 27 -71 82 -71c29 0 58 9 89 26l-3 -20c-25 -15 -54 -23 -88 -23c-65 0 -98 29 -98 86c0 15 2 33 6 56l62 390c20 129 83 185 162 185c60 0 100 -40 100 -108c0 -77 -37 -158 -102 -233c-33 -37 -64 -70 -93 -97
s-64 -56 -103 -87zM197 520l-50 -315c53 44 91 76 144 133c27 29 50 56 67 81c36 52 65 119 65 178c0 60 -30 91 -82 91c-67 0 -125 -52 -144 -168z" />
    <glyph glyph-name="uni2116" unicode="&#x2116;" horiz-adv-x="1105" 
d="M661 0h-18l-407 670l-106 -670h-18l110 700h18l406 -669l106 669h19zM800 297h140h141l-3 -17h-281zM991 712c47 0 84 -15 111 -45c27 -29 41 -65 41 -107c0 -49 -17 -90 -50 -125c-33 -34 -73 -51 -122 -51c-47 0 -84 15 -111 44c-27 30 -41 66 -41 108
c0 49 16 90 49 124c33 35 74 52 123 52zM972 401c43 0 79 16 108 47c30 31 45 69 45 112c0 77 -54 135 -135 135c-43 0 -79 -16 -109 -47c-29 -31 -44 -69 -44 -112c0 -77 55 -135 135 -135z" />
    <glyph glyph-name="trademark" unicode="&#x2122;" horiz-adv-x="684" 
d="M112 700h236v-17h-111v-290h-18v290h-107v17zM557 546l128 154h15v-307h-18v277l-120 -143h-10l-120 143v-277h-18v307h15z" />
    <glyph glyph-name="Omega" unicode="&#x2126;" horiz-adv-x="807" 
d="M751 416c0 -156 -74 -299 -199 -399h135l-2 -17h-163l2 17c63 47 114 105 152 175s57 144 57 222c0 49 -9 94 -26 135c-33 83 -112 146 -216 146c-60 0 -114 -20 -162 -59c-96 -77 -144 -198 -144 -318c0 -55 10 -110 31 -167s45 -101 74 -134l-2 -17h-162l2 17h139
c-28 36 -52 81 -71 136s-29 109 -29 162c0 91 30 187 82 264c52 79 141 133 241 133c80 0 143 -28 190 -84c47 -55 71 -126 71 -212z" />
    <glyph glyph-name="estimated" unicode="&#x212e;" horiz-adv-x="814" 
d="M429 5c66 0 126 17 181 52s96 80 125 137h19c-30 -62 -74 -112 -133 -150c-58 -37 -122 -56 -193 -56c-87 0 -157 27 -212 82s-82 125 -82 208c0 97 35 182 104 253c70 71 156 107 258 107c86 0 156 -27 211 -82s83 -123 83 -206c0 -5 -1 -15 -2 -30h-575l-20 -193
c48 -76 132 -122 236 -122zM233 499l-18 -162h498l18 162c-49 76 -134 122 -237 122c-104 0 -198 -46 -261 -122z" />
    <glyph glyph-name="onethird" unicode="&#x2153;" horiz-adv-x="768" 
d="M204 322h-18l56 356l-116 -68l3 21l118 69h16zM126 0l510 700h22l-510 -700h-22zM773 378l-2 -12l-147 -133c72 -3 125 -42 125 -106c0 -41 -15 -73 -45 -96c-29 -23 -65 -35 -106 -35c-45 0 -82 10 -112 31l2 19c28 -22 65 -33 110 -33c35 0 65 10 92 30
c27 21 41 48 41 83c0 57 -49 89 -113 89c-11 0 -20 0 -27 -1l2 15l146 132h-189l2 17h221z" />
    <glyph glyph-name="twothirds" unicode="&#x2154;" horiz-adv-x="889" 
d="M894 378l-2 -12l-147 -133c72 -3 125 -42 125 -106c0 -41 -15 -73 -45 -96c-29 -23 -65 -35 -106 -35c-45 0 -82 10 -112 31l2 19c28 -22 65 -33 110 -33c35 0 65 10 92 30c27 21 41 48 41 83c0 57 -49 89 -113 89c-11 0 -20 0 -27 -1l2 15l146 132h-189l2 17h221z
M143 637l3 23c33 29 71 44 114 44c69 0 112 -45 112 -102c0 -49 -36 -93 -104 -150l-138 -113h222l-3 -17h-252l2 14l155 128c67 56 100 92 100 137c0 52 -42 86 -94 86c-39 0 -78 -17 -117 -50zM247 0l510 700h22l-510 -700h-22z" />
    <glyph glyph-name="uni2155" unicode="&#x2155;" horiz-adv-x="745" 
d="M589 234c81 0 131 -50 131 -111c0 -40 -16 -71 -47 -94c-31 -22 -67 -33 -109 -33c-43 0 -78 10 -107 29l2 19c32 -21 67 -31 105 -31c35 0 66 9 95 28s43 46 43 80c0 52 -42 96 -114 96c-25 0 -54 -4 -87 -13l53 174h180l-1 -17h-166l-40 -133c19 4 40 6 62 6zM204 322
h-18l56 356l-116 -68l3 21l118 69h16zM126 0l510 700h22l-510 -700h-22z" />
    <glyph glyph-name="uni2156" unicode="&#x2156;" horiz-adv-x="866" 
d="M710 234c81 0 131 -50 131 -111c0 -40 -16 -71 -47 -94c-31 -22 -67 -33 -109 -33c-43 0 -78 10 -107 29l2 19c32 -21 67 -31 105 -31c35 0 66 9 95 28s43 46 43 80c0 52 -42 96 -114 96c-25 0 -54 -4 -87 -13l53 174h180l-1 -17h-166l-40 -133c19 4 39 6 62 6zM143 637
l3 23c33 29 71 44 114 44c69 0 112 -45 112 -102c0 -49 -36 -93 -104 -150l-138 -113h222l-3 -17h-252l2 14l155 128c67 56 100 92 100 137c0 52 -42 86 -94 86c-39 0 -78 -17 -117 -50zM247 0l510 700h22l-510 -700h-22z" />
    <glyph glyph-name="uni2157" unicode="&#x2157;" horiz-adv-x="796" 
d="M177 0l510 700h22l-510 -700h-22zM640 234c81 0 131 -50 131 -111c0 -40 -16 -71 -47 -94c-31 -22 -67 -33 -109 -33c-43 0 -78 10 -107 29l2 19c32 -21 67 -31 105 -31c35 0 66 9 95 28s43 46 43 80c0 52 -42 96 -114 96c-25 0 -54 -4 -87 -13l53 174h180l-1 -17h-166
l-40 -133c19 4 39 6 62 6zM367 700l-2 -12l-147 -133c72 -3 125 -42 125 -106c0 -41 -15 -73 -45 -96c-29 -23 -65 -35 -106 -35c-45 0 -82 10 -112 31l2 19c28 -22 65 -33 110 -33c35 0 65 10 92 30c27 21 41 48 41 83c0 57 -49 89 -113 89c-11 0 -20 0 -27 -1l2 15
l146 132h-189l2 17h221z" />
    <glyph glyph-name="uni2158" unicode="&#x2158;" horiz-adv-x="843" 
d="M303 322h-18l17 110h-208l2 14l252 254h14l-39 -251h66l-3 -17h-66zM339 666l-215 -217h181zM687 234c81 0 131 -50 131 -111c0 -40 -16 -71 -47 -94c-31 -22 -67 -33 -109 -33c-43 0 -78 10 -107 29l2 19c32 -21 67 -31 105 -31c35 0 66 9 95 28s43 46 43 80
c0 52 -42 96 -114 96c-25 0 -54 -4 -87 -13l53 174h180l-1 -17h-166l-40 -133c19 4 40 6 62 6zM224 0l510 700h22l-510 -700h-22z" />
    <glyph glyph-name="uni2159" unicode="&#x2159;" horiz-adv-x="750" 
d="M126 0l510 700h22l-510 -700h-22zM204 322h-18l56 356l-116 -68l3 21l118 69h16zM652 365c-84 0 -148 -75 -159 -192c31 43 72 64 122 64c67 0 116 -47 116 -107c0 -37 -13 -68 -38 -95c-25 -26 -56 -39 -93 -39c-73 0 -126 56 -126 153c0 35 6 70 17 104s31 64 59 90
c29 26 63 39 103 39c35 0 64 -9 87 -26l-2 -19c-25 19 -53 28 -86 28zM614 220c-51 0 -97 -31 -122 -78c0 -73 41 -130 109 -130c31 0 58 11 79 34c22 23 33 51 33 84c0 53 -42 90 -99 90z" />
    <glyph glyph-name="uni215A" unicode="&#x215a;" horiz-adv-x="823" 
d="M199 0l510 700h22l-510 -700h-22zM725 365c-84 0 -148 -75 -159 -192c31 43 72 64 122 64c67 0 116 -47 116 -107c0 -37 -13 -68 -38 -95c-25 -26 -56 -39 -93 -39c-73 0 -126 56 -126 153c0 35 6 70 17 104s31 64 59 90c29 26 63 39 103 39c35 0 64 -9 87 -26l-2 -19
c-25 19 -53 28 -86 28zM687 220c-51 0 -97 -31 -122 -78c0 -73 41 -130 109 -130c31 0 58 11 79 34c22 23 33 51 33 84c0 53 -42 90 -99 90zM228 556c81 0 131 -50 131 -111c0 -40 -16 -71 -47 -94c-31 -22 -67 -33 -109 -33c-43 0 -78 10 -107 29l2 19
c32 -21 67 -31 105 -31c35 0 66 9 95 28s43 46 43 80c0 52 -42 96 -114 96c-25 0 -54 -4 -87 -13l53 174h180l-1 -17h-166l-40 -133c19 4 39 6 62 6z" />
    <glyph glyph-name="oneeighth" unicode="&#x215b;" horiz-adv-x="758" 
d="M126 0l510 700h22l-510 -700h-22zM661 197c48 -15 79 -48 79 -91c0 -33 -14 -60 -42 -80c-27 -20 -60 -30 -98 -30c-79 0 -142 40 -142 104c0 52 43 95 107 104c-41 16 -61 43 -61 80c0 59 55 98 122 98c31 0 59 -8 84 -25c25 -16 37 -38 37 -66c0 -48 -38 -85 -86 -94z
M522 283c0 -47 49 -75 102 -75s105 30 105 81c0 47 -48 76 -103 76c-53 0 -104 -31 -104 -82zM598 13c33 0 61 8 86 25s38 39 38 68c0 51 -54 86 -122 86s-124 -35 -124 -92c0 -52 58 -87 122 -87zM204 322h-18l56 356l-116 -68l3 21l118 69h16z" />
    <glyph glyph-name="threeeighths" unicode="&#x215c;" horiz-adv-x="809" 
d="M177 0l510 700h22l-510 -700h-22zM712 197c48 -15 79 -48 79 -91c0 -33 -14 -60 -42 -80c-27 -20 -60 -30 -98 -30c-79 0 -142 40 -142 104c0 52 43 95 107 104c-41 16 -61 43 -61 80c0 59 55 98 122 98c31 0 59 -8 84 -25c25 -16 37 -38 37 -66c0 -48 -38 -85 -86 -94z
M573 283c0 -47 49 -75 102 -75s105 30 105 81c0 47 -48 76 -103 76c-53 0 -104 -31 -104 -82zM649 13c33 0 61 8 86 25s38 39 38 68c0 51 -54 86 -122 86s-124 -35 -124 -92c0 -52 58 -87 122 -87zM367 700l-2 -12l-147 -133c72 -3 125 -42 125 -106c0 -41 -15 -73 -45 -96
c-29 -23 -65 -35 -106 -35c-45 0 -82 10 -112 31l2 19c28 -22 65 -33 110 -33c35 0 65 10 92 30c27 21 41 48 41 83c0 57 -49 89 -113 89c-11 0 -20 0 -27 -1l2 15l146 132h-189l2 17h221z" />
    <glyph glyph-name="fiveeighths" unicode="&#x215d;" horiz-adv-x="831" 
d="M734 197c48 -15 79 -48 79 -91c0 -33 -14 -60 -42 -80c-27 -20 -60 -30 -98 -30c-79 0 -142 40 -142 104c0 52 43 95 107 104c-41 16 -61 43 -61 80c0 59 55 98 122 98c31 0 59 -8 84 -25c25 -16 37 -38 37 -66c0 -48 -38 -85 -86 -94zM595 283c0 -47 49 -75 102 -75
s105 30 105 81c0 47 -48 76 -103 76c-53 0 -104 -31 -104 -82zM671 13c33 0 61 8 86 25s38 39 38 68c0 51 -54 86 -122 86s-124 -35 -124 -92c0 -52 58 -87 122 -87zM228 556c81 0 131 -50 131 -111c0 -40 -16 -71 -47 -94c-31 -22 -67 -33 -109 -33c-43 0 -78 10 -107 29
l2 19c32 -21 67 -31 105 -31c35 0 66 9 95 28s43 46 43 80c0 52 -42 96 -114 96c-25 0 -54 -4 -87 -13l53 174h180l-1 -17h-166l-40 -133c19 4 39 6 62 6zM199 0l510 700h22l-510 -700h-22z" />
    <glyph glyph-name="seveneighths" unicode="&#x215e;" horiz-adv-x="748" 
d="M134 322h-20l241 361h-216l2 17h237l-2 -14zM116 0l510 700h22l-510 -700h-22zM651 197c48 -15 79 -48 79 -91c0 -33 -14 -60 -42 -80c-27 -20 -60 -30 -98 -30c-79 0 -142 40 -142 104c0 52 43 95 107 104c-41 16 -61 43 -61 80c0 59 55 98 122 98c31 0 59 -8 84 -25
c25 -16 37 -38 37 -66c0 -48 -38 -85 -86 -94zM512 283c0 -47 49 -75 102 -75s105 30 105 81c0 47 -48 76 -103 76c-53 0 -104 -31 -104 -82zM588 13c33 0 61 8 86 25s38 39 38 68c0 51 -54 86 -122 86s-124 -35 -124 -92c0 -52 58 -87 122 -87z" />
    <glyph glyph-name="uni215F" unicode="&#x215f;" horiz-adv-x="438" 
d="M204 322h-18l56 356l-116 -68l3 21l118 69h16zM126 0l510 700h22l-510 -700h-22z" />
    <glyph glyph-name="arrowleft" unicode="&#x2190;" horiz-adv-x="732" 
d="M268 72l-151 197l212 193h25l-203 -186h534l-3 -17h-534l142 -187h-22z" />
    <glyph glyph-name="arrowup" unicode="&#x2191;" horiz-adv-x="571" 
d="M377 536l-84 -536h-17l83 531l-213 -171l5 25l222 182l168 -182l-4 -21z" />
    <glyph glyph-name="arrowright" unicode="&#x2192;" horiz-adv-x="733" 
d="M548 463l151 -197l-212 -193h-25l203 186h-534l3 17h534l-142 187h22z" />
    <glyph glyph-name="arrowdown" unicode="&#x2193;" horiz-adv-x="570" 
d="M281 25l84 536h17l-83 -531l213 171l-5 -25l-222 -182l-168 182l4 21z" />
    <glyph glyph-name="partialdiff" unicode="&#x2202;" horiz-adv-x="616" 
d="M304 -12c-61 0 -112 20 -153 60c-40 40 -60 91 -60 152c0 65 23 121 70 166s105 68 174 68c55 0 102 -15 141 -45s67 -67 82 -110c3 17 5 43 5 78c0 98 -23 177 -68 238s-105 91 -181 91c-51 0 -99 -14 -144 -43v18c42 28 90 42 144 42c81 0 146 -32 194 -95
c49 -63 73 -146 73 -250c0 -89 -19 -172 -60 -247c-41 -73 -118 -123 -217 -123zM304 5c136 0 221 95 248 243c-15 49 -42 90 -81 121c-39 32 -85 48 -137 48c-61 0 -113 -21 -158 -62s-67 -92 -67 -153c0 -57 19 -104 56 -141c38 -37 84 -56 139 -56z" />
    <glyph glyph-name="increment" unicode="&#x2206;" horiz-adv-x="734" 
d="M469 700h16l212 -700h-660zM474 674l-407 -657h606z" />
    <glyph glyph-name="product" unicode="&#x220f;" horiz-adv-x="742" 
d="M526 -124h-18l128 807h-315l-128 -807h-18l128 807h-115l2 17h582l-2 -17h-116z" />
    <glyph glyph-name="summation" unicode="&#x2211;" horiz-adv-x="601" 
d="M180 700h463l-2 -17h-440l221 -326l-2 -14l-321 -326h436l-2 -17h-463l2 14l332 339l-226 333z" />
    <glyph glyph-name="minus" unicode="&#x2212;" horiz-adv-x="540" 
d="M119 313l3 17h400l-3 -17h-400z" />
    <glyph glyph-name="uni2215" unicode="&#x2215;" horiz-adv-x="476" 
d="M20 0l510 700h22l-510 -700h-22z" />
    <glyph glyph-name="uni2219" unicode="&#x2219;" horiz-adv-x="208" 
d="M115 195c-8 9 -8 25 0 34c9 9 27 9 35 0c22 -22 -12 -57 -35 -34z" />
    <glyph glyph-name="radical" unicode="&#x221a;" horiz-adv-x="630" 
d="M330 25l360 675h20l-374 -700h-17l-130 439h-140l3 17h150z" />
    <glyph glyph-name="infinity" unicode="&#x221e;" horiz-adv-x="792" 
d="M643 470c83 0 130 -55 130 -131c0 -44 -15 -82 -46 -115s-69 -49 -116 -49c-37 0 -67 12 -96 41c-14 15 -25 28 -34 39c-9 12 -21 29 -36 52c-23 -27 -43 -49 -58 -64s-35 -31 -61 -46s-52 -22 -77 -22c-83 0 -130 54 -130 130c0 45 15 83 46 116s69 49 116 49
c32 0 62 -15 81 -28c10 -6 21 -17 33 -32c13 -15 21 -27 26 -34s14 -20 26 -39c17 21 31 37 42 48c11 12 26 26 43 41c36 31 71 44 111 44zM251 192c36 0 70 14 103 43c17 15 30 29 41 40s24 27 41 47c-13 21 -24 37 -32 48c-7 11 -18 24 -32 39c-28 31 -57 44 -93 44
c-39 0 -73 -14 -101 -43c-27 -28 -41 -63 -41 -104c0 -64 35 -114 114 -114zM613 192c39 0 73 14 100 42c28 28 42 63 42 104c0 64 -37 115 -114 115c-23 0 -47 -8 -72 -23s-44 -29 -58 -44s-33 -36 -56 -64c15 -23 27 -39 34 -50c8 -10 19 -23 33 -38c28 -31 56 -42 91 -42
z" />
    <glyph glyph-name="integral" unicode="&#x222b;" horiz-adv-x="432" 
d="M433 705c29 0 55 -5 78 -16v-19c-24 12 -50 18 -78 18c-81 0 -129 -48 -148 -168l-83 -542c-17 -111 -73 -181 -166 -181c-27 0 -53 5 -76 16v19c24 -12 49 -18 76 -18c82 0 132 56 149 168l83 542c19 124 69 181 165 181z" />
    <glyph glyph-name="approxequal" unicode="&#x2248;" horiz-adv-x="664" 
d="M538 412c52 0 96 16 132 48l-4 -22c-24 -25 -78 -43 -131 -43c-39 0 -86 10 -140 31c-45 18 -87 27 -125 27c-52 0 -96 -16 -132 -48l3 21c24 25 79 44 131 44c39 0 86 -10 140 -31c47 -18 89 -27 126 -27zM502 183c51 0 95 16 131 48l-3 -22c-24 -25 -78 -43 -131 -43
c-39 0 -86 10 -140 31c-47 18 -89 27 -126 27c-51 0 -95 -16 -131 -48l3 21c24 25 79 44 131 44c39 0 86 -10 140 -31c47 -18 89 -27 126 -27z" />
    <glyph glyph-name="notequal" unicode="&#x2260;" horiz-adv-x="595" 
d="M137 426l3 17h279l90 131h21l-90 -131h155l-3 -17h-163l-144 -211h274l-3 -17h-283l-88 -130h-21l88 130h-151l3 17h160l144 211h-271z" />
    <glyph glyph-name="lessequal" unicode="&#x2264;" horiz-adv-x="595" 
d="M536 82h-454l3 17h454zM128 372l486 190l-4 -20l-457 -179l401 -179l-3 -19l-425 190z" />
    <glyph glyph-name="greaterequal" unicode="&#x2265;" horiz-adv-x="595" 
d="M86 99h454l-3 -17h-454zM556 365l-401 179l4 18l424 -190l-2 -17l-485 -190l3 21z" />
    <glyph glyph-name="dotmath" unicode="&#x22c5;" horiz-adv-x="208" 
d="M127 361c-8 9 -8 25 0 34c9 9 27 9 35 0c22 -22 -12 -57 -35 -34z" />
    <glyph glyph-name="lozenge" unicode="&#x25ca;" horiz-adv-x="555" 
d="M379 700h17l154 -350l-264 -350h-17l-154 350zM137 348l143 -326l248 330l-142 326z" />
    <glyph glyph-name="uniF401" unicode="&#xf401;" horiz-adv-x="20" 
d="M-270 765l116 124h24l-116 -124h-24z" />
    <glyph glyph-name="uniF639" unicode="&#xf639;" 
d="M396 712c69 0 123 -28 162 -85c40 -56 60 -130 60 -222c0 -67 -12 -132 -35 -195s-57 -115 -104 -158c-46 -43 -98 -64 -157 -64c-69 0 -123 28 -163 84c-39 57 -59 131 -59 223c0 67 11 132 34 195s58 115 104 158c47 43 99 64 158 64zM323 5c83 0 158 55 203 132
c47 79 74 178 74 271c0 86 -18 155 -55 208s-87 79 -150 79c-83 0 -157 -54 -204 -133c-45 -77 -73 -177 -73 -270c0 -86 18 -155 55 -208s87 -79 150 -79z" />
    <glyph glyph-name="uniF63A" unicode="&#xf63a;" 
d="M168 599l3 27c59 56 129 84 210 84c62 0 111 -18 148 -54c37 -35 56 -79 56 -132c0 -92 -64 -169 -196 -277l-280 -230h435l-3 -17h-461l2 16l294 243c64 53 112 99 143 138c32 39 48 81 48 125c0 52 -18 93 -55 124c-36 31 -80 47 -131 47c-78 0 -149 -31 -213 -94z" />
    <glyph glyph-name="uniF63B" unicode="&#xf63b;" 
d="M615 687l-293 -264h10c70 0 127 -17 172 -52s68 -82 68 -143c0 -73 -28 -132 -83 -175s-120 -65 -196 -65c-81 0 -148 19 -202 56l4 20c50 -39 116 -59 198 -59c69 0 129 20 182 60s79 94 79 161c0 59 -22 103 -65 134s-95 46 -157 46c-17 0 -32 -1 -44 -3l3 16l294 264
h-376l2 17h406z" />
    <glyph glyph-name="uniF63C" unicode="&#xf63c;" 
d="M493 231h126l-3 -17h-126l-33 -214h-18l33 214h-396l3 16l472 470h16zM104 231h371l69 438z" />
    <glyph glyph-name="uniF63D" unicode="&#xf63d;" 
d="M331 424c73 0 131 -20 174 -60c44 -39 66 -87 66 -144c0 -71 -29 -128 -87 -170c-57 -41 -125 -62 -202 -62c-79 0 -144 17 -194 52l3 20c49 -37 113 -55 191 -55c43 0 84 7 124 22s74 39 103 72c29 34 44 74 44 119c0 51 -20 96 -59 133s-94 56 -164 56
c-52 0 -104 -7 -155 -22l93 315h329l-2 -17h-314l-81 -274c38 10 82 15 131 15z" />
    <glyph glyph-name="uniF63E" unicode="&#xf63e;" 
d="M385 432c61 0 112 -19 152 -57c41 -37 61 -84 61 -141c0 -67 -23 -125 -68 -174c-45 -48 -102 -72 -171 -72s-126 24 -170 72c-43 49 -65 113 -65 192c0 19 2 42 5 71c13 113 51 206 112 279s134 110 218 110c65 0 117 -16 155 -48l-3 -19c-42 33 -93 50 -154 50
c-79 0 -147 -35 -204 -106c-57 -70 -93 -158 -106 -265l-4 -36c23 41 55 75 98 102c43 28 91 42 144 42zM361 5c61 0 112 22 155 67s64 100 64 163c0 53 -19 96 -56 129c-37 34 -84 51 -141 51c-51 0 -98 -15 -141 -45s-76 -69 -100 -116c0 -71 19 -131 58 -178
s92 -71 161 -71z" />
    <glyph glyph-name="uniF63F" unicode="&#xf63f;" 
d="M209 700h435l-2 -12l-457 -688h-22l455 683h-411z" />
    <glyph glyph-name="uniF640" unicode="&#xf640;" 
d="M323 -12c-73 0 -134 18 -185 53s-76 82 -76 141c0 50 19 93 58 129c39 37 91 59 156 67c-76 24 -125 80 -125 151c0 54 22 98 65 132s95 51 156 51c57 0 108 -15 152 -44s66 -70 66 -122c0 -95 -71 -162 -170 -179c100 -28 159 -91 159 -174c0 -62 -25 -112 -76 -149
c-50 -37 -110 -56 -180 -56zM80 181c0 -36 13 -68 38 -96c51 -55 125 -80 201 -80c63 0 119 17 168 51s74 80 74 137c0 50 -23 91 -70 122c-46 32 -102 48 -169 48c-66 0 -123 -16 -171 -49c-47 -33 -71 -77 -71 -133zM169 531c0 -47 20 -85 61 -112s86 -41 137 -41
c52 0 99 15 141 44c43 29 64 70 64 121c0 48 -20 85 -60 112s-87 40 -140 40c-52 0 -99 -15 -141 -44c-41 -29 -62 -69 -62 -120z" />
    <glyph glyph-name="uniF641" unicode="&#xf641;" 
d="M333 268c-61 0 -112 19 -153 56c-40 38 -60 85 -60 142c0 67 23 125 68 173c45 49 102 73 171 73s126 -24 169 -73c44 -48 66 -112 66 -191c0 -19 -2 -42 -5 -71c-13 -113 -51 -207 -112 -280s-134 -109 -218 -109c-65 0 -117 16 -155 48l3 19c42 -33 93 -50 154 -50
c79 0 147 35 204 105c57 71 93 159 106 266l4 36c-23 -41 -55 -75 -98 -103c-43 -27 -91 -41 -144 -41zM357 695c-61 0 -112 -23 -155 -68s-64 -99 -64 -162c0 -53 18 -96 55 -130c37 -33 85 -50 142 -50c51 0 97 15 140 45s77 69 101 116c0 71 -19 131 -58 178
s-92 71 -161 71z" />
    <glyph glyph-name="uniF643" unicode="&#xf643;" 
d="M358 482c71 0 127 -23 169 -68s63 -98 63 -161c0 -73 -25 -135 -76 -187c-50 -52 -112 -78 -187 -78c-71 0 -127 22 -169 67s-63 99 -63 162c0 73 25 135 75 187c51 52 113 78 188 78zM328 5c67 0 125 24 172 73c48 49 72 107 72 176c0 60 -20 110 -60 150
c-39 41 -91 61 -155 61c-67 0 -125 -24 -173 -73c-47 -49 -71 -107 -71 -176c0 -60 20 -110 59 -151c40 -40 92 -60 156 -60z" />
    <glyph glyph-name="uniF644" unicode="&#xf644;" 
d="M336 17h201l-3 -17h-426l3 17h207l68 432l-182 -106l3 20l183 107h18z" />
    <glyph glyph-name="uniF645" unicode="&#xf645;" 
d="M182 38l-41 -21h385l-2 -17h-425l2 15c129 67 219 115 268 144c23 14 42 26 55 35s30 22 49 39c39 33 57 71 57 115c0 69 -60 117 -161 117c-73 0 -141 -30 -206 -90l4 26c62 54 131 81 206 81c109 0 176 -57 176 -133c0 -39 -18 -78 -41 -105c-11 -13 -25 -27 -44 -42
c-36 -29 -57 -43 -100 -67l-87 -48c-37 -19 -68 -36 -95 -49z" />
    <glyph glyph-name="uniF646" unicode="&#xf646;" 
d="M576 457l-293 -243h10c68 0 125 -17 171 -50s69 -78 69 -136c0 -71 -28 -127 -84 -168c-56 -42 -121 -63 -195 -63c-81 0 -148 19 -202 56l4 20c50 -39 116 -59 198 -59c67 0 127 19 180 58c54 38 81 89 81 154c0 56 -22 98 -66 127c-43 29 -95 44 -156 44
c-17 0 -32 -1 -44 -3l3 16l294 243h-376l2 17h406z" />
    <glyph glyph-name="uniF647" unicode="&#xf647;" 
d="M459 17h126l-2 -17h-126l-32 -200h-18l32 200h-396l2 15l471 455h15zM72 17h369l67 420z" />
    <glyph glyph-name="uniF648" unicode="&#xf648;" 
d="M296 221c73 0 131 -19 174 -57c44 -37 66 -84 66 -140c0 -47 -14 -89 -43 -124c-57 -71 -147 -103 -246 -103c-79 0 -144 17 -194 52l3 20c49 -37 113 -55 191 -55c43 0 84 7 123 21c40 14 75 37 104 70s44 72 44 117c0 51 -20 94 -60 129c-39 35 -94 53 -163 53
c-52 0 -104 -7 -155 -22l93 288h329l-2 -17h-314l-81 -247c38 10 82 15 131 15z" />
    <glyph glyph-name="uniF649" unicode="&#xf649;" 
d="M385 432c61 0 112 -19 152 -57c41 -37 61 -84 61 -141c0 -67 -23 -125 -68 -174c-45 -48 -102 -72 -171 -72s-126 24 -170 72c-43 49 -65 113 -65 192c0 19 2 42 5 71c13 113 51 206 112 279s134 110 218 110c65 0 117 -16 155 -48l-3 -19c-42 33 -93 50 -154 50
c-79 0 -147 -35 -204 -106c-57 -70 -93 -158 -106 -265l-4 -36c23 41 55 75 98 102c43 28 91 42 144 42zM361 5c61 0 112 22 155 67s64 100 64 163c0 53 -19 96 -56 129c-37 34 -84 51 -141 51c-51 0 -98 -15 -141 -45s-76 -69 -100 -116c0 -71 19 -131 58 -178
s92 -71 161 -71z" />
    <glyph glyph-name="uniF64A" unicode="&#xf64a;" 
d="M151 470h435l-2 -12l-438 -658h-22l435 653h-411z" />
    <glyph glyph-name="uniF64B" unicode="&#xf64b;" 
d="M315 -12c-73 0 -134 18 -185 53s-76 82 -76 141c0 50 19 93 58 129c39 37 91 59 156 67c-76 24 -125 80 -125 151c0 54 22 98 65 132s95 51 156 51c57 0 108 -15 152 -44s66 -70 66 -122c0 -95 -71 -162 -170 -179c100 -28 159 -91 159 -174c0 -62 -25 -112 -76 -149
c-50 -37 -110 -56 -180 -56zM72 181c0 -36 13 -68 38 -96c51 -55 125 -80 201 -80c63 0 119 17 168 51s74 80 74 137c0 50 -23 91 -70 122c-46 32 -102 48 -169 48c-66 0 -123 -16 -171 -49c-47 -33 -71 -77 -71 -133zM161 531c0 -47 20 -85 61 -112s86 -41 137 -41
c52 0 99 15 141 44c43 29 64 70 64 121c0 48 -20 85 -60 112s-87 40 -140 40c-52 0 -99 -15 -141 -44c-41 -29 -62 -69 -62 -120z" />
    <glyph glyph-name="uniF64C" unicode="&#xf64c;" 
d="M299 36c-57 0 -106 18 -145 54s-58 82 -58 137c0 67 25 127 75 178c51 51 111 77 182 77c135 0 217 -91 217 -255c0 -20 -2 -44 -5 -73c-14 -113 -52 -200 -113 -263s-137 -94 -226 -94c-53 0 -114 17 -146 42l3 19c39 -29 88 -44 146 -44c83 0 153 30 211 91
s94 143 108 248c3 15 4 27 4 37c-23 -43 -57 -79 -102 -109s-96 -45 -151 -45zM350 465c-63 0 -118 -24 -165 -71s-71 -103 -71 -167c0 -52 18 -94 54 -126s81 -48 134 -48c52 0 101 16 146 48s80 73 104 122v2c0 145 -67 240 -202 240z" />
    <glyph glyph-name="uniF64E" unicode="&#xf64e;" horiz-adv-x="569" 
d="M159 181h259l-3 -17h-253c11 -47 35 -86 72 -115c38 -29 84 -44 138 -44s103 14 148 43l-3 -21c-44 -26 -93 -39 -148 -39c-60 0 -110 16 -149 49s-65 76 -76 127h-79l3 17h73c-1 16 -2 28 -2 36c0 21 3 42 8 65h-63l3 17h64c17 53 48 97 93 131c46 35 99 52 158 52
c65 0 120 -18 166 -53l-3 -18c-49 36 -104 54 -164 54c-52 0 -99 -16 -141 -47s-72 -70 -89 -119h266l-3 -17h-269c-5 -23 -8 -45 -8 -66c0 -9 1 -20 2 -35z" />
    <glyph glyph-name="uniF653" unicode="&#xf653;" horiz-adv-x="484" 
d="M256 -12h-15l-16 -104h-18l16 106c-72 6 -129 27 -171 62l2 20c53 -45 121 -67 204 -67c25 0 50 3 74 9c49 13 98 52 98 107c0 28 -12 50 -43 66c-15 9 -28 15 -39 19s-27 10 -49 17c-19 6 -31 10 -37 11l-32 11c-32 11 -35 14 -59 25c-23 12 -28 22 -41 35
c-12 13 -15 29 -15 48c0 41 17 73 51 95c35 23 75 34 122 34h14l16 105h18l-16 -107c59 -5 108 -22 149 -52l-3 -17c-48 36 -107 54 -178 54c-23 0 -46 -3 -68 -10c-44 -12 -87 -48 -87 -99c0 -17 6 -32 13 -43c8 -11 26 -23 37 -30s38 -17 49 -21l55 -18l28 -9l32 -11
l28 -12c28 -11 35 -19 51 -34s22 -34 22 -55c-2 -95 -102 -138 -192 -135z" />
    <glyph glyph-name="commaaccent" unicode="&#xf6c3;" horiz-adv-x="219" 
d="M173 -44l-78 -156h-19l78 156h19z" />
    <glyph glyph-name="cyrbreve" unicode="&#xf6d4;" horiz-adv-x="520" 
d="M226 710h18c-1 -4 -1 -10 -1 -19c0 -56 41 -95 112 -95c76 0 133 47 144 114h19c-12 -77 -78 -131 -162 -131c-80 0 -131 44 -131 109c0 9 0 17 1 22z" />
    <glyph glyph-name="uniF6DC" unicode="&#xf6dc;" 
d="M330 17h204l-3 -17h-436l3 17h214l105 662l-183 -106l3 20l183 107h18z" />
    <glyph glyph-name="uniF721" unicode="&#xf721;" horiz-adv-x="516" 
d="M97 173l3 17h376l-3 -17h-253c-47 -17 -86 -48 -86 -89c0 -33 27 -57 66 -66s69 -13 101 -13c47 0 91 7 131 21l-3 -18c-38 -13 -82 -20 -133 -20c-35 0 -69 4 -110 16c-41 13 -70 41 -70 80c0 37 22 67 67 89h-86zM116 291l2 17h281c46 20 69 47 69 80
c0 32 -25 54 -62 63c-37 11 -66 13 -98 13c-45 0 -89 -8 -132 -24l3 18c38 15 83 23 135 23c35 0 70 -4 107 -17c39 -12 65 -40 65 -77c0 -32 -18 -58 -53 -79h61l-2 -17h-376z" />
    <glyph glyph-name="uniF722" unicode="&#xf722;" horiz-adv-x="546" 
d="M77 190l2 17h69l42 263h219c91 0 142 -50 142 -122c0 -48 -18 -86 -53 -115s-79 -43 -132 -43h-202l-16 -101h231l-3 -17h-231l-11 -72h-18l11 72h-69l3 17h69l16 101h-69zM166 207h201c46 1 85 13 117 37c33 24 49 59 49 104c0 64 -48 105 -128 105h-200z" />
    <glyph glyph-name="uniF725" unicode="&#xf725;" horiz-adv-x="571" 
d="M410 465c-118 0 -187 -61 -206 -184l-14 -89h270l-3 -17h-270l-17 -107c-3 -24 -12 -41 -27 -51h347l-2 -17h-410l2 17h26c23 0 43 25 47 53l16 105h-64l3 17h64l14 91c21 133 97 199 227 199c57 0 105 -15 144 -45l-3 -19c-39 31 -87 47 -144 47z" />
    <glyph glyph-name="uniF727" unicode="&#xf727;" horiz-adv-x="518" 
d="M100 100l3 17h164l16 101h-164l2 17h156l-154 235h22l150 -229l221 229h25l-228 -235h156l-2 -17h-166l-16 -101h166l-3 -17h-165l-16 -100h-18l16 100h-165z" />
    <glyph glyph-name="uniF730" unicode="&#xf730;" horiz-adv-x="610" 
d="M353 482c71 0 127 -23 169 -68s63 -98 63 -161c0 -73 -25 -135 -76 -187c-50 -52 -112 -78 -187 -78c-71 0 -127 22 -169 67s-63 99 -63 162c0 73 25 135 75 187c51 52 113 78 188 78zM323 5c67 0 125 24 172 73c48 49 72 107 72 176c0 60 -20 110 -60 150
c-39 41 -91 61 -155 61c-67 0 -125 -24 -173 -73c-47 -49 -71 -107 -71 -176c0 -60 20 -110 59 -151c40 -40 92 -60 156 -60z" />
    <glyph glyph-name="uniF731" unicode="&#xf731;" horiz-adv-x="340" 
d="M299 470l-74 -470h-18l71 449l-183 -106l3 20l183 107h18z" />
    <glyph glyph-name="uniF732" unicode="&#xf732;" horiz-adv-x="554" 
d="M148 38l-41 -21h385l-2 -17h-425l2 15c129 67 219 115 268 144c23 14 42 26 55 35s30 22 49 39c39 33 57 71 57 115c0 69 -60 117 -161 117c-73 0 -141 -30 -206 -90l4 26c62 54 131 81 206 81c109 0 176 -57 176 -133c0 -39 -18 -78 -41 -105c-11 -13 -25 -27 -44 -42
c-36 -29 -57 -43 -100 -67l-87 -48c-37 -19 -68 -36 -95 -49z" />
    <glyph glyph-name="uniF733" unicode="&#xf733;" horiz-adv-x="529" 
d="M569 457l-293 -243h10c68 0 125 -17 171 -50s69 -78 69 -136c0 -71 -28 -127 -84 -168c-56 -42 -121 -63 -195 -63c-81 0 -148 19 -202 56l4 20c50 -39 116 -59 198 -59c67 0 127 19 180 58c54 38 81 89 81 154c0 56 -22 98 -66 127c-43 29 -95 44 -156 44
c-17 0 -32 -1 -44 -3l3 16l294 243h-376l2 17h406z" />
    <glyph glyph-name="uniF734" unicode="&#xf734;" horiz-adv-x="621" 
d="M459 17h126l-2 -17h-126l-32 -200h-18l32 200h-396l2 15l471 455h15zM72 17h369l67 420z" />
    <glyph glyph-name="uniF735" unicode="&#xf735;" horiz-adv-x="590" 
d="M319 221c73 0 131 -19 174 -57c44 -37 66 -84 66 -140c0 -47 -14 -89 -43 -124c-57 -71 -147 -103 -246 -103c-79 0 -144 17 -194 52l3 20c49 -37 113 -55 191 -55c43 0 84 7 123 21c40 14 75 37 104 70s44 72 44 117c0 51 -20 94 -60 129c-39 35 -94 53 -163 53
c-52 0 -104 -7 -155 -22l93 288h329l-2 -17h-314l-81 -247c38 10 82 15 131 15z" />
    <glyph glyph-name="uniF736" unicode="&#xf736;" horiz-adv-x="635" 
d="M387 432c61 0 112 -19 152 -57c41 -37 61 -84 61 -141c0 -67 -23 -125 -68 -174c-45 -48 -102 -72 -171 -72s-126 24 -170 72c-43 49 -65 113 -65 192c0 19 2 42 5 71c13 113 51 206 112 279s134 110 218 110c65 0 117 -16 155 -48l-3 -19c-41 33 -93 50 -154 50
c-79 0 -147 -35 -204 -106c-57 -70 -93 -158 -106 -265l-4 -36c23 41 55 75 98 102c43 28 91 42 144 42zM363 5c61 0 112 22 155 67s64 100 64 163c0 53 -19 96 -56 129c-37 34 -84 51 -141 51c-51 0 -98 -15 -141 -45s-76 -69 -100 -116c0 -71 19 -131 58 -178
s92 -71 161 -71z" />
    <glyph glyph-name="uniF737" unicode="&#xf737;" horiz-adv-x="537" 
d="M141 470h435l-2 -12l-438 -658h-22l435 653h-411z" />
    <glyph glyph-name="uniF738" unicode="&#xf738;" horiz-adv-x="629" 
d="M347 -12c-73 0 -134 18 -185 53s-76 82 -76 141c0 50 19 93 58 129c39 37 91 59 156 67c-76 24 -125 80 -125 151c0 54 22 98 65 132s95 51 156 51c57 0 108 -15 152 -44s66 -70 66 -122c0 -95 -71 -162 -170 -179c100 -28 159 -91 159 -174c0 -62 -25 -112 -76 -149
c-50 -37 -110 -56 -180 -56zM104 181c0 -36 13 -68 38 -96c51 -55 125 -80 201 -80c63 0 119 17 168 51s74 80 74 137c0 50 -23 91 -70 122c-46 32 -102 48 -169 48c-66 0 -123 -16 -171 -49c-47 -33 -71 -77 -71 -133zM193 531c0 -47 20 -85 61 -112s86 -41 137 -41
c52 0 99 15 141 44c43 29 64 70 64 121c0 48 -20 85 -60 112s-87 40 -140 40c-52 0 -99 -15 -141 -44c-41 -29 -62 -69 -62 -120z" />
    <glyph glyph-name="uniF739" unicode="&#xf739;" horiz-adv-x="633" 
d="M322 36c-57 0 -106 18 -145 54s-58 82 -58 137c0 67 25 127 75 178c51 51 111 77 182 77c135 0 217 -91 217 -255c0 -20 -2 -44 -5 -73c-14 -113 -52 -200 -113 -263s-137 -94 -226 -94c-53 0 -114 17 -146 42l3 19c39 -29 88 -44 146 -44c83 0 153 30 211 91
s94 143 108 248c3 15 4 27 4 37c-23 -43 -57 -79 -102 -109s-96 -45 -151 -45zM373 465c-63 0 -118 -24 -165 -71s-71 -103 -71 -167c0 -52 18 -94 54 -126s81 -48 134 -48c52 0 101 16 146 48s80 73 104 122v2c0 145 -67 240 -202 240z" />
    <glyph glyph-name="aring.alt" horiz-adv-x="621" 
d="M565 372l16 98h18l-74 -470h-18l13 82c-56 -63 -123 -94 -200 -94c-71 0 -127 22 -168 65c-41 44 -61 98 -61 161c0 74 25 137 75 189c51 53 113 79 188 79c96 0 171 -47 211 -110zM321 5c40 0 79 11 116 32c38 22 68 50 89 83l35 224c-17 33 -44 61 -81 85
s-79 36 -127 36c-67 0 -124 -25 -172 -74s-72 -108 -72 -177c0 -59 19 -109 58 -149s91 -60 154 -60zM488 644c0 -48 -40 -88 -88 -88s-88 40 -88 88c0 47 40 88 88 88s88 -41 88 -88zM350 593c27 -27 73 -27 100 0c27 28 27 74 0 101c-27 28 -73 28 -100 0
c-27 -27 -27 -73 0 -101z" />
    <glyph glyph-name="amacron.alt" horiz-adv-x="621" 
d="M565 372l16 98h18l-74 -470h-18l13 82c-56 -63 -123 -94 -200 -94c-71 0 -127 22 -168 65c-41 44 -61 98 -61 161c0 74 25 137 75 189c51 53 113 79 188 79c96 0 171 -47 211 -110zM321 5c40 0 79 11 116 32c38 22 68 50 89 83l35 224c-17 33 -44 61 -81 85
s-79 36 -127 36c-67 0 -124 -25 -172 -74s-72 -108 -72 -177c0 -59 19 -109 58 -149s91 -60 154 -60zM304 635l3 17h209l-3 -17h-209z" />
    <glyph glyph-name="aogonek.alt" horiz-adv-x="621" 
d="M565 372l16 98h18l-74 -470c-37 -34 -55 -69 -55 -105c0 -41 29 -67 73 -67c11 0 25 2 41 6l-2 -17c-16 -4 -31 -6 -45 -6c-53 0 -85 36 -85 83c0 37 18 73 55 106l13 82c-56 -63 -123 -94 -200 -94c-71 0 -127 22 -168 65c-41 44 -61 98 -61 161c0 74 25 137 75 189
c51 53 113 79 188 79c96 0 171 -47 211 -110zM321 5c40 0 79 11 116 32c38 22 68 50 89 83l35 224c-17 33 -44 61 -81 85s-79 36 -127 36c-67 0 -124 -25 -172 -74s-72 -108 -72 -177c0 -59 19 -109 58 -149s91 -60 154 -60z" />
    <glyph glyph-name="atilde.alt" horiz-adv-x="621" 
d="M565 372l16 98h18l-74 -470h-18l13 82c-56 -63 -123 -94 -200 -94c-71 0 -127 22 -168 65c-41 44 -61 98 -61 161c0 74 25 137 75 189c51 53 113 79 188 79c96 0 171 -47 211 -110zM321 5c40 0 79 11 116 32c38 22 68 50 89 83l35 224c-17 33 -44 61 -81 85
s-79 36 -127 36c-67 0 -124 -25 -172 -74s-72 -108 -72 -177c0 -59 19 -109 58 -149s91 -60 154 -60zM527 681h18c-10 -53 -35 -80 -74 -80c-18 0 -41 11 -70 34s-51 35 -66 35c-27 0 -45 -21 -54 -62h-18c9 51 37 79 74 79c19 0 42 -12 71 -35s50 -34 65 -34
c27 0 45 21 54 63z" />
    <glyph glyph-name="gcircumflex.alt" horiz-adv-x="618" 
d="M346 482c65 0 116 -23 151 -68l157 68l-3 -20l-143 -63c19 -29 29 -62 29 -98c0 -45 -13 -86 -39 -121c35 -37 53 -85 53 -142c0 -68 -25 -125 -75 -171c-50 -47 -112 -70 -186 -70c-67 0 -120 20 -161 59c-40 39 -60 87 -60 144h18c0 -54 19 -98 58 -133s89 -53 148 -53
c64 0 120 21 168 64c49 42 73 95 73 160c0 51 -16 94 -48 127c-42 -49 -97 -73 -166 -73c-58 0 -105 18 -140 53c-35 36 -52 79 -52 128c0 57 21 106 62 147c42 41 94 62 156 62zM321 109c55 0 101 19 140 56c39 38 58 84 58 137c0 46 -16 85 -49 116c-32 31 -74 47 -125 47
c-55 0 -102 -19 -141 -57s-58 -83 -58 -136c0 -46 16 -85 49 -116s75 -47 126 -47zM419 700l84 -124h-20l-74 108l-108 -108h-22l122 124h18z" />
    <glyph glyph-name="gbreve.alt" horiz-adv-x="618" 
d="M346 482c65 0 116 -23 151 -68l157 68l-3 -20l-143 -63c19 -29 29 -62 29 -98c0 -45 -13 -86 -39 -121c35 -37 53 -85 53 -142c0 -68 -25 -125 -75 -171c-50 -47 -112 -70 -186 -70c-67 0 -120 20 -161 59c-40 39 -60 87 -60 144h18c0 -54 19 -98 58 -133s89 -53 148 -53
c64 0 120 21 168 64c49 42 73 95 73 160c0 51 -16 94 -48 127c-42 -49 -97 -73 -166 -73c-58 0 -105 18 -140 53c-35 36 -52 79 -52 128c0 57 21 106 62 147c42 41 94 62 156 62zM321 109c55 0 101 19 140 56c39 38 58 84 58 137c0 46 -16 85 -49 116c-32 31 -74 47 -125 47
c-55 0 -102 -19 -141 -57s-58 -83 -58 -136c0 -46 16 -85 49 -116s75 -47 126 -47zM500 694h19c-11 -65 -60 -115 -128 -115c-61 0 -103 43 -103 99c0 7 0 12 1 16h18c-1 -3 -1 -8 -1 -15c0 -49 33 -83 86 -83c56 0 99 42 108 98z" />
    <glyph glyph-name="gdotaccent.alt" horiz-adv-x="618" 
d="M346 482c65 0 116 -23 151 -68l157 68l-3 -20l-143 -63c19 -29 29 -62 29 -98c0 -45 -13 -86 -39 -121c35 -37 53 -85 53 -142c0 -68 -25 -125 -75 -171c-50 -47 -112 -70 -186 -70c-67 0 -120 20 -161 59c-40 39 -60 87 -60 144h18c0 -54 19 -98 58 -133s89 -53 148 -53
c64 0 120 21 168 64c49 42 73 95 73 160c0 51 -16 94 -48 127c-42 -49 -97 -73 -166 -73c-58 0 -105 18 -140 53c-35 36 -52 79 -52 128c0 57 21 106 62 147c42 41 94 62 156 62zM321 109c55 0 101 19 140 56c39 38 58 84 58 137c0 46 -16 85 -49 116c-32 31 -74 47 -125 47
c-55 0 -102 -19 -141 -57s-58 -83 -58 -136c0 -46 16 -85 49 -116s75 -47 126 -47zM379 627c-8 9 -8 25 0 34c9 9 27 9 35 0c22 -22 -12 -57 -35 -34z" />
    <glyph glyph-name="acircumflex.alt" horiz-adv-x="621" 
d="M565 372l16 98h18l-74 -470h-18l13 82c-56 -63 -123 -94 -200 -94c-71 0 -127 22 -168 65c-41 44 -61 98 -61 161c0 74 25 137 75 189c51 53 113 79 188 79c96 0 171 -47 211 -110zM321 5c40 0 79 11 116 32c38 22 68 50 89 83l35 224c-17 33 -44 61 -81 85
s-79 36 -127 36c-67 0 -124 -25 -172 -74s-72 -108 -72 -177c0 -59 19 -109 58 -149s91 -60 154 -60zM419 700l84 -124h-20l-74 108l-108 -108h-22l122 124h18z" />
    <glyph glyph-name="abreve.alt" horiz-adv-x="621" 
d="M565 372l16 98h18l-74 -470h-18l13 82c-56 -63 -123 -94 -200 -94c-71 0 -127 22 -168 65c-41 44 -61 98 -61 161c0 74 25 137 75 189c51 53 113 79 188 79c96 0 171 -47 211 -110zM321 5c40 0 79 11 116 32c38 22 68 50 89 83l35 224c-17 33 -44 61 -81 85
s-79 36 -127 36c-67 0 -124 -25 -172 -74s-72 -108 -72 -177c0 -59 19 -109 58 -149s91 -60 154 -60zM507 694h19c-11 -65 -60 -115 -128 -115c-61 0 -103 43 -103 99c0 7 0 12 1 16h18c-1 -3 -1 -8 -1 -15c0 -49 33 -83 86 -83c56 0 99 42 108 98z" />
    <glyph glyph-name="uni0438_uni043D" horiz-adv-x="985" 
d="M910 251l35 219h18l-74 -470h-18l37 234h-368l-37 -234h-18l69 440l-443 -440h-15l74 470h18l-70 -440l444 440h15l-35 -219h368z" />
    <glyph glyph-name="uni0422_uni0418" horiz-adv-x="955" 
d="M147 700h537l-2 -17h-260l-103 -651l616 668h18l-110 -700h-18l106 670l-617 -669v-1h-18l107 683h-258z" />
    <glyph glyph-name="N_T" horiz-adv-x="958" 
d="M494 700h537l-2 -17h-260l-108 -683h-18l-407 670l-106 -670h-18l110 700h18l407 -669l104 652h-259z" />
    <glyph glyph-name="uni0438_uni0439" horiz-adv-x="988" 
d="M507 30l444 440h15l-74 -470h-18l69 440l-443 -440h-15l69 440l-443 -440h-15l74 470h18l-70 -440l444 440h15zM654 710h18c-1 -4 -1 -10 -1 -19c0 -56 41 -95 112 -95c76 0 133 47 144 114h19c-12 -77 -78 -131 -162 -131c-80 0 -131 44 -131 109c0 9 0 17 1 22z" />
    <glyph glyph-name="a.alt" horiz-adv-x="621" 
d="M565 372l16 98h18l-74 -470h-18l13 82c-56 -63 -123 -94 -200 -94c-71 0 -127 22 -168 65c-41 44 -61 98 -61 161c0 74 25 137 75 189c51 53 113 79 188 79c96 0 171 -47 211 -110zM321 5c40 0 79 11 116 32c38 22 68 50 89 83l35 224c-17 33 -44 61 -81 85
s-79 36 -127 36c-67 0 -124 -25 -172 -74s-72 -108 -72 -177c0 -59 19 -109 58 -149s91 -60 154 -60z" />
    <glyph glyph-name="Q.alt01" horiz-adv-x="848" 
d="M503 712c95 0 173 -31 232 -94s89 -141 89 -236c0 -119 -49 -230 -132 -305l59 -77h-21l-52 67c-65 -53 -139 -79 -223 -79c-95 0 -173 31 -232 94s-89 142 -89 237c0 107 35 199 105 276c70 78 158 117 264 117zM667 81l-174 229h22l165 -218c79 71 126 174 126 289
c0 90 -28 165 -85 224c-56 60 -129 90 -218 90c-97 0 -179 -37 -248 -110s-103 -161 -103 -265c0 -90 28 -165 84 -225c57 -60 130 -90 219 -90c79 0 150 25 212 76z" />
    <glyph glyph-name="adieresis.alt" horiz-adv-x="621" 
d="M565 372l16 98h18l-74 -470h-18l13 82c-56 -63 -123 -94 -200 -94c-71 0 -127 22 -168 65c-41 44 -61 98 -61 161c0 74 25 137 75 189c51 53 113 79 188 79c96 0 171 -47 211 -110zM321 5c40 0 79 11 116 32c38 22 68 50 89 83l35 224c-17 33 -44 61 -81 85
s-79 36 -127 36c-67 0 -124 -25 -172 -74s-72 -108 -72 -177c0 -59 19 -109 58 -149s91 -60 154 -60zM295 627c-22 22 12 56 34 34s-12 -56 -34 -34zM475 627c-22 22 12 56 34 34s-12 -56 -34 -34z" />
    <glyph glyph-name="aacute.alt" horiz-adv-x="621" 
d="M565 372l16 98h18l-74 -470h-18l13 82c-56 -63 -123 -94 -200 -94c-71 0 -127 22 -168 65c-41 44 -61 98 -61 161c0 74 25 137 75 189c51 53 113 79 188 79c96 0 171 -47 211 -110zM321 5c40 0 79 11 116 32c38 22 68 50 89 83l35 224c-17 33 -44 61 -81 85
s-79 36 -127 36c-67 0 -124 -25 -172 -74s-72 -108 -72 -177c0 -59 19 -109 58 -149s91 -60 154 -60zM352 576l116 124h24l-116 -124h-24z" />
    <glyph glyph-name="yen.mono" 
d="M652 700h23l-303 -362h212l-3 -17h-221l-21 -135h221l-3 -17h-221l-27 -169h-18l27 169h-221l3 17h221l21 135h-221l3 17h212l-189 362h21l186 -355z" />
    <glyph glyph-name="g.alt" horiz-adv-x="618" 
d="M346 482c65 0 116 -23 151 -68l157 68l-3 -20l-143 -63c19 -29 29 -62 29 -98c0 -45 -13 -86 -39 -121c35 -37 53 -85 53 -142c0 -68 -25 -125 -75 -171c-50 -47 -112 -70 -186 -70c-67 0 -120 20 -161 59c-40 39 -60 87 -60 144h18c0 -54 19 -98 58 -133s89 -53 148 -53
c64 0 120 21 168 64c49 42 73 95 73 160c0 51 -16 94 -48 127c-42 -49 -97 -73 -166 -73c-58 0 -105 18 -140 53c-35 36 -52 79 -52 128c0 57 21 106 62 147c42 41 94 62 156 62zM321 109c55 0 101 19 140 56c39 38 58 84 58 137c0 46 -16 85 -49 116c-32 31 -74 47 -125 47
c-55 0 -102 -19 -141 -57s-58 -83 -58 -136c0 -46 16 -85 49 -116s75 -47 126 -47z" />
    <glyph glyph-name="uni0418_uni041D" horiz-adv-x="1287" 
d="M1175 0h-18l58 369h-498l-58 -369h-18l106 670l-618 -670h-17l110 700h18l-106 -669l617 669h18l-49 -314h498l49 314h18z" />
    <glyph glyph-name="uni043D_uni0438" horiz-adv-x="985" 
d="M504 30l444 440h15l-74 -470h-18l69 440l-443 -440h-15l37 234h-368l-37 -234h-18l74 470h18l-35 -219h368l35 219h18z" />
    <glyph glyph-name="uni041D_uni0418" horiz-adv-x="1287" 
d="M1157 0l106 670l-618 -670h-17l58 369h-498l-58 -369h-18l110 700h18l-49 -314h498l49 314h18l-106 -669l617 669h18l-110 -700h-18z" />
    <glyph glyph-name="t_t" horiz-adv-x="683" 
d="M173 97l56 356h-128l3 17h128l25 160h18l-25 -160h250l25 160h18l-25 -160h189l-3 -17h-189l-54 -344c-3 -15 -4 -27 -4 -37c0 -45 28 -67 83 -67c29 0 58 9 89 26l-3 -20c-25 -15 -54 -23 -88 -23c-66 0 -99 28 -99 83c0 5 1 14 2 26l56 356h-250l-54 -344
c-3 -15 -4 -27 -4 -37c0 -45 28 -67 83 -67c29 0 58 9 89 26l-3 -20c-25 -15 -54 -23 -88 -23c-66 0 -99 28 -99 83c0 5 1 14 2 26z" />
    </font>
</defs>
</svg>
