<?xml version="1.0" standalone="no"?>
<!DOCTYPE svg PUBLIC "-//W3C//DTD SVG 1.1//EN" "http://www.w3.org/Graphics/SVG/1.1/DTD/svg11.dtd" >
<svg xmlns="http://www.w3.org/2000/svg" xmlns:xlink="http://www.w3.org/1999/xlink" version="1.1">
<metadata>
Created by FontForge 20170910 at Wed Dec 11 00:50:07 2013
 By Jimmy Wärting
Copyright (c) 2012 by Vyacheslav Kirilenko, Gayane Bagdasaryan. All rights reserved.
</metadata>
<defs>
<font id="Geometria-HeavyItalic" horiz-adv-x="660" >
  <font-face 
    font-family="Geometria"
    font-weight="900"
    font-style="italic"
    font-stretch="normal"
    units-per-em="1000"
    panose-1="2 11 9 3 2 2 4 9 2 4"
    ascent="790"
    descent="-210"
    x-height="516"
    cap-height="700"
    bbox="-405 -309 1470 949"
    underline-thickness="50"
    underline-position="-100"
    slope="-9"
    unicode-range="U+0020-FB04"
  />
<missing-glyph horiz-adv-x="670" 
d="M617 0h-563l111 700h563zM303 563l-67 -426h243l67 426h-243z" />
    <glyph glyph-name="ij" unicode="ij" horiz-adv-x="625" 
d="M345 516l-82 -516h-210l81 516h211zM260 540c-33 0 -61 11 -84 34s-34 52 -34 85s11 60 34 83s51 35 84 35s61 -12 84 -35s34 -50 34 -83c0 -67 -51 -119 -118 -119zM450 659c0 33 11 60 34 83s51 35 83 35c33 0 61 -12 84 -35s35 -50 35 -83s-12 -62 -35 -85
s-51 -34 -84 -34c-32 0 -60 11 -83 34s-34 52 -34 85zM305 -206c-56 0 -96 7 -121 20l26 159c18 -10 40 -15 67 -15c47 0 78 22 85 63l79 495h211l-80 -502c-21 -136 -116 -220 -267 -220z" />
    <glyph glyph-name="f_f" unicode="ff" horiz-adv-x="878" 
d="M356 351l-56 -351h-211l56 351h-81l26 165h81l2 15c15 109 98 183 235 183c55 0 103 -7 144 -22l-22 -139c-27 9 -53 13 -78 13c-41 0 -65 -17 -70 -50h201l2 15c15 109 98 183 235 183c55 0 103 -7 144 -22l-22 -139c-27 9 -53 13 -78 13c-41 0 -65 -17 -70 -50h142
l-26 -165h-142l-56 -351h-211l56 351h-201z" />
    <glyph glyph-name="fi" unicode="fi" horiz-adv-x="766" 
d="M356 351l-56 -351h-211l56 351h-81l26 165h81l3 19c17 109 97 179 234 179c55 0 103 -7 144 -22l-22 -139c-27 9 -53 13 -78 13c-41 0 -65 -17 -70 -50h412l-82 -516h-210l55 351h-201zM709 540c-33 0 -61 11 -84 34s-34 52 -34 85s11 60 34 83s51 35 84 35
s60 -12 83 -35s35 -50 35 -83c0 -67 -51 -119 -118 -119z" />
    <glyph glyph-name="fl" unicode="fl" horiz-adv-x="792" 
d="M611 700h211l-76 -486c-3 -19 -4 -28 -4 -29c0 -13 8 -20 24 -20c9 0 17 2 24 5l-26 -163c-31 -13 -65 -20 -101 -20c-81 0 -139 48 -139 131c0 14 3 38 8 73l25 160h-201l-56 -351h-211l56 351h-81l26 165h81l3 19c17 109 97 179 234 179c55 0 103 -7 144 -22l-22 -139
c-27 9 -53 13 -78 13c-41 0 -65 -17 -70 -50h200z" />
    <glyph glyph-name="f_f_i" unicode="ffi" horiz-adv-x="1179" 
d="M89 0l56 351h-81l26 165h81l2 15c15 109 98 183 235 183c55 0 103 -7 144 -22l-22 -139c-27 9 -53 13 -78 13c-41 0 -65 -17 -70 -50h201l2 15c15 109 98 183 235 183c55 0 103 -7 144 -22l-22 -139c-27 9 -53 13 -78 13c-41 0 -65 -17 -70 -50h412l-82 -516h-210l55 351
h-201l-56 -351h-211l56 351h-201l-56 -351h-211zM1121 540c-33 0 -61 11 -84 34s-34 52 -34 85s11 60 34 83s51 35 84 35s60 -12 83 -35s35 -50 35 -83c0 -67 -51 -119 -118 -119z" />
    <glyph glyph-name="f_f_l" unicode="ffl" horiz-adv-x="1205" 
d="M356 351l-56 -351h-211l56 351h-81l26 165h81l2 15c15 109 98 183 235 183c55 0 103 -7 144 -22l-22 -139c-27 9 -53 13 -78 13c-41 0 -65 -17 -70 -50h201l2 15c15 109 98 183 235 183c55 0 103 -7 144 -22l-22 -139c-27 9 -53 13 -78 13c-41 0 -65 -17 -70 -50h201
l29 184h211l-77 -494c-2 -12 -3 -19 -3 -21c0 -13 8 -20 24 -20c9 0 17 2 24 5l-26 -163c-31 -13 -65 -20 -101 -20c-81 0 -139 48 -139 131c0 14 3 38 8 73l25 160h-202l-56 -351h-211l56 351h-201z" />
    <glyph glyph-name=".notdef" horiz-adv-x="670" 
d="M617 0h-563l111 700h563zM303 563l-67 -426h243l67 426h-243z" />
    <glyph glyph-name="NULL" horiz-adv-x="0" 
 />
    <glyph glyph-name="CR" horiz-adv-x="333" 
 />
    <glyph glyph-name="space" unicode=" " horiz-adv-x="248" 
 />
    <glyph glyph-name="exclam" unicode="!" horiz-adv-x="388" 
d="M217 -14c-33 0 -62 12 -86 36s-36 53 -36 86c0 35 12 64 35 87c24 24 53 36 87 36s63 -12 87 -36c24 -23 36 -52 36 -87c0 -33 -12 -62 -36 -86s-53 -36 -87 -36zM330 264h-191l39 436h250z" />
    <glyph glyph-name="quotedbl" unicode="&#x22;" horiz-adv-x="471" 
d="M488 359h-170l53 341h170zM260 359h-170l53 341h170z" />
    <glyph glyph-name="numbersign" unicode="#" horiz-adv-x="784" 
d="M340 0h-163l24 143h-134l25 150h132l18 114h-132l23 150h134l21 143h163l-22 -143h101l22 143h163l-22 -143h132l-25 -150h-131l-19 -114h133l-25 -150h-131l-23 -143h-163l23 143h-101zM405 407l-19 -114h101l19 114h-101z" />
    <glyph glyph-name="dollar" unicode="$" horiz-adv-x="653" 
d="M676 658l-35 -197c-26 17 -64 33 -113 47s-93 21 -134 21c-49 0 -74 -9 -74 -27c0 -15 25 -24 105 -49l38 -12c127 -41 196 -97 196 -202c0 -69 -24 -126 -72 -169s-110 -70 -187 -80l-14 -95h-183l15 100c-71 10 -129 32 -174 65l35 216c27 -28 67 -52 120 -73
c54 -20 104 -30 149 -30c59 0 88 13 88 39c0 11 -10 20 -26 27c-9 5 -29 12 -44 16s-43 14 -62 19l-60 20c-15 6 -33 15 -54 26c-21 12 -37 24 -49 36c-23 25 -43 67 -43 116c0 133 90 212 233 235l15 98h183l-16 -99c64 -9 118 -25 163 -48z" />
    <glyph glyph-name="percent" unicode="%" horiz-adv-x="853" 
d="M144 0l538 700h139l-537 -700h-140zM277 706c53 0 96 -16 130 -47c35 -31 52 -71 52 -122c0 -49 -18 -92 -54 -129c-35 -36 -80 -54 -133 -54c-52 0 -95 16 -130 47s-52 73 -52 124c0 49 18 91 53 127c36 36 81 54 134 54zM272 471c31 0 56 29 56 68c0 32 -22 50 -49 50
c-33 0 -58 -29 -58 -68c0 -31 23 -50 51 -50zM692 347c53 0 96 -16 130 -47c35 -31 52 -71 52 -122c0 -49 -18 -92 -54 -129c-35 -36 -80 -54 -133 -54c-52 0 -95 16 -130 47s-52 73 -52 124c0 49 18 91 53 127c36 36 81 54 134 54zM687 112c31 0 56 29 56 68
c0 32 -22 50 -49 50c-33 0 -58 -29 -58 -68c0 -31 23 -50 51 -50z" />
    <glyph glyph-name="ampersand" unicode="&#x26;" horiz-adv-x="765" 
d="M498 337l37 -48c17 24 28 58 35 101h187c-7 -46 -20 -91 -41 -136s-43 -81 -67 -109l116 -145h-233l-31 35c-47 -33 -105 -49 -175 -49c-77 0 -141 20 -191 61c-49 41 -74 96 -74 167c0 52 14 97 43 135s62 65 98 80c-13 25 -19 56 -19 92c0 57 22 103 65 138
c44 36 99 54 166 54c83 0 154 -22 213 -66l-25 -168c-41 33 -103 57 -148 57c-39 0 -58 -14 -58 -42c0 -15 7 -33 23 -57l23 -31l29 -36c13 -15 22 -26 27 -33zM344 154c21 0 37 4 50 13l-100 127c-22 -13 -33 -34 -33 -63c0 -45 32 -77 83 -77z" />
    <glyph glyph-name="quotesingle" unicode="'" horiz-adv-x="243" 
d="M260 359h-170l53 341h170z" />
    <glyph glyph-name="parenleft" unicode="(" horiz-adv-x="384" 
d="M266 706h213c-131 -149 -214 -338 -214 -526c0 -140 41 -269 122 -386h-212c-69 100 -104 227 -104 380c0 205 65 382 195 532z" />
    <glyph glyph-name="parenright" unicode=")" horiz-adv-x="385" 
d="M197 -206h-213c131 149 214 338 214 526c0 140 -41 269 -122 386h212c69 -100 104 -227 104 -380c0 -205 -65 -382 -195 -532z" />
    <glyph glyph-name="asterisk" unicode="*" horiz-adv-x="410" 
d="M314 323h-109l22 108l-96 -61l-40 95l104 46l-89 47l70 95l76 -62l12 109h109l-22 -109l97 62l39 -95l-104 -47l89 -46l-69 -95l-77 61z" />
    <glyph glyph-name="plus" unicode="+" horiz-adv-x="610" 
d="M74 245l29 183h178l28 179h183l-28 -179h177l-29 -183h-177l-28 -178h-183l28 178h-178z" />
    <glyph glyph-name="comma" unicode="," horiz-adv-x="326" 
d="M-40 -152l146 351h218l-195 -351h-169z" />
    <glyph glyph-name="hyphen" unicode="-" horiz-adv-x="485" 
d="M441 193h-337l29 183h337z" />
    <glyph glyph-name="period" unicode="." horiz-adv-x="293" 
d="M163 231c33 0 62 -12 86 -36c24 -23 36 -52 36 -86s-12 -63 -36 -87s-53 -36 -86 -36s-62 12 -87 36c-24 24 -36 53 -36 87s12 63 36 86c24 24 53 36 87 36z" />
    <glyph glyph-name="slash" unicode="/" horiz-adv-x="550" 
d="M708 792l-569 -932h-211l568 932h212z" />
    <glyph glyph-name="zero" unicode="0" horiz-adv-x="699" 
d="M430 714c91 0 163 -30 217 -90s81 -137 81 -230s-33 -192 -90 -273c-56 -80 -151 -135 -262 -135c-91 0 -163 30 -217 89c-54 60 -81 137 -81 231c0 93 33 192 89 272c57 81 152 136 263 136zM383 182c27 0 51 12 71 36c41 49 55 114 55 174c0 72 -26 126 -86 126
c-27 0 -51 -12 -72 -37c-40 -48 -54 -113 -54 -173c0 -72 26 -126 86 -126z" />
    <glyph glyph-name="one" unicode="1" horiz-adv-x="413" 
d="M360 0h-210l75 476l-148 -57l33 203l176 78h185z" />
    <glyph glyph-name="two" unicode="2" horiz-adv-x="577" 
d="M107 458l34 210c53 31 118 46 196 46c69 0 128 -20 177 -59s73 -93 73 -164c0 -99 -53 -174 -177 -265l-64 -47h230l-28 -179h-521l25 153l196 157c47 39 79 68 96 88s25 40 25 59c0 39 -27 64 -82 64c-57 0 -117 -21 -180 -63z" />
    <glyph glyph-name="three" unicode="3" horiz-adv-x="580" 
d="M606 542l-136 -102c63 -32 117 -92 117 -185c0 -81 -28 -146 -85 -195s-130 -74 -221 -74c-101 0 -196 29 -244 64l32 194c55 -48 121 -72 197 -72c61 0 110 25 110 77c0 33 -28 63 -88 63c-43 0 -80 -7 -113 -22l21 128l148 103h-213l30 179h471z" />
    <glyph glyph-name="four" unicode="4" horiz-adv-x="645" 
d="M541 0h-203l25 158h-329l24 149l382 393h212l-60 -380h91l-26 -162h-91zM412 466l-147 -146h124z" />
    <glyph glyph-name="five" unicode="5" horiz-adv-x="575" 
d="M333 521l-11 -49l23 1c73 0 132 -20 176 -60c45 -39 67 -90 67 -153c0 -87 -30 -155 -90 -203c-60 -47 -139 -71 -236 -71c-93 0 -168 19 -223 58l30 196c62 -45 126 -68 192 -68c61 0 110 23 110 80c0 43 -38 65 -114 65c-44 0 -97 -9 -160 -26l105 409h408l-29 -179
h-248z" />
    <glyph glyph-name="six" unicode="6" horiz-adv-x="632" 
d="M446 474c57 0 104 -20 140 -61c37 -41 55 -91 55 -150c0 -81 -27 -148 -81 -200c-54 -51 -125 -77 -213 -77c-86 0 -152 26 -197 79s-67 120 -67 202c0 112 35 220 96 305s164 142 285 142c75 0 136 -17 182 -52l-30 -184c-41 35 -90 52 -147 52
c-76 0 -136 -38 -157 -105c28 32 85 49 134 49zM351 161c47 0 82 36 82 84c0 43 -23 70 -67 70c-33 0 -60 -14 -81 -41c-3 -9 -5 -21 -5 -37c0 -49 32 -76 71 -76z" />
    <glyph glyph-name="seven" unicode="7" horiz-adv-x="578" 
d="M282 0h-227l340 521h-290l28 179h527l-27 -167z" />
    <glyph glyph-name="eight" unicode="8" horiz-adv-x="650" 
d="M551 359c52 -25 92 -86 92 -149c0 -67 -28 -122 -85 -163s-124 -61 -202 -61c-139 0 -300 62 -300 213c0 83 56 156 139 185c-40 24 -66 72 -66 123c0 61 26 110 79 149s115 58 187 58c41 0 81 -7 119 -20c39 -13 72 -35 100 -66c29 -31 43 -69 43 -112
c0 -67 -42 -126 -106 -157zM350 162c44 0 85 27 85 68c0 35 -31 65 -80 65c-44 0 -85 -27 -85 -70c0 -33 31 -63 80 -63zM456 487c0 31 -26 54 -66 54c-36 0 -67 -22 -67 -57c0 -29 27 -53 64 -53s69 21 69 56z" />
    <glyph glyph-name="nine" unicode="9" horiz-adv-x="632" 
d="M283 226c-57 0 -104 20 -141 61c-36 41 -54 91 -54 150c0 81 27 148 81 199c54 52 125 78 213 78c86 0 151 -26 196 -79s68 -120 68 -202c0 -112 -35 -220 -96 -305s-164 -142 -285 -142c-75 0 -136 17 -182 52l30 184c41 -35 90 -52 147 -52c76 0 136 38 157 105
c-28 -32 -85 -49 -134 -49zM378 539c-47 0 -82 -36 -82 -84c0 -43 23 -70 67 -70c33 0 60 14 81 41c3 9 5 21 5 37c0 49 -32 76 -71 76z" />
    <glyph glyph-name="colon" unicode=":" horiz-adv-x="293" 
d="M211 529c33 0 62 -12 86 -36c24 -23 36 -52 36 -86s-12 -63 -36 -87s-53 -36 -86 -36s-62 12 -87 36c-24 24 -36 53 -36 87s12 63 36 86c24 24 53 36 87 36zM163 231c33 0 62 -12 86 -36c24 -23 36 -52 36 -86s-12 -63 -36 -87s-53 -36 -86 -36s-62 12 -87 36
c-24 24 -36 53 -36 87s12 63 36 86c24 24 53 36 87 36z" />
    <glyph glyph-name="semicolon" unicode=";" horiz-adv-x="331" 
d="M-22 -152l146 351h218l-195 -351h-169zM261 529c33 0 62 -12 86 -36c24 -23 36 -52 36 -86s-12 -63 -36 -87s-53 -36 -86 -36s-62 12 -87 36c-24 24 -36 53 -36 87s12 63 36 86c24 24 53 36 87 36z" />
    <glyph glyph-name="less" unicode="&#x3c;" horiz-adv-x="610" 
d="M105 435l570 209l-34 -212l-344 -105l311 -105l-30 -195l-505 210z" />
    <glyph glyph-name="equal" unicode="=" horiz-adv-x="610" 
d="M631 365h-538l28 180h538zM594 130h-538l28 180h538z" />
    <glyph glyph-name="greater" unicode="&#x3e;" horiz-adv-x="610" 
d="M418 346l-311 105l30 193l506 -209l-32 -198l-571 -210l34 214z" />
    <glyph glyph-name="question" unicode="?" horiz-adv-x="502" 
d="M237 231c33 0 62 -12 86 -36c24 -23 36 -52 36 -86s-12 -63 -36 -87s-53 -36 -86 -36s-62 12 -87 36c-24 24 -36 53 -36 87s12 63 36 86c24 24 53 36 87 36zM360 264h-200l23 157c1 0 12 1 31 4s35 5 47 8c41 7 103 27 97 60c0 25 -29 37 -88 37c-66 0 -126 -13 -180 -38
l28 173c59 33 128 49 207 49c41 0 79 -6 116 -17s69 -30 96 -59c28 -29 42 -64 42 -106c0 -115 -84 -182 -211 -213z" />
    <glyph glyph-name="at" unicode="@" horiz-adv-x="917" 
d="M592 500h169l-45 -294c-3 -19 -4 -33 -4 -44c0 -37 15 -55 45 -55c33 0 63 21 91 64s42 95 42 158c0 97 -33 178 -99 244s-155 99 -267 99c-113 0 -212 -42 -295 -125s-124 -184 -124 -303c0 -107 34 -194 101 -262s156 -102 266 -102c79 0 156 22 230 66l-7 -50
c-67 -39 -142 -58 -225 -58c-118 0 -216 38 -294 113c-77 75 -116 172 -116 291c0 83 20 160 60 232c40 73 96 131 168 174c72 44 152 66 239 66c118 0 216 -37 293 -111c78 -73 117 -164 117 -273c0 -81 -22 -148 -66 -203c-43 -55 -100 -82 -170 -82
c-69 0 -114 22 -135 65c-45 -47 -97 -71 -156 -71c-55 0 -99 19 -132 58s-49 89 -49 148c0 43 8 85 24 124c33 79 109 140 206 140c59 0 106 -30 125 -58zM548 226l16 95c-16 26 -39 39 -68 39c-51 0 -87 -42 -87 -98c0 -48 32 -74 72 -74c28 0 50 13 67 38z" />
    <glyph glyph-name="A" unicode="A" horiz-adv-x="783" 
d="M400 704h205l178 -704h-226l-26 131h-235l-68 -131h-227zM498 292l-33 166l-86 -166h119z" />
    <glyph glyph-name="B" unicode="B" horiz-adv-x="702" 
d="M612 389c27 -8 51 -26 74 -54c23 -27 35 -63 35 -106c0 -69 -26 -125 -79 -167c-52 -41 -118 -62 -197 -62h-391l110 700h331c123 0 209 -53 209 -157c0 -63 -33 -122 -92 -154zM295 173h113c43 0 75 24 75 63c0 32 -26 53 -66 53h-103zM454 533h-102l-14 -94h109
c37 0 59 20 59 53c0 25 -21 41 -52 41z" />
    <glyph glyph-name="C" unicode="C" horiz-adv-x="661" 
d="M303 330c0 -88 65 -148 168 -148c75 0 138 18 190 53l-34 -211c-63 -25 -122 -38 -177 -38c-109 0 -198 31 -265 92s-101 141 -101 239c0 120 39 216 116 288c78 73 179 109 304 109c76 0 147 -13 212 -38l-35 -199c-51 27 -111 41 -178 41c-124 0 -200 -72 -200 -188z
" />
    <glyph glyph-name="D" unicode="D" horiz-adv-x="776" 
d="M164 700h274c107 0 192 -30 257 -91c65 -60 97 -138 97 -234c0 -107 -38 -197 -115 -268s-175 -107 -294 -107h-329zM351 515l-53 -330h94c116 0 184 77 184 186c0 41 -14 75 -41 102c-27 28 -63 42 -108 42h-76z" />
    <glyph glyph-name="E" unicode="E" horiz-adv-x="650" 
d="M609 0h-555l111 700h549l-29 -185h-334l-10 -62h262l-27 -170h-262l-16 -98h340z" />
    <glyph glyph-name="F" unicode="F" horiz-adv-x="631" 
d="M268 0h-214l110 700h550l-29 -185h-335l-11 -69h241l-27 -170h-241z" />
    <glyph glyph-name="G" unicode="G" horiz-adv-x="748" 
d="M532 192l33 216h216l-53 -326c-72 -64 -171 -96 -297 -96c-100 0 -183 31 -249 92c-65 62 -98 142 -98 241c0 119 39 214 116 286c78 73 179 109 304 109c73 0 142 -11 208 -33l-35 -200c-49 25 -107 37 -174 37c-125 0 -200 -71 -200 -192c0 -47 14 -85 43 -112
s64 -41 105 -41c32 0 59 6 81 19z" />
    <glyph glyph-name="H" unicode="H" horiz-adv-x="750" 
d="M268 0h-214l110 700h215l-38 -237h215l38 237h214l-111 -700h-214l44 276h-215z" />
    <glyph glyph-name="I" unicode="I" horiz-adv-x="328" 
d="M271 0h-214l111 700h214z" />
    <glyph glyph-name="J" unicode="J" horiz-adv-x="509" 
d="M361 700h214l-74 -459c-16 -101 -56 -171 -112 -207c-55 -35 -109 -48 -180 -48c-33 0 -67 4 -104 12s-64 19 -83 32l33 203c31 -29 90 -52 134 -52c61 0 94 32 109 124z" />
    <glyph glyph-name="K" unicode="K" horiz-adv-x="746" 
d="M268 0h-214l109 700h214l-40 -258l216 258h265l-288 -337l230 -363h-255l-190 299z" />
    <glyph glyph-name="L" unicode="L" horiz-adv-x="606" 
d="M586 0h-532l110 700h215l-82 -515h318z" />
    <glyph glyph-name="M" unicode="M" horiz-adv-x="839" 
d="M262 0h-208l111 700h211l113 -249l194 249h214l-111 -700h-206l62 392l-125 -167h-116l-77 167z" />
    <glyph glyph-name="N" unicode="N" horiz-adv-x="760" 
d="M708 0h-175l-215 348l-54 -348h-210l110 700h181l210 -346l54 346h209z" />
    <glyph glyph-name="O" unicode="O" horiz-adv-x="816" 
d="M475 714c109 0 195 -31 260 -94s97 -145 97 -246c0 -111 -38 -203 -113 -277s-168 -111 -278 -111c-108 0 -195 31 -260 94s-97 145 -97 246c0 111 38 203 113 277c76 74 169 111 278 111zM447 182c51 0 91 18 121 54s45 82 45 138c0 39 -13 73 -39 101
c-26 29 -61 43 -105 43c-49 0 -89 -18 -120 -55c-31 -36 -46 -82 -46 -137c0 -39 13 -73 39 -102c26 -28 61 -42 105 -42z" />
    <glyph glyph-name="P" unicode="P" horiz-adv-x="645" 
d="M164 700h308c74 0 133 -19 176 -56s65 -85 65 -144c0 -75 -27 -136 -81 -184s-123 -72 -208 -72h-118l-38 -244h-214zM352 525l-20 -125h71c52 0 94 21 94 72c0 35 -23 53 -68 53h-77z" />
    <glyph glyph-name="Q" unicode="Q" horiz-adv-x="816" 
d="M475 714c109 0 195 -31 260 -94s97 -145 97 -246c0 -81 -22 -154 -65 -218s-99 -111 -170 -140c15 -18 40 -27 77 -27c29 0 58 7 87 20l-28 -176c-39 -15 -79 -23 -122 -23c-75 0 -141 40 -199 119l-46 63c-87 14 -155 51 -206 111c-51 61 -76 135 -76 223
c0 111 38 203 113 277c76 74 169 111 278 111zM447 182c51 0 91 18 121 54s45 82 45 138c0 39 -13 73 -39 101c-26 29 -61 43 -105 43c-49 0 -89 -18 -120 -55c-31 -36 -46 -82 -46 -137c0 -39 13 -73 39 -102c26 -28 61 -42 105 -42z" />
    <glyph glyph-name="R" unicode="R" horiz-adv-x="720" 
d="M568 275l178 -275h-242l-159 250h-38l-39 -250h-214l110 700h316c73 0 132 -20 175 -60s65 -90 65 -150c0 -96 -60 -176 -152 -215zM351 520l-17 -113h97c47 0 78 22 78 61c0 32 -25 52 -65 52h-93z" />
    <glyph glyph-name="S" unicode="S" horiz-adv-x="653" 
d="M676 658l-35 -197c-26 17 -64 33 -113 47s-93 21 -134 21c-49 0 -74 -9 -74 -27c0 -15 25 -24 105 -49l38 -12c127 -41 196 -97 196 -202c0 -79 -31 -141 -93 -186c-61 -45 -139 -67 -233 -67c-126 0 -222 25 -289 74l35 216c27 -28 67 -52 120 -73
c54 -20 104 -30 149 -30c59 0 88 13 88 39c0 11 -10 20 -26 27c-9 5 -29 12 -44 16s-43 14 -62 19l-60 20c-15 6 -33 15 -54 26c-21 12 -37 24 -49 36c-23 25 -43 67 -43 116c0 80 30 140 89 181s136 61 231 61c99 0 185 -19 258 -56z" />
    <glyph glyph-name="T" unicode="T" horiz-adv-x="659" 
d="M104 515l29 185h615l-29 -185h-201l-82 -515h-214l82 515h-200z" />
    <glyph glyph-name="U" unicode="U" horiz-adv-x="733" 
d="M515 284l67 416h216l-68 -428c-15 -92 -54 -163 -119 -212s-141 -74 -228 -74c-51 0 -99 9 -143 27c-88 36 -154 121 -154 233c0 16 2 36 5 59l62 395h216l-65 -405c-1 -11 -2 -18 -2 -23c0 -60 41 -90 97 -90s104 30 116 102z" />
    <glyph glyph-name="V" unicode="V" horiz-adv-x="763" 
d="M482 -4h-204l-168 704h233l80 -417l213 417h237z" />
    <glyph glyph-name="W" unicode="W" horiz-adv-x="1078" 
d="M414 -4h-187l-117 704h229l38 -373l191 375h162l73 -375l154 373h234l-341 -704h-183l-67 368z" />
    <glyph glyph-name="X" unicode="X" horiz-adv-x="738" 
d="M130 700h242l75 -167l130 167h253l-278 -324l205 -376h-243l-107 212l-172 -212h-254l324 375z" />
    <glyph glyph-name="Y" unicode="Y" horiz-adv-x="718" 
d="M465 0h-214l49 306l-194 394h237l91 -197l155 197h243l-318 -389z" />
    <glyph glyph-name="Z" unicode="Z" horiz-adv-x="635" 
d="M621 0h-606l24 152l363 363h-297l29 185h582l-24 -151l-363 -364h321z" />
    <glyph glyph-name="bracketleft" unicode="[" horiz-adv-x="452" 
d="M403 -206h-376l144 912h376l-25 -159h-186l-94 -594h186z" />
    <glyph glyph-name="backslash" unicode="\" horiz-adv-x="551" 
d="M293 792l273 -932h-190l-273 932h190z" />
    <glyph glyph-name="bracketright" unicode="]" horiz-adv-x="452" 
d="M127 706h376l-144 -912h-375l24 159h186l94 594h-186z" />
    <glyph glyph-name="asciicircum" unicode="^" horiz-adv-x="579" 
d="M267 331h-202l247 430h199l108 -430h-193l-39 251z" />
    <glyph glyph-name="underscore" unicode="_" horiz-adv-x="666" 
d="M640 -170h-669l20 136h670z" />
    <glyph glyph-name="grave" unicode="`" horiz-adv-x="515" 
d="M215 734h248l70 -158h-174z" />
    <glyph glyph-name="a" unicode="a" horiz-adv-x="611" 
d="M584 154c9 0 18 2 27 5l-24 -143c-24 -17 -72 -29 -107 -29c-64 0 -106 20 -125 61c-25 -32 -79 -61 -144 -61c-111 0 -176 66 -176 158c0 56 19 99 58 129c39 31 89 46 149 46c48 0 91 -9 128 -28c1 7 2 13 2 19c0 40 -36 60 -109 60c-51 0 -97 -9 -137 -27l26 157
c55 19 113 28 175 28c73 0 133 -16 181 -47c49 -31 73 -81 73 -149c0 -16 -3 -40 -9 -71l-9 -50c-3 -17 -4 -29 -4 -37c0 -14 8 -21 25 -21zM357 146l7 51c-13 13 -34 20 -61 20c-39 0 -67 -18 -67 -54c0 -27 22 -47 55 -47c28 0 50 10 66 30z" />
    <glyph glyph-name="b" unicode="b" horiz-adv-x="659" 
d="M268 58l-9 -58h-210l109 700h211l-37 -242c9 17 27 33 54 48s57 23 91 23c59 0 106 -23 143 -68s56 -102 56 -169c0 -50 -10 -98 -29 -143s-49 -84 -90 -115s-89 -47 -144 -47c-35 0 -67 8 -94 23c-27 16 -44 32 -51 48zM306 316l-19 -117c17 -25 45 -37 84 -37
c53 0 90 46 90 110c0 53 -30 82 -73 82c-31 0 -59 -13 -82 -38z" />
    <glyph glyph-name="c" unicode="c" horiz-adv-x="509" 
d="M341 -13c-77 0 -144 22 -199 67s-82 107 -82 188s30 149 90 204c61 55 136 83 227 83c62 0 117 -13 166 -38l-28 -169c-128 61 -247 21 -247 -70c0 -23 8 -42 23 -56c31 -27 62 -31 101 -31c38 0 74 7 108 20l-28 -174c-41 -16 -84 -24 -131 -24z" />
    <glyph glyph-name="d" unicode="d" horiz-adv-x="658" 
d="M467 458l40 242h211l-111 -700h-211l8 58c-9 -17 -27 -34 -54 -49s-57 -22 -91 -22c-59 0 -107 23 -144 68s-55 102 -55 169c0 50 9 98 28 143s49 84 90 115s90 47 145 47c35 0 66 -8 93 -24c27 -15 44 -31 51 -47zM430 205l17 107c-15 25 -46 43 -82 43
c-52 0 -90 -47 -90 -110c0 -53 30 -82 73 -82c32 0 59 14 82 42z" />
    <glyph glyph-name="e" unicode="e" horiz-adv-x="579" 
d="M595 310c0 -23 -4 -55 -13 -97h-322c7 -40 60 -61 123 -61c57 0 114 13 169 40l-24 -155c-45 -33 -112 -50 -202 -50c-76 0 -139 23 -190 68s-76 105 -76 180c0 86 28 156 84 211c57 55 127 83 210 83c70 0 128 -20 173 -59s68 -93 68 -160zM265 313h140v6
c0 43 -22 69 -58 69c-37 0 -70 -26 -82 -75z" />
    <glyph glyph-name="f" unicode="f" horiz-adv-x="466" 
d="M356 351l-56 -351h-211l56 351h-81l26 165h81l3 19c17 109 97 179 234 179c55 0 103 -7 144 -22l-22 -139c-27 9 -53 13 -78 13c-41 0 -65 -17 -70 -50h142l-26 -165h-142z" />
    <glyph glyph-name="g" unicode="g" horiz-adv-x="645" 
d="M459 457l10 59h208l-70 -453c-15 -97 -66 -171 -135 -211c-68 -40 -143 -58 -224 -58c-89 0 -155 14 -198 43l28 179c49 -33 107 -49 174 -49c19 0 38 2 55 6s35 14 54 31s31 39 36 67l5 28c-27 -35 -78 -68 -151 -68c-57 0 -103 21 -138 62s-53 93 -53 155
c0 46 9 90 27 131c19 42 48 77 88 106s87 44 140 44c72 0 127 -39 144 -72zM428 237l13 85c-19 23 -45 34 -79 34c-51 0 -87 -38 -87 -87c0 -41 28 -67 71 -67c32 0 59 12 82 35z" />
    <glyph glyph-name="h" unicode="h" horiz-adv-x="616" 
d="M626 287l-45 -287h-210l40 259c2 12 3 24 3 35c0 34 -15 51 -46 51c-23 0 -42 -9 -59 -27l-50 -318h-210l111 700h210l-40 -250c36 53 87 79 152 79c93 0 149 -69 149 -172c0 -27 -2 -50 -5 -70z" />
    <glyph glyph-name="i" unicode="i" horiz-adv-x="318" 
d="M345 516l-82 -516h-210l81 516h211zM260 540c-33 0 -61 11 -84 34s-34 52 -34 85s11 60 34 83s51 35 84 35s61 -12 84 -35s34 -50 34 -83c0 -67 -51 -119 -118 -119z" />
    <glyph glyph-name="j" unicode="j" horiz-adv-x="318" 
d="M143 659c0 33 11 60 34 83s51 35 83 35c33 0 61 -12 84 -35s35 -50 35 -83s-12 -62 -35 -85s-51 -34 -84 -34c-32 0 -60 11 -83 34s-34 52 -34 85zM-2 -206c-56 0 -96 7 -121 20l26 159c18 -10 40 -15 67 -15c49 0 78 21 85 63l79 495h211l-80 -502
c-21 -136 -116 -220 -267 -220z" />
    <glyph glyph-name="k" unicode="k" horiz-adv-x="649" 
d="M260 0h-211l111 700h211l-58 -362l146 178h258l-224 -245l174 -271h-242l-132 209z" />
    <glyph glyph-name="l" unicode="l" horiz-adv-x="329" 
d="M148 700h211l-76 -486c-3 -19 -4 -28 -4 -29c0 -13 8 -20 24 -20c9 0 17 2 24 5l-26 -163c-31 -13 -65 -20 -101 -20c-81 0 -139 48 -139 131c0 14 3 38 8 73z" />
    <glyph glyph-name="m" unicode="m" horiz-adv-x="928" 
d="M49 0l81 516h210l-10 -67c28 44 91 80 156 80c69 0 115 -41 130 -81c41 48 106 81 174 81c89 0 153 -55 153 -159c0 -18 -3 -48 -10 -89l-44 -281h-211l42 269c2 13 3 25 3 36c0 27 -13 41 -39 41c-25 0 -45 -9 -60 -28l-50 -318h-210l41 260c3 17 5 31 5 44
c0 28 -13 42 -38 42c-26 0 -47 -10 -63 -30l-50 -316h-210z" />
    <glyph glyph-name="n" unicode="n" horiz-adv-x="616" 
d="M626 287l-45 -287h-210l40 259c2 12 3 24 3 35c0 34 -15 51 -46 51c-21 0 -41 -9 -59 -27l-50 -318h-210l82 516h210l-11 -66c36 53 87 79 152 79c93 0 149 -69 149 -172c0 -27 -2 -50 -5 -70z" />
    <glyph glyph-name="o" unicode="o" horiz-adv-x="627" 
d="M357 529c81 0 149 -24 204 -73c55 -48 83 -111 83 -188c0 -75 -29 -141 -86 -197s-127 -84 -212 -84c-81 0 -149 24 -204 72c-55 49 -82 112 -82 191c0 75 28 140 85 195c57 56 127 84 212 84zM345 165c53 0 95 46 95 107c0 51 -35 79 -82 79c-53 0 -94 -45 -94 -106
c0 -51 36 -80 81 -80z" />
    <glyph glyph-name="p" unicode="p" 
d="M271 57l-41 -257h-211l111 716h212l-9 -58c9 17 27 33 54 48s57 23 91 23c59 0 106 -23 143 -68s56 -102 56 -169c0 -50 -10 -98 -29 -143s-49 -84 -90 -115s-89 -47 -144 -47c-71 0 -128 38 -143 70zM304 312l-16 -107c15 -25 46 -43 82 -43c53 0 92 47 92 110
c0 53 -31 82 -74 82c-32 0 -60 -14 -84 -42z" />
    <glyph glyph-name="q" unicode="q" horiz-adv-x="656" 
d="M467 458l10 58h211l-113 -716h-211l40 258c-9 -17 -27 -34 -54 -49s-57 -22 -91 -22c-59 0 -107 23 -144 68s-55 102 -55 169c0 50 9 98 28 143s49 84 90 115s90 47 145 47c35 0 66 -8 93 -24c27 -15 44 -31 51 -47zM430 205l17 107c-15 25 -46 43 -82 43
c-52 0 -90 -47 -90 -110c0 -53 30 -82 73 -82c32 0 59 14 82 42z" />
    <glyph glyph-name="r" unicode="r" horiz-adv-x="474" 
d="M259 0h-210l81 516h210l-13 -82c13 21 37 42 71 63s69 32 105 32c11 0 21 -1 28 -3l-31 -198c-19 5 -40 8 -62 8c-57 0 -101 -15 -133 -45z" />
    <glyph glyph-name="s" unicode="s" horiz-adv-x="506" 
d="M536 470l-27 -151c-47 32 -120 62 -183 62c-23 0 -35 -6 -35 -18c0 -9 12 -15 73 -34c111 -33 151 -77 151 -156c0 -83 -56 -143 -128 -168c-36 -12 -75 -18 -118 -18c-85 0 -181 20 -238 57l26 155c57 -41 122 -62 194 -62c33 0 49 6 49 19c0 9 -9 16 -26 22l-29 8
l-25 8c-88 28 -149 69 -149 145c0 63 24 110 71 142s107 48 180 48c87 0 158 -20 214 -59z" />
    <glyph glyph-name="t" unicode="t" horiz-adv-x="456" 
d="M114 142c0 6 1 19 3 39l26 170h-81l26 165h82l20 124h208l-19 -124h117l-26 -165h-117l-18 -120c-2 -18 -3 -29 -3 -32c0 -23 14 -34 43 -34c24 0 48 7 72 20l-26 -163c-38 -23 -85 -35 -140 -35c-97 0 -167 58 -167 155z" />
    <glyph glyph-name="u" unicode="u" horiz-adv-x="622" 
d="M77 229l45 287h210l-40 -259c-2 -12 -3 -24 -3 -37c0 -33 15 -49 46 -49c24 0 44 9 59 27l50 318h210l-82 -516h-210l11 66c-36 -53 -87 -79 -152 -79c-93 0 -149 69 -149 172c0 27 2 50 5 70z" />
    <glyph glyph-name="v" unicode="v" horiz-adv-x="605" 
d="M396 -4h-190l-129 520h216l46 -267l133 267h220z" />
    <glyph glyph-name="w" unicode="w" horiz-adv-x="831" 
d="M336 -4h-176l-80 520h196l29 -242l106 244h160l30 -243l104 241h210l-250 -520h-178l-39 241z" />
    <glyph glyph-name="x" unicode="x" horiz-adv-x="607" 
d="M91 516h218l48 -121l85 121h234l-209 -251l136 -265h-221l-53 129l-95 -129h-234l221 264z" />
    <glyph glyph-name="y" unicode="y" horiz-adv-x="606" 
d="M130 -206c-54 0 -94 8 -120 24l29 181c22 -18 50 -27 83 -27c43 0 66 10 85 45l-132 499h219l44 -292l129 292h219l-308 -566c-56 -104 -139 -156 -248 -156z" />
    <glyph glyph-name="z" unicode="z" horiz-adv-x="545" 
d="M518 0h-494l22 139l237 212h-194l26 165h468l-22 -144l-243 -207h226z" />
    <glyph glyph-name="braceleft" unicode="{" horiz-adv-x="434" 
d="M119 -10l10 66c3 15 4 30 4 44c0 43 -16 64 -63 69l26 162c61 7 83 40 95 113l10 66c9 59 35 106 76 142s92 54 152 54h100l-24 -159h-56c-29 0 -56 -25 -61 -54l-19 -124c-10 -64 -48 -104 -113 -119c51 -13 77 -44 77 -94c0 -5 -1 -13 -2 -25l-16 -99
c-3 -20 -5 -31 -5 -34c0 -27 17 -45 45 -45h56l-25 -159h-101c-105 0 -169 61 -169 157c0 12 1 25 3 39z" />
    <glyph glyph-name="bar" unicode="|" horiz-adv-x="355" 
d="M241 -111h-163l138 871h163z" />
    <glyph glyph-name="braceright" unicode="}" horiz-adv-x="435" 
d="M394 510l-10 -66c-3 -15 -4 -30 -4 -44c0 -43 16 -64 63 -69l-26 -162c-61 -7 -83 -40 -95 -113l-10 -66c-9 -59 -35 -106 -76 -142s-92 -54 -152 -54h-100l24 159h56c29 0 56 25 61 54l19 124c10 64 48 104 113 119c-51 13 -77 44 -77 94c0 5 1 13 2 25l16 99
c3 20 5 31 5 34c0 27 -18 45 -47 45h-54l25 159h101c105 0 169 -61 169 -157c0 -12 -1 -25 -3 -39z" />
    <glyph glyph-name="asciitilde" unicode="~" horiz-adv-x="621" 
d="M504 319c55 0 101 17 140 50l-30 -187c-27 -25 -83 -44 -138 -44c-37 0 -83 9 -140 28s-104 28 -141 28c-55 0 -100 -16 -137 -48l30 186c25 25 82 45 137 45c37 0 84 -10 139 -29c56 -19 103 -29 140 -29z" />
    <glyph glyph-name="nbspace" unicode="&#xa0;" horiz-adv-x="248" 
 />
    <glyph glyph-name="exclamdown" unicode="&#xa1;" horiz-adv-x="388" 
d="M250 529c33 0 62 -12 86 -36s36 -53 36 -86c0 -34 -12 -63 -36 -87s-53 -36 -86 -36c-34 0 -63 12 -87 35c-24 24 -36 53 -36 88c0 33 12 62 36 86s53 36 87 36zM37 -200l101 450h191l-42 -450h-250z" />
    <glyph glyph-name="cent" unicode="&#xa2;" horiz-adv-x="509" 
d="M386 -11l-17 -106h-175l20 128c-93 39 -154 118 -154 231c0 68 22 127 65 178s100 84 169 100l19 112h175l-18 -114c25 -7 50 -16 73 -27l-28 -169c-128 61 -247 21 -247 -70c0 -23 8 -42 23 -56c31 -27 62 -31 101 -31c38 0 74 7 108 20l-28 -174
c-31 -12 -59 -19 -86 -22z" />
    <glyph glyph-name="sterling" unicode="&#xa3;" horiz-adv-x="625" 
d="M83 272l24 149h91l8 48c25 156 134 245 302 245c69 0 125 -9 167 -28l-30 -190c-35 15 -71 22 -109 22c-72 0 -113 -29 -122 -87l-2 -10h177l-24 -149h-176l-2 -14c-7 -40 -18 -62 -47 -73h279l-29 -185h-550l29 185h24c45 0 71 16 76 47l6 40h-92z" />
    <glyph glyph-name="currency" unicode="&#xa4;" horiz-adv-x="585" 
d="M550 237l66 -67l-87 -88l-66 66c-73 -39 -157 -39 -230 0l-66 -66l-87 88l66 67c-40 69 -40 159 0 228l-66 67l87 88l66 -66c73 39 157 39 230 0l66 66l87 -88l-66 -67c40 -69 40 -159 0 -228zM286 289c35 -35 89 -35 124 0s35 89 0 124s-89 35 -124 0s-35 -89 0 -124z
" />
    <glyph glyph-name="yen" unicode="&#xa5;" horiz-adv-x="713" 
d="M86 118l19 123h183l9 53h-183l19 123h135l-151 283h224l93 -193l152 193h233l-244 -283h137l-19 -123h-182l-9 -53h182l-19 -123h-182l-19 -118h-214l19 118h-183z" />
    <glyph glyph-name="brokenbar" unicode="&#xa6;" horiz-adv-x="355" 
d="M241 -111h-163l56 353h163zM323 407h-163l56 353h163z" />
    <glyph glyph-name="section" unicode="&#xa7;" horiz-adv-x="679" 
d="M693 273c0 -67 -35 -116 -104 -146c16 -25 24 -53 24 -84c0 -71 -27 -125 -81 -162s-119 -56 -196 -56c-102 0 -190 21 -265 62l28 176c79 -47 155 -71 228 -71c42 0 63 9 63 26c0 9 -6 17 -25 25c-9 4 -18 8 -27 11c-17 7 -58 20 -82 29c-117 45 -186 91 -186 182
c0 67 35 116 104 146c-16 25 -24 52 -24 83c0 71 27 125 81 162c54 38 119 57 196 57c103 0 191 -21 265 -63l-28 -176c-79 48 -155 72 -228 72c-42 0 -63 -9 -63 -26c0 -9 6 -17 25 -26c9 -4 18 -8 27 -11c17 -5 58 -20 82 -29c55 -20 88 -37 127 -66
c39 -28 59 -67 59 -115zM394 230l69 -30c23 3 34 16 35 37c0 11 -8 21 -27 29c-9 5 -18 9 -27 12c-17 8 -54 21 -75 30l-69 29c-23 -3 -34 -15 -35 -36c0 -11 9 -21 26 -30l27 -12c19 -7 55 -20 76 -29z" />
    <glyph glyph-name="dieresis" unicode="&#xa8;" horiz-adv-x="515" 
d="M400 584c-39 40 -39 102 0 141c40 39 102 39 141 0c40 -39 40 -101 0 -141c-39 -39 -101 -39 -141 0zM234 754c56 0 100 -44 100 -99c0 -56 -44 -100 -100 -100c-55 0 -100 45 -100 100s45 99 100 99z" />
    <glyph glyph-name="copyright" unicode="&#xa9;" horiz-adv-x="791" 
d="M480 146c-65 0 -118 19 -161 57c-42 38 -63 87 -63 147s21 109 63 146c42 38 95 57 160 57c36 0 69 -7 99 -20v-115c-31 18 -63 27 -97 27c-57 0 -101 -40 -101 -95c0 -56 44 -95 105 -95c40 0 73 10 99 29v-116c-31 -15 -66 -22 -104 -22zM447 714
c101 0 186 -36 255 -107c70 -71 105 -157 105 -257c0 -99 -35 -185 -106 -257c-70 -71 -156 -107 -257 -107s-186 36 -256 107s-105 157 -105 257c0 99 35 185 106 256c71 72 157 108 258 108zM444 26c92 0 169 32 230 95s92 141 92 232c0 89 -30 165 -91 227
c-61 63 -137 94 -228 94c-92 0 -169 -32 -230 -95s-92 -141 -92 -232c0 -89 30 -165 91 -228c61 -62 137 -93 228 -93z" />
    <glyph glyph-name="ordfeminine" unicode="&#xaa;" horiz-adv-x="415" 
d="M461 415c5 0 11 1 19 4l-14 -87c-16 -11 -37 -16 -64 -16c-46 0 -74 15 -84 45c-30 -31 -69 -47 -117 -47c-81 0 -131 48 -131 115c0 81 68 130 153 130c40 0 76 -8 109 -25c2 10 3 17 3 22c0 37 -30 55 -89 55c-39 0 -75 -8 -108 -23l16 98c37 15 80 22 129 22
c100 0 174 -41 174 -136c0 -11 -2 -27 -5 -49l-10 -58c-2 -13 -4 -22 -4 -29c0 -14 8 -21 23 -21zM318 431l6 39c-17 13 -39 19 -67 19c-37 0 -67 -17 -67 -49c0 -25 23 -41 56 -41c29 0 53 11 72 32z" />
    <glyph glyph-name="guillemotleft" unicode="&#xab;" horiz-adv-x="636" 
d="M641 29h-206l-95 177l17 103l151 178h210l-196 -240zM362 29h-206l-95 177l17 103l151 178h210l-196 -240z" />
    <glyph glyph-name="logicalnot" unicode="&#xac;" horiz-adv-x="571" 
d="M555 124h-188l23 150h-312l30 188h500z" />
    <glyph glyph-name="uni00AD" unicode="&#xad;" horiz-adv-x="486" 
d="M441 193h-337l29 183h337z" />
    <glyph glyph-name="registered" unicode="&#xae;" horiz-adv-x="791" 
d="M547 321l117 -153h-139l-105 139h-17v-139h-120v391h189c88 0 147 -53 147 -126c0 -51 -24 -89 -72 -112zM403 395h55c23 0 37 12 37 32c0 21 -12 31 -37 31h-55v-63zM447 714c101 0 186 -36 255 -107c70 -71 105 -157 105 -257c0 -99 -35 -185 -106 -257
c-70 -71 -156 -107 -257 -107s-186 36 -256 107s-105 157 -105 257c0 99 35 185 106 256c71 72 157 108 258 108zM444 26c92 0 169 32 230 95s92 141 92 232c0 89 -30 165 -91 227c-61 63 -137 94 -228 94c-92 0 -169 -32 -230 -95s-92 -141 -92 -232c0 -89 30 -165 91 -228
c61 -62 137 -93 228 -93z" />
    <glyph glyph-name="overscore" unicode="&#xaf;" horiz-adv-x="493" 
d="M106 583l22 137h457l-22 -137h-457z" />
    <glyph glyph-name="degree" unicode="&#xb0;" horiz-adv-x="349" 
d="M318 551c0 33 -24 59 -57 59c-32 0 -56 -26 -57 -59c1 -32 25 -58 57 -58s57 26 57 58zM144 665c33 33 72 49 117 49s84 -16 117 -49c33 -32 50 -70 50 -114s-17 -82 -50 -115c-33 -32 -72 -48 -117 -48s-84 16 -117 48c-33 33 -49 71 -49 115s16 82 49 114z" />
    <glyph glyph-name="plusminus" unicode="&#xb1;" horiz-adv-x="610" 
d="M95 371l29 183h177l23 146h183l-23 -146h178l-29 -183h-178l-23 -145h-183l23 145h-177zM574 0h-537l26 171h538z" />
    <glyph glyph-name="twosuperior" unicode="&#xb2;" horiz-adv-x="337" 
d="M126 569l19 114c29 17 65 25 109 25c76 0 139 -44 139 -121c0 -53 -29 -94 -98 -143l-36 -26h128l-15 -96h-291l14 82l113 86c52 40 67 57 67 80s-15 34 -46 34c-34 0 -68 -12 -103 -35z" />
    <glyph glyph-name="threesuperior" unicode="&#xb3;" horiz-adv-x="324" 
d="M387 615l-76 -55c43 -21 65 -55 65 -100c0 -88 -70 -146 -170 -146c-58 0 -103 12 -136 35l18 105c29 -26 66 -39 111 -39c36 0 64 14 64 41c0 17 -18 34 -51 34c-26 0 -48 -4 -65 -12l11 70l83 55h-119l17 97h262z" />
    <glyph glyph-name="acute" unicode="&#xb4;" horiz-adv-x="492" 
d="M192 576l120 158h248l-195 -158h-173z" />
    <glyph glyph-name="mu" unicode="&#xb5;" horiz-adv-x="632" 
d="M230 -200h-211l113 716h210l-40 -259c-2 -12 -3 -24 -3 -35c0 -34 15 -51 46 -51c24 0 44 9 59 27l50 318h210l-82 -516h-210l11 66c-30 -44 -71 -70 -124 -77z" />
    <glyph glyph-name="paragraph" unicode="&#xb6;" horiz-adv-x="614" 
d="M383 700h288l-110 -700h-214l41 261h-74c-140 0 -225 78 -225 190c0 73 29 133 87 179c59 47 128 70 207 70z" />
    <glyph glyph-name="middot" unicode="&#xb7;" horiz-adv-x="287" 
d="M213 516c33 0 62 -12 86 -36c24 -23 36 -52 36 -86s-12 -63 -36 -87s-53 -36 -86 -36s-62 12 -87 36c-24 24 -36 53 -36 87s12 63 36 86c24 24 53 36 87 36z" />
    <glyph glyph-name="cedilla" unicode="&#xb8;" horiz-adv-x="520" 
d="M213 15h165l-57 -174h-242z" />
    <glyph glyph-name="onesuperior" unicode="&#xb9;" horiz-adv-x="262" 
d="M275 322h-115l41 261l-108 -47l18 112l112 52h111z" />
    <glyph glyph-name="ordmasculine" unicode="&#xba;" horiz-adv-x="457" 
d="M312 708c59 0 108 -18 147 -53c40 -35 60 -80 60 -136c0 -55 -21 -103 -62 -144s-92 -61 -153 -61c-58 0 -107 18 -147 53c-39 36 -59 82 -59 139c0 54 20 101 61 141c41 41 92 61 153 61zM303 422c52 0 92 42 92 99c0 47 -34 78 -81 78c-53 0 -92 -40 -92 -97
c0 -47 34 -80 81 -80z" />
    <glyph glyph-name="guillemotright" unicode="&#xbb;" horiz-adv-x="636" 
d="M73 487h206l95 -177l-17 -103l-151 -178h-210l196 240zM352 487h206l95 -177l-17 -103l-151 -178h-210l196 240z" />
    <glyph glyph-name="onequarter" unicode="&#xbc;" horiz-adv-x="773" 
d="M223 0h-130l539 700h130zM777 378l-34 -205h51l-15 -88h-50l-14 -85h-111l14 85h-186l14 81l213 212h118zM561 173h71l14 81zM275 322h-115l41 261l-108 -47l18 112l112 52h111z" />
    <glyph glyph-name="onehalf" unicode="&#xbd;" horiz-adv-x="816" 
d="M223 0h-130l539 700h130zM555 247l19 114c29 17 65 25 109 25c76 0 139 -44 139 -121c0 -53 -29 -94 -98 -143l-36 -26h128l-15 -96h-291l14 82l113 86c52 40 67 57 67 80s-15 34 -46 34c-34 0 -68 -12 -103 -35zM275 322h-115l41 261l-108 -47l18 112l112 52h111z" />
    <glyph glyph-name="threequarters" unicode="&#xbe;" horiz-adv-x="810" 
d="M260 0h-130l539 700h130zM814 378l-34 -205h51l-15 -88h-50l-14 -85h-111l14 85h-186l14 81l213 212h118zM598 173h71l14 81zM387 615l-76 -55c43 -21 65 -55 65 -100c0 -88 -70 -146 -170 -146c-58 0 -103 12 -136 35l18 105c29 -26 66 -39 111 -39c36 0 64 14 64 41
c0 17 -18 34 -51 34c-26 0 -48 -4 -65 -12l11 70l83 55h-119l17 97h262z" />
    <glyph glyph-name="questiondown" unicode="&#xbf;" horiz-adv-x="502" 
d="M351 284c-33 0 -62 12 -86 35c-24 24 -36 53 -36 87s12 63 36 87s53 36 86 36s62 -12 86 -36c25 -24 37 -53 37 -87s-12 -63 -36 -87c-24 -23 -53 -35 -87 -35zM228 250h200l-24 -161c-3 -1 -10 -2 -21 -3c-21 -3 -36 -6 -63 -11c-46 -10 -91 -27 -91 -60
c0 -25 29 -37 88 -37c66 0 126 13 180 38l-28 -173c-59 -33 -128 -49 -207 -49c-41 0 -79 6 -116 17s-69 30 -97 59c-27 29 -41 64 -41 106c0 115 86 184 211 215z" />
    <glyph glyph-name="Agrave" unicode="&#xc0;" horiz-adv-x="783" 
d="M400 704h205l178 -704h-226l-26 131h-235l-68 -131h-227zM498 292l-33 166l-86 -166h119zM287 917h248l69 -158h-173z" />
    <glyph glyph-name="Aacute" unicode="&#xc1;" horiz-adv-x="783" 
d="M400 704h205l178 -704h-226l-26 131h-235l-68 -131h-227zM498 292l-33 166l-86 -166h119zM429 759l120 158h248l-195 -158h-173z" />
    <glyph glyph-name="Acircumflex" unicode="&#xc2;" horiz-adv-x="783" 
d="M400 704h205l178 -704h-226l-26 131h-235l-68 -131h-227zM498 292l-33 166l-86 -166h119zM635 917l104 -158h-169l-45 62l-63 -62h-182l157 158h198z" />
    <glyph glyph-name="Atilde" unicode="&#xc3;" horiz-adv-x="783" 
d="M400 704h205l178 -704h-226l-26 131h-235l-68 -131h-227zM498 292l-33 166l-86 -166h119zM639 923h104c-17 -108 -81 -172 -166 -172c-23 0 -46 6 -69 17c-22 11 -39 17 -52 17c-23 0 -39 -10 -50 -31h-103c17 115 72 172 165 172c22 0 44 -5 67 -16s41 -16 55 -16
c23 0 39 10 49 29z" />
    <glyph glyph-name="Adieresis" unicode="&#xc4;" horiz-adv-x="783" 
d="M569 769c-39 40 -39 102 0 141c40 39 102 39 141 0c40 -39 40 -101 0 -141c-39 -39 -101 -39 -141 0zM403 939c57 0 101 -44 101 -99c0 -56 -44 -100 -101 -100c-55 0 -100 45 -100 100s45 99 100 99zM400 704h205l178 -704h-226l-26 131h-235l-68 -131h-227zM498 292
l-33 166l-86 -166h119z" />
    <glyph glyph-name="Aring" unicode="&#xc5;" horiz-adv-x="783" 
d="M400 704h205l178 -704h-226l-26 131h-235l-68 -131h-227zM498 292l-33 166l-86 -166h119zM404 840c0 60 50 109 110 109s108 -49 108 -109s-48 -109 -108 -109c-30 0 -56 11 -78 32c-21 22 -32 48 -32 77zM514 799c21 0 41 20 41 41c0 23 -18 42 -41 42s-42 -19 -42 -42
c0 -21 19 -41 42 -41z" />
    <glyph glyph-name="AE" unicode="&#xc6;" horiz-adv-x="1091" 
d="M767 283l-16 -98h328l-29 -185h-543l20 131h-208l-86 -131h-232l469 700h685l-29 -185h-322l-10 -62h250l-27 -170h-250zM589 519h-16l-149 -227h129z" />
    <glyph glyph-name="Ccedilla" unicode="&#xc7;" horiz-adv-x="661" 
d="M303 330c0 -88 65 -148 168 -148c75 0 138 18 190 53l-34 -211c-39 -16 -76 -27 -110 -32l-49 -151h-242l120 156c-81 18 -145 56 -192 113s-70 126 -70 207c0 120 39 216 116 288c78 73 179 109 304 109c76 0 147 -13 212 -38l-35 -199c-51 27 -111 41 -178 41
c-124 0 -200 -72 -200 -188z" />
    <glyph glyph-name="Egrave" unicode="&#xc8;" horiz-adv-x="650" 
d="M609 0h-555l111 700h549l-29 -185h-334l-10 -62h262l-27 -170h-262l-16 -98h340zM248 917h248l69 -158h-173z" />
    <glyph glyph-name="Eacute" unicode="&#xc9;" horiz-adv-x="650" 
d="M609 0h-555l111 700h549l-29 -185h-334l-10 -62h262l-27 -170h-262l-16 -98h340zM328 759l120 158h248l-195 -158h-173z" />
    <glyph glyph-name="Ecircumflex" unicode="&#xca;" horiz-adv-x="650" 
d="M609 0h-555l111 700h549l-29 -185h-334l-10 -62h262l-27 -170h-262l-16 -98h340zM578 917l104 -158h-169l-45 62l-63 -62h-182l157 158h198z" />
    <glyph glyph-name="Edieresis" unicode="&#xcb;" horiz-adv-x="650" 
d="M609 0h-555l111 700h549l-29 -185h-334l-10 -62h262l-27 -170h-262l-16 -98h340zM510 769c-39 40 -39 102 0 141c40 39 102 39 141 0c40 -39 40 -101 0 -141c-39 -39 -101 -39 -141 0zM344 939c57 0 101 -44 101 -99c0 -56 -45 -100 -101 -100c-55 0 -100 45 -100 100
s45 99 100 99z" />
    <glyph glyph-name="Igrave" unicode="&#xcc;" horiz-adv-x="328" 
d="M271 0h-214l111 700h214zM58 917h248l69 -158h-173z" />
    <glyph glyph-name="Iacute" unicode="&#xcd;" horiz-adv-x="328" 
d="M271 0h-214l111 700h214zM200 759l120 158h248l-195 -158h-173z" />
    <glyph glyph-name="Icircumflex" unicode="&#xce;" horiz-adv-x="328" 
d="M271 0h-214l111 700h214zM410 917l104 -158h-169l-45 62l-63 -62h-182l157 158h198z" />
    <glyph glyph-name="Idieresis" unicode="&#xcf;" horiz-adv-x="328" 
d="M271 0h-214l111 700h214zM343 769c-39 40 -39 102 0 141c40 39 102 39 141 0c40 -39 40 -101 0 -141c-39 -39 -101 -39 -141 0zM177 939c57 0 101 -44 101 -99c0 -56 -44 -100 -101 -100c-55 0 -100 45 -100 100s45 99 100 99z" />
    <glyph glyph-name="Eth" unicode="&#xd0;" horiz-adv-x="820" 
d="M208 700h274c107 0 192 -30 257 -91c65 -60 97 -138 97 -234c0 -107 -38 -197 -115 -268s-175 -107 -294 -107h-329l45 290h-81l27 169h81zM359 290l-17 -105h94c116 0 184 77 184 186c0 41 -14 75 -41 102c-27 28 -63 42 -108 42h-76l-9 -56h114l-27 -169h-114z" />
    <glyph glyph-name="Ntilde" unicode="&#xd1;" horiz-adv-x="760" 
d="M708 0h-175l-215 348l-54 -348h-210l110 700h181l210 -346l54 346h209zM628 923h104c-17 -108 -81 -172 -166 -172c-23 0 -46 6 -69 17c-22 11 -39 17 -52 17c-23 0 -40 -10 -50 -31h-103c17 115 72 172 165 172c22 0 44 -5 67 -16s41 -16 55 -16c23 0 40 10 49 29z" />
    <glyph glyph-name="Ograve" unicode="&#xd2;" horiz-adv-x="816" 
d="M475 714c109 0 195 -31 260 -94s97 -145 97 -246c0 -111 -38 -203 -113 -277s-168 -111 -278 -111c-108 0 -195 31 -260 94s-97 145 -97 246c0 111 38 203 113 277c76 74 169 111 278 111zM447 182c51 0 91 18 121 54s45 82 45 138c0 39 -13 73 -39 101
c-26 29 -61 43 -105 43c-49 0 -89 -18 -120 -55c-31 -36 -46 -82 -46 -137c0 -39 13 -73 39 -102c26 -28 61 -42 105 -42zM300 917h248l69 -158h-173z" />
    <glyph glyph-name="Oacute" unicode="&#xd3;" horiz-adv-x="816" 
d="M475 714c109 0 195 -31 260 -94s97 -145 97 -246c0 -111 -38 -203 -113 -277s-168 -111 -278 -111c-108 0 -195 31 -260 94s-97 145 -97 246c0 111 38 203 113 277c76 74 169 111 278 111zM447 182c51 0 91 18 121 54s45 82 45 138c0 39 -13 73 -39 101
c-26 29 -61 43 -105 43c-49 0 -89 -18 -120 -55c-31 -36 -46 -82 -46 -137c0 -39 13 -73 39 -102c26 -28 61 -42 105 -42zM435 759l120 158h248l-195 -158h-173z" />
    <glyph glyph-name="Ocircumflex" unicode="&#xd4;" horiz-adv-x="816" 
d="M475 714c109 0 195 -31 260 -94s97 -145 97 -246c0 -111 -38 -203 -113 -277s-168 -111 -278 -111c-108 0 -195 31 -260 94s-97 145 -97 246c0 111 38 203 113 277c76 74 169 111 278 111zM447 182c51 0 91 18 121 54s45 82 45 138c0 39 -13 73 -39 101
c-26 29 -61 43 -105 43c-49 0 -89 -18 -120 -55c-31 -36 -46 -82 -46 -137c0 -39 13 -73 39 -102c26 -28 61 -42 105 -42zM644 917l104 -158h-169l-45 62l-63 -62h-182l157 158h198z" />
    <glyph glyph-name="Otilde" unicode="&#xd5;" horiz-adv-x="816" 
d="M475 714c109 0 195 -31 260 -94s97 -145 97 -246c0 -111 -38 -203 -113 -277s-168 -111 -278 -111c-108 0 -195 31 -260 94s-97 145 -97 246c0 111 38 203 113 277c76 74 169 111 278 111zM447 182c51 0 91 18 121 54s45 82 45 138c0 39 -13 73 -39 101
c-26 29 -61 43 -105 43c-49 0 -89 -18 -120 -55c-31 -36 -46 -82 -46 -137c0 -39 13 -73 39 -102c26 -28 61 -42 105 -42zM657 923h104c-17 -108 -81 -172 -166 -172c-23 0 -46 6 -69 17c-22 11 -39 17 -52 17c-23 0 -39 -10 -50 -31h-103c17 115 72 172 165 172
c22 0 44 -5 67 -16s41 -16 55 -16c23 0 39 10 49 29z" />
    <glyph glyph-name="Odieresis" unicode="&#xd6;" horiz-adv-x="816" 
d="M475 714c109 0 195 -31 260 -94s97 -145 97 -246c0 -111 -38 -203 -113 -277s-168 -111 -278 -111c-108 0 -195 31 -260 94s-97 145 -97 246c0 111 38 203 113 277c76 74 169 111 278 111zM447 182c51 0 91 18 121 54s45 82 45 138c0 39 -13 73 -39 101
c-26 29 -61 43 -105 43c-49 0 -89 -18 -120 -55c-31 -36 -46 -82 -46 -137c0 -39 13 -73 39 -102c26 -28 61 -42 105 -42zM577 769c-39 40 -39 102 0 141c40 39 102 39 141 0c40 -39 40 -101 0 -141c-39 -39 -101 -39 -141 0zM411 939c57 0 101 -44 101 -99
c0 -56 -44 -100 -101 -100c-55 0 -100 45 -100 100s45 99 100 99z" />
    <glyph glyph-name="multiply" unicode="&#xd7;" horiz-adv-x="631" 
d="M353 203l-155 -135l-116 135l157 134l-114 134l150 131l113 -134l155 134l115 -135l-154 -134l111 -134l-149 -131z" />
    <glyph glyph-name="Oslash" unicode="&#xd8;" horiz-adv-x="816" 
d="M475 714c83 0 153 -19 211 -56l42 42h158l-117 -119c42 -57 63 -126 63 -207c0 -111 -38 -203 -113 -277s-168 -111 -278 -111c-79 0 -148 18 -206 53l-38 -39h-158l112 114c-45 58 -67 129 -67 212c0 111 38 203 113 277c76 74 169 111 278 111zM303 326
c0 -19 3 -36 8 -50l224 228c-20 9 -42 14 -66 14c-49 0 -89 -18 -120 -55c-31 -36 -46 -82 -46 -137zM447 182c51 0 91 18 121 54s45 82 45 138c0 15 -2 29 -6 43l-220 -224c19 -7 39 -11 60 -11z" />
    <glyph glyph-name="Ugrave" unicode="&#xd9;" horiz-adv-x="733" 
d="M515 284l67 416h216l-68 -428c-15 -92 -54 -163 -119 -212s-141 -74 -228 -74c-51 0 -99 9 -143 27c-88 36 -154 121 -154 233c0 16 2 36 5 59l62 395h216l-65 -405c-1 -11 -2 -18 -2 -23c0 -60 41 -90 97 -90s104 30 116 102zM265 917h248l69 -158h-173z" />
    <glyph glyph-name="Uacute" unicode="&#xda;" horiz-adv-x="733" 
d="M515 284l67 416h216l-68 -428c-15 -92 -54 -163 -119 -212s-141 -74 -228 -74c-51 0 -99 9 -143 27c-88 36 -154 121 -154 233c0 16 2 36 5 59l62 395h216l-65 -405c-1 -11 -2 -18 -2 -23c0 -60 41 -90 97 -90s104 30 116 102zM401 759l120 158h248l-195 -158h-173z" />
    <glyph glyph-name="Ucircumflex" unicode="&#xdb;" horiz-adv-x="733" 
d="M515 284l67 416h216l-68 -428c-15 -92 -54 -163 -119 -212s-141 -74 -228 -74c-51 0 -99 9 -143 27c-88 36 -154 121 -154 233c0 16 2 36 5 59l62 395h216l-65 -405c-1 -11 -2 -18 -2 -23c0 -60 41 -90 97 -90s104 30 116 102zM609 917l104 -158h-169l-45 62l-63 -62
h-182l157 158h198z" />
    <glyph glyph-name="Udieresis" unicode="&#xdc;" horiz-adv-x="733" 
d="M515 284l67 416h216l-68 -428c-15 -92 -54 -163 -119 -212s-141 -74 -228 -74c-51 0 -99 9 -143 27c-88 36 -154 121 -154 233c0 16 2 36 5 59l62 395h216l-65 -405c-1 -11 -2 -18 -2 -23c0 -60 41 -90 97 -90s104 30 116 102zM544 769c-39 40 -39 102 0 141
c40 39 102 39 141 0c40 -39 40 -101 0 -141c-39 -39 -101 -39 -141 0zM378 939c57 0 101 -44 101 -99c0 -56 -45 -100 -101 -100c-55 0 -100 45 -100 100s45 99 100 99z" />
    <glyph glyph-name="Yacute" unicode="&#xdd;" horiz-adv-x="718" 
d="M465 0h-214l49 306l-194 394h237l91 -197l155 197h243l-318 -389zM384 759l120 158h248l-195 -158h-173z" />
    <glyph glyph-name="Thorn" unicode="&#xde;" horiz-adv-x="668" 
d="M359 578h114c74 0 133 -19 176 -56s65 -86 65 -145c0 -75 -27 -136 -81 -184c-54 -47 -123 -71 -208 -71h-139l-19 -122h-213l110 700h214zM311 278h93c52 0 94 22 94 71c0 36 -23 54 -68 54h-99z" />
    <glyph glyph-name="germandbls" unicode="&#xdf;" horiz-adv-x="631" 
d="M542 374c24 -9 47 -28 70 -58c23 -29 35 -63 35 -102c0 -65 -23 -119 -70 -160c-46 -41 -104 -61 -174 -61c-44 0 -77 3 -98 10l26 158c13 -4 27 -6 42 -6c43 0 72 31 72 75c0 39 -30 65 -78 65h-16l22 136h14c33 0 52 24 52 57c0 25 -17 47 -45 47
c-34 0 -54 -20 -61 -60l-74 -475h-210l75 470c27 165 129 246 285 246c73 0 129 -18 170 -55c41 -36 62 -79 62 -130c0 -68 -36 -130 -99 -157z" />
    <glyph glyph-name="agrave" unicode="&#xe0;" horiz-adv-x="611" 
d="M584 154c9 0 18 2 27 5l-24 -143c-24 -17 -72 -29 -107 -29c-64 0 -106 20 -125 61c-25 -32 -79 -61 -144 -61c-111 0 -176 66 -176 158c0 56 19 99 58 129c39 31 89 46 149 46c48 0 91 -9 128 -28c1 7 2 13 2 19c0 40 -36 60 -109 60c-51 0 -97 -9 -137 -27l26 157
c55 19 113 28 175 28c73 0 133 -16 181 -47c49 -31 73 -81 73 -149c0 -16 -3 -40 -9 -71l-9 -50c-3 -17 -4 -29 -4 -37c0 -14 8 -21 25 -21zM357 146l7 51c-13 13 -34 20 -61 20c-39 0 -67 -18 -67 -54c0 -27 22 -47 55 -47c28 0 50 10 66 30zM183 734h248l70 -158h-174z
" />
    <glyph glyph-name="aacute" unicode="&#xe1;" horiz-adv-x="611" 
d="M584 154c9 0 18 2 27 5l-24 -143c-24 -17 -72 -29 -107 -29c-64 0 -106 20 -125 61c-25 -32 -79 -61 -144 -61c-111 0 -176 66 -176 158c0 56 19 99 58 129c39 31 89 46 149 46c48 0 91 -9 128 -28c1 7 2 13 2 19c0 40 -36 60 -109 60c-51 0 -97 -9 -137 -27l26 157
c55 19 113 28 175 28c73 0 133 -16 181 -47c49 -31 73 -81 73 -149c0 -16 -3 -40 -9 -71l-9 -50c-3 -17 -4 -29 -4 -37c0 -14 8 -21 25 -21zM357 146l7 51c-13 13 -34 20 -61 20c-39 0 -67 -18 -67 -54c0 -27 22 -47 55 -47c28 0 50 10 66 30zM272 576l120 158h248
l-195 -158h-173z" />
    <glyph glyph-name="acircumflex" unicode="&#xe2;" horiz-adv-x="611" 
d="M584 154c9 0 18 2 27 5l-24 -143c-24 -17 -72 -29 -107 -29c-64 0 -106 20 -125 61c-25 -32 -79 -61 -144 -61c-111 0 -176 66 -176 158c0 56 19 99 58 129c39 31 89 46 149 46c48 0 91 -9 128 -28c1 7 2 13 2 19c0 40 -36 60 -109 60c-51 0 -97 -9 -137 -27l26 157
c55 19 113 28 175 28c73 0 133 -16 181 -47c49 -31 73 -81 73 -149c0 -16 -3 -40 -9 -71l-9 -50c-3 -17 -4 -29 -4 -37c0 -14 8 -21 25 -21zM357 146l7 51c-13 13 -34 20 -61 20c-39 0 -67 -18 -67 -54c0 -27 22 -47 55 -47c28 0 50 10 66 30zM501 734l104 -158h-169l-45 62
l-63 -62h-182l157 158h198z" />
    <glyph glyph-name="atilde" unicode="&#xe3;" horiz-adv-x="611" 
d="M584 154c9 0 18 2 27 5l-24 -143c-24 -17 -72 -29 -107 -29c-64 0 -106 20 -125 61c-25 -32 -79 -61 -144 -61c-111 0 -176 66 -176 158c0 56 19 99 58 129c39 31 89 46 149 46c48 0 91 -9 128 -28c1 7 2 13 2 19c0 40 -36 60 -109 60c-51 0 -97 -9 -137 -27l26 157
c55 19 113 28 175 28c73 0 133 -16 181 -47c49 -31 73 -81 73 -149c0 -16 -3 -40 -9 -71l-9 -50c-3 -17 -4 -29 -4 -37c0 -14 8 -21 25 -21zM357 146l7 51c-13 13 -34 20 -61 20c-39 0 -67 -18 -67 -54c0 -27 22 -47 55 -47c28 0 50 10 66 30zM521 738h104
c-17 -108 -81 -172 -166 -172c-23 0 -46 6 -69 17c-22 11 -39 17 -52 17c-23 0 -39 -10 -50 -31h-103c17 115 72 172 165 172c22 0 44 -5 67 -16s41 -16 55 -16c23 0 39 10 49 29z" />
    <glyph glyph-name="adieresis" unicode="&#xe4;" horiz-adv-x="611" 
d="M584 154c9 0 18 2 27 5l-24 -143c-24 -17 -72 -29 -107 -29c-64 0 -106 20 -125 61c-25 -32 -79 -61 -144 -61c-111 0 -176 66 -176 158c0 56 19 99 58 129c39 31 89 46 149 46c48 0 91 -9 128 -28c1 7 2 13 2 19c0 40 -36 60 -109 60c-51 0 -97 -9 -137 -27l26 157
c55 19 113 28 175 28c73 0 133 -16 181 -47c49 -31 73 -81 73 -149c0 -16 -3 -40 -9 -71l-9 -50c-3 -17 -4 -29 -4 -37c0 -14 8 -21 25 -21zM357 146l7 51c-13 13 -34 20 -61 20c-39 0 -67 -18 -67 -54c0 -27 22 -47 55 -47c28 0 50 10 66 30zM425 584c-39 40 -39 102 0 141
c40 39 102 39 141 0c40 -39 40 -101 0 -141c-39 -39 -101 -39 -141 0zM259 754c57 0 100 -44 100 -99c0 -56 -44 -100 -100 -100c-55 0 -100 45 -100 100s45 99 100 99z" />
    <glyph glyph-name="aring" unicode="&#xe5;" horiz-adv-x="611" 
d="M584 154c9 0 18 2 27 5l-24 -143c-24 -17 -72 -29 -107 -29c-64 0 -106 20 -125 61c-25 -32 -79 -61 -144 -61c-111 0 -176 66 -176 158c0 56 19 99 58 129c39 31 89 46 149 46c48 0 91 -9 128 -28c1 7 2 13 2 19c0 40 -36 60 -109 60c-51 0 -97 -9 -137 -27l26 157
c55 19 113 28 175 28c73 0 133 -16 181 -47c49 -31 73 -81 73 -149c0 -16 -3 -40 -9 -71l-9 -50c-3 -17 -4 -29 -4 -37c0 -14 8 -21 25 -21zM357 146l7 51c-13 13 -34 20 -61 20c-39 0 -67 -18 -67 -54c0 -27 22 -47 55 -47c28 0 50 10 66 30zM277 659c0 60 50 109 110 109
s108 -49 108 -109s-48 -109 -108 -109c-30 0 -56 11 -78 32c-21 22 -32 48 -32 77zM345 659c0 -21 19 -41 42 -41s41 18 41 41s-18 42 -41 42s-42 -19 -42 -42z" />
    <glyph glyph-name="ae" unicode="&#xe6;" horiz-adv-x="864" 
d="M880 310c0 -23 -4 -55 -13 -97h-322c7 -40 62 -61 126 -61c55 0 111 13 166 40l-24 -155c-45 -33 -112 -50 -202 -50c-85 0 -153 27 -204 81c-33 -41 -108 -81 -192 -81c-113 0 -180 66 -180 158c0 56 19 99 58 129c39 31 89 46 149 46c48 0 91 -9 128 -28c1 3 1 10 1 19
c0 40 -36 60 -108 60c-51 0 -97 -9 -137 -27l26 157c55 19 110 28 167 28c67 0 124 -18 171 -55c48 37 101 55 159 55c63 0 117 -20 162 -60c46 -40 69 -93 69 -159zM291 116c29 0 52 10 69 30c-7 20 -12 41 -14 63c-13 5 -26 8 -40 8c-40 0 -70 -18 -70 -54
c0 -27 22 -47 55 -47zM550 313h140v11c0 43 -19 64 -58 64c-37 0 -69 -26 -82 -75z" />
    <glyph glyph-name="ccedilla" unicode="&#xe7;" horiz-adv-x="509" 
d="M390 -10l-48 -149h-242l127 165c-100 35 -167 117 -167 236c0 81 30 149 90 204c61 55 136 83 227 83c62 0 117 -13 166 -38l-28 -169c-128 61 -247 21 -247 -70c0 -23 8 -42 23 -56c31 -27 62 -31 101 -31c38 0 74 7 108 20l-28 -174c-31 -11 -59 -18 -82 -21z" />
    <glyph glyph-name="egrave" unicode="&#xe8;" horiz-adv-x="579" 
d="M595 310c0 -23 -4 -55 -13 -97h-322c7 -40 60 -61 123 -61c57 0 114 13 169 40l-24 -155c-45 -33 -112 -50 -202 -50c-76 0 -139 23 -190 68s-76 105 -76 180c0 86 28 156 84 211c57 55 127 83 210 83c70 0 128 -20 173 -59s68 -93 68 -160zM265 313h140v6
c0 43 -22 69 -58 69c-37 0 -70 -26 -82 -75zM173 734h248l70 -158h-174z" />
    <glyph glyph-name="eacute" unicode="&#xe9;" horiz-adv-x="579" 
d="M595 310c0 -23 -4 -55 -13 -97h-322c7 -40 60 -61 123 -61c57 0 114 13 169 40l-24 -155c-45 -33 -112 -50 -202 -50c-76 0 -139 23 -190 68s-76 105 -76 180c0 86 28 156 84 211c57 55 127 83 210 83c70 0 128 -20 173 -59s68 -93 68 -160zM265 313h140v6
c0 43 -22 69 -58 69c-37 0 -70 -26 -82 -75zM264 576l120 158h248l-195 -158h-173z" />
    <glyph glyph-name="ecircumflex" unicode="&#xea;" horiz-adv-x="579" 
d="M595 310c0 -23 -4 -55 -13 -97h-322c7 -40 60 -61 123 -61c57 0 114 13 169 40l-24 -155c-45 -33 -112 -50 -202 -50c-76 0 -139 23 -190 68s-76 105 -76 180c0 86 28 156 84 211c57 55 127 83 210 83c70 0 128 -20 173 -59s68 -93 68 -160zM265 313h140v6
c0 43 -22 69 -58 69c-37 0 -70 -26 -82 -75zM509 734l104 -158h-169l-45 62l-63 -62h-182l157 158h198z" />
    <glyph glyph-name="edieresis" unicode="&#xeb;" horiz-adv-x="579" 
d="M595 310c0 -23 -4 -55 -13 -97h-322c7 -40 60 -61 123 -61c57 0 114 13 169 40l-24 -155c-45 -33 -112 -50 -202 -50c-76 0 -139 23 -190 68s-76 105 -76 180c0 86 28 156 84 211c57 55 127 83 210 83c70 0 128 -20 173 -59s68 -93 68 -160zM265 313h140v6
c0 43 -22 69 -58 69c-37 0 -70 -26 -82 -75zM430 584c-39 40 -39 102 0 141c40 39 102 39 141 0c40 -39 40 -101 0 -141c-39 -39 -101 -39 -141 0zM264 754c56 0 100 -44 100 -99c0 -56 -44 -100 -100 -100c-55 0 -100 45 -100 100s45 99 100 99z" />
    <glyph glyph-name="igrave" unicode="&#xec;" horiz-adv-x="318" 
d="M344 516l-81 -516h-210l81 516h210zM20 734h248l70 -158h-174z" />
    <glyph glyph-name="iacute" unicode="&#xed;" horiz-adv-x="318" 
d="M160 577l120 157h246l-194 -157h-172zM344 516l-81 -516h-210l81 516h210z" />
    <glyph glyph-name="icircumflex" unicode="&#xee;" horiz-adv-x="318" 
d="M344 516l-81 -516h-210l81 516h210zM373 734l104 -158h-169l-45 62l-63 -62h-182l157 158h198z" />
    <glyph glyph-name="idieresis" unicode="&#xef;" horiz-adv-x="318" 
d="M294 584c-39 40 -39 102 0 141c40 39 102 39 141 0c40 -39 40 -101 0 -141c-39 -39 -101 -39 -141 0zM128 754c56 0 100 -44 100 -99c0 -56 -44 -100 -100 -100c-55 0 -100 45 -100 100s45 99 100 99zM344 516l-81 -516h-210l81 516h210z" />
    <glyph glyph-name="eth" unicode="&#xf0;" horiz-adv-x="613" 
d="M494 567l37 -52c21 -30 38 -54 49 -73c24 -36 50 -105 50 -169c0 -81 -27 -149 -81 -204c-53 -55 -126 -82 -217 -82c-75 0 -139 21 -192 62s-80 101 -80 178c0 66 21 121 64 164c43 44 99 66 168 66c34 0 63 -7 86 -20l-58 77l-111 -34l-66 92l108 33l-71 95h219
c5 -8 14 -22 29 -41l89 27l66 -92zM342 161c43 0 79 29 79 80c0 43 -28 75 -76 75c-43 0 -79 -29 -79 -80c0 -43 28 -75 76 -75z" />
    <glyph glyph-name="ntilde" unicode="&#xf1;" horiz-adv-x="624" 
d="M626 287l-45 -287h-210l40 259c2 12 3 24 3 35c0 34 -15 51 -46 51c-21 0 -41 -9 -59 -27l-50 -318h-210l82 516h210l-11 -66c36 53 87 79 152 79c93 0 149 -69 149 -172c0 -27 -2 -50 -5 -70zM535 738h104c-17 -108 -81 -172 -166 -172c-23 0 -46 6 -69 17
c-22 11 -39 17 -52 17c-23 0 -39 -10 -50 -31h-103c17 115 72 172 165 172c22 0 44 -5 67 -16s41 -16 55 -16c23 0 39 10 49 29z" />
    <glyph glyph-name="ograve" unicode="&#xf2;" horiz-adv-x="627" 
d="M357 529c81 0 149 -24 204 -73c55 -48 83 -111 83 -188c0 -75 -29 -141 -86 -197s-127 -84 -212 -84c-81 0 -149 24 -204 72c-55 49 -82 112 -82 191c0 75 28 140 85 195c57 56 127 84 212 84zM345 165c53 0 95 46 95 107c0 51 -35 79 -82 79c-53 0 -94 -45 -94 -106
c0 -51 36 -80 81 -80zM160 734h248l70 -158h-174z" />
    <glyph glyph-name="oacute" unicode="&#xf3;" horiz-adv-x="627" 
d="M357 529c81 0 149 -24 204 -73c55 -48 83 -111 83 -188c0 -75 -29 -141 -86 -197s-127 -84 -212 -84c-81 0 -149 24 -204 72c-55 49 -82 112 -82 191c0 75 28 140 85 195c57 56 127 84 212 84zM345 165c53 0 95 46 95 107c0 51 -35 79 -82 79c-53 0 -94 -45 -94 -106
c0 -51 36 -80 81 -80zM293 576l120 158h248l-195 -158h-173z" />
    <glyph glyph-name="ocircumflex" unicode="&#xf4;" horiz-adv-x="627" 
d="M357 529c81 0 149 -24 204 -73c55 -48 83 -111 83 -188c0 -75 -29 -141 -86 -197s-127 -84 -212 -84c-81 0 -149 24 -204 72c-55 49 -82 112 -82 191c0 75 28 140 85 195c57 56 127 84 212 84zM345 165c53 0 95 46 95 107c0 51 -35 79 -82 79c-53 0 -94 -45 -94 -106
c0 -51 36 -80 81 -80zM513 734l104 -158h-169l-45 62l-63 -62h-182l157 158h198z" />
    <glyph glyph-name="otilde" unicode="&#xf5;" horiz-adv-x="627" 
d="M357 529c81 0 149 -24 204 -73c55 -48 83 -111 83 -188c0 -75 -29 -141 -86 -197s-127 -84 -212 -84c-81 0 -149 24 -204 72c-55 49 -82 112 -82 191c0 75 28 140 85 195c57 56 127 84 212 84zM345 165c53 0 95 46 95 107c0 51 -35 79 -82 79c-53 0 -94 -45 -94 -106
c0 -51 36 -80 81 -80zM517 738h104c-17 -108 -81 -172 -166 -172c-23 0 -46 6 -69 17c-22 11 -39 17 -52 17c-23 0 -39 -10 -50 -31h-103c17 115 72 172 165 172c22 0 44 -5 67 -16s41 -16 55 -16c23 0 39 10 49 29z" />
    <glyph glyph-name="odieresis" unicode="&#xf6;" horiz-adv-x="627" 
d="M357 529c81 0 149 -24 204 -73c55 -48 83 -111 83 -188c0 -75 -29 -141 -86 -197s-127 -84 -212 -84c-81 0 -149 24 -204 72c-55 49 -82 112 -82 191c0 75 28 140 85 195c57 56 127 84 212 84zM345 165c53 0 95 46 95 107c0 51 -35 79 -82 79c-53 0 -94 -45 -94 -106
c0 -51 36 -80 81 -80zM444 584c-39 40 -39 102 0 141c40 39 102 39 141 0c40 -39 40 -101 0 -141c-39 -39 -101 -39 -141 0zM278 754c56 0 100 -44 100 -99c0 -56 -44 -100 -100 -100c-55 0 -100 45 -100 100s45 99 100 99z" />
    <glyph glyph-name="divide" unicode="&#xf7;" horiz-adv-x="617" 
d="M271 583c0 34 12 63 36 86c24 24 53 36 86 36s62 -12 85 -36c24 -23 36 -52 36 -86c0 -33 -12 -62 -36 -86c-23 -23 -52 -35 -85 -35s-62 12 -86 35c-24 24 -36 53 -36 86zM193 89c0 34 12 63 36 86c24 24 53 36 86 36s62 -12 85 -36c24 -23 36 -52 36 -86
c0 -33 -12 -62 -36 -86c-23 -23 -52 -35 -85 -35s-62 12 -86 35c-24 24 -36 53 -36 86zM609 245h-546l29 183h546z" />
    <glyph glyph-name="oslash" unicode="&#xf8;" horiz-adv-x="653" 
d="M368 529c63 0 118 -15 167 -45l33 32h120l-90 -87c38 -45 57 -99 57 -161c0 -75 -29 -141 -86 -197s-127 -84 -212 -84c-63 0 -119 15 -168 45l-34 -32h-120l91 88c-37 45 -55 99 -55 162c0 75 28 140 85 195c57 56 127 84 212 84zM355 153c56 0 101 52 101 121
c0 7 0 13 -1 16l-135 -130c10 -5 22 -7 35 -7zM269 243c0 -7 0 -13 1 -16l132 129c-10 4 -21 6 -33 6c-56 0 -100 -51 -100 -119z" />
    <glyph glyph-name="ugrave" unicode="&#xf9;" horiz-adv-x="622" 
d="M77 229l45 287h210l-40 -259c-2 -12 -3 -24 -3 -37c0 -33 15 -49 46 -49c24 0 44 9 59 27l50 318h210l-82 -516h-210l11 66c-36 -53 -87 -79 -152 -79c-93 0 -149 69 -149 172c0 27 2 50 5 70zM191 734h248l70 -158h-174z" />
    <glyph glyph-name="uacute" unicode="&#xfa;" horiz-adv-x="622" 
d="M77 229l45 287h210l-40 -259c-2 -12 -3 -24 -3 -37c0 -33 15 -49 46 -49c24 0 44 9 59 27l50 318h210l-82 -516h-210l11 66c-36 -53 -87 -79 -152 -79c-93 0 -149 69 -149 172c0 27 2 50 5 70zM289 576l120 158h248l-195 -158h-173z" />
    <glyph glyph-name="ucircumflex" unicode="&#xfb;" horiz-adv-x="622" 
d="M77 229l45 287h210l-40 -259c-2 -12 -3 -24 -3 -37c0 -33 15 -49 46 -49c24 0 44 9 59 27l50 318h210l-82 -516h-210l11 66c-36 -53 -87 -79 -152 -79c-93 0 -149 69 -149 172c0 27 2 50 5 70zM522 734l104 -158h-169l-45 62l-63 -62h-182l157 158h198z" />
    <glyph glyph-name="udieresis" unicode="&#xfc;" horiz-adv-x="622" 
d="M77 229l45 287h210l-40 -259c-2 -12 -3 -24 -3 -37c0 -33 15 -49 46 -49c24 0 44 9 59 27l50 318h210l-82 -516h-210l11 66c-36 -53 -87 -79 -152 -79c-93 0 -149 69 -149 172c0 27 2 50 5 70zM442 584c-39 40 -39 102 0 141c40 39 102 39 141 0c40 -39 40 -101 0 -141
c-39 -39 -101 -39 -141 0zM276 754c56 0 100 -44 100 -99c0 -56 -44 -100 -100 -100c-55 0 -100 45 -100 100s45 99 100 99z" />
    <glyph glyph-name="yacute" unicode="&#xfd;" horiz-adv-x="606" 
d="M130 -206c-54 0 -94 8 -120 24l29 181c22 -18 50 -27 83 -27c43 0 66 10 85 45l-132 499h219l44 -292l129 292h219l-308 -566c-56 -104 -139 -156 -248 -156zM281 576l120 158h248l-195 -158h-173z" />
    <glyph glyph-name="thorn" unicode="&#xfe;" 
d="M270 58l-40 -258h-211l139 900h211l-36 -242c9 17 27 33 54 48s57 23 91 23c59 0 106 -23 143 -68s56 -102 56 -169c0 -50 -10 -98 -29 -143s-49 -84 -90 -115s-89 -47 -144 -47c-35 0 -66 8 -93 23c-27 16 -44 32 -51 48zM307 311l-16 -107c16 -29 43 -43 81 -43
c52 0 90 47 90 110c0 53 -30 82 -73 82c-32 0 -59 -14 -82 -42z" />
    <glyph glyph-name="ydieresis" unicode="&#xff;" horiz-adv-x="606" 
d="M130 -206c-54 0 -94 8 -120 24l29 181c22 -18 50 -27 83 -27c43 0 66 10 85 45l-132 499h219l44 -292l129 292h219l-308 -566c-56 -104 -139 -156 -248 -156zM437 584c-39 40 -39 102 0 141c40 39 102 39 141 0c40 -39 40 -101 0 -141c-39 -39 -101 -39 -141 0zM271 754
c57 0 100 -44 100 -99c0 -56 -44 -100 -100 -100c-55 0 -100 45 -100 100s45 99 100 99z" />
    <glyph glyph-name="Amacron" unicode="&#x100;" horiz-adv-x="783" 
d="M400 704h205l178 -704h-226l-26 131h-235l-68 -131h-227zM498 292l-33 166l-86 -166h119zM281 767l23 137h457l-23 -137h-457z" />
    <glyph glyph-name="amacron" unicode="&#x101;" horiz-adv-x="611" 
d="M584 154c9 0 18 2 27 5l-24 -143c-24 -17 -72 -29 -107 -29c-64 0 -106 20 -125 61c-25 -32 -79 -61 -144 -61c-111 0 -176 66 -176 158c0 56 19 99 58 129c39 31 89 46 149 46c48 0 91 -9 128 -28c1 7 2 13 2 19c0 40 -36 60 -109 60c-51 0 -97 -9 -137 -27l26 157
c55 19 113 28 175 28c73 0 133 -16 181 -47c49 -31 73 -81 73 -149c0 -16 -3 -40 -9 -71l-9 -50c-3 -17 -4 -29 -4 -37c0 -14 8 -21 25 -21zM357 146l7 51c-13 13 -34 20 -61 20c-39 0 -67 -18 -67 -54c0 -27 22 -47 55 -47c28 0 50 10 66 30zM163 583l22 137h457l-22 -137
h-457z" />
    <glyph glyph-name="Abreve" unicode="&#x102;" horiz-adv-x="783" 
d="M596 924h132c-23 -117 -105 -183 -208 -183c-49 0 -90 14 -125 41c-34 27 -51 65 -51 114c0 7 1 16 2 28h132v-4c0 -33 18 -56 50 -56c33 0 59 24 68 60zM400 704h205l178 -704h-226l-26 131h-235l-68 -131h-227zM498 292l-33 166l-86 -166h119z" />
    <glyph glyph-name="abreve" unicode="&#x103;" horiz-adv-x="611" 
d="M584 154c9 0 18 2 27 5l-24 -143c-24 -17 -72 -29 -107 -29c-64 0 -106 20 -125 61c-25 -32 -79 -61 -144 -61c-111 0 -176 66 -176 158c0 56 19 99 58 129c39 31 89 46 149 46c48 0 91 -9 128 -28c1 7 2 13 2 19c0 40 -36 60 -109 60c-51 0 -97 -9 -137 -27l26 157
c55 19 113 28 175 28c73 0 133 -16 181 -47c49 -31 73 -81 73 -149c0 -16 -3 -40 -9 -71l-9 -50c-3 -17 -4 -29 -4 -37c0 -14 8 -21 25 -21zM357 146l7 51c-13 13 -34 20 -61 20c-39 0 -67 -18 -67 -54c0 -27 22 -47 55 -47c28 0 50 10 66 30zM467 740h131
c-23 -117 -104 -183 -207 -183c-49 0 -90 14 -125 41c-34 27 -51 65 -51 114c0 5 1 15 2 28h132v-4c0 -38 17 -57 50 -57s59 24 68 61z" />
    <glyph glyph-name="Aogonek" unicode="&#x104;" horiz-adv-x="783" 
d="M605 704l178 -704c-28 -22 -42 -43 -42 -62c0 -16 11 -24 33 -24c12 0 24 2 35 7l-20 -121c-14 -6 -38 -9 -71 -9c-81 0 -128 37 -128 90c0 43 22 83 67 119h-100l-26 131h-235l-68 -131h-227l399 704h205zM498 292l-33 166l-86 -166h119z" />
    <glyph glyph-name="aogonek" unicode="&#x105;" horiz-adv-x="611" 
d="M584 154c9 0 18 2 27 5l-24 -143c-28 -23 -42 -43 -42 -62c0 -16 11 -24 33 -24c12 0 24 2 35 7l-20 -121c-14 -6 -38 -9 -71 -9c-81 0 -128 37 -128 90c0 35 13 66 40 95c-39 8 -65 27 -79 56c-25 -32 -79 -61 -144 -61c-111 0 -176 66 -176 158c0 56 19 99 58 129
c39 31 89 46 149 46c48 0 91 -9 128 -28c1 7 2 13 2 19c0 40 -36 60 -109 60c-51 0 -97 -9 -137 -27l26 157c55 19 113 28 175 28c73 0 133 -16 181 -47c49 -31 73 -81 73 -149c0 -16 -3 -40 -9 -71l-9 -50c-3 -17 -4 -29 -4 -37c0 -14 8 -21 25 -21zM357 146l7 51
c-13 13 -34 20 -61 20c-39 0 -67 -18 -67 -54c0 -27 22 -47 55 -47c28 0 50 10 66 30z" />
    <glyph glyph-name="Cacute" unicode="&#x106;" horiz-adv-x="661" 
d="M303 330c0 -88 65 -148 168 -148c75 0 138 18 190 53l-34 -211c-63 -25 -122 -38 -177 -38c-109 0 -198 31 -265 92s-101 141 -101 239c0 120 39 216 116 288c78 73 179 109 304 109c76 0 147 -13 212 -38l-35 -199c-51 27 -111 41 -178 41c-124 0 -200 -72 -200 -188z
M397 759l120 158h248l-195 -158h-173z" />
    <glyph glyph-name="cacute" unicode="&#x107;" horiz-adv-x="509" 
d="M341 -13c-77 0 -144 22 -199 67s-82 107 -82 188s30 149 90 204c61 55 136 83 227 83c62 0 117 -13 166 -38l-28 -169c-128 61 -247 21 -247 -70c0 -23 8 -42 23 -56c31 -27 62 -31 101 -31c38 0 74 7 108 20l-28 -174c-41 -16 -84 -24 -131 -24zM274 576l120 158h248
l-195 -158h-173z" />
    <glyph glyph-name="Ccircumflex" unicode="&#x108;" horiz-adv-x="661" 
d="M303 330c0 -88 65 -148 168 -148c75 0 138 18 190 53l-34 -211c-63 -25 -122 -38 -177 -38c-109 0 -198 31 -265 92s-101 141 -101 239c0 120 39 216 116 288c78 73 179 109 304 109c76 0 147 -13 212 -38l-35 -199c-51 27 -111 41 -178 41c-124 0 -200 -72 -200 -188z
M629 917l104 -158h-169l-45 62l-63 -62h-182l157 158h198z" />
    <glyph glyph-name="ccircumflex" unicode="&#x109;" horiz-adv-x="509" 
d="M341 -13c-77 0 -144 22 -199 67s-82 107 -82 188s30 149 90 204c61 55 136 83 227 83c62 0 117 -13 166 -38l-28 -169c-128 61 -247 21 -247 -70c0 -23 8 -42 23 -56c31 -27 62 -31 101 -31c38 0 74 7 108 20l-28 -174c-41 -16 -84 -24 -131 -24zM495 734l104 -158h-169
l-45 62l-63 -62h-182l157 158h198z" />
    <glyph glyph-name="Cdotaccent" unicode="&#x10a;" horiz-adv-x="661" 
d="M303 330c0 -88 65 -148 168 -148c75 0 138 18 190 53l-34 -211c-63 -25 -122 -38 -177 -38c-109 0 -198 31 -265 92s-101 141 -101 239c0 120 39 216 116 288c78 73 179 109 304 109c76 0 147 -13 212 -38l-35 -199c-51 27 -111 41 -178 41c-124 0 -200 -72 -200 -188z
M522 939c57 0 101 -44 101 -99c0 -56 -45 -100 -101 -100c-55 0 -100 45 -100 100s45 99 100 99z" />
    <glyph glyph-name="cdotaccent" unicode="&#x10b;" horiz-adv-x="509" 
d="M341 -13c-77 0 -144 22 -199 67s-82 107 -82 188s30 149 90 204c61 55 136 83 227 83c62 0 117 -13 166 -38l-28 -169c-128 61 -247 21 -247 -70c0 -23 8 -42 23 -56c31 -27 62 -31 101 -31c38 0 74 7 108 20l-28 -174c-41 -16 -84 -24 -131 -24zM419 754
c56 0 100 -44 100 -99s-44 -100 -100 -100c-55 0 -101 45 -101 100s46 99 101 99z" />
    <glyph glyph-name="Ccaron" unicode="&#x10c;" horiz-adv-x="661" 
d="M303 330c0 -88 65 -148 168 -148c75 0 138 18 190 53l-34 -211c-63 -25 -122 -38 -177 -38c-109 0 -198 31 -265 92s-101 141 -101 239c0 120 39 216 116 288c78 73 179 109 304 109c76 0 147 -13 212 -38l-35 -199c-51 27 -111 41 -178 41c-124 0 -200 -72 -200 -188z
M515 855l63 62h182l-157 -158h-199l-103 158h169z" />
    <glyph glyph-name="ccaron" unicode="&#x10d;" horiz-adv-x="509" 
d="M341 -13c-77 0 -144 22 -199 67s-82 107 -82 188s30 149 90 204c61 55 136 83 227 83c62 0 117 -13 166 -38l-28 -169c-128 61 -247 21 -247 -70c0 -23 8 -42 23 -56c31 -27 62 -31 101 -31c38 0 74 7 108 20l-28 -174c-41 -16 -84 -24 -131 -24zM379 672l63 62h182
l-158 -158h-198l-103 158h169z" />
    <glyph glyph-name="Dcaron" unicode="&#x10e;" horiz-adv-x="776" 
d="M164 700h274c107 0 192 -30 257 -91c65 -60 97 -138 97 -234c0 -107 -38 -197 -115 -268s-175 -107 -294 -107h-329zM351 515l-53 -330h94c116 0 184 77 184 186c0 41 -14 75 -41 102c-27 28 -63 42 -108 42h-76zM481 855l63 62h182l-157 -158h-199l-103 158h169z" />
    <glyph glyph-name="dcaron" unicode="&#x10f;" horiz-adv-x="889" 
d="M467 458l40 242h211l-111 -700h-211l8 58c-9 -17 -27 -34 -54 -49s-57 -22 -91 -22c-59 0 -107 23 -144 68s-55 102 -55 169c0 50 9 98 28 143s49 84 90 115s90 47 145 47c35 0 66 -8 93 -24c27 -15 44 -31 51 -47zM430 205l17 107c-15 25 -46 43 -82 43
c-52 0 -90 -47 -90 -110c0 -53 30 -82 73 -82c32 0 59 14 82 42zM1012 700l-126 -231h-153l96 231h183z" />
    <glyph glyph-name="Dcroat" unicode="&#x110;" horiz-adv-x="820" 
d="M208 700h274c107 0 192 -30 257 -91c65 -60 97 -138 97 -234c0 -107 -38 -197 -115 -268s-175 -107 -294 -107h-329l45 290h-81l27 169h81zM359 290l-17 -105h94c116 0 184 77 184 186c0 41 -14 75 -41 102c-27 28 -63 42 -108 42h-76l-9 -56h114l-27 -169h-114z" />
    <glyph glyph-name="dslash" unicode="&#x111;" horiz-adv-x="676" 
d="M498 646l9 54h211l-9 -54h87l-11 -75h-88l-90 -571h-211l8 58c-9 -17 -27 -34 -54 -49s-57 -22 -91 -22c-59 0 -107 23 -144 68s-55 102 -55 169c0 50 9 98 28 143s49 84 90 115s90 47 145 47c35 0 66 -8 93 -24c27 -15 44 -31 51 -47l18 113h-117l11 75h119zM430 205
l17 107c-15 25 -46 43 -82 43c-52 0 -90 -47 -90 -110c0 -53 30 -82 73 -82c32 0 59 14 82 42z" />
    <glyph glyph-name="Emacron" unicode="&#x112;" horiz-adv-x="650" 
d="M609 0h-555l111 700h549l-29 -185h-334l-10 -62h262l-27 -170h-262l-16 -98h340zM219 767l23 137h457l-23 -137h-457z" />
    <glyph glyph-name="emacron" unicode="&#x113;" horiz-adv-x="579" 
d="M595 310c0 -23 -4 -55 -13 -97h-322c7 -40 60 -61 123 -61c57 0 114 13 169 40l-24 -155c-45 -33 -112 -50 -202 -50c-76 0 -139 23 -190 68s-76 105 -76 180c0 86 28 156 84 211c57 55 127 83 210 83c70 0 128 -20 173 -59s68 -93 68 -160zM265 313h140v6
c0 43 -22 69 -58 69c-37 0 -70 -26 -82 -75zM156 583l22 137h457l-22 -137h-457z" />
    <glyph glyph-name="Ebreve" unicode="&#x114;" horiz-adv-x="650" 
d="M527 924h132c-23 -117 -105 -183 -208 -183c-49 0 -90 14 -125 41c-34 27 -51 65 -51 114c0 7 1 16 2 28h132v-4c0 -33 18 -56 50 -56c33 0 59 24 68 60zM609 0h-555l111 700h549l-29 -185h-334l-10 -62h262l-27 -170h-262l-16 -98h340z" />
    <glyph glyph-name="ebreve" unicode="&#x115;" horiz-adv-x="579" 
d="M595 310c0 -23 -4 -55 -13 -97h-322c7 -40 60 -61 123 -61c57 0 114 13 169 40l-24 -155c-45 -33 -112 -50 -202 -50c-76 0 -139 23 -190 68s-76 105 -76 180c0 86 28 156 84 211c57 55 127 83 210 83c70 0 128 -20 173 -59s68 -93 68 -160zM265 313h140v6
c0 43 -22 69 -58 69c-37 0 -70 -26 -82 -75zM457 740h131c-23 -117 -104 -183 -207 -183c-49 0 -90 14 -125 41c-34 27 -51 65 -51 114c0 5 1 15 2 28h132v-4c0 -38 17 -57 50 -57s59 24 68 61z" />
    <glyph glyph-name="Edotaccent" unicode="&#x116;" horiz-adv-x="650" 
d="M609 0h-555l111 700h549l-29 -185h-334l-10 -62h262l-27 -170h-262l-16 -98h340zM452 939c57 0 101 -44 101 -99c0 -56 -45 -100 -101 -100c-55 0 -100 45 -100 100s45 99 100 99z" />
    <glyph glyph-name="edotaccent" unicode="&#x117;" horiz-adv-x="579" 
d="M595 310c0 -23 -4 -55 -13 -97h-322c7 -40 60 -61 123 -61c57 0 114 13 169 40l-24 -155c-45 -33 -112 -50 -202 -50c-76 0 -139 23 -190 68s-76 105 -76 180c0 86 28 156 84 211c57 55 127 83 210 83c70 0 128 -20 173 -59s68 -93 68 -160zM265 313h140v6
c0 43 -22 69 -58 69c-37 0 -70 -26 -82 -75zM390 754c56 0 100 -44 100 -99s-44 -100 -100 -100c-55 0 -101 45 -101 100s46 99 101 99z" />
    <glyph glyph-name="Eogonek" unicode="&#x118;" horiz-adv-x="650" 
d="M483 0h-429l111 700h549l-29 -185h-334l-10 -62h262l-27 -170h-262l-16 -98h340l-29 -185c-28 -22 -42 -43 -42 -62c0 -16 11 -24 33 -24c12 0 24 2 35 7l-20 -121c-14 -6 -38 -9 -71 -9c-81 0 -128 37 -128 90c0 43 22 83 67 119z" />
    <glyph glyph-name="eogonek" unicode="&#x119;" horiz-adv-x="579" 
d="M595 310c0 -23 -4 -55 -13 -97h-322c7 -40 60 -61 123 -61c57 0 114 13 169 40l-24 -155c-28 -23 -42 -43 -42 -62c0 -16 11 -24 33 -24c11 0 23 2 35 7l-20 -121c-14 -6 -38 -9 -71 -9c-81 0 -128 37 -128 90c0 25 7 48 20 70c-7 -1 -16 -1 -29 -1
c-76 0 -139 23 -190 68s-76 105 -76 180c0 86 28 156 84 211c57 55 127 83 210 83c70 0 128 -20 173 -59s68 -93 68 -160zM265 313h140v6c0 43 -22 69 -58 69c-37 0 -70 -26 -82 -75z" />
    <glyph glyph-name="Ecaron" unicode="&#x11a;" horiz-adv-x="650" 
d="M609 0h-555l111 700h549l-29 -185h-334l-10 -62h262l-27 -170h-262l-16 -98h340zM462 855l63 62h182l-157 -158h-199l-103 158h169z" />
    <glyph glyph-name="ecaron" unicode="&#x11b;" horiz-adv-x="579" 
d="M595 310c0 -23 -4 -55 -13 -97h-322c7 -40 60 -61 123 -61c57 0 114 13 169 40l-24 -155c-45 -33 -112 -50 -202 -50c-76 0 -139 23 -190 68s-76 105 -76 180c0 86 28 156 84 211c57 55 127 83 210 83c70 0 128 -20 173 -59s68 -93 68 -160zM265 313h140v6
c0 43 -22 69 -58 69c-37 0 -70 -26 -82 -75zM393 672l63 62h182l-158 -158h-198l-103 158h169z" />
    <glyph glyph-name="Gcircumflex" unicode="&#x11c;" horiz-adv-x="748" 
d="M532 192l33 216h216l-53 -326c-72 -64 -171 -96 -297 -96c-100 0 -183 31 -249 92c-65 62 -98 142 -98 241c0 119 39 214 116 286c78 73 179 109 304 109c73 0 142 -11 208 -33l-35 -200c-49 25 -107 37 -174 37c-125 0 -200 -71 -200 -192c0 -47 14 -85 43 -112
s64 -41 105 -41c32 0 59 6 81 19zM636 917l104 -158h-169l-45 62l-63 -62h-182l157 158h198z" />
    <glyph glyph-name="gcircumflex" unicode="&#x11d;" horiz-adv-x="645" 
d="M459 457l10 59h208l-70 -453c-15 -97 -66 -171 -135 -211c-68 -40 -143 -58 -224 -58c-89 0 -155 14 -198 43l28 179c49 -33 107 -49 174 -49c19 0 38 2 55 6s35 14 54 31s31 39 36 67l5 28c-27 -35 -78 -68 -151 -68c-57 0 -103 21 -138 62s-53 93 -53 155
c0 46 9 90 27 131c19 42 48 77 88 106s87 44 140 44c72 0 127 -39 144 -72zM428 237l13 85c-19 23 -45 34 -79 34c-51 0 -87 -38 -87 -87c0 -41 28 -67 71 -67c32 0 59 12 82 35zM528 734l104 -158h-169l-45 62l-63 -62h-182l157 158h198z" />
    <glyph glyph-name="Gbreve" unicode="&#x11e;" horiz-adv-x="748" 
d="M532 192l33 216h216l-53 -326c-72 -64 -171 -96 -297 -96c-100 0 -183 31 -249 92c-65 62 -98 142 -98 241c0 119 39 214 116 286c78 73 179 109 304 109c73 0 142 -11 208 -33l-35 -200c-49 25 -107 37 -174 37c-125 0 -200 -71 -200 -192c0 -47 14 -85 43 -112
s64 -41 105 -41c32 0 59 6 81 19zM607 943h132c-23 -117 -105 -183 -208 -183c-49 0 -90 14 -125 41c-34 27 -51 65 -51 114c0 7 1 16 2 28h132v-4c0 -33 18 -56 50 -56c33 0 59 24 68 60z" />
    <glyph glyph-name="gbreve" unicode="&#x11f;" horiz-adv-x="645" 
d="M459 457l10 59h208l-70 -453c-15 -97 -66 -171 -135 -211c-68 -40 -143 -58 -224 -58c-89 0 -155 14 -198 43l28 179c49 -33 107 -49 174 -49c19 0 38 2 55 6s35 14 54 31s31 39 36 67l5 28c-27 -35 -78 -68 -151 -68c-57 0 -103 21 -138 62s-53 93 -53 155
c0 46 9 90 27 131c19 42 48 77 88 106s87 44 140 44c72 0 127 -39 144 -72zM428 237l13 85c-19 23 -45 34 -79 34c-51 0 -87 -38 -87 -87c0 -41 28 -67 71 -67c32 0 59 12 82 35zM482 740h131c-23 -117 -104 -183 -207 -183c-49 0 -90 14 -125 41c-34 27 -51 65 -51 114
c0 5 1 15 2 28h132v-4c0 -38 17 -57 50 -57s59 24 68 61z" />
    <glyph glyph-name="Gdotaccent" unicode="&#x120;" horiz-adv-x="748" 
d="M532 192l33 216h216l-53 -326c-72 -64 -171 -96 -297 -96c-100 0 -183 31 -249 92c-65 62 -98 142 -98 241c0 119 39 214 116 286c78 73 179 109 304 109c73 0 142 -11 208 -33l-35 -200c-49 25 -107 37 -174 37c-125 0 -200 -71 -200 -192c0 -47 14 -85 43 -112
s64 -41 105 -41c32 0 59 6 81 19zM524 939c57 0 101 -44 101 -99c0 -56 -45 -100 -101 -100c-55 0 -100 45 -100 100s45 99 100 99z" />
    <glyph glyph-name="gdotaccent" unicode="&#x121;" horiz-adv-x="645" 
d="M459 457l10 59h208l-70 -453c-15 -97 -66 -171 -135 -211c-68 -40 -143 -58 -224 -58c-89 0 -155 14 -198 43l28 179c49 -33 107 -49 174 -49c19 0 38 2 55 6s35 14 54 31s31 39 36 67l5 28c-27 -35 -78 -68 -151 -68c-57 0 -103 21 -138 62s-53 93 -53 155
c0 46 9 90 27 131c19 42 48 77 88 106s87 44 140 44c72 0 127 -39 144 -72zM428 237l13 85c-19 23 -45 34 -79 34c-51 0 -87 -38 -87 -87c0 -41 28 -67 71 -67c32 0 59 12 82 35zM433 754c56 0 100 -44 100 -99s-44 -100 -100 -100c-55 0 -101 45 -101 100s46 99 101 99z
" />
    <glyph glyph-name="uni0122" unicode="&#x122;" horiz-adv-x="748" 
d="M532 192l33 216h216l-53 -326c-72 -64 -171 -96 -297 -96c-100 0 -183 31 -249 92c-65 62 -98 142 -98 241c0 119 39 214 116 286c78 73 179 109 304 109c73 0 142 -11 208 -33l-35 -200c-49 25 -107 37 -174 37c-125 0 -200 -71 -200 -192c0 -47 14 -85 43 -112
s64 -41 105 -41c32 0 59 6 81 19zM536 -78l-126 -231h-153l96 231h183z" />
    <glyph glyph-name="uni0123" unicode="&#x123;" horiz-adv-x="645" 
d="M459 457l10 59h208l-70 -453c-15 -97 -66 -171 -135 -211c-68 -40 -143 -58 -224 -58c-89 0 -155 14 -198 43l28 179c49 -33 107 -49 174 -49c19 0 38 2 55 6s35 14 54 31s31 39 36 67l5 28c-27 -35 -78 -68 -151 -68c-57 0 -103 21 -138 62s-53 93 -53 155
c0 46 9 90 27 131c19 42 48 77 88 106s87 44 140 44c72 0 127 -39 144 -72zM428 237l13 85c-19 23 -45 34 -79 34c-51 0 -87 -38 -87 -87c0 -41 28 -67 71 -67c32 0 59 12 82 35zM268 590l126 231h153l-96 -231h-183z" />
    <glyph glyph-name="Hcircumflex" unicode="&#x124;" horiz-adv-x="750" 
d="M268 0h-214l110 700h215l-38 -237h215l38 237h214l-111 -700h-214l44 276h-215zM612 917l104 -158h-169l-45 62l-63 -62h-182l157 158h198z" />
    <glyph glyph-name="hcircumflex" unicode="&#x125;" horiz-adv-x="616" 
d="M626 287l-45 -287h-210l40 259c2 12 3 24 3 35c0 34 -15 51 -46 51c-23 0 -42 -9 -59 -27l-50 -318h-210l111 700h210l-40 -250c36 53 87 79 152 79c93 0 149 -69 149 -172c0 -27 -2 -50 -5 -70zM392 917l104 -158h-169l-45 62l-63 -62h-182l157 158h198z" />
    <glyph glyph-name="Hbar" unicode="&#x126;" horiz-adv-x="810" 
d="M297 0h-215l81 511h-53l17 108h53l13 81h215l-13 -81h214l13 81h214l-13 -81h54l-17 -108h-54l-81 -511h-214l44 276h-214zM378 511l-9 -56h214l9 56h-214z" />
    <glyph glyph-name="hbar" unicode="&#x127;" horiz-adv-x="670" 
d="M185 511h-101l17 108h101l13 81h210l-13 -81h178l-17 -108h-178l-26 -162c36 53 87 79 152 79c93 0 149 -69 149 -172c0 -27 -2 -50 -5 -70l-29 -186h-210l24 158c2 12 3 24 3 35c0 34 -15 51 -46 51c-24 0 -44 -9 -59 -27l-34 -217h-210z" />
    <glyph glyph-name="Itilde" unicode="&#x128;" horiz-adv-x="328" 
d="M271 0h-214l111 700h214zM412 923h104c-17 -108 -81 -172 -166 -172c-23 0 -46 6 -69 17c-22 11 -39 17 -52 17c-23 0 -40 -10 -50 -31h-103c17 115 72 172 165 172c22 0 44 -5 67 -16s41 -16 55 -16c23 0 40 10 49 29z" />
    <glyph glyph-name="itilde" unicode="&#x129;" horiz-adv-x="318" 
d="M344 516l-81 -516h-210l81 516h210zM377 738h104c-17 -108 -81 -172 -166 -172c-23 0 -46 6 -69 17c-22 11 -39 17 -52 17c-23 0 -39 -10 -50 -31h-103c17 115 72 172 165 172c22 0 44 -5 67 -16s41 -16 55 -16c23 0 39 10 49 29z" />
    <glyph glyph-name="Imacron" unicode="&#x12a;" horiz-adv-x="328" 
d="M271 0h-214l111 700h214zM57 767l23 137h457l-23 -137h-457z" />
    <glyph glyph-name="imacron" unicode="&#x12b;" horiz-adv-x="318" 
d="M344 516l-81 -516h-210l81 516h210zM21 583l22 137h457l-22 -137h-457z" />
    <glyph glyph-name="Ibreve" unicode="&#x12c;" horiz-adv-x="328" 
d="M369 924h132c-23 -117 -105 -183 -208 -183c-49 0 -90 14 -125 41c-34 27 -51 65 -51 114c0 7 1 16 2 28h132v-4c0 -33 18 -56 50 -56c33 0 59 24 68 60zM271 0h-214l111 700h214z" />
    <glyph glyph-name="ibreve" unicode="&#x12d;" horiz-adv-x="318" 
d="M344 516l-81 -516h-210l81 516h210zM333 740h131c-23 -117 -104 -183 -207 -183c-49 0 -90 14 -125 41c-34 27 -51 65 -51 114c0 5 1 15 2 28h132v-4c0 -38 17 -57 50 -57s59 24 68 61z" />
    <glyph glyph-name="Iogonek" unicode="&#x12e;" horiz-adv-x="328" 
d="M145 0h-88l111 700h214l-111 -700c-28 -22 -42 -43 -42 -62c0 -16 11 -24 33 -24c12 0 24 2 35 7l-20 -121c-14 -6 -38 -9 -71 -9c-81 0 -128 37 -128 90c0 43 22 83 67 119z" />
    <glyph glyph-name="iogonek" unicode="&#x12f;" horiz-adv-x="318" 
d="M345 516l-82 -516c-28 -22 -42 -43 -42 -62c0 -16 11 -24 33 -24c12 0 24 2 35 7l-20 -121c-14 -6 -38 -9 -71 -9c-81 0 -128 37 -128 90c0 43 22 83 67 119h-84l81 516h211zM260 540c-33 0 -61 11 -84 34s-34 52 -34 85s11 60 34 83s51 35 84 35s61 -12 84 -35
s34 -50 34 -83c0 -67 -51 -119 -118 -119z" />
    <glyph glyph-name="Idot" unicode="&#x130;" horiz-adv-x="328" 
d="M271 0h-214l111 700h214zM284 939c57 0 101 -44 101 -99c0 -56 -45 -100 -101 -100c-55 0 -100 45 -100 100s45 99 100 99z" />
    <glyph glyph-name="dotlessi" unicode="&#x131;" horiz-adv-x="318" 
d="M344 516l-81 -516h-210l81 516h210z" />
    <glyph glyph-name="IJ" unicode="&#x132;" horiz-adv-x="651" 
d="M317 288h-215l66 412h215zM274 -14c-37 0 -77 4 -118 13s-72 21 -94 37l32 199c55 -36 113 -54 176 -54c100 0 157 45 171 134l61 385h215l-61 -385c-17 -105 -57 -186 -105 -234c-24 -24 -52 -43 -84 -58c-64 -29 -121 -37 -193 -37z" />
    <glyph glyph-name="Jcircumflex" unicode="&#x134;" horiz-adv-x="509" 
d="M361 700h214l-74 -459c-16 -101 -56 -171 -112 -207c-55 -35 -109 -48 -180 -48c-33 0 -67 4 -104 12s-64 19 -83 32l33 203c31 -29 90 -52 134 -52c61 0 94 32 109 124zM591 917l104 -158h-169l-45 62l-63 -62h-182l157 158h198z" />
    <glyph glyph-name="jcircumflex" unicode="&#x135;" horiz-adv-x="318" 
d="M-2 -206c-56 0 -96 7 -121 20l26 159c18 -10 40 -15 67 -15c49 0 78 21 85 63l79 495h211l-80 -502c-21 -136 -116 -220 -267 -220zM376 734l104 -158h-169l-45 62l-63 -62h-182l157 158h198z" />
    <glyph glyph-name="uni0136" unicode="&#x136;" horiz-adv-x="746" 
d="M268 0h-214l109 700h214l-40 -258l216 258h265l-288 -337l230 -363h-255l-190 299zM467 -78l-126 -231h-153l96 231h183z" />
    <glyph glyph-name="uni0137" unicode="&#x137;" horiz-adv-x="649" 
d="M260 0h-211l111 700h211l-58 -362l146 178h258l-224 -245l174 -271h-242l-132 209zM423 -78l-126 -231h-153l96 231h183z" />
    <glyph glyph-name="kgreenlandic" unicode="&#x138;" horiz-adv-x="649" 
d="M259 0h-210l80 516h211l-27 -178l146 178h258l-225 -248l178 -268h-246l-133 209z" />
    <glyph glyph-name="Lacute" unicode="&#x139;" horiz-adv-x="606" 
d="M586 0h-532l110 700h215l-82 -515h318zM195 759l120 158h248l-195 -158h-173z" />
    <glyph glyph-name="lacute" unicode="&#x13a;" horiz-adv-x="329" 
d="M148 700h211l-76 -486c-3 -19 -4 -28 -4 -29c0 -13 8 -20 24 -20c9 0 17 2 24 5l-26 -163c-31 -13 -65 -20 -101 -20c-81 0 -139 48 -139 131c0 14 3 38 8 73zM177 759l120 158h248l-195 -158h-173z" />
    <glyph glyph-name="uni013B" unicode="&#x13b;" horiz-adv-x="606" 
d="M586 0h-532l110 700h215l-82 -515h318zM424 -78l-126 -231h-153l96 231h183z" />
    <glyph glyph-name="lcommaaccent" unicode="&#x13c;" horiz-adv-x="329" 
d="M148 700h211l-76 -486c-3 -19 -4 -28 -4 -29c0 -13 8 -20 24 -20c9 0 17 2 24 5l-26 -163c-31 -13 -65 -20 -101 -20c-81 0 -139 48 -139 131c0 14 3 38 8 73zM276 -78l-126 -231h-153l96 231h183z" />
    <glyph glyph-name="Lcaron" unicode="&#x13d;" horiz-adv-x="639" 
d="M586 0h-532l110 700h215l-82 -515h318zM739 700l-126 -231h-153l96 231h183z" />
    <glyph glyph-name="lcaron" unicode="&#x13e;" horiz-adv-x="527" 
d="M148 700h211l-76 -486c-3 -19 -4 -28 -4 -29c0 -13 8 -20 24 -20c9 0 17 2 24 5l-26 -163c-31 -13 -65 -20 -101 -20c-81 0 -139 48 -139 131c0 14 3 38 8 73zM650 700l-126 -231h-153l96 231h183z" />
    <glyph glyph-name="Ldot" unicode="&#x13f;" horiz-adv-x="606" 
d="M586 0h-532l110 700h215l-82 -515h318zM527 515c33 0 62 -12 86 -36c24 -23 36 -52 36 -86s-12 -63 -36 -87s-53 -36 -86 -36s-62 12 -87 36c-24 24 -36 53 -36 87s12 63 36 86c24 24 53 36 87 36z" />
    <glyph glyph-name="ldot" unicode="&#x140;" horiz-adv-x="329" 
d="M148 700h211l-76 -486c-3 -19 -4 -28 -4 -29c0 -13 8 -20 24 -20c9 0 17 2 24 5l-26 -163c-31 -13 -65 -20 -101 -20c-81 0 -139 48 -139 131c0 14 3 38 8 73zM478 515c33 0 62 -12 86 -36c24 -23 36 -52 36 -86s-12 -63 -36 -87s-53 -36 -86 -36s-62 12 -87 36
c-24 24 -36 53 -36 87s12 63 36 86c24 24 53 36 87 36z" />
    <glyph glyph-name="Lslash" unicode="&#x141;" horiz-adv-x="654" 
d="M634 0h-532l37 232l-109 -66l28 178l109 66l46 290h214l-24 -149l153 94l-28 -179l-153 -93l-30 -188h318z" />
    <glyph glyph-name="lslash" unicode="&#x142;" horiz-adv-x="435" 
d="M215 700h211l-28 -180l117 71l-29 -179l-116 -70l-21 -136c-2 -14 -3 -22 -3 -23c0 -13 8 -20 24 -20c9 0 17 2 24 5l-26 -161c-31 -13 -65 -20 -101 -20c-81 0 -139 48 -139 131c0 14 3 38 8 73l2 11l-114 -68l29 179l112 67z" />
    <glyph glyph-name="Nacute" unicode="&#x143;" horiz-adv-x="760" 
d="M708 0h-175l-215 348l-54 -348h-210l110 700h181l210 -346l54 346h209zM396 759l120 158h248l-195 -158h-173z" />
    <glyph glyph-name="nacute" unicode="&#x144;" horiz-adv-x="616" 
d="M626 287l-45 -287h-210l40 259c2 12 3 24 3 35c0 34 -15 51 -46 51c-21 0 -41 -9 -59 -27l-50 -318h-210l82 516h210l-11 -66c36 53 87 79 152 79c93 0 149 -69 149 -172c0 -27 -2 -50 -5 -70zM289 576l120 158h248l-195 -158h-173z" />
    <glyph glyph-name="uni0145" unicode="&#x145;" horiz-adv-x="760" 
d="M708 0h-175l-215 348l-54 -348h-210l110 700h181l210 -346l54 346h209zM482 -78l-126 -231h-153l96 231h183z" />
    <glyph glyph-name="uni0146" unicode="&#x146;" horiz-adv-x="616" 
d="M626 287l-45 -287h-210l40 259c2 12 3 24 3 35c0 34 -15 51 -46 51c-21 0 -41 -9 -59 -27l-50 -318h-210l82 516h210l-11 -66c36 53 87 79 152 79c93 0 149 -69 149 -172c0 -27 -2 -50 -5 -70zM409 -78l-126 -231h-153l96 231h183z" />
    <glyph glyph-name="Ncaron" unicode="&#x147;" horiz-adv-x="760" 
d="M708 0h-175l-215 348l-54 -348h-210l110 700h181l210 -346l54 346h209zM512 855l63 62h182l-157 -158h-199l-103 158h169z" />
    <glyph glyph-name="ncaron" unicode="&#x148;" horiz-adv-x="642" 
d="M626 287l-45 -287h-210l40 259c2 12 3 24 3 35c0 34 -15 51 -46 51c-21 0 -41 -9 -59 -27l-50 -318h-210l82 516h210l-11 -66c36 53 87 79 152 79c93 0 149 -69 149 -172c0 -27 -2 -50 -5 -70zM412 672l63 62h182l-158 -158h-198l-103 158h169z" />
    <glyph glyph-name="napostrophe" unicode="&#x149;" horiz-adv-x="813" 
d="M823 287l-45 -287h-210l40 259c2 12 3 24 3 35c0 34 -15 51 -46 51c-21 0 -41 -9 -59 -27l-50 -318h-210l82 516h210l-11 -66c36 53 87 79 152 79c93 0 149 -69 149 -172c0 -27 -2 -50 -5 -70zM372 700l-126 -231h-153l96 231h183z" />
    <glyph glyph-name="Eng" unicode="&#x14a;" horiz-adv-x="760" 
d="M449 -206c-55 0 -95 7 -120 20l27 171c18 -10 40 -15 65 -15c47 0 74 21 81 63l2 14l-186 301l-54 -348h-210l110 700h181l210 -346l54 346h209l-110 -700c-19 -121 -114 -206 -259 -206z" />
    <glyph glyph-name="eng" unicode="&#x14b;" horiz-adv-x="616" 
d="M374 21l37 238c2 12 3 24 3 35c0 34 -15 51 -46 51c-24 0 -44 -9 -59 -27l-50 -318h-210l82 516h210l-11 -66c36 53 87 79 152 79c93 0 149 -69 149 -172c0 -27 -2 -50 -5 -70l-45 -287c-9 -60 -38 -109 -85 -148s-107 -58 -181 -58c-56 0 -96 7 -121 20l26 159
c18 -10 40 -15 67 -15c47 0 80 22 87 63z" />
    <glyph glyph-name="Omacron" unicode="&#x14c;" horiz-adv-x="816" 
d="M475 714c109 0 195 -31 260 -94s97 -145 97 -246c0 -111 -38 -203 -113 -277s-168 -111 -278 -111c-108 0 -195 31 -260 94s-97 145 -97 246c0 111 38 203 113 277c76 74 169 111 278 111zM447 182c51 0 91 18 121 54s45 82 45 138c0 39 -13 73 -39 101
c-26 29 -61 43 -105 43c-49 0 -89 -18 -120 -55c-31 -36 -46 -82 -46 -137c0 -39 13 -73 39 -102c26 -28 61 -42 105 -42zM301 767l23 137h457l-23 -137h-457z" />
    <glyph glyph-name="omacron" unicode="&#x14d;" horiz-adv-x="627" 
d="M357 529c81 0 149 -24 204 -73c55 -48 83 -111 83 -188c0 -75 -29 -141 -86 -197s-127 -84 -212 -84c-81 0 -149 24 -204 72c-55 49 -82 112 -82 191c0 75 28 140 85 195c57 56 127 84 212 84zM345 165c53 0 95 46 95 107c0 51 -35 79 -82 79c-53 0 -94 -45 -94 -106
c0 -51 36 -80 81 -80zM160 583l22 137h457l-22 -137h-457z" />
    <glyph glyph-name="Obreve" unicode="&#x14e;" horiz-adv-x="816" 
d="M475 714c109 0 195 -31 260 -94s97 -145 97 -246c0 -111 -38 -203 -113 -277s-168 -111 -278 -111c-108 0 -195 31 -260 94s-97 145 -97 246c0 111 38 203 113 277c76 74 169 111 278 111zM447 182c51 0 91 18 121 54s45 82 45 138c0 39 -13 73 -39 101
c-26 29 -61 43 -105 43c-49 0 -89 -18 -120 -55c-31 -36 -46 -82 -46 -137c0 -39 13 -73 39 -102c26 -28 61 -42 105 -42zM614 942h132c-23 -117 -105 -183 -208 -183c-49 0 -90 14 -125 41c-34 27 -51 65 -51 114c0 7 1 16 2 28h132v-4c0 -33 18 -56 50 -56
c33 0 59 24 68 60z" />
    <glyph glyph-name="obreve" unicode="&#x14f;" horiz-adv-x="627" 
d="M357 529c81 0 149 -24 204 -73c55 -48 83 -111 83 -188c0 -75 -29 -141 -86 -197s-127 -84 -212 -84c-81 0 -149 24 -204 72c-55 49 -82 112 -82 191c0 75 28 140 85 195c57 56 127 84 212 84zM345 165c53 0 95 46 95 107c0 51 -35 79 -82 79c-53 0 -94 -45 -94 -106
c0 -51 36 -80 81 -80zM474 751h131c-23 -117 -104 -183 -207 -183c-49 0 -90 14 -125 41c-34 27 -51 65 -51 114c0 5 1 15 2 28h132v-4c0 -38 17 -57 50 -57s59 24 68 61z" />
    <glyph glyph-name="Ohungarumlaut" unicode="&#x150;" horiz-adv-x="816" 
d="M475 714c109 0 195 -31 260 -94s97 -145 97 -246c0 -111 -38 -203 -113 -277s-168 -111 -278 -111c-108 0 -195 31 -260 94s-97 145 -97 246c0 111 38 203 113 277c76 74 169 111 278 111zM447 182c51 0 91 18 121 54s45 82 45 138c0 39 -13 73 -39 101
c-26 29 -61 43 -105 43c-49 0 -89 -18 -120 -55c-31 -36 -46 -82 -46 -137c0 -39 13 -73 39 -102c26 -28 61 -42 105 -42zM465 759h-142l120 158h199zM700 759h-142l120 158h199z" />
    <glyph glyph-name="ohungarumlaut" unicode="&#x151;" horiz-adv-x="627" 
d="M357 529c81 0 149 -24 204 -73c55 -48 83 -111 83 -188c0 -75 -29 -141 -86 -197s-127 -84 -212 -84c-81 0 -149 24 -204 72c-55 49 -82 112 -82 191c0 75 28 140 85 195c57 56 127 84 212 84zM345 165c53 0 95 46 95 107c0 51 -35 79 -82 79c-53 0 -94 -45 -94 -106
c0 -51 36 -80 81 -80zM333 576h-142l120 158h199zM568 576h-142l120 158h199z" />
    <glyph glyph-name="OE" unicode="&#x152;" horiz-adv-x="1097" 
d="M1161 700l-29 -185h-334l-10 -62h262l-27 -170h-262l-16 -98h340l-29 -185h-615c-107 0 -194 30 -259 91s-98 140 -98 237c0 106 38 194 115 265s174 107 293 107h669zM303 328c0 -38 13 -71 39 -100c27 -29 61 -43 103 -43h84l53 330h-102c-116 0 -177 -79 -177 -187z
" />
    <glyph glyph-name="oe" unicode="&#x153;" horiz-adv-x="916" 
d="M932 310c0 -23 -4 -55 -13 -97h-322c7 -40 62 -61 126 -61c55 0 111 13 166 40l-24 -155c-45 -33 -109 -50 -192 -50c-65 0 -122 19 -171 57c-50 -38 -107 -57 -171 -57c-74 0 -138 24 -191 73s-80 113 -80 190c0 75 27 140 82 195c55 56 124 84 206 84
c72 0 133 -21 184 -63c53 42 109 63 169 63c63 0 117 -20 162 -60c46 -40 69 -93 69 -159zM337 165c49 0 89 46 89 107c0 51 -34 79 -77 79c-49 0 -88 -46 -88 -106c0 -51 33 -80 76 -80zM602 313h140v6c0 43 -22 69 -58 69c-37 0 -70 -26 -82 -75z" />
    <glyph glyph-name="Racute" unicode="&#x154;" horiz-adv-x="720" 
d="M568 275l178 -275h-242l-159 250h-38l-39 -250h-214l110 700h316c73 0 132 -20 175 -60s65 -90 65 -150c0 -96 -60 -176 -152 -215zM351 520l-17 -113h97c47 0 78 22 78 61c0 32 -25 52 -65 52h-93zM304 759l120 158h248l-195 -158h-173z" />
    <glyph glyph-name="racute" unicode="&#x155;" horiz-adv-x="474" 
d="M259 0h-210l81 516h210l-13 -82c13 21 37 42 71 63s69 32 105 32c11 0 21 -1 28 -3l-31 -198c-19 5 -40 8 -62 8c-57 0 -101 -15 -133 -45zM214 576l120 158h248l-195 -158h-173z" />
    <glyph glyph-name="uni0156" unicode="&#x156;" horiz-adv-x="720" 
d="M568 275l178 -275h-242l-159 250h-38l-39 -250h-214l110 700h316c73 0 132 -20 175 -60s65 -90 65 -150c0 -96 -60 -176 -152 -215zM351 520l-17 -113h97c47 0 78 22 78 61c0 32 -25 52 -65 52h-93zM473 -78l-126 -231h-153l96 231h183z" />
    <glyph glyph-name="uni0157" unicode="&#x157;" horiz-adv-x="474" 
d="M259 0h-210l81 516h210l-13 -82c13 21 37 42 71 63s69 32 105 32c11 0 21 -1 28 -3l-31 -198c-19 5 -40 8 -62 8c-57 0 -101 -15 -133 -45zM235 -78l-126 -231h-153l96 231h183z" />
    <glyph glyph-name="Rcaron" unicode="&#x158;" horiz-adv-x="720" 
d="M568 275l178 -275h-242l-159 250h-38l-39 -250h-214l110 700h316c73 0 132 -20 175 -60s65 -90 65 -150c0 -96 -60 -176 -152 -215zM351 520l-17 -113h97c47 0 78 22 78 61c0 32 -25 52 -65 52h-93zM460 855l63 62h182l-157 -158h-199l-103 158h169z" />
    <glyph glyph-name="rcaron" unicode="&#x159;" horiz-adv-x="461" 
d="M248 0h-210l81 516h210l-13 -82c13 21 37 42 71 63s69 32 105 32c11 0 21 -1 28 -3l-31 -198c-19 5 -40 8 -62 8c-57 0 -101 -15 -133 -45zM327 672l63 62h182l-158 -158h-198l-103 158h169z" />
    <glyph glyph-name="Sacute" unicode="&#x15a;" horiz-adv-x="653" 
d="M676 658l-35 -197c-26 17 -64 33 -113 47s-93 21 -134 21c-49 0 -74 -9 -74 -27c0 -15 25 -24 105 -49l38 -12c127 -41 196 -97 196 -202c0 -79 -31 -141 -93 -186c-61 -45 -139 -67 -233 -67c-126 0 -222 25 -289 74l35 216c27 -28 67 -52 120 -73
c54 -20 104 -30 149 -30c59 0 88 13 88 39c0 11 -10 20 -26 27c-9 5 -29 12 -44 16s-43 14 -62 19l-60 20c-15 6 -33 15 -54 26c-21 12 -37 24 -49 36c-23 25 -43 67 -43 116c0 80 30 140 89 181s136 61 231 61c99 0 185 -19 258 -56zM299 759l120 158h248l-195 -158h-173z
" />
    <glyph glyph-name="sacute" unicode="&#x15b;" horiz-adv-x="506" 
d="M536 470l-27 -151c-47 32 -120 62 -183 62c-23 0 -35 -6 -35 -18c0 -9 12 -15 73 -34c111 -33 151 -77 151 -156c0 -83 -56 -143 -128 -168c-36 -12 -75 -18 -118 -18c-85 0 -181 20 -238 57l26 155c57 -41 122 -62 194 -62c33 0 49 6 49 19c0 9 -9 16 -26 22l-29 8
l-25 8c-88 28 -149 69 -149 145c0 63 24 110 71 142s107 48 180 48c87 0 158 -20 214 -59zM216 576l120 158h248l-195 -158h-173z" />
    <glyph glyph-name="Scircumflex" unicode="&#x15c;" horiz-adv-x="653" 
d="M676 658l-35 -197c-26 17 -64 33 -113 47s-93 21 -134 21c-49 0 -74 -9 -74 -27c0 -15 25 -24 105 -49l38 -12c127 -41 196 -97 196 -202c0 -79 -31 -141 -93 -186c-61 -45 -139 -67 -233 -67c-126 0 -222 25 -289 74l35 216c27 -28 67 -52 120 -73
c54 -20 104 -30 149 -30c59 0 88 13 88 39c0 11 -10 20 -26 27c-9 5 -29 12 -44 16s-43 14 -62 19l-60 20c-15 6 -33 15 -54 26c-21 12 -37 24 -49 36c-23 25 -43 67 -43 116c0 80 30 140 89 181s136 61 231 61c99 0 185 -19 258 -56zM561 917l104 -158h-169l-45 62l-63 -62
h-182l157 158h198z" />
    <glyph glyph-name="scircumflex" unicode="&#x15d;" horiz-adv-x="506" 
d="M536 470l-27 -151c-47 32 -120 62 -183 62c-23 0 -35 -6 -35 -18c0 -9 12 -15 73 -34c111 -33 151 -77 151 -156c0 -83 -56 -143 -128 -168c-36 -12 -75 -18 -118 -18c-85 0 -181 20 -238 57l26 155c57 -41 122 -62 194 -62c33 0 49 6 49 19c0 9 -9 16 -26 22l-29 8
l-25 8c-88 28 -149 69 -149 145c0 63 24 110 71 142s107 48 180 48c87 0 158 -20 214 -59zM485 734l104 -158h-169l-45 62l-63 -62h-182l157 158h198z" />
    <glyph glyph-name="Scedilla" unicode="&#x15e;" horiz-adv-x="653" 
d="M676 658l-35 -197c-26 17 -64 33 -113 47s-93 21 -134 21c-49 0 -74 -9 -74 -27c0 -15 25 -24 105 -49l38 -12c127 -41 196 -97 196 -202c0 -133 -98 -222 -243 -246l-49 -152h-242l116 151c-82 9 -148 32 -197 68l35 216c27 -28 67 -52 120 -73c54 -20 104 -30 149 -30
c59 0 88 13 88 39c0 11 -10 20 -26 27c-9 5 -29 12 -44 16s-43 14 -62 19l-60 20c-15 6 -33 15 -54 26c-21 12 -37 24 -49 36c-23 25 -43 67 -43 116c0 80 30 140 89 181s136 61 231 61c99 0 185 -19 258 -56z" />
    <glyph glyph-name="scedilla" unicode="&#x15f;" horiz-adv-x="506" 
d="M536 470l-27 -151c-47 32 -120 62 -183 62c-23 0 -35 -6 -35 -18c0 -9 12 -15 73 -34c111 -33 151 -77 151 -156c0 -91 -61 -149 -150 -173l-52 -159h-242l117 152c-65 8 -117 25 -157 51l26 155c57 -41 122 -62 194 -62c33 0 49 6 49 19c0 9 -9 16 -26 22l-29 8l-25 8
c-88 28 -149 69 -149 145c0 63 24 110 71 142s107 48 180 48c87 0 158 -20 214 -59z" />
    <glyph glyph-name="Scaron" unicode="&#x160;" horiz-adv-x="664" 
d="M676 658l-35 -197c-26 17 -64 33 -113 47s-93 21 -134 21c-49 0 -74 -9 -74 -27c0 -15 25 -24 105 -49l38 -12c127 -41 196 -97 196 -202c0 -79 -31 -141 -93 -186c-61 -45 -139 -67 -233 -67c-126 0 -222 25 -289 74l35 216c27 -28 67 -52 120 -73
c54 -20 104 -30 149 -30c59 0 88 13 88 39c0 11 -10 20 -26 27c-9 5 -29 12 -44 16s-43 14 -62 19l-60 20c-15 6 -33 15 -54 26c-21 12 -37 24 -49 36c-23 25 -43 67 -43 116c0 80 30 140 89 181s136 61 231 61c99 0 185 -19 258 -56zM442 855l63 62h182l-157 -158h-199
l-103 158h169z" />
    <glyph glyph-name="scaron" unicode="&#x161;" horiz-adv-x="506" 
d="M536 470l-27 -151c-47 32 -120 62 -183 62c-23 0 -35 -6 -35 -18c0 -9 12 -15 73 -34c111 -33 151 -77 151 -156c0 -83 -56 -143 -128 -168c-36 -12 -75 -18 -118 -18c-85 0 -181 20 -238 57l26 155c57 -41 122 -62 194 -62c33 0 49 6 49 19c0 9 -9 16 -26 22l-29 8
l-25 8c-88 28 -149 69 -149 145c0 63 24 110 71 142s107 48 180 48c87 0 158 -20 214 -59zM358 672l63 62h182l-158 -158h-198l-103 158h169z" />
    <glyph glyph-name="uni0162" unicode="&#x162;" horiz-adv-x="659" 
d="M104 515l29 185h615l-29 -185h-201l-82 -515h-21l-52 -159h-242l122 159h-21l82 515h-200z" />
    <glyph glyph-name="uni0163" unicode="&#x163;" horiz-adv-x="456" 
d="M114 142c0 6 1 19 3 39l26 170h-81l26 165h82l20 124h208l-19 -124h117l-26 -165h-117l-18 -120c-2 -18 -3 -29 -3 -32c0 -23 14 -34 43 -34c24 0 48 7 72 20l-26 -163c-15 -10 -33 -18 -54 -23l-52 -158h-242l125 163c-56 25 -84 71 -84 138z" />
    <glyph glyph-name="Tcaron" unicode="&#x164;" horiz-adv-x="659" 
d="M104 515l29 185h615l-29 -185h-201l-82 -515h-214l82 515h-200zM458 855l63 62h182l-157 -158h-199l-103 158h169z" />
    <glyph glyph-name="tcaron" unicode="&#x165;" horiz-adv-x="680" 
d="M120 142c0 6 1 19 3 39l26 170h-81l26 165h82l20 124h208l-19 -124h117l-26 -165h-117l-18 -120c-2 -18 -3 -29 -3 -32c0 -23 14 -34 43 -34c24 0 48 7 72 20l-26 -163c-38 -23 -85 -35 -140 -35c-97 0 -167 58 -167 155zM803 700l-126 -231h-153l96 231h183z" />
    <glyph glyph-name="Tbar" unicode="&#x166;" horiz-adv-x="659" 
d="M436 0h-214l42 263h-100l23 146h100l17 106h-200l29 185h615l-29 -185h-201l-17 -106h97l-23 -146h-97z" />
    <glyph glyph-name="tbar" unicode="&#x167;" horiz-adv-x="468" 
d="M132 217h-82l17 109h81l7 44h-81l24 146h82l20 124h208l-19 -124h117l-24 -146h-117l-7 -44h117l-17 -109h-115c-1 -5 -1 -11 -1 -18c0 -23 14 -34 43 -34c24 0 48 7 72 20l-26 -163c-38 -23 -85 -35 -140 -35c-97 0 -167 58 -167 155c0 6 1 19 3 39z" />
    <glyph glyph-name="Utilde" unicode="&#x168;" horiz-adv-x="733" 
d="M515 284l67 416h216l-68 -428c-15 -92 -54 -163 -119 -212s-141 -74 -228 -74c-51 0 -99 9 -143 27c-88 36 -154 121 -154 233c0 16 2 36 5 59l62 395h216l-65 -405c-1 -11 -2 -18 -2 -23c0 -60 41 -90 97 -90s104 30 116 102zM620 923h104c-17 -108 -81 -172 -166 -172
c-23 0 -46 6 -69 17c-22 11 -39 17 -52 17c-23 0 -40 -10 -50 -31h-103c17 115 72 172 165 172c22 0 44 -5 67 -16s41 -16 55 -16c23 0 40 10 49 29z" />
    <glyph glyph-name="utilde" unicode="&#x169;" horiz-adv-x="622" 
d="M77 229l45 287h210l-40 -259c-2 -12 -3 -24 -3 -37c0 -33 15 -49 46 -49c24 0 44 9 59 27l50 318h210l-82 -516h-210l11 66c-36 -53 -87 -79 -152 -79c-93 0 -149 69 -149 172c0 27 2 50 5 70zM526 738h104c-17 -108 -81 -172 -166 -172c-23 0 -46 6 -69 17
c-22 11 -39 17 -52 17c-23 0 -40 -10 -50 -31h-103c17 115 72 172 165 172c22 0 44 -5 67 -16s41 -16 55 -16c23 0 40 10 49 29z" />
    <glyph glyph-name="Umacron" unicode="&#x16a;" horiz-adv-x="733" 
d="M515 284l67 416h216l-68 -428c-15 -92 -54 -163 -119 -212s-141 -74 -228 -74c-51 0 -99 9 -143 27c-88 36 -154 121 -154 233c0 16 2 36 5 59l62 395h216l-65 -405c-1 -11 -2 -18 -2 -23c0 -60 41 -90 97 -90s104 30 116 102zM258 767l23 137h457l-23 -137h-457z" />
    <glyph glyph-name="umacron" unicode="&#x16b;" horiz-adv-x="622" 
d="M77 229l45 287h210l-40 -259c-2 -12 -3 -24 -3 -37c0 -33 15 -49 46 -49c24 0 44 9 59 27l50 318h210l-82 -516h-210l11 66c-36 -53 -87 -79 -152 -79c-93 0 -149 69 -149 172c0 27 2 50 5 70zM169 583l22 137h457l-22 -137h-457z" />
    <glyph glyph-name="Ubreve" unicode="&#x16c;" horiz-adv-x="733" 
d="M515 284l67 416h216l-68 -428c-15 -92 -54 -163 -119 -212s-141 -74 -228 -74c-51 0 -99 9 -143 27c-88 36 -154 121 -154 233c0 16 2 36 5 59l62 395h216l-65 -405c-1 -11 -2 -18 -2 -23c0 -60 41 -90 97 -90s104 30 116 102zM558 924h132c-23 -117 -105 -183 -208 -183
c-49 0 -90 14 -125 41c-34 27 -51 65 -51 114c0 7 1 16 2 28h132v-4c0 -33 18 -56 50 -56c33 0 59 24 68 60z" />
    <glyph glyph-name="ubreve" unicode="&#x16d;" horiz-adv-x="622" 
d="M77 229l45 287h210l-40 -259c-2 -12 -3 -24 -3 -37c0 -33 15 -49 46 -49c24 0 44 9 59 27l50 318h210l-82 -516h-210l11 66c-36 -53 -87 -79 -152 -79c-93 0 -149 69 -149 172c0 27 2 50 5 70zM470 739h131c-23 -117 -104 -183 -207 -183c-49 0 -90 14 -125 41
c-34 27 -51 65 -51 114c0 5 1 15 2 28h132v-4c0 -38 17 -57 50 -57s59 24 68 61z" />
    <glyph glyph-name="Uring" unicode="&#x16e;" horiz-adv-x="733" 
d="M515 284l67 416h216l-68 -428c-15 -92 -54 -163 -119 -212s-141 -74 -228 -74c-51 0 -99 9 -143 27c-88 36 -154 121 -154 233c0 16 2 36 5 59l62 395h216l-65 -405c-1 -11 -2 -18 -2 -23c0 -60 41 -90 97 -90s104 30 116 102zM379 840c0 60 50 109 110 109
s108 -49 108 -109s-48 -109 -108 -109c-30 0 -56 11 -78 32c-21 22 -32 48 -32 77zM530 840c0 23 -18 42 -41 42s-42 -19 -42 -42c0 -21 19 -41 42 -41s41 20 41 41z" />
    <glyph glyph-name="uring" unicode="&#x16f;" horiz-adv-x="622" 
d="M77 229l45 287h210l-40 -259c-2 -12 -3 -24 -3 -37c0 -33 15 -49 46 -49c24 0 44 9 59 27l50 318h210l-82 -516h-210l11 66c-36 -53 -87 -79 -152 -79c-93 0 -149 69 -149 172c0 27 2 50 5 70zM295 654c0 60 50 109 110 109s108 -49 108 -109s-48 -109 -108 -109
c-30 0 -56 11 -78 32c-21 22 -32 48 -32 77zM446 654c0 23 -18 42 -41 42s-42 -19 -42 -42c0 -21 19 -41 42 -41s41 20 41 41z" />
    <glyph glyph-name="Uhungarumlaut" unicode="&#x170;" horiz-adv-x="733" 
d="M515 284l67 416h216l-68 -428c-15 -92 -54 -163 -119 -212s-141 -74 -228 -74c-51 0 -99 9 -143 27c-88 36 -154 121 -154 233c0 16 2 36 5 59l62 395h216l-65 -405c-1 -11 -2 -18 -2 -23c0 -60 41 -90 97 -90s104 30 116 102zM429 759h-142l120 158h199zM664 759h-142
l120 158h199z" />
    <glyph glyph-name="uhungarumlaut" unicode="&#x171;" horiz-adv-x="622" 
d="M77 229l45 287h210l-40 -259c-2 -12 -3 -24 -3 -37c0 -33 15 -49 46 -49c24 0 44 9 59 27l50 318h210l-82 -516h-210l11 66c-36 -53 -87 -79 -152 -79c-93 0 -149 69 -149 172c0 27 2 50 5 70zM341 576h-142l120 158h199zM576 576h-142l120 158h199z" />
    <glyph glyph-name="Uogonek" unicode="&#x172;" horiz-adv-x="719" 
d="M570 700h214l-68 -429c-21 -131 -88 -219 -202 -262c-24 -9 -32 -12 -52 -24s-30 -27 -30 -46c0 -17 11 -26 32 -26c16 0 28 3 35 8l-19 -122c-16 -6 -40 -9 -71 -9c-83 0 -128 36 -128 91c0 35 17 71 51 107c-73 6 -132 30 -178 72c-45 43 -68 101 -68 174
c0 17 2 36 5 58l64 408h214l-64 -405c-3 -17 -4 -30 -4 -37c0 -53 39 -76 88 -76c71 0 107 47 115 103z" />
    <glyph glyph-name="uogonek" unicode="&#x173;" horiz-adv-x="622" 
d="M77 229l45 287h210l-40 -259c-2 -12 -3 -24 -3 -37c0 -33 15 -49 46 -49c24 0 44 9 59 27l50 318h210l-82 -516c-28 -22 -42 -43 -42 -62c0 -16 11 -24 33 -24c11 0 23 2 35 7l-20 -121c-14 -6 -38 -9 -71 -9c-81 0 -128 37 -128 90c0 43 22 83 67 119h-84l11 66
c-36 -53 -87 -79 -152 -79c-93 0 -149 69 -149 172c0 27 2 50 5 70z" />
    <glyph glyph-name="Wcircumflex" unicode="&#x174;" horiz-adv-x="1078" 
d="M414 -4h-187l-117 704h229l38 -373l191 375h162l73 -375l154 373h234l-341 -704h-183l-67 368zM771 917l104 -158h-169l-45 62l-63 -62h-182l157 158h198z" />
    <glyph glyph-name="wcircumflex" unicode="&#x175;" horiz-adv-x="831" 
d="M336 -4h-176l-80 520h196l29 -242l106 244h160l30 -243l104 241h210l-250 -520h-178l-39 241zM620 734l104 -158h-169l-45 62l-63 -62h-182l157 158h198z" />
    <glyph glyph-name="Ycircumflex" unicode="&#x176;" horiz-adv-x="718" 
d="M465 0h-214l49 306l-194 394h237l91 -197l155 197h243l-318 -389zM586 917l104 -158h-169l-45 62l-63 -62h-182l157 158h198z" />
    <glyph glyph-name="ycircumflex" unicode="&#x177;" horiz-adv-x="606" 
d="M130 -206c-54 0 -94 8 -120 24l29 181c22 -18 50 -27 83 -27c43 0 66 10 85 45l-132 499h219l44 -292l129 292h219l-308 -566c-56 -104 -139 -156 -248 -156zM507 734l104 -158h-169l-45 62l-63 -62h-182l157 158h198z" />
    <glyph glyph-name="Ydieresis" unicode="&#x178;" horiz-adv-x="718" 
d="M465 0h-214l49 306l-194 394h237l91 -197l155 197h243l-318 -389zM530 769c-39 40 -39 102 0 141c40 39 102 39 141 0c40 -39 40 -101 0 -141c-39 -39 -101 -39 -141 0zM364 939c57 0 101 -44 101 -99c0 -56 -45 -100 -101 -100c-55 0 -100 45 -100 100s45 99 100 99z
" />
    <glyph glyph-name="Zacute" unicode="&#x179;" horiz-adv-x="635" 
d="M621 0h-606l24 152l363 363h-297l29 185h582l-24 -151l-363 -364h321zM310 759l120 158h248l-195 -158h-173z" />
    <glyph glyph-name="zacute" unicode="&#x17a;" horiz-adv-x="556" 
d="M518 0h-494l22 139l237 212h-194l26 165h468l-22 -144l-243 -207h226zM226 576l120 158h248l-195 -158h-173z" />
    <glyph glyph-name="Zdotaccent" unicode="&#x17b;" horiz-adv-x="635" 
d="M621 0h-606l24 152l363 363h-297l29 185h582l-24 -151l-363 -364h321zM442 939c57 0 101 -44 101 -99c0 -56 -45 -100 -101 -100c-55 0 -100 45 -100 100s45 99 100 99z" />
    <glyph glyph-name="zdotaccent" unicode="&#x17c;" horiz-adv-x="545" 
d="M518 0h-494l22 139l237 212h-194l26 165h468l-22 -144l-243 -207h226zM362 754c56 0 100 -44 100 -99s-44 -100 -100 -100c-55 0 -101 45 -101 100s46 99 101 99z" />
    <glyph glyph-name="Zcaron" unicode="&#x17d;" horiz-adv-x="635" 
d="M621 0h-606l24 152l363 363h-297l29 185h582l-24 -151l-363 -364h321zM445 855l63 62h182l-157 -158h-199l-103 158h169z" />
    <glyph glyph-name="zcaron" unicode="&#x17e;" horiz-adv-x="545" 
d="M518 0h-494l22 139l237 212h-194l26 165h468l-22 -144l-243 -207h226zM372 672l63 62h182l-158 -158h-198l-103 158h169z" />
    <glyph glyph-name="longs" unicode="&#x17f;" horiz-adv-x="467" 
d="M383 502l-78 -502h-211l55 351h-81l26 165h81l4 24c7 48 31 89 72 123s94 51 158 51c55 0 104 -8 146 -25l-26 -160c-31 11 -58 17 -82 17c-37 0 -59 -15 -64 -44z" />
    <glyph glyph-name="florin" unicode="&#x192;" horiz-adv-x="514" 
d="M521 452v-166h-135l-43 -262c-11 -65 -37 -119 -79 -163c-41 -45 -101 -67 -180 -67c-48 0 -85 5 -110 16v164c19 -5 37 -8 56 -8c57 0 93 37 102 96l37 224h-80v166h108l5 31c11 65 37 120 78 164c42 45 102 67 181 67c48 0 85 -5 110 -16v-164c-19 5 -37 8 -56 8
c-56 0 -90 -30 -101 -90h107z" />
    <glyph glyph-name="uni0218" unicode="&#x218;" horiz-adv-x="653" 
d="M676 658l-35 -197c-26 17 -64 33 -113 47s-93 21 -134 21c-49 0 -74 -9 -74 -27c0 -15 25 -24 105 -49l38 -12c127 -41 196 -97 196 -202c0 -79 -31 -141 -93 -186c-61 -45 -139 -67 -233 -67c-126 0 -222 25 -289 74l35 216c27 -28 67 -52 120 -73
c54 -20 104 -30 149 -30c59 0 88 13 88 39c0 11 -10 20 -26 27c-9 5 -29 12 -44 16s-43 14 -62 19l-60 20c-15 6 -33 15 -54 26c-21 12 -37 24 -49 36c-23 25 -43 67 -43 116c0 80 30 140 89 181s136 61 231 61c99 0 185 -19 258 -56zM439 -78l-126 -231h-153l96 231h183z
" />
    <glyph glyph-name="uni0219" unicode="&#x219;" horiz-adv-x="506" 
d="M536 470l-27 -151c-47 32 -120 62 -183 62c-23 0 -35 -6 -35 -18c0 -9 12 -15 73 -34c111 -33 151 -77 151 -156c0 -83 -56 -143 -128 -168c-36 -12 -75 -18 -118 -18c-85 0 -181 20 -238 57l26 155c57 -41 122 -62 194 -62c33 0 49 6 49 19c0 9 -9 16 -26 22l-29 8
l-25 8c-88 28 -149 69 -149 145c0 63 24 110 71 142s107 48 180 48c87 0 158 -20 214 -59zM361 -78l-126 -231h-153l96 231h183z" />
    <glyph glyph-name="uni021A" unicode="&#x21a;" horiz-adv-x="659" 
d="M104 515l29 185h615l-29 -185h-201l-82 -515h-214l82 515h-200zM408 -78l-126 -231h-153l96 231h183z" />
    <glyph glyph-name="uni021B" unicode="&#x21b;" horiz-adv-x="456" 
d="M114 142c0 6 1 19 3 39l26 170h-81l26 165h82l20 124h208l-19 -124h117l-26 -165h-117l-18 -120c-2 -18 -3 -29 -3 -32c0 -23 14 -34 43 -34c24 0 48 7 72 20l-26 -163c-38 -23 -85 -35 -140 -35c-97 0 -167 58 -167 155zM362 -78l-126 -231h-153l96 231h183z" />
    <glyph glyph-name="circumflex" unicode="&#x2c6;" horiz-adv-x="544" 
d="M490 734l104 -158h-169l-45 62l-63 -62h-182l157 158h198z" />
    <glyph glyph-name="caron" unicode="&#x2c7;" horiz-adv-x="424" 
d="M314 672l63 62h182l-158 -158h-198l-103 158h169z" />
    <glyph glyph-name="uni02C9" unicode="&#x2c9;" horiz-adv-x="485" 
d="M118 583l23 137h431l-22 -137h-432z" />
    <glyph glyph-name="breve" unicode="&#x2d8;" horiz-adv-x="449" 
d="M400 740h131c-23 -117 -104 -183 -207 -183c-49 0 -90 14 -125 41c-34 27 -51 65 -51 114c0 5 1 15 2 28h132v-4c0 -38 17 -57 50 -57s59 24 68 61z" />
    <glyph glyph-name="dotaccent" unicode="&#x2d9;" horiz-adv-x="359" 
d="M274 754c56 0 100 -44 100 -99s-44 -100 -100 -100c-55 0 -101 45 -101 100s46 99 101 99z" />
    <glyph glyph-name="ring" unicode="&#x2da;" horiz-adv-x="567" 
d="M273 654c0 60 50 109 110 109s108 -49 108 -109s-48 -109 -108 -109c-30 0 -56 11 -78 32c-21 22 -32 48 -32 77zM424 654c0 23 -18 42 -41 42s-42 -19 -42 -42c0 -21 19 -41 42 -41s41 20 41 41z" />
    <glyph glyph-name="ogonek" unicode="&#x2db;" horiz-adv-x="475" 
d="M199 -2h126c-28 -22 -42 -43 -42 -62c0 -16 11 -24 33 -24c12 0 24 2 35 7l-20 -121c-14 -6 -38 -9 -71 -9c-81 0 -128 37 -128 90c0 43 22 83 67 119z" />
    <glyph glyph-name="tilde" unicode="&#x2dc;" horiz-adv-x="495" 
d="M464 738h104c-17 -108 -81 -172 -166 -172c-23 0 -46 6 -69 17c-22 11 -39 17 -52 17c-23 0 -40 -10 -50 -31h-103c17 115 72 172 165 172c22 0 44 -5 67 -16s41 -16 55 -16c23 0 40 10 49 29z" />
    <glyph glyph-name="hungarumlaut" unicode="&#x2dd;" horiz-adv-x="600" 
d="M269 576h-142l120 158h199zM504 576h-142l120 158h199z" />
    <glyph glyph-name="acutecomb" unicode="&#x301;" horiz-adv-x="0" 
d="M-307 576l120 158h248l-195 -158h-173z" />
    <glyph glyph-name="uni037E" unicode="&#x37e;" horiz-adv-x="331" 
d="M-22 -152l146 351h218l-195 -351h-169zM261 529c33 0 62 -12 86 -36c24 -23 36 -52 36 -86s-12 -63 -36 -87s-53 -36 -86 -36s-62 12 -87 36c-24 24 -36 53 -36 87s12 63 36 86c24 24 53 36 87 36z" />
    <glyph glyph-name="uni0394" unicode="&#x394;" horiz-adv-x="783" 
d="M783 0h-782l399 700h205zM468 446l-138 -266h191z" />
    <glyph glyph-name="uni03A9" unicode="&#x3a9;" horiz-adv-x="776" 
d="M792 418c0 -87 -42 -174 -111 -233h85l-29 -185h-327l24 156c39 21 72 53 97 97c25 45 38 90 38 137c0 37 -10 70 -31 97c-21 28 -50 42 -87 42c-45 0 -80 -20 -106 -61c-26 -40 -39 -84 -39 -133c0 -39 7 -75 22 -109c15 -33 34 -57 57 -70l-24 -156h-324l29 185h94
c-44 42 -66 105 -66 188c0 93 34 173 102 240c69 67 153 101 253 101c58 0 112 -11 163 -32s94 -55 128 -101c35 -46 52 -100 52 -163z" />
    <glyph glyph-name="uni03BC" unicode="&#x3bc;" horiz-adv-x="609" 
d="M219 -200h-211l113 716h210l-40 -259c-2 -12 -3 -24 -3 -35c0 -34 15 -51 46 -51c24 0 44 9 59 27l50 318h210l-82 -516h-210l11 66c-30 -44 -71 -70 -124 -77z" />
    <glyph glyph-name="pi" unicode="&#x3c0;" horiz-adv-x="739" 
d="M569 -13c-89 0 -148 47 -148 140c0 13 1 26 3 41l30 183h-68l-56 -351h-211l56 351h-100l26 165h686l-26 -165h-100l-21 -133c-1 -9 -2 -16 -2 -20c0 -22 13 -33 38 -33c23 0 42 5 58 16l-26 -160c-32 -23 -78 -34 -139 -34z" />
    <glyph glyph-name="uni0401" unicode="&#x401;" horiz-adv-x="650" 
d="M513 769c-39 40 -39 102 0 141c40 39 102 39 141 0c40 -39 40 -101 0 -141c-39 -39 -101 -39 -141 0zM347 939c57 0 101 -44 101 -99c0 -56 -44 -100 -101 -100c-55 0 -100 45 -100 100s45 99 100 99zM609 0h-555l111 700h549l-29 -185h-334l-10 -62h262l-27 -170h-262
l-16 -98h340z" />
    <glyph glyph-name="uni0402" unicode="&#x402;" horiz-adv-x="788" 
d="M572 453c75 0 135 -20 180 -61c45 -40 67 -94 67 -161c0 -75 -25 -134 -75 -175c-49 -41 -115 -62 -198 -62c-28 0 -52 2 -71 6l27 162c9 -2 21 -3 35 -3c41 0 68 21 68 57c0 38 -26 57 -78 57c-32 0 -61 -6 -88 -17l-41 -256h-214l83 525h-163l28 175h557l-28 -175h-180
l-12 -82c27 7 61 10 103 10z" />
    <glyph glyph-name="uni0403" unicode="&#x403;" horiz-adv-x="618" 
d="M269 0h-215l111 700h539l-29 -185h-324zM321 759l120 158h248l-195 -158h-173z" />
    <glyph glyph-name="uni0404" unicode="&#x404;" horiz-adv-x="661" 
d="M522 280h-217c8 -75 96 -105 166 -103c71 0 134 15 188 45l-32 -198c-62 -25 -121 -38 -176 -38c-109 0 -198 31 -266 92c-67 61 -101 141 -101 239c0 120 39 216 116 288c78 73 180 109 305 109c87 0 157 -12 211 -37l-34 -192c-51 25 -108 38 -171 38
c-96 0 -158 -26 -185 -77h221z" />
    <glyph glyph-name="uni0405" unicode="&#x405;" horiz-adv-x="653" 
d="M676 658l-35 -197c-26 17 -64 33 -113 47s-93 21 -134 21c-49 0 -74 -9 -74 -27c0 -15 25 -24 105 -49l38 -12c127 -41 196 -97 196 -202c0 -79 -31 -141 -93 -186c-61 -45 -139 -67 -233 -67c-126 0 -222 25 -289 74l35 216c27 -28 67 -52 120 -73
c54 -20 104 -30 149 -30c59 0 88 13 88 39c0 11 -10 20 -26 27c-9 5 -29 12 -44 16s-43 14 -62 19l-60 20c-15 6 -33 15 -54 26c-21 12 -37 24 -49 36c-23 25 -43 67 -43 116c0 80 30 140 89 181s136 61 231 61c99 0 185 -19 258 -56z" />
    <glyph glyph-name="uni0406" unicode="&#x406;" horiz-adv-x="328" 
d="M271 0h-214l111 700h214z" />
    <glyph glyph-name="uni0407" unicode="&#x407;" horiz-adv-x="328" 
d="M271 0h-214l111 700h214zM343 769c-39 40 -39 102 0 141c40 39 102 39 141 0c40 -39 40 -101 0 -141c-39 -39 -101 -39 -141 0zM177 939c57 0 101 -44 101 -99c0 -56 -44 -100 -101 -100c-55 0 -100 45 -100 100s45 99 100 99z" />
    <glyph glyph-name="uni0408" unicode="&#x408;" horiz-adv-x="509" 
d="M361 700h214l-74 -459c-16 -101 -56 -171 -112 -207c-55 -35 -109 -48 -180 -48c-33 0 -67 4 -104 12s-64 19 -83 32l33 203c31 -29 90 -52 134 -52c61 0 94 32 109 124z" />
    <glyph glyph-name="uni0409" unicode="&#x409;" horiz-adv-x="1114" 
d="M574 515h-143l-15 -84c-31 -171 -72 -287 -127 -352c-55 -64 -112 -88 -189 -88c-43 0 -74 6 -94 19l30 190c17 -9 36 -13 56 -13c28 0 44 7 67 42c24 36 46 114 67 237l40 234h552l-32 -201h106c77 0 139 -21 184 -64c46 -42 69 -94 69 -157c0 -62 -20 -116 -61 -163
c-40 -47 -92 -80 -155 -100c-33 -10 -67 -15 -102 -15h-333zM852 326h-93l-23 -143h87c52 0 103 29 103 78c0 37 -30 65 -74 65z" />
    <glyph glyph-name="uni040A" unicode="&#x40a;" horiz-adv-x="1099" 
d="M776 499h102c77 0 139 -21 184 -64c45 -42 68 -94 68 -157c2 -165 -163 -282 -335 -278h-312l44 276h-215l-44 -276h-214l110 700h215l-38 -237h215l38 237h214zM749 330l-23 -151h76c27 0 52 7 75 21c23 15 34 35 34 61c0 39 -30 69 -78 69h-84z" />
    <glyph glyph-name="uni040B" unicode="&#x40b;" horiz-adv-x="818" 
d="M436 247l-38 -247h-214l83 525h-163l28 175h557l-28 -175h-180l-14 -88c36 11 74 16 114 16c153 0 237 -72 237 -195c0 -19 -1 -36 -4 -51l-32 -207h-214l27 177c2 16 3 25 3 27c0 41 -24 62 -72 62c-35 0 -65 -6 -90 -19z" />
    <glyph glyph-name="uni040C" unicode="&#x40c;" horiz-adv-x="746" 
d="M268 0h-214l109 700h214l-40 -258l216 258h265l-288 -337l230 -363h-255l-190 299zM374 759l120 158h248l-195 -158h-173z" />
    <glyph glyph-name="uni040E" unicode="&#x40e;" horiz-adv-x="693" 
d="M202 -14c-59 0 -103 10 -132 29l28 180c25 -15 57 -22 95 -22c43 0 77 18 102 53l-188 474h232l89 -268l143 268h230l-327 -544c-67 -113 -158 -170 -272 -170zM276 917h143c0 -3 -1 -8 -1 -9c0 -29 15 -43 46 -43c36 0 57 17 63 52h145c-21 -117 -105 -185 -216 -185
c-51 0 -95 14 -130 41s-52 65 -52 112c0 8 1 19 2 32z" />
    <glyph glyph-name="uni040F" unicode="&#x40f;" horiz-adv-x="725" 
d="M445 -129h-202l20 129h-209l111 700h215l-81 -515h189l81 515h214l-111 -700h-207z" />
    <glyph glyph-name="uni0410" unicode="&#x410;" horiz-adv-x="783" 
d="M400 704h205l178 -704h-226l-26 131h-235l-68 -131h-227zM498 292l-33 166l-86 -166h119z" />
    <glyph glyph-name="uni0411" unicode="&#x411;" horiz-adv-x="673" 
d="M344 469h105c76 0 136 -19 180 -58c44 -38 66 -87 66 -148c0 -79 -32 -142 -96 -191c-64 -48 -140 -72 -229 -72h-316l110 700h537l-28 -175h-320zM298 178h82c48 0 99 26 99 75c0 37 -28 64 -72 64h-87z" />
    <glyph glyph-name="uni0412" unicode="&#x412;" horiz-adv-x="702" 
d="M612 389c27 -8 51 -26 74 -54c23 -27 35 -63 35 -106c0 -69 -26 -125 -79 -167c-52 -41 -118 -62 -197 -62h-391l110 700h331c123 0 209 -53 209 -157c0 -63 -33 -122 -92 -154zM295 173h113c43 0 75 24 75 63c0 32 -26 53 -66 53h-103zM454 533h-102l-14 -94h109
c37 0 59 20 59 53c0 25 -21 41 -52 41z" />
    <glyph glyph-name="uni0413" unicode="&#x413;" horiz-adv-x="618" 
d="M269 0h-215l111 700h539l-29 -185h-324z" />
    <glyph glyph-name="uni0414" unicode="&#x414;" horiz-adv-x="801" 
d="M191 -129h-201l50 314h69c56 73 98 199 126 379l21 136h549l-81 -515h88l-50 -314h-202l20 129h-369zM333 185h177l52 330h-125c-9 -54 -23 -114 -42 -179s-39 -116 -62 -151z" />
    <glyph glyph-name="uni0415" unicode="&#x415;" horiz-adv-x="650" 
d="M609 0h-555l111 700h549l-29 -185h-334l-10 -62h262l-27 -170h-262l-16 -98h340z" />
    <glyph glyph-name="uni0416" unicode="&#x416;" horiz-adv-x="1093" 
d="M253 0h-265l314 357l-170 343h247l123 -280l44 280h209l-44 -280l212 280h249l-279 -343l200 -357h-260l-141 277l-44 -277h-209l44 277z" />
    <glyph glyph-name="uni0417" unicode="&#x417;" horiz-adv-x="628" 
d="M560 369c49 -23 86 -71 86 -135c0 -53 -17 -99 -52 -138c-68 -77 -171 -110 -282 -110c-114 0 -203 23 -266 70l33 203c63 -49 151 -82 234 -82c71 0 114 24 114 61c0 31 -24 42 -79 42h-109l25 163h108c49 0 73 12 73 37c0 31 -29 46 -87 46c-89 0 -172 -22 -247 -66
l31 194c72 40 156 60 251 60c84 0 149 -19 196 -56s71 -84 71 -142c0 -60 -41 -120 -100 -147z" />
    <glyph glyph-name="uni0418" unicode="&#x418;" horiz-adv-x="747" 
d="M481 0l53 330l-301 -330h-179l110 700h214l-52 -325l294 325h185l-110 -700h-214z" />
    <glyph glyph-name="uni0419" unicode="&#x419;" horiz-adv-x="747" 
d="M481 0l53 330l-301 -330h-179l110 700h214l-52 -325l294 325h185l-110 -700h-214zM320 917h143c0 -3 -1 -8 -1 -9c0 -29 15 -43 46 -43c36 0 57 17 63 52h145c-21 -117 -105 -185 -216 -185c-51 0 -95 14 -130 41s-52 65 -52 112c0 8 1 19 2 32z" />
    <glyph glyph-name="uni041A" unicode="&#x41a;" horiz-adv-x="746" 
d="M268 0h-214l109 700h214l-40 -258l216 258h265l-288 -337l230 -363h-255l-190 299z" />
    <glyph glyph-name="uni041B" unicode="&#x41b;" horiz-adv-x="760" 
d="M6 10l30 190c17 -9 36 -13 56 -13c28 0 44 7 67 42c24 36 46 114 67 237l40 234h552l-111 -700h-214l81 515h-143l-15 -84c-31 -171 -72 -287 -127 -352c-55 -64 -112 -88 -189 -88c-43 0 -74 6 -94 19z" />
    <glyph glyph-name="uni041C" unicode="&#x41c;" horiz-adv-x="839" 
d="M262 0h-208l111 700h211l113 -249l194 249h214l-111 -700h-206l62 392l-125 -167h-116l-77 167z" />
    <glyph glyph-name="uni041D" unicode="&#x41d;" horiz-adv-x="750" 
d="M268 0h-214l110 700h215l-38 -237h215l38 237h214l-111 -700h-214l44 276h-215z" />
    <glyph glyph-name="uni041E" unicode="&#x41e;" horiz-adv-x="816" 
d="M475 714c109 0 195 -31 260 -94s97 -145 97 -246c0 -111 -38 -203 -113 -277s-168 -111 -278 -111c-108 0 -195 31 -260 94s-97 145 -97 246c0 111 38 203 113 277c76 74 169 111 278 111zM447 182c51 0 91 18 121 54s45 82 45 138c0 39 -13 73 -39 101
c-26 29 -61 43 -105 43c-49 0 -89 -18 -120 -55c-31 -36 -46 -82 -46 -137c0 -39 13 -73 39 -102c26 -28 61 -42 105 -42z" />
    <glyph glyph-name="uni041F" unicode="&#x41f;" horiz-adv-x="741" 
d="M268 0h-214l110 700h635l-111 -700h-214l82 515h-206z" />
    <glyph glyph-name="uni0420" unicode="&#x420;" horiz-adv-x="645" 
d="M164 700h308c74 0 133 -19 176 -56s65 -85 65 -144c0 -75 -27 -136 -81 -184s-123 -72 -208 -72h-118l-38 -244h-214zM352 525l-20 -125h71c52 0 94 21 94 72c0 35 -23 53 -68 53h-77z" />
    <glyph glyph-name="uni0421" unicode="&#x421;" horiz-adv-x="661" 
d="M303 330c0 -88 65 -148 168 -148c75 0 138 18 190 53l-34 -211c-63 -25 -122 -38 -177 -38c-109 0 -198 31 -265 92s-101 141 -101 239c0 120 39 216 116 288c78 73 179 109 304 109c76 0 147 -13 212 -38l-35 -199c-51 27 -111 41 -178 41c-124 0 -200 -72 -200 -188z
" />
    <glyph glyph-name="uni0422" unicode="&#x422;" horiz-adv-x="659" 
d="M104 515l29 185h615l-29 -185h-201l-82 -515h-214l82 515h-200z" />
    <glyph glyph-name="uni0423" unicode="&#x423;" horiz-adv-x="693" 
d="M202 -14c-59 0 -103 10 -132 29l28 180c25 -15 57 -22 95 -22c43 0 77 18 102 53l-188 474h232l89 -268l143 268h230l-327 -544c-67 -113 -158 -170 -272 -170z" />
    <glyph glyph-name="uni0424" unicode="&#x424;" horiz-adv-x="946" 
d="M465 673l10 61h215l-11 -67c184 -27 283 -135 283 -286c0 -97 -37 -178 -110 -241s-164 -94 -272 -94l-12 -79h-214l13 85c-184 27 -283 135 -283 286c0 97 36 177 109 240s164 95 272 95zM396 232l41 259c-37 0 -69 -15 -94 -45s-37 -64 -37 -101c0 -68 41 -110 90 -113
zM740 374c0 67 -41 109 -90 113l-41 -259c37 0 68 15 93 45s38 64 38 101z" />
    <glyph glyph-name="uni0425" unicode="&#x425;" horiz-adv-x="738" 
d="M130 700h242l75 -167l130 167h253l-278 -324l205 -376h-243l-107 212l-172 -212h-254l324 375z" />
    <glyph glyph-name="uni0426" unicode="&#x426;" horiz-adv-x="789" 
d="M750 -129h-202l20 129h-514l111 700h215l-81 -515h199l81 515h214l-81 -515h88z" />
    <glyph glyph-name="uni0427" unicode="&#x427;" horiz-adv-x="685" 
d="M487 429l42 271h214l-110 -700h-214l37 234c-31 -9 -69 -14 -114 -14c-153 0 -237 70 -237 193c0 16 2 36 6 60l35 227h214l-31 -200c-2 -12 -3 -21 -3 -27c0 -43 32 -63 75 -63c35 0 63 6 86 19z" />
    <glyph glyph-name="uni0428" unicode="&#x428;" horiz-adv-x="1039" 
d="M986 0h-932l110 700h215l-81 -515h145l81 515h214l-81 -515h145l81 515h214z" />
    <glyph glyph-name="uni0429" unicode="&#x429;" horiz-adv-x="1093" 
d="M1054 -129h-202l20 129h-818l111 700h215l-81 -515h146l81 515h214l-81 -515h145l81 515h213l-81 -515h87z" />
    <glyph glyph-name="uni042A" unicode="&#x42a;" horiz-adv-x="802" 
d="M479 499h102c77 0 139 -21 184 -64s68 -96 68 -159c0 -81 -33 -148 -100 -199c-66 -51 -144 -77 -235 -77h-311l81 515h-166l29 185h380zM452 330l-23 -151h76c27 0 52 7 75 21c23 15 34 35 34 61c0 39 -30 69 -78 69h-84z" />
    <glyph glyph-name="uni042B" unicode="&#x42b;" horiz-adv-x="962" 
d="M1020 700l-110 -700h-214l110 700h214zM346 499h80c77 0 139 -21 184 -64s68 -96 68 -159c0 -81 -33 -148 -100 -199c-66 -51 -144 -77 -235 -77h-289l110 700h214zM319 330l-23 -151h54c27 0 52 7 75 21c23 15 34 35 34 61c0 39 -30 69 -78 69h-62z" />
    <glyph glyph-name="uni042C" unicode="&#x42c;" horiz-adv-x="669" 
d="M346 499h102c77 0 139 -21 184 -64s68 -96 68 -159c0 -81 -33 -148 -100 -199c-66 -51 -144 -77 -235 -77h-311l110 700h214zM319 330l-23 -151h76c27 0 52 7 75 21c23 15 34 35 34 61c0 39 -30 69 -78 69h-84z" />
    <glyph glyph-name="uni042D" unicode="&#x42d;" horiz-adv-x="666" 
d="M317 714c109 0 197 -31 264 -92s101 -141 101 -239c0 -120 -39 -216 -117 -289c-77 -72 -179 -108 -304 -108c-77 0 -148 13 -213 38l32 194c51 -27 112 -41 182 -41c95 0 157 34 187 103h-230l26 166h203c-29 51 -79 77 -152 77c-71 0 -131 -16 -180 -47l32 203
c61 23 118 35 169 35z" />
    <glyph glyph-name="uni042E" unicode="&#x42e;" horiz-adv-x="1060" 
d="M379 252h-67l-39 -252h-219l110 700h219l-42 -261h52c28 86 75 153 140 202c66 49 141 73 226 73c96 0 173 -31 230 -94c58 -63 87 -140 87 -233c0 -115 -37 -211 -110 -287s-167 -114 -280 -114c-81 0 -150 25 -205 75s-89 114 -102 191zM704 179c48 0 86 21 113 62
s41 88 41 140c0 87 -41 140 -112 140c-48 0 -86 -21 -113 -62s-41 -88 -41 -140c0 -87 41 -140 112 -140z" />
    <glyph glyph-name="uni042F" unicode="&#x42f;" horiz-adv-x="722" 
d="M446 700h334l-110 -700h-215l40 250h-25l-223 -250h-248l245 275c-61 32 -98 103 -98 176c0 75 29 135 88 180c59 46 129 69 212 69zM424 407h96l17 113h-95c-40 0 -77 -22 -77 -63c0 -29 23 -50 59 -50z" />
    <glyph glyph-name="uni0430" unicode="&#x430;" horiz-adv-x="611" 
d="M584 154c9 0 18 2 27 5l-24 -143c-24 -17 -72 -29 -107 -29c-64 0 -106 20 -125 61c-25 -32 -79 -61 -144 -61c-111 0 -176 66 -176 158c0 56 19 99 58 129c39 31 89 46 149 46c48 0 91 -9 128 -28c1 7 2 13 2 19c0 40 -36 60 -109 60c-51 0 -97 -9 -137 -27l26 157
c55 19 113 28 175 28c73 0 133 -16 181 -47c49 -31 73 -81 73 -149c0 -16 -3 -40 -9 -71l-9 -50c-3 -17 -4 -29 -4 -37c0 -14 8 -21 25 -21zM357 146l7 51c-13 13 -34 20 -61 20c-39 0 -67 -18 -67 -54c0 -27 22 -47 55 -47c28 0 50 10 66 30z" />
    <glyph glyph-name="uni0431" unicode="&#x431;" horiz-adv-x="614" 
d="M636 720l-29 -180l-122 -11c-131 -15 -204 -51 -217 -110c48 33 101 49 160 49c57 0 105 -19 142 -58s56 -88 56 -147c0 -81 -28 -147 -83 -199c-55 -51 -126 -77 -211 -77s-151 26 -197 78s-69 121 -69 208c0 243 132 370 392 418c47 9 107 18 178 29zM343 150
c51 0 84 37 84 88c0 45 -27 75 -76 75c-38 0 -70 -11 -95 -34c-1 -6 -2 -14 -2 -24c0 -56 28 -105 89 -105z" />
    <glyph glyph-name="uni0432" unicode="&#x432;" horiz-adv-x="604" 
d="M520 265c51 -19 77 -54 77 -106c0 -107 -89 -159 -228 -159h-320l81 516h315c101 0 154 -57 154 -126c0 -63 -40 -109 -79 -125zM360 389h-48l-12 -78h48c33 0 54 20 54 47c0 21 -14 31 -42 31zM285 216l-14 -85h62c39 0 59 17 59 52c0 22 -15 33 -46 33h-61z" />
    <glyph glyph-name="uni0433" unicode="&#x433;" horiz-adv-x="496" 
d="M259 0h-210l81 516h432l-26 -165h-222z" />
    <glyph glyph-name="uni0434" unicode="&#x434;" horiz-adv-x="701" 
d="M199 -111h-201l43 276h64c31 43 56 117 76 222l24 129h482l-56 -351h74l-43 -276h-198l17 111h-265zM311 165h113l31 191h-86c-13 -80 -32 -144 -58 -191z" />
    <glyph glyph-name="uni0435" unicode="&#x435;" horiz-adv-x="579" 
d="M595 310c0 -23 -4 -55 -13 -97h-322c7 -40 60 -61 123 -61c57 0 114 13 169 40l-24 -155c-45 -33 -112 -50 -202 -50c-76 0 -139 23 -190 68s-76 105 -76 180c0 86 28 156 84 211c57 55 127 83 210 83c70 0 128 -20 173 -59s68 -93 68 -160zM265 313h140v6
c0 43 -22 69 -58 69c-37 0 -70 -26 -82 -75z" />
    <glyph glyph-name="uni0436" unicode="&#x436;" horiz-adv-x="889" 
d="M221 0h-228l229 277l-123 239h210l86 -186l29 186h197l-29 -186l142 186h215l-199 -245l144 -271h-224l-94 204l-32 -204h-197l32 204z" />
    <glyph glyph-name="uni0437" unicode="&#x437;" horiz-adv-x="539" 
d="M465 276c41 -9 81 -51 81 -103c0 -54 -27 -99 -80 -134s-125 -52 -214 -52c-91 0 -161 14 -212 41l26 158c50 -27 107 -41 171 -41c66 0 93 19 93 33c0 13 -10 15 -51 15h-106l21 132h105c26 0 39 8 39 23c0 16 -30 25 -67 25c-64 0 -119 -11 -166 -32l24 146
c57 28 126 42 206 42c144 0 223 -57 223 -141c0 -29 -10 -55 -31 -76c-20 -21 -41 -33 -62 -36z" />
    <glyph glyph-name="uni0438" unicode="&#x438;" horiz-adv-x="645" 
d="M247 0h-198l81 516h197l-34 -219l186 219h198l-81 -516h-197l34 218z" />
    <glyph glyph-name="uni0439" unicode="&#x439;" horiz-adv-x="645" 
d="M247 0h-198l81 516h197l-34 -219l186 219h198l-81 -516h-197l34 218zM225 731h143c-1 -4 -1 -8 -1 -12c0 -25 17 -41 46 -41c36 0 57 18 63 53h145c-20 -117 -105 -186 -216 -186c-51 0 -94 14 -129 41c-35 28 -53 66 -53 113c0 8 1 19 2 32z" />
    <glyph glyph-name="uni043A" unicode="&#x43a;" horiz-adv-x="649" 
d="M259 0h-210l80 516h211l-27 -178l146 178h258l-225 -248l178 -268h-246l-133 209z" />
    <glyph glyph-name="uni043B" unicode="&#x43b;" horiz-adv-x="659" 
d="M454 351h-90l-12 -65c-15 -79 -32 -134 -68 -197s-97 -99 -174 -99c-43 0 -73 6 -91 17l25 164c9 -5 19 -8 30 -8c28 0 49 17 63 52s28 94 41 177l20 124h493l-81 -516h-211z" />
    <glyph glyph-name="uni043C" unicode="&#x43c;" horiz-adv-x="711" 
d="M237 0h-188l81 516h198l83 -161l133 161h199l-81 -516h-189l38 245l-93 -113h-83l-59 114z" />
    <glyph glyph-name="uni043D" unicode="&#x43d;" horiz-adv-x="633" 
d="M259 0h-210l81 516h210l-27 -170h114l27 170h211l-81 -516h-211l28 182h-114z" />
    <glyph glyph-name="uni043E" unicode="&#x43e;" horiz-adv-x="627" 
d="M357 529c81 0 149 -24 204 -73c55 -48 83 -111 83 -188c0 -75 -29 -141 -86 -197s-127 -84 -212 -84c-81 0 -149 24 -204 72c-55 49 -82 112 -82 191c0 75 28 140 85 195c57 56 127 84 212 84zM345 165c53 0 95 46 95 107c0 51 -35 79 -82 79c-53 0 -94 -45 -94 -106
c0 -51 36 -80 81 -80z" />
    <glyph glyph-name="uni043F" unicode="&#x43f;" horiz-adv-x="629" 
d="M259 0h-210l81 516h531l-81 -516h-211l55 351h-110z" />
    <glyph glyph-name="uni0440" unicode="&#x440;" 
d="M271 57l-41 -257h-211l111 716h212l-9 -58c9 17 27 33 54 48s57 23 91 23c59 0 106 -23 143 -68s56 -102 56 -169c0 -50 -10 -98 -29 -143s-49 -84 -90 -115s-89 -47 -144 -47c-71 0 -128 38 -143 70zM304 312l-16 -107c15 -25 46 -43 82 -43c53 0 92 47 92 110
c0 53 -31 82 -74 82c-32 0 -60 -14 -84 -42z" />
    <glyph glyph-name="uni0441" unicode="&#x441;" horiz-adv-x="509" 
d="M341 -13c-77 0 -144 22 -199 67s-82 107 -82 188s30 149 90 204c61 55 136 83 227 83c62 0 117 -13 166 -38l-28 -169c-128 61 -247 21 -247 -70c0 -23 8 -42 23 -56c31 -27 62 -31 101 -31c38 0 74 7 108 20l-28 -174c-41 -16 -84 -24 -131 -24z" />
    <glyph glyph-name="uni0442" unicode="&#x442;" horiz-adv-x="528" 
d="M367 0h-211l55 351h-138l26 165h489l-26 -165h-140z" />
    <glyph glyph-name="uni0443" unicode="&#x443;" horiz-adv-x="606" 
d="M130 -206c-54 0 -94 8 -120 24l29 181c22 -18 50 -27 83 -27c43 0 66 10 85 45l-132 499h219l44 -292l129 292h219l-308 -566c-56 -104 -139 -156 -248 -156z" />
    <glyph glyph-name="uni0444" unicode="&#x444;" horiz-adv-x="802" 
d="M262 -200l32 198c-153 25 -234 119 -234 238c0 83 29 150 88 200s135 77 227 82l29 182h211l-30 -182c153 -24 234 -119 234 -238c0 -83 -30 -150 -89 -201c-59 -50 -134 -77 -226 -81l-32 -198h-210zM317 153l33 209c-53 -8 -97 -58 -97 -126c0 -47 23 -78 64 -83z
M561 362l-33 -209c53 8 97 58 97 126c0 47 -23 78 -64 83z" />
    <glyph glyph-name="uni0445" unicode="&#x445;" horiz-adv-x="607" 
d="M91 516h218l48 -121l85 121h234l-209 -251l136 -265h-221l-53 129l-95 -129h-234l221 264z" />
    <glyph glyph-name="uni0446" unicode="&#x446;" horiz-adv-x="682" 
d="M643 -111h-204l17 111h-407l82 516h210l-56 -351h116l56 351h210l-56 -351h75z" />
    <glyph glyph-name="uni0447" unicode="&#x447;" horiz-adv-x="585" 
d="M374 310l32 206h211l-81 -516h-211l22 141c-21 -6 -45 -9 -72 -9c-56 0 -104 14 -144 41c-39 28 -59 70 -59 127c0 15 4 46 11 93l20 123h209l-22 -136c0 -1 -5 -30 -5 -38c0 -28 15 -42 45 -42c18 0 33 3 44 10z" />
    <glyph glyph-name="uni0448" unicode="&#x448;" horiz-adv-x="872" 
d="M823 0h-774l81 516h202l-55 -351h82l55 351h202l-55 -351h86l55 351h202z" />
    <glyph glyph-name="uni0449" unicode="&#x449;" horiz-adv-x="919" 
d="M880 -111h-189l17 111h-659l82 516h202l-56 -351h82l56 351h202l-56 -351h86l56 351h202l-56 -351h74z" />
    <glyph glyph-name="uni044A" unicode="&#x44a;" horiz-adv-x="663" 
d="M403 386h66c127 0 209 -64 209 -168c0 -63 -22 -115 -66 -156c-43 -41 -101 -62 -173 -62h-297l56 351h-135l26 165h335zM382 249l-16 -102h46c40 0 67 20 67 55c0 25 -18 47 -49 47h-48z" />
    <glyph glyph-name="uni044B" unicode="&#x44b;" horiz-adv-x="844" 
d="M584 0l82 516h210l-81 -516h-211zM310 386h57c127 0 209 -64 209 -168c0 -63 -22 -115 -66 -156c-43 -41 -101 -62 -173 -62h-288l82 516h200zM289 249l-16 -102h37c40 0 67 20 67 55c0 25 -18 47 -49 47h-39z" />
    <glyph glyph-name="uni044C" unicode="&#x44c;" horiz-adv-x="570" 
d="M310 386h66c127 0 209 -64 209 -168c0 -63 -22 -115 -66 -156c-43 -41 -101 -62 -173 -62h-297l82 516h200zM289 249l-16 -102h46c40 0 67 20 67 55c0 25 -18 47 -49 47h-48z" />
    <glyph glyph-name="uni044D" unicode="&#x44d;" horiz-adv-x="518" 
d="M98 354l25 156c36 13 78 19 127 19c78 0 145 -22 201 -67s84 -107 84 -188s-31 -150 -93 -205c-61 -55 -137 -82 -228 -82c-67 0 -125 13 -174 38l24 151c38 -19 81 -29 130 -29c61 0 102 16 125 49h-153l20 126h137c-19 31 -60 47 -122 47c-39 0 -74 -5 -103 -15z" />
    <glyph glyph-name="uni044E" unicode="&#x44e;" horiz-adv-x="871" 
d="M625 529c78 0 141 -24 190 -72c49 -47 73 -109 73 -185c0 -79 -28 -146 -85 -202c-56 -55 -123 -83 -202 -83c-135 0 -233 77 -257 200h-65l-30 -187h-200l82 516h200l-27 -168h55c21 54 56 98 104 131c49 33 103 50 162 50zM604 165c41 0 79 46 79 109
c0 48 -27 77 -63 77c-41 0 -79 -46 -79 -109c0 -48 27 -77 63 -77z" />
    <glyph glyph-name="uni044F" unicode="&#x44f;" horiz-adv-x="600" 
d="M344 516h288l-82 -516h-210l24 152h-19l-114 -152h-231l154 190c-41 29 -61 70 -61 125c0 65 24 114 71 149c48 35 108 52 180 52zM339 283h46l12 78h-43c-39 0 -58 -14 -58 -42c0 -20 18 -36 43 -36z" />
    <glyph glyph-name="uni0451" unicode="&#x451;" horiz-adv-x="579" 
d="M595 310c0 -23 -4 -55 -13 -97h-322c7 -40 60 -61 123 -61c57 0 114 13 169 40l-24 -155c-45 -33 -112 -50 -202 -50c-76 0 -139 23 -190 68s-76 105 -76 180c0 86 28 156 84 211c57 55 127 83 210 83c70 0 128 -20 173 -59s68 -93 68 -160zM265 313h140v6
c0 43 -22 69 -58 69c-37 0 -70 -26 -82 -75zM430 590c-39 40 -39 102 0 141c40 39 102 39 141 0c40 -39 40 -101 0 -141c-39 -39 -101 -39 -141 0zM264 760c56 0 100 -44 100 -99c0 -56 -44 -100 -100 -100c-55 0 -100 45 -100 100s45 99 100 99z" />
    <glyph glyph-name="uni0452" unicode="&#x452;" horiz-adv-x="668" 
d="M183 511h-99l17 108h99l13 81h210l-13 -81h180l-17 -108h-180l-26 -161c36 53 87 79 152 79c93 0 149 -69 149 -172c0 -27 -2 -50 -5 -70l-26 -168c-20 -137 -116 -225 -267 -225c-56 0 -96 7 -121 20l25 159c19 -10 41 -15 68 -15c47 0 80 22 85 63l21 138
c2 13 3 24 3 35c0 34 -15 51 -46 51c-24 0 -44 -9 -59 -27l-34 -218h-210z" />
    <glyph glyph-name="uni0453" unicode="&#x453;" horiz-adv-x="496" 
d="M259 0h-210l81 516h432l-26 -165h-222zM230 576l120 158h248l-195 -158h-173z" />
    <glyph glyph-name="uni0454" unicode="&#x454;" horiz-adv-x="508" 
d="M316 -13c-43 0 -84 8 -122 25c-75 33 -134 111 -134 215c0 85 29 157 88 215s135 87 228 87c72 0 127 -10 166 -29l-25 -153c-41 15 -83 22 -126 22c-63 0 -108 -16 -135 -47h164l-21 -126h-153c15 -31 66 -49 111 -49c40 0 82 9 126 26l-25 -159
c-39 -18 -86 -27 -142 -27z" />
    <glyph glyph-name="uni0455" unicode="&#x455;" horiz-adv-x="506" 
d="M536 470l-27 -151c-47 32 -120 62 -183 62c-23 0 -35 -6 -35 -18c0 -9 12 -15 73 -34c111 -33 151 -77 151 -156c0 -83 -56 -143 -128 -168c-36 -12 -75 -18 -118 -18c-85 0 -181 20 -238 57l26 155c57 -41 122 -62 194 -62c33 0 49 6 49 19c0 9 -9 16 -26 22l-29 8
l-25 8c-88 28 -149 69 -149 145c0 63 24 110 71 142s107 48 180 48c87 0 158 -20 214 -59z" />
    <glyph glyph-name="uni0456" unicode="&#x456;" horiz-adv-x="318" 
d="M345 516l-82 -516h-210l81 516h211zM260 540c-33 0 -61 11 -84 34s-34 52 -34 85s11 60 34 83s51 35 84 35s61 -12 84 -35s34 -50 34 -83c0 -67 -51 -119 -118 -119z" />
    <glyph glyph-name="uni0457" unicode="&#x457;" horiz-adv-x="318" 
d="M294 584c-39 40 -39 102 0 141c40 39 102 39 141 0c40 -39 40 -101 0 -141c-39 -39 -101 -39 -141 0zM128 754c56 0 100 -44 100 -99c0 -56 -44 -100 -100 -100c-55 0 -100 45 -100 100s45 99 100 99zM344 516l-81 -516h-210l81 516h210z" />
    <glyph glyph-name="uni0458" unicode="&#x458;" horiz-adv-x="318" 
d="M143 659c0 33 11 60 34 83s51 35 83 35c33 0 61 -12 84 -35s35 -50 35 -83s-12 -62 -35 -85s-51 -34 -84 -34c-32 0 -60 11 -83 34s-34 52 -34 85zM-2 -206c-56 0 -96 7 -121 20l26 159c18 -10 40 -15 67 -15c49 0 78 21 85 63l79 495h211l-80 -502
c-21 -136 -116 -220 -267 -220z" />
    <glyph glyph-name="uni0459" unicode="&#x459;" horiz-adv-x="919" 
d="M659 386h66c127 0 209 -64 209 -168c0 -63 -22 -115 -66 -156c-43 -41 -101 -62 -173 -62h-297l56 351h-90l-12 -65c-15 -79 -32 -134 -68 -197s-97 -99 -174 -99c-43 0 -73 6 -91 17l25 164c9 -5 19 -8 30 -8c28 0 49 17 63 52s28 94 41 177l20 124h482zM638 249
l-16 -102h46c40 0 67 20 67 55c0 25 -18 47 -49 47h-48z" />
    <glyph glyph-name="uni045A" unicode="&#x45a;" horiz-adv-x="894" 
d="M634 386h66c127 0 209 -64 209 -168c0 -63 -22 -115 -66 -156c-43 -41 -101 -62 -173 -62h-297l28 182h-114l-28 -182h-210l81 516h210l-27 -170h114l27 170h201zM613 249l-16 -102h46c40 0 67 20 67 55c0 25 -18 47 -49 47h-48z" />
    <glyph glyph-name="uni045B" unicode="&#x45b;" horiz-adv-x="670" 
d="M185 511h-101l17 108h101l13 81h210l-13 -81h178l-17 -108h-178l-26 -162c36 53 87 79 152 79c93 0 149 -69 149 -172c0 -27 -2 -50 -5 -70l-29 -186h-210l24 158c2 12 3 24 3 35c0 34 -15 51 -46 51c-24 0 -44 -9 -59 -27l-34 -217h-210z" />
    <glyph glyph-name="uni045C" unicode="&#x45c;" horiz-adv-x="649" 
d="M259 0h-210l80 516h211l-27 -178l146 178h258l-225 -248l178 -268h-246l-133 209zM321 576l120 158h248l-195 -158h-173z" />
    <glyph glyph-name="uni045E" unicode="&#x45e;" horiz-adv-x="606" 
d="M130 -206c-54 0 -94 8 -120 24l29 181c22 -18 50 -27 83 -27c43 0 66 10 85 45l-132 499h219l44 -292l129 292h219l-308 -566c-56 -104 -139 -156 -248 -156zM208 731h143c-1 -4 -1 -8 -1 -12c0 -25 17 -41 46 -41c36 0 57 18 63 53h145c-20 -117 -105 -186 -216 -186
c-51 0 -94 14 -129 41c-35 28 -53 66 -53 113c0 8 1 19 2 32z" />
    <glyph glyph-name="uni045F" unicode="&#x45f;" horiz-adv-x="635" 
d="M402 -111h-203l17 111h-167l82 516h210l-56 -351h116l56 351h210l-82 -516h-166z" />
    <glyph glyph-name="uni0490" unicode="&#x490;" horiz-adv-x="619" 
d="M268 0h-214l109 700h338l21 133h193l-50 -318h-316z" />
    <glyph glyph-name="uni0491" unicode="&#x491;" horiz-adv-x="496" 
d="M258 0h-209l80 516h239l18 115h193l-44 -280h-222z" />
    <glyph glyph-name="uni1E02" unicode="&#x1e02;" horiz-adv-x="702" 
d="M612 389c27 -8 51 -26 74 -54c23 -27 35 -63 35 -106c0 -69 -26 -125 -79 -167c-52 -41 -118 -62 -197 -62h-391l110 700h331c123 0 209 -53 209 -157c0 -63 -33 -122 -92 -154zM295 173h113c43 0 75 24 75 63c0 32 -26 53 -66 53h-103zM454 533h-102l-14 -94h109
c37 0 59 20 59 53c0 25 -21 41 -52 41zM449 939c57 0 101 -44 101 -99c0 -56 -44 -100 -101 -100c-55 0 -100 45 -100 100s45 99 100 99z" />
    <glyph glyph-name="uni1E03" unicode="&#x1e03;" horiz-adv-x="659" 
d="M268 58l-9 -58h-210l109 700h211l-37 -242c9 17 27 33 54 48s57 23 91 23c59 0 106 -23 143 -68s56 -102 56 -169c0 -50 -10 -98 -29 -143s-49 -84 -90 -115s-89 -47 -144 -47c-35 0 -67 8 -94 23c-27 16 -44 32 -51 48zM306 316l-19 -117c17 -25 45 -37 84 -37
c53 0 90 46 90 110c0 53 -30 82 -73 82c-31 0 -59 -13 -82 -38zM451 939c57 0 101 -44 101 -99c0 -56 -44 -100 -101 -100c-55 0 -100 45 -100 100s45 99 100 99z" />
    <glyph glyph-name="uni1E0A" unicode="&#x1e0a;" horiz-adv-x="776" 
d="M164 700h274c107 0 192 -30 257 -91c65 -60 97 -138 97 -234c0 -107 -38 -197 -115 -268s-175 -107 -294 -107h-329zM351 515l-53 -330h94c116 0 184 77 184 186c0 41 -14 75 -41 102c-27 28 -63 42 -108 42h-76zM485 939c57 0 101 -44 101 -99c0 -56 -44 -100 -101 -100
c-55 0 -100 45 -100 100s45 99 100 99z" />
    <glyph glyph-name="uni1E0B" unicode="&#x1e0b;" horiz-adv-x="658" 
d="M467 458l40 242h211l-111 -700h-211l8 58c-9 -17 -27 -34 -54 -49s-57 -22 -91 -22c-59 0 -107 23 -144 68s-55 102 -55 169c0 50 9 98 28 143s49 84 90 115s90 47 145 47c35 0 66 -8 93 -24c27 -15 44 -31 51 -47zM430 205l17 107c-15 25 -46 43 -82 43
c-52 0 -90 -47 -90 -110c0 -53 30 -82 73 -82c32 0 59 14 82 42zM479 939c57 0 101 -44 101 -99c0 -56 -44 -100 -101 -100c-55 0 -100 45 -100 100s45 99 100 99z" />
    <glyph glyph-name="uni1E1E" unicode="&#x1e1e;" horiz-adv-x="631" 
d="M268 0h-214l110 700h550l-29 -185h-335l-11 -69h241l-27 -170h-241zM448 939c57 0 101 -44 101 -99c0 -56 -45 -100 -101 -100c-55 0 -100 45 -100 100s45 99 100 99z" />
    <glyph glyph-name="uni1E1F" unicode="&#x1e1f;" horiz-adv-x="466" 
d="M356 351l-56 -351h-211l56 351h-81l26 165h81l3 19c17 109 97 179 234 179c55 0 103 -7 144 -22l-22 -139c-27 9 -53 13 -78 13c-41 0 -65 -17 -70 -50h142l-26 -165h-142zM398 939c57 0 101 -44 101 -99c0 -56 -45 -100 -101 -100c-55 0 -100 45 -100 100s45 99 100 99z
" />
    <glyph glyph-name="uni1E40" unicode="&#x1e40;" horiz-adv-x="839" 
d="M262 0h-208l111 700h211l113 -249l194 249h214l-111 -700h-206l62 392l-125 -167h-116l-77 167zM539 939c57 0 101 -44 101 -99c0 -56 -44 -100 -101 -100c-55 0 -100 45 -100 100s45 99 100 99z" />
    <glyph glyph-name="uni1E41" unicode="&#x1e41;" horiz-adv-x="928" 
d="M49 0l81 516h210l-10 -67c28 44 91 80 156 80c69 0 115 -41 130 -81c41 48 106 81 174 81c89 0 153 -55 153 -159c0 -18 -3 -48 -10 -89l-44 -281h-211l42 269c2 13 3 25 3 36c0 27 -13 41 -39 41c-25 0 -45 -9 -60 -28l-50 -318h-210l41 260c3 17 5 31 5 44
c0 28 -13 42 -38 42c-26 0 -47 -10 -63 -30l-50 -316h-210zM565 754c56 0 100 -44 100 -99s-44 -100 -100 -100c-55 0 -101 45 -101 100s46 99 101 99z" />
    <glyph glyph-name="uni1E56" unicode="&#x1e56;" horiz-adv-x="645" 
d="M164 700h308c74 0 133 -19 176 -56s65 -85 65 -144c0 -75 -27 -136 -81 -184s-123 -72 -208 -72h-118l-38 -244h-214zM352 525l-20 -125h71c52 0 94 21 94 72c0 35 -23 53 -68 53h-77zM445 939c57 0 101 -44 101 -99c0 -56 -44 -100 -101 -100c-55 0 -100 45 -100 100
s45 99 100 99z" />
    <glyph glyph-name="uni1E57" unicode="&#x1e57;" 
d="M271 57l-41 -257h-211l111 716h212l-9 -58c9 17 27 33 54 48s57 23 91 23c59 0 106 -23 143 -68s56 -102 56 -169c0 -50 -10 -98 -29 -143s-49 -84 -90 -115s-89 -47 -144 -47c-71 0 -128 38 -143 70zM304 312l-16 -107c15 -25 46 -43 82 -43c53 0 92 47 92 110
c0 53 -31 82 -74 82c-32 0 -60 -14 -84 -42zM413 754c56 0 100 -44 100 -99s-44 -100 -100 -100c-55 0 -101 45 -101 100s46 99 101 99z" />
    <glyph glyph-name="uni1E60" unicode="&#x1e60;" horiz-adv-x="653" 
d="M676 658l-35 -197c-26 17 -64 33 -113 47s-93 21 -134 21c-49 0 -74 -9 -74 -27c0 -15 25 -24 105 -49l38 -12c127 -41 196 -97 196 -202c0 -79 -31 -141 -93 -186c-61 -45 -139 -67 -233 -67c-126 0 -222 25 -289 74l35 216c27 -28 67 -52 120 -73
c54 -20 104 -30 149 -30c59 0 88 13 88 39c0 11 -10 20 -26 27c-9 5 -29 12 -44 16s-43 14 -62 19l-60 20c-15 6 -33 15 -54 26c-21 12 -37 24 -49 36c-23 25 -43 67 -43 116c0 80 30 140 89 181s136 61 231 61c99 0 185 -19 258 -56zM436 939c57 0 101 -44 101 -99
c0 -56 -45 -100 -101 -100c-55 0 -100 45 -100 100s45 99 100 99z" />
    <glyph glyph-name="uni1E61" unicode="&#x1e61;" horiz-adv-x="506" 
d="M536 470l-27 -151c-47 32 -120 62 -183 62c-23 0 -35 -6 -35 -18c0 -9 12 -15 73 -34c111 -33 151 -77 151 -156c0 -83 -56 -143 -128 -168c-36 -12 -75 -18 -118 -18c-85 0 -181 20 -238 57l26 155c57 -41 122 -62 194 -62c33 0 49 6 49 19c0 9 -9 16 -26 22l-29 8
l-25 8c-88 28 -149 69 -149 145c0 63 24 110 71 142s107 48 180 48c87 0 158 -20 214 -59zM348 754c56 0 100 -44 100 -99s-44 -100 -100 -100c-55 0 -101 45 -101 100s46 99 101 99z" />
    <glyph glyph-name="uni1E6A" unicode="&#x1e6a;" horiz-adv-x="659" 
d="M104 515l29 185h615l-29 -185h-201l-82 -515h-214l82 515h-200zM454 939c57 0 101 -44 101 -99c0 -56 -45 -100 -101 -100c-55 0 -100 45 -100 100s45 99 100 99z" />
    <glyph glyph-name="uni1E6B" unicode="&#x1e6b;" horiz-adv-x="456" 
d="M114 142c0 6 1 19 3 39l26 170h-81l26 165h82l20 124h208l-19 -124h117l-26 -165h-117l-18 -120c-2 -18 -3 -29 -3 -32c0 -23 14 -34 43 -34c24 0 48 7 72 20l-26 -163c-38 -23 -85 -35 -140 -35c-97 0 -167 58 -167 155zM311 891c56 0 100 -44 100 -99
s-44 -100 -100 -100c-55 0 -101 45 -101 100s46 99 101 99z" />
    <glyph glyph-name="Wgrave" unicode="&#x1e80;" horiz-adv-x="1078" 
d="M414 -4h-187l-117 704h229l38 -373l191 375h162l73 -375l154 373h234l-341 -704h-183l-67 368zM416 917h248l69 -158h-173z" />
    <glyph glyph-name="wgrave" unicode="&#x1e81;" horiz-adv-x="831" 
d="M336 -4h-176l-80 520h196l29 -242l106 244h160l30 -243l104 241h210l-250 -520h-178l-39 241zM259 734h248l70 -158h-174z" />
    <glyph glyph-name="Wacute" unicode="&#x1e82;" horiz-adv-x="1078" 
d="M414 -4h-187l-117 704h229l38 -373l191 375h162l73 -375l154 373h234l-341 -704h-183l-67 368zM567 759l120 158h248l-195 -158h-173z" />
    <glyph glyph-name="wacute" unicode="&#x1e83;" horiz-adv-x="831" 
d="M336 -4h-176l-80 520h196l29 -242l106 244h160l30 -243l104 241h210l-250 -520h-178l-39 241zM404 576l120 158h248l-195 -158h-173z" />
    <glyph glyph-name="Wdieresis" unicode="&#x1e84;" horiz-adv-x="1078" 
d="M414 -4h-187l-117 704h229l38 -373l191 375h162l73 -375l154 373h234l-341 -704h-183l-67 368zM716 769c-39 40 -39 102 0 141c40 39 102 39 141 0c40 -39 40 -101 0 -141c-39 -39 -101 -39 -141 0zM550 939c57 0 101 -44 101 -99c0 -56 -45 -100 -101 -100
c-55 0 -100 45 -100 100s45 99 100 99z" />
    <glyph glyph-name="wdieresis" unicode="&#x1e85;" horiz-adv-x="831" 
d="M336 -4h-176l-80 520h196l29 -242l106 244h160l30 -243l104 241h210l-250 -520h-178l-39 241zM561 584c-39 40 -39 102 0 141c40 39 102 39 141 0c40 -39 40 -101 0 -141c-39 -39 -101 -39 -141 0zM395 754c57 0 100 -44 100 -99c0 -56 -44 -100 -100 -100
c-55 0 -100 45 -100 100s45 99 100 99z" />
    <glyph glyph-name="Ygrave" unicode="&#x1ef2;" horiz-adv-x="718" 
d="M465 0h-214l49 306l-194 394h237l91 -197l155 197h243l-318 -389zM260 917h248l69 -158h-173z" />
    <glyph glyph-name="ygrave" unicode="&#x1ef3;" horiz-adv-x="606" 
d="M130 -206c-54 0 -94 8 -120 24l29 181c22 -18 50 -27 83 -27c43 0 66 10 85 45l-132 499h219l44 -292l129 292h219l-308 -566c-56 -104 -139 -156 -248 -156zM191 734h248l70 -158h-174z" />
    <glyph glyph-name="endash" unicode="&#x2013;" horiz-adv-x="778" 
d="M733 193h-629l29 183h629z" />
    <glyph glyph-name="emdash" unicode="&#x2014;" horiz-adv-x="894" 
d="M849 193h-745l29 183h745z" />
    <glyph glyph-name="uni2015" unicode="&#x2015;" horiz-adv-x="778" 
d="M733 193h-629l29 183h629z" />
    <glyph glyph-name="quoteleft" unicode="&#x2018;" horiz-adv-x="326" 
d="M429 700l-146 -351h-218l195 351h169z" />
    <glyph glyph-name="quoteright" unicode="&#x2019;" horiz-adv-x="326" 
d="M63 349l146 351h218l-195 -351h-169z" />
    <glyph glyph-name="quotesinglbase" unicode="&#x201a;" horiz-adv-x="326" 
d="M-40 -152l146 351h218l-195 -351h-169z" />
    <glyph glyph-name="quotedblleft" unicode="&#x201c;" horiz-adv-x="609" 
d="M712 700l-146 -351h-218l195 351h169zM429 700l-146 -351h-218l195 351h169z" />
    <glyph glyph-name="quotedblright" unicode="&#x201d;" horiz-adv-x="608" 
d="M346 349l146 351h218l-195 -351h-169zM63 349l146 351h218l-195 -351h-169z" />
    <glyph glyph-name="quotedblbase" unicode="&#x201e;" horiz-adv-x="608" 
d="M242 -152l146 351h218l-195 -351h-169zM-40 -152l146 351h218l-195 -351h-169z" />
    <glyph glyph-name="dagger" unicode="&#x2020;" horiz-adv-x="506" 
d="M411 535h165l-24 -148h-165l-61 -387h-151l61 387h-166l24 148h166l26 165h151z" />
    <glyph glyph-name="daggerdbl" unicode="&#x2021;" horiz-adv-x="506" 
d="M410 535h166l-24 -148h-165l-13 -83h165l-23 -148h-166l-24 -156h-151l24 156h-165l23 148h166l13 83h-166l24 148h165l27 165h151z" />
    <glyph glyph-name="bullet" unicode="&#x2022;" horiz-adv-x="415" 
d="M79 394c0 50 18 93 53 128c36 36 79 54 129 54s93 -18 128 -54c35 -35 53 -78 53 -128c0 -49 -18 -92 -53 -128c-35 -35 -78 -53 -128 -53s-93 18 -129 53c-35 36 -53 79 -53 128z" />
    <glyph glyph-name="ellipsis" unicode="&#x2026;" horiz-adv-x="844" 
d="M163 231c33 0 62 -12 86 -36c24 -23 36 -52 36 -86s-12 -63 -36 -87s-53 -36 -86 -36s-62 12 -87 36c-24 24 -36 53 -36 87s12 63 36 86c24 24 53 36 87 36zM438 -14c-33 0 -62 12 -86 36s-36 53 -36 87s12 63 36 86c24 24 53 36 86 36c34 0 63 -12 86 -36
c24 -23 36 -52 36 -86s-12 -63 -36 -87c-23 -24 -52 -36 -86 -36zM714 -14c-33 0 -62 12 -86 36s-36 53 -36 87s12 63 36 86c24 24 53 36 86 36c34 0 63 -12 86 -36c24 -23 36 -52 36 -86s-12 -63 -36 -87c-23 -24 -52 -36 -86 -36z" />
    <glyph glyph-name="perthousand" unicode="&#x2030;" horiz-adv-x="1255" 
d="M144 0l538 700h139l-537 -700h-140zM692 347c53 0 96 -16 130 -47c35 -31 52 -71 52 -122c0 -49 -18 -92 -54 -129c-35 -36 -80 -54 -133 -54c-52 0 -95 16 -130 47s-52 73 -52 124c0 49 18 91 53 127c36 36 81 54 134 54zM687 112c31 0 56 29 56 68c0 32 -22 50 -49 50
c-33 0 -58 -29 -58 -68c0 -31 23 -50 51 -50zM277 706c53 0 96 -16 130 -47c35 -31 52 -71 52 -122c0 -49 -18 -92 -54 -129c-35 -36 -80 -54 -133 -54c-52 0 -95 16 -130 47s-52 73 -52 124c0 49 18 91 53 127c36 36 81 54 134 54zM272 471c31 0 56 29 56 68
c0 32 -22 50 -49 50c-33 0 -58 -29 -58 -68c0 -31 23 -50 51 -50zM1094 347c53 0 96 -16 130 -47c35 -31 52 -71 52 -122c0 -49 -18 -92 -54 -129c-35 -36 -80 -54 -133 -54c-52 0 -95 16 -130 47s-52 73 -52 124c0 49 18 91 53 127c36 36 81 54 134 54zM1089 112
c31 0 56 29 56 68c0 32 -22 50 -49 50c-33 0 -58 -29 -58 -68c0 -31 23 -50 51 -50z" />
    <glyph glyph-name="guilsinglleft" unicode="&#x2039;" horiz-adv-x="357" 
d="M362 29h-206l-95 177l17 103l151 178h210l-196 -240z" />
    <glyph glyph-name="guilsinglright" unicode="&#x203a;" horiz-adv-x="357" 
d="M73 487h206l95 -177l-17 -103l-151 -178h-210l196 240z" />
    <glyph glyph-name="fraction" unicode="&#x2044;" horiz-adv-x="251" 
d="M-33 0h-130l539 700h130z" />
    <glyph glyph-name="zerosuperior" unicode="&#x2070;" horiz-adv-x="387" 
d="M289 708c101 0 166 -72 166 -173c4 -99 -71 -222 -196 -221c-101 0 -166 72 -166 173c-4 99 71 222 196 221zM263 418c23 0 41 12 53 37c13 25 19 52 19 79c0 47 -16 70 -49 70c-23 0 -41 -13 -54 -38c-12 -25 -18 -51 -18 -78c0 -47 16 -70 49 -70z" />
    <glyph glyph-name="foursuperior" unicode="&#x2074;" horiz-adv-x="360" 
d="M414 700l-34 -205h51l-15 -88h-50l-14 -85h-111l14 85h-186l14 81l213 212h118zM198 495h71l14 81z" />
    <glyph glyph-name="fivesuperior" unicode="&#x2075;" horiz-adv-x="322" 
d="M232 603l-6 -26l14 1c81 0 136 -48 136 -116c0 -95 -74 -148 -182 -148c-52 0 -93 10 -124 31l17 106c33 -24 69 -36 109 -36c42 0 63 14 63 43c0 23 -22 35 -66 35c-27 0 -57 -5 -91 -14l59 221h227l-16 -97h-140z" />
    <glyph glyph-name="sixsuperior" unicode="&#x2076;" horiz-adv-x="341" 
d="M291 578c64 0 109 -50 109 -114c0 -88 -65 -150 -164 -150c-96 0 -147 64 -147 152c0 65 19 121 56 169c38 49 90 73 156 73c43 0 77 -9 101 -28l-16 -100c-23 19 -50 28 -82 28c-46 0 -75 -19 -88 -56c17 17 42 26 75 26zM238 406c27 0 48 20 48 48c0 27 -13 40 -39 40
c-21 0 -37 -8 -48 -23c-2 -5 -3 -12 -3 -21c0 -28 19 -44 42 -44z" />
    <glyph glyph-name="sevensuperior" unicode="&#x2077;" horiz-adv-x="327" 
d="M211 322h-128l189 281h-159l16 97h293l-15 -90z" />
    <glyph glyph-name="eightsuperior" unicode="&#x2078;" horiz-adv-x="346" 
d="M354 516c29 -13 51 -46 51 -81c0 -37 -16 -66 -48 -88c-31 -22 -69 -33 -112 -33c-44 0 -83 10 -117 29c-33 19 -50 48 -50 86c0 44 32 85 77 100c-24 14 -36 36 -36 67c0 33 14 59 43 80s64 32 105 32c37 0 70 -9 100 -28c31 -19 46 -45 46 -79c0 -36 -23 -69 -59 -85z
M242 408c25 0 49 14 49 38c0 20 -18 37 -46 37c-27 0 -50 -16 -50 -40c0 -19 18 -35 47 -35zM303 585c0 17 -15 31 -39 31c-21 0 -40 -13 -40 -33c-6 -37 81 -42 79 2z" />
    <glyph glyph-name="ninesuperior" unicode="&#x2079;" horiz-adv-x="350" 
d="M202 444c-64 0 -109 50 -109 114c0 88 65 150 164 150c96 0 147 -64 147 -152c0 -65 -19 -121 -57 -170c-37 -48 -89 -72 -155 -72c-43 0 -77 9 -101 28l16 100c23 -19 50 -28 82 -28c46 0 75 19 88 56c-17 -17 -42 -26 -75 -26zM255 616c-27 0 -48 -20 -48 -48
c0 -27 13 -40 39 -40c21 0 37 8 48 23c2 5 3 12 3 21c0 28 -19 44 -42 44z" />
    <glyph glyph-name="zeroinferior" unicode="&#x2080;" horiz-adv-x="387" 
d="M239 386c101 0 166 -72 166 -173c4 -99 -71 -222 -196 -221c-101 0 -166 72 -166 173c-4 99 71 222 196 221zM213 96c23 0 41 12 53 37c13 25 19 52 19 79c0 47 -16 70 -49 70c-23 0 -41 -13 -54 -38c-12 -25 -18 -51 -18 -78c0 -47 16 -70 49 -70z" />
    <glyph glyph-name="oneinferior" unicode="&#x2081;" horiz-adv-x="250" 
d="M226 0h-115l41 261l-108 -47l18 112l112 52h111z" />
    <glyph glyph-name="twoinferior" unicode="&#x2082;" horiz-adv-x="337" 
d="M76 247l19 114c29 17 65 25 109 25c76 0 139 -44 139 -121c0 -53 -29 -94 -98 -143l-36 -26h128l-15 -96h-291l14 82l113 86c52 40 67 57 67 80s-15 34 -46 34c-34 0 -68 -12 -103 -35z" />
    <glyph glyph-name="threeinferior" unicode="&#x2083;" horiz-adv-x="324" 
d="M337 293l-76 -55c43 -21 65 -55 65 -100c0 -88 -70 -146 -170 -146c-58 0 -103 12 -136 35l18 105c29 -26 66 -39 111 -39c36 0 64 14 64 41c0 17 -18 34 -51 34c-26 0 -48 -4 -65 -12l11 70l83 55h-119l17 97h262z" />
    <glyph glyph-name="fourinferior" unicode="&#x2084;" horiz-adv-x="360" 
d="M364 378l-34 -205h51l-15 -88h-50l-14 -85h-111l14 85h-186l14 81l213 212h118zM148 173h71l14 81z" />
    <glyph glyph-name="fiveinferior" unicode="&#x2085;" horiz-adv-x="322" 
d="M182 281l-6 -26l14 1c81 0 136 -48 136 -116c0 -95 -74 -148 -182 -148c-52 0 -93 10 -124 31l17 106c33 -24 69 -36 109 -36c42 0 63 14 63 43c0 23 -22 35 -66 35c-27 0 -57 -5 -91 -14l59 221h227l-16 -97h-140z" />
    <glyph glyph-name="sixinferior" unicode="&#x2086;" horiz-adv-x="341" 
d="M241 256c64 0 109 -50 109 -114c0 -88 -65 -150 -164 -150c-96 0 -147 64 -147 152c0 65 19 121 56 169c38 49 90 73 156 73c43 0 77 -9 101 -28l-16 -100c-23 19 -50 28 -82 28c-46 0 -75 -19 -88 -56c17 17 42 26 75 26zM188 84c27 0 48 20 48 48c0 27 -13 40 -39 40
c-21 0 -37 -8 -48 -23c-2 -5 -3 -12 -3 -21c0 -28 19 -44 42 -44z" />
    <glyph glyph-name="seveninferior" unicode="&#x2087;" horiz-adv-x="327" 
d="M161 0h-128l189 281h-159l16 97h293l-15 -90z" />
    <glyph glyph-name="eightinferior" unicode="&#x2088;" horiz-adv-x="346" 
d="M304 194c29 -13 51 -46 51 -81c0 -37 -16 -66 -48 -88c-31 -22 -69 -33 -112 -33c-44 0 -83 10 -117 29c-33 19 -50 48 -50 86c0 44 32 85 77 100c-24 14 -36 36 -36 67c0 33 14 59 43 80s64 32 105 32c37 0 70 -9 100 -28c31 -19 46 -45 46 -79c0 -36 -23 -69 -59 -85z
M192 86c25 0 49 14 49 38c0 20 -18 37 -46 37c-27 0 -50 -16 -50 -40c0 -19 18 -35 47 -35zM253 263c0 17 -15 31 -39 31c-21 0 -40 -13 -40 -33c-6 -37 81 -42 79 2z" />
    <glyph glyph-name="nineinferior" unicode="&#x2089;" horiz-adv-x="342" 
d="M162 122c-64 0 -109 50 -109 114c0 88 65 150 164 150c96 0 147 -64 147 -152c0 -65 -19 -121 -57 -170c-37 -48 -89 -72 -155 -72c-43 0 -77 9 -101 28l16 100c23 -19 50 -28 82 -28c46 0 75 19 88 56c-17 -17 -42 -26 -75 -26zM215 294c-27 0 -48 -20 -48 -48
c0 -27 13 -40 39 -40c21 0 37 8 48 23c2 5 3 12 3 21c0 28 -19 44 -42 44z" />
    <glyph glyph-name="franc" unicode="&#x20a3;" horiz-adv-x="690" 
d="M128 100h-90l17 107h90l78 493h550l-29 -185h-335l-11 -69h241l-27 -170h-241l-11 -69h124l-17 -107h-124l-16 -100h-215z" />
    <glyph glyph-name="lira" unicode="&#x20a4;" horiz-adv-x="625" 
d="M189 360h-92l15 97h92l2 12c25 156 134 245 302 245c69 0 125 -9 167 -28l-30 -190c-35 15 -71 22 -109 22c-61 0 -100 -20 -115 -61h187l-15 -97h-190l-6 -34h191l-16 -97h-192c-6 -22 -19 -37 -40 -44h279l-29 -185h-550l29 185h24c44 0 69 15 75 44h-92l16 97h91z" />
    <glyph glyph-name="peseta" unicode="&#x20a7;" horiz-adv-x="761" 
d="M207 700h308c133 0 222 -65 238 -165h78l-23 -146h-77c-44 -89 -143 -145 -264 -145h-118l-38 -244h-214l61 389h-82l23 146h82zM395 525l-20 -125h71c52 0 94 21 94 72c0 35 -23 53 -68 53h-77z" />
    <glyph glyph-name="Euro" unicode="&#x20ac;" horiz-adv-x="640" 
d="M75 372l17 107h69c56 149 199 235 380 235c59 0 111 -8 154 -25l-35 -187c-35 17 -76 25 -124 25c-62 0 -112 -16 -149 -48h153l-17 -107h-191c-1 -15 -2 -26 -2 -34h187l-16 -107h-143c27 -39 78 -58 153 -58c61 0 109 14 144 41l-32 -205c-39 -15 -89 -23 -151 -23
c-175 0 -295 86 -328 245h-91l17 107h65l2 34h-62z" />
    <glyph glyph-name="uni20B4" unicode="&#x20b4;" horiz-adv-x="591" 
d="M130 261h-52l14 85h535l-14 -85h-249c-19 -5 -43 -26 -43 -49c0 -28 30 -42 91 -42c27 0 57 3 92 9c35 7 62 15 83 24l-31 -189c-57 -19 -116 -28 -179 -28c-57 0 -117 9 -182 33c-64 24 -109 74 -109 142c0 44 15 77 44 100zM112 473h260c8 5 12 12 12 23
c0 25 -44 37 -88 37c-59 0 -111 -8 -154 -23l29 184c40 13 96 20 168 20c59 0 118 -11 177 -36c60 -24 101 -73 101 -136c0 -29 -6 -52 -17 -69h47l-14 -85h-535z" />
    <glyph glyph-name="uni20B6" unicode="&#x20b6;" horiz-adv-x="732" 
d="M383 207h215l-17 -107h-215l-16 -100h-214l15 100h-121l17 107h121l6 37h-121l23 144h121l49 312h313c74 0 133 -19 176 -56s65 -85 65 -144c0 -75 -27 -136 -81 -184s-123 -72 -208 -72h-122zM428 526l-21 -138h76c55 0 102 27 102 80c0 39 -25 58 -74 58h-83z" />
    <glyph glyph-name="uni20B6" unicode="&#x20cf;" horiz-adv-x="732" 
d="M383 207h215l-17 -107h-215l-16 -100h-214l15 100h-121l17 107h121l6 37h-121l23 144h121l49 312h313c74 0 133 -19 176 -56s65 -85 65 -144c0 -75 -27 -136 -81 -184s-123 -72 -208 -72h-122zM428 526l-21 -138h76c55 0 102 27 102 80c0 39 -25 58 -74 58h-83z" />
    <glyph glyph-name="uni20B6" unicode="&#x20ce;" horiz-adv-x="732" 
d="M383 207h215l-17 -107h-215l-16 -100h-214l15 100h-121l17 107h121l6 37h-121l23 144h121l49 312h313c74 0 133 -19 176 -56s65 -85 65 -144c0 -75 -27 -136 -81 -184s-123 -72 -208 -72h-122zM428 526l-21 -138h76c55 0 102 27 102 80c0 39 -25 58 -74 58h-83z" />
    <glyph glyph-name="uni20B6" unicode="&#x20cd;" horiz-adv-x="732" 
d="M383 207h215l-17 -107h-215l-16 -100h-214l15 100h-121l17 107h121l6 37h-121l23 144h121l49 312h313c74 0 133 -19 176 -56s65 -85 65 -144c0 -75 -27 -136 -81 -184s-123 -72 -208 -72h-122zM428 526l-21 -138h76c55 0 102 27 102 80c0 39 -25 58 -74 58h-83z" />
    <glyph glyph-name="uni20B6" unicode="&#x20cc;" horiz-adv-x="732" 
d="M383 207h215l-17 -107h-215l-16 -100h-214l15 100h-121l17 107h121l6 37h-121l23 144h121l49 312h313c74 0 133 -19 176 -56s65 -85 65 -144c0 -75 -27 -136 -81 -184s-123 -72 -208 -72h-122zM428 526l-21 -138h76c55 0 102 27 102 80c0 39 -25 58 -74 58h-83z" />
    <glyph glyph-name="uni20B6" unicode="&#x20cb;" horiz-adv-x="732" 
d="M383 207h215l-17 -107h-215l-16 -100h-214l15 100h-121l17 107h121l6 37h-121l23 144h121l49 312h313c74 0 133 -19 176 -56s65 -85 65 -144c0 -75 -27 -136 -81 -184s-123 -72 -208 -72h-122zM428 526l-21 -138h76c55 0 102 27 102 80c0 39 -25 58 -74 58h-83z" />
    <glyph glyph-name="uni20B6" unicode="&#x20ca;" horiz-adv-x="732" 
d="M383 207h215l-17 -107h-215l-16 -100h-214l15 100h-121l17 107h121l6 37h-121l23 144h121l49 312h313c74 0 133 -19 176 -56s65 -85 65 -144c0 -75 -27 -136 -81 -184s-123 -72 -208 -72h-122zM428 526l-21 -138h76c55 0 102 27 102 80c0 39 -25 58 -74 58h-83z" />
    <glyph glyph-name="uni20B6" unicode="&#x20c9;" horiz-adv-x="732" 
d="M383 207h215l-17 -107h-215l-16 -100h-214l15 100h-121l17 107h121l6 37h-121l23 144h121l49 312h313c74 0 133 -19 176 -56s65 -85 65 -144c0 -75 -27 -136 -81 -184s-123 -72 -208 -72h-122zM428 526l-21 -138h76c55 0 102 27 102 80c0 39 -25 58 -74 58h-83z" />
    <glyph glyph-name="uni20B6" unicode="&#x20c8;" horiz-adv-x="732" 
d="M383 207h215l-17 -107h-215l-16 -100h-214l15 100h-121l17 107h121l6 37h-121l23 144h121l49 312h313c74 0 133 -19 176 -56s65 -85 65 -144c0 -75 -27 -136 -81 -184s-123 -72 -208 -72h-122zM428 526l-21 -138h76c55 0 102 27 102 80c0 39 -25 58 -74 58h-83z" />
    <glyph glyph-name="uni20B6" unicode="&#x20c7;" horiz-adv-x="732" 
d="M383 207h215l-17 -107h-215l-16 -100h-214l15 100h-121l17 107h121l6 37h-121l23 144h121l49 312h313c74 0 133 -19 176 -56s65 -85 65 -144c0 -75 -27 -136 -81 -184s-123 -72 -208 -72h-122zM428 526l-21 -138h76c55 0 102 27 102 80c0 39 -25 58 -74 58h-83z" />
    <glyph glyph-name="uni20B6" unicode="&#x20c6;" horiz-adv-x="732" 
d="M383 207h215l-17 -107h-215l-16 -100h-214l15 100h-121l17 107h121l6 37h-121l23 144h121l49 312h313c74 0 133 -19 176 -56s65 -85 65 -144c0 -75 -27 -136 -81 -184s-123 -72 -208 -72h-122zM428 526l-21 -138h76c55 0 102 27 102 80c0 39 -25 58 -74 58h-83z" />
    <glyph glyph-name="uni20B6" unicode="&#x20c5;" horiz-adv-x="732" 
d="M383 207h215l-17 -107h-215l-16 -100h-214l15 100h-121l17 107h121l6 37h-121l23 144h121l49 312h313c74 0 133 -19 176 -56s65 -85 65 -144c0 -75 -27 -136 -81 -184s-123 -72 -208 -72h-122zM428 526l-21 -138h76c55 0 102 27 102 80c0 39 -25 58 -74 58h-83z" />
    <glyph glyph-name="uni20B6" unicode="&#x20c4;" horiz-adv-x="732" 
d="M383 207h215l-17 -107h-215l-16 -100h-214l15 100h-121l17 107h121l6 37h-121l23 144h121l49 312h313c74 0 133 -19 176 -56s65 -85 65 -144c0 -75 -27 -136 -81 -184s-123 -72 -208 -72h-122zM428 526l-21 -138h76c55 0 102 27 102 80c0 39 -25 58 -74 58h-83z" />
    <glyph glyph-name="uni20B6" unicode="&#x20c3;" horiz-adv-x="732" 
d="M383 207h215l-17 -107h-215l-16 -100h-214l15 100h-121l17 107h121l6 37h-121l23 144h121l49 312h313c74 0 133 -19 176 -56s65 -85 65 -144c0 -75 -27 -136 -81 -184s-123 -72 -208 -72h-122zM428 526l-21 -138h76c55 0 102 27 102 80c0 39 -25 58 -74 58h-83z" />
    <glyph glyph-name="uni20B6" unicode="&#x20c2;" horiz-adv-x="732" 
d="M383 207h215l-17 -107h-215l-16 -100h-214l15 100h-121l17 107h121l6 37h-121l23 144h121l49 312h313c74 0 133 -19 176 -56s65 -85 65 -144c0 -75 -27 -136 -81 -184s-123 -72 -208 -72h-122zM428 526l-21 -138h76c55 0 102 27 102 80c0 39 -25 58 -74 58h-83z" />
    <glyph glyph-name="uni20B6" unicode="&#x20c1;" horiz-adv-x="732" 
d="M383 207h215l-17 -107h-215l-16 -100h-214l15 100h-121l17 107h121l6 37h-121l23 144h121l49 312h313c74 0 133 -19 176 -56s65 -85 65 -144c0 -75 -27 -136 -81 -184s-123 -72 -208 -72h-122zM428 526l-21 -138h76c55 0 102 27 102 80c0 39 -25 58 -74 58h-83z" />
    <glyph glyph-name="uni20B6" unicode="&#x20c0;" horiz-adv-x="732" 
d="M383 207h215l-17 -107h-215l-16 -100h-214l15 100h-121l17 107h121l6 37h-121l23 144h121l49 312h313c74 0 133 -19 176 -56s65 -85 65 -144c0 -75 -27 -136 -81 -184s-123 -72 -208 -72h-122zM428 526l-21 -138h76c55 0 102 27 102 80c0 39 -25 58 -74 58h-83z" />
    <glyph glyph-name="uni20B6" unicode="&#x20bf;" horiz-adv-x="732" 
d="M383 207h215l-17 -107h-215l-16 -100h-214l15 100h-121l17 107h121l6 37h-121l23 144h121l49 312h313c74 0 133 -19 176 -56s65 -85 65 -144c0 -75 -27 -136 -81 -184s-123 -72 -208 -72h-122zM428 526l-21 -138h76c55 0 102 27 102 80c0 39 -25 58 -74 58h-83z" />
    <glyph glyph-name="uni20B6" unicode="&#x20be;" horiz-adv-x="732" 
d="M383 207h215l-17 -107h-215l-16 -100h-214l15 100h-121l17 107h121l6 37h-121l23 144h121l49 312h313c74 0 133 -19 176 -56s65 -85 65 -144c0 -75 -27 -136 -81 -184s-123 -72 -208 -72h-122zM428 526l-21 -138h76c55 0 102 27 102 80c0 39 -25 58 -74 58h-83z" />
    <glyph glyph-name="uni20B6" unicode="&#x20bd;" horiz-adv-x="732" 
d="M383 207h215l-17 -107h-215l-16 -100h-214l15 100h-121l17 107h121l6 37h-121l23 144h121l49 312h313c74 0 133 -19 176 -56s65 -85 65 -144c0 -75 -27 -136 -81 -184s-123 -72 -208 -72h-122zM428 526l-21 -138h76c55 0 102 27 102 80c0 39 -25 58 -74 58h-83z" />
    <glyph glyph-name="uni20B6" unicode="&#x20bc;" horiz-adv-x="732" 
d="M383 207h215l-17 -107h-215l-16 -100h-214l15 100h-121l17 107h121l6 37h-121l23 144h121l49 312h313c74 0 133 -19 176 -56s65 -85 65 -144c0 -75 -27 -136 -81 -184s-123 -72 -208 -72h-122zM428 526l-21 -138h76c55 0 102 27 102 80c0 39 -25 58 -74 58h-83z" />
    <glyph glyph-name="uni20B6" unicode="&#x20bb;" horiz-adv-x="732" 
d="M383 207h215l-17 -107h-215l-16 -100h-214l15 100h-121l17 107h121l6 37h-121l23 144h121l49 312h313c74 0 133 -19 176 -56s65 -85 65 -144c0 -75 -27 -136 -81 -184s-123 -72 -208 -72h-122zM428 526l-21 -138h76c55 0 102 27 102 80c0 39 -25 58 -74 58h-83z" />
    <glyph glyph-name="uni20B6" unicode="&#x20ba;" horiz-adv-x="732" 
d="M383 207h215l-17 -107h-215l-16 -100h-214l15 100h-121l17 107h121l6 37h-121l23 144h121l49 312h313c74 0 133 -19 176 -56s65 -85 65 -144c0 -75 -27 -136 -81 -184s-123 -72 -208 -72h-122zM428 526l-21 -138h76c55 0 102 27 102 80c0 39 -25 58 -74 58h-83z" />
    <glyph glyph-name="uni20B6" unicode="&#x20b9;" horiz-adv-x="732" 
d="M383 207h215l-17 -107h-215l-16 -100h-214l15 100h-121l17 107h121l6 37h-121l23 144h121l49 312h313c74 0 133 -19 176 -56s65 -85 65 -144c0 -75 -27 -136 -81 -184s-123 -72 -208 -72h-122zM428 526l-21 -138h76c55 0 102 27 102 80c0 39 -25 58 -74 58h-83z" />
    <glyph glyph-name="uni20B6" unicode="&#x20b7;" horiz-adv-x="732" 
d="M383 207h215l-17 -107h-215l-16 -100h-214l15 100h-121l17 107h121l6 37h-121l23 144h121l49 312h313c74 0 133 -19 176 -56s65 -85 65 -144c0 -75 -27 -136 -81 -184s-123 -72 -208 -72h-122zM428 526l-21 -138h76c55 0 102 27 102 80c0 39 -25 58 -74 58h-83z" />
    <glyph glyph-name="uni2113" unicode="&#x2113;" horiz-adv-x="444" 
d="M228 186v-5c0 -36 30 -57 78 -57c38 0 77 14 116 43l-20 -129c-45 -34 -97 -51 -157 -51c-51 0 -93 16 -125 47c-32 32 -48 73 -48 124c0 13 1 25 3 37l44 277c17 111 81 242 218 242c96 0 152 -64 152 -149c0 -75 -30 -147 -86 -214c-28 -33 -55 -61 -81 -85
c-25 -24 -57 -51 -94 -80zM274 482l-17 -112c25 24 49 51 70 82s32 59 32 86c0 25 -10 38 -29 38c-28 0 -47 -31 -56 -94z" />
    <glyph glyph-name="uni2116" unicode="&#x2116;" horiz-adv-x="1197" 
d="M708 0h-175l-211 347l-54 -347h-214l110 700h181l206 -345l54 345h213zM1168 195h-357l19 118h357zM1045 706c53 0 96 -16 130 -47c35 -31 52 -71 52 -122c0 -49 -18 -92 -54 -129c-35 -36 -80 -54 -133 -54c-52 0 -95 16 -130 47s-52 73 -52 124c0 49 18 91 53 127
c36 36 81 54 134 54zM1040 471c31 0 56 29 56 68c0 32 -22 50 -49 50c-33 0 -58 -29 -58 -68c0 -31 23 -50 51 -50z" />
    <glyph glyph-name="trademark" unicode="&#x2122;" horiz-adv-x="686" 
d="M138 700h274l-13 -81h-90l-46 -232h-94l46 232h-91zM590 593l88 107h94l-60 -313h-93l37 170l-55 -64h-49l-25 64l-37 -170h-93l60 313h87z" />
    <glyph glyph-name="Omega" unicode="&#x2126;" horiz-adv-x="776" 
d="M792 418c0 -87 -42 -174 -111 -233h85l-29 -185h-327l24 156c39 21 72 53 97 97c25 45 38 90 38 137c0 37 -10 70 -31 97c-21 28 -50 42 -87 42c-45 0 -80 -20 -106 -61c-26 -40 -39 -84 -39 -133c0 -39 7 -75 22 -109c15 -33 34 -57 57 -70l-24 -156h-324l29 185h94
c-44 42 -66 105 -66 188c0 93 34 173 102 240c69 67 153 101 253 101c58 0 112 -11 163 -32s94 -55 128 -101c35 -46 52 -100 52 -163z" />
    <glyph glyph-name="estimated" unicode="&#x212e;" horiz-adv-x="769" 
d="M426 28c109 0 204 52 265 144h51c-28 -51 -70 -95 -125 -132c-55 -36 -119 -54 -193 -54c-95 0 -175 30 -241 90c-66 61 -99 139 -99 236c0 103 34 190 102 260s154 105 259 105c97 0 178 -31 243 -94s97 -139 97 -229c0 -15 -1 -26 -2 -34h-564l-20 -193
c57 -64 140 -99 227 -99zM245 564l-22 -202h427l18 178c-62 64 -136 96 -223 96c-72 0 -139 -24 -200 -72z" />
    <glyph glyph-name="onethird" unicode="&#x2153;" horiz-adv-x="797" 
d="M223 0h-130l539 700h130zM275 322h-115l41 261l-108 -47l18 112l112 52h111zM810 293l-76 -55c43 -21 65 -55 65 -100c0 -88 -70 -146 -170 -146c-58 0 -103 12 -136 35l18 105c29 -26 66 -39 111 -39c36 0 64 14 64 41c0 17 -18 34 -51 34c-26 0 -48 -4 -65 -12l11 70
l83 55h-119l17 97h262z" />
    <glyph glyph-name="twothirds" unicode="&#x2154;" horiz-adv-x="883" 
d="M896 293l-76 -55c43 -21 65 -55 65 -100c0 -88 -70 -146 -170 -146c-58 0 -103 12 -136 35l18 105c29 -26 66 -39 111 -39c36 0 64 14 64 41c0 17 -18 34 -51 34c-26 0 -48 -4 -65 -12l11 70l83 55h-119l17 97h262zM126 569l19 114c29 17 65 25 109 25
c76 0 139 -44 139 -121c0 -53 -29 -94 -98 -143l-36 -26h128l-15 -96h-291l14 82l113 86c52 40 67 57 67 80s-15 34 -46 34c-34 0 -68 -12 -103 -35zM309 0h-130l539 700h130z" />
    <glyph glyph-name="uni2155" unicode="&#x2155;" horiz-adv-x="780" 
d="M223 0h-130l539 700h130zM275 322h-115l41 261l-108 -47l18 112l112 52h111zM640 281l-6 -26l14 1c81 0 136 -48 136 -116c0 -95 -74 -148 -182 -148c-52 0 -93 10 -124 31l17 106c33 -24 69 -36 109 -36c42 0 63 14 63 43c0 23 -22 35 -66 35c-27 0 -57 -5 -91 -14
l59 221h227l-16 -97h-140z" />
    <glyph glyph-name="uni2156" unicode="&#x2156;" horiz-adv-x="866" 
d="M126 569l19 114c29 17 65 25 109 25c76 0 139 -44 139 -121c0 -53 -29 -94 -98 -143l-36 -26h128l-15 -96h-291l14 82l113 86c52 40 67 57 67 80s-15 34 -46 34c-34 0 -68 -12 -103 -35zM726 281l-6 -26l14 1c81 0 136 -48 136 -116c0 -95 -74 -148 -182 -148
c-52 0 -93 10 -124 31l17 106c33 -24 69 -36 109 -36c42 0 63 14 63 43c0 23 -22 35 -66 35c-27 0 -57 -5 -91 -14l59 221h227l-16 -97h-140zM309 0h-130l539 700h130z" />
    <glyph glyph-name="uni2157" unicode="&#x2157;" horiz-adv-x="817" 
d="M260 0h-130l539 700h130zM677 281l-6 -26l14 1c81 0 136 -48 136 -116c0 -95 -74 -148 -182 -148c-51 0 -93 10 -124 31l17 106c33 -24 70 -36 109 -36c42 0 63 14 63 43c0 23 -22 35 -66 35c-27 0 -57 -5 -91 -14l59 221h227l-16 -97h-140zM387 615l-76 -55
c43 -21 65 -55 65 -100c0 -88 -70 -146 -170 -146c-58 0 -103 12 -136 35l18 105c29 -26 66 -39 111 -39c36 0 64 14 64 41c0 17 -18 34 -51 34c-26 0 -48 -4 -65 -12l11 70l83 55h-119l17 97h262z" />
    <glyph glyph-name="uni2158" unicode="&#x2158;" horiz-adv-x="857" 
d="M300 0h-130l539 700h130zM717 281l-6 -26l14 1c81 0 136 -48 136 -116c0 -95 -74 -148 -182 -148c-51 0 -93 10 -124 31l17 106c33 -24 70 -36 109 -36c42 0 63 14 63 43c0 23 -22 35 -66 35c-27 0 -57 -5 -91 -14l59 221h227l-16 -97h-140zM414 700l-34 -205h51l-15 -88
h-50l-14 -85h-111l14 85h-186l14 81l213 212h118zM198 495h71l14 81z" />
    <glyph glyph-name="uni2159" unicode="&#x2159;" horiz-adv-x="784" 
d="M223 0h-130l539 700h130zM275 322h-115l41 261l-108 -47l18 112l112 52h111zM684 256c64 0 109 -50 109 -114c0 -88 -65 -150 -164 -150c-96 0 -147 64 -147 152c0 65 19 121 56 169c38 49 90 73 156 73c43 0 77 -9 101 -28l-16 -100c-23 19 -50 28 -82 28
c-46 0 -75 -19 -88 -56c17 17 42 26 75 26zM631 84c27 0 48 20 48 48c0 27 -13 40 -39 40c-21 0 -37 -8 -48 -23c-2 -5 -3 -12 -3 -21c0 -28 19 -44 42 -44z" />
    <glyph glyph-name="uni215A" unicode="&#x215a;" horiz-adv-x="814" 
d="M714 256c64 0 109 -50 109 -114c0 -88 -65 -150 -164 -150c-96 0 -147 64 -147 152c0 65 19 121 56 169c38 49 90 73 156 73c43 0 77 -9 101 -28l-16 -100c-23 19 -50 28 -82 28c-46 0 -75 -19 -88 -56c17 17 42 26 75 26zM661 84c27 0 48 20 48 48c0 27 -13 40 -39 40
c-21 0 -37 -8 -48 -23c-2 -5 -3 -12 -3 -21c0 -28 19 -44 42 -44zM232 603l-6 -26l14 1c81 0 136 -48 136 -116c0 -95 -74 -148 -182 -148c-52 0 -93 10 -124 31l17 106c33 -24 69 -36 109 -36c42 0 63 14 63 43c0 23 -22 35 -66 35c-27 0 -57 -5 -91 -14l59 221h227
l-16 -97h-140zM253 0h-130l539 700h130z" />
    <glyph glyph-name="oneeighth" unicode="&#x215b;" horiz-adv-x="804" 
d="M223 0h-130l539 700h130zM762 194c29 -13 51 -46 51 -81c0 -37 -16 -66 -48 -88c-31 -22 -69 -33 -112 -33c-44 0 -83 10 -117 29c-33 19 -50 48 -50 86c0 44 32 85 77 100c-24 14 -36 36 -36 67c0 33 14 59 43 80s64 32 105 32c37 0 70 -9 100 -28c31 -19 46 -45 46 -79
c0 -36 -23 -69 -59 -85zM650 86c25 0 49 14 49 38c0 20 -18 37 -46 37c-27 0 -50 -16 -50 -40c0 -19 18 -35 47 -35zM711 263c0 17 -15 31 -39 31c-21 0 -40 -13 -40 -33c-6 -37 81 -42 79 2zM275 322h-115l41 261l-108 -47l18 112l112 52h111z" />
    <glyph glyph-name="threeeighths" unicode="&#x215c;" horiz-adv-x="841" 
d="M799 194c29 -13 51 -46 51 -81c0 -37 -16 -66 -48 -88c-31 -22 -69 -33 -112 -33c-44 0 -83 10 -117 29c-33 19 -50 48 -50 86c0 44 32 85 77 100c-24 14 -36 36 -36 67c0 33 14 59 43 80s64 32 105 32c37 0 70 -9 100 -28c31 -19 46 -45 46 -79c0 -36 -23 -69 -59 -85z
M687 86c25 0 49 14 49 38c0 20 -18 37 -46 37c-27 0 -50 -16 -50 -40c0 -19 18 -35 47 -35zM748 263c0 17 -15 31 -39 31c-21 0 -40 -13 -40 -33c-6 -37 81 -42 79 2zM387 615l-76 -55c43 -21 65 -55 65 -100c0 -88 -70 -146 -170 -146c-58 0 -103 12 -136 35l18 105
c29 -26 66 -39 111 -39c36 0 64 14 64 41c0 17 -18 34 -51 34c-26 0 -48 -4 -65 -12l11 70l83 55h-119l17 97h262zM260 0h-130l539 700h130z" />
    <glyph glyph-name="fiveeighths" unicode="&#x215d;" horiz-adv-x="832" 
d="M790 194c29 -13 51 -46 51 -81c0 -37 -16 -66 -48 -88c-31 -22 -69 -33 -112 -33c-44 0 -83 10 -117 29c-33 19 -50 48 -50 86c0 44 32 85 77 100c-24 14 -36 36 -36 67c0 33 14 59 43 80s64 32 105 32c37 0 70 -9 100 -28c31 -19 46 -45 46 -79c0 -36 -23 -69 -59 -85z
M678 86c25 0 49 14 49 38c0 20 -18 37 -46 37c-27 0 -50 -16 -50 -40c0 -19 18 -35 47 -35zM739 263c0 17 -15 31 -39 31c-21 0 -40 -13 -40 -33c-6 -37 81 -42 79 2zM232 603l-6 -26l14 1c81 0 136 -48 136 -116c0 -95 -74 -148 -182 -148c-52 0 -93 10 -124 31l17 106
c33 -24 69 -36 109 -36c42 0 63 14 63 43c0 23 -22 35 -66 35c-27 0 -57 -5 -91 -14l59 221h227l-16 -97h-140zM251 0h-130l539 700h130z" />
    <glyph glyph-name="seveneighths" unicode="&#x215e;" horiz-adv-x="794" 
d="M752 194c29 -13 51 -46 51 -81c0 -37 -16 -66 -48 -88c-31 -22 -69 -33 -112 -33c-44 0 -83 10 -117 29c-33 19 -50 48 -50 86c0 44 32 85 77 100c-24 14 -36 36 -36 67c0 33 14 59 43 80s64 32 105 32c37 0 70 -9 100 -28c31 -19 46 -45 46 -79c0 -36 -23 -69 -59 -85z
M640 86c25 0 49 14 49 38c0 20 -18 37 -46 37c-27 0 -50 -16 -50 -40c0 -19 18 -35 47 -35zM701 263c0 17 -15 31 -39 31c-21 0 -40 -13 -40 -33c-6 -37 81 -42 79 2zM213 0h-130l539 700h130zM211 322h-128l189 281h-159l16 97h293l-15 -90z" />
    <glyph glyph-name="uni215F" unicode="&#x215f;" horiz-adv-x="499" 
d="M275 322h-115l41 261l-108 -47l18 112l112 52h111zM223 0h-130l539 700h130z" />
    <glyph glyph-name="arrowleft" unicode="&#x2190;" horiz-adv-x="686" 
d="M64 267l231 235h196l-159 -156h363l-25 -158h-373l110 -156h-186z" />
    <glyph glyph-name="arrowup" unicode="&#x2191;" horiz-adv-x="560" 
d="M259 363l-177 -134l30 196l266 194l204 -194l-30 -186l-135 134l-58 -373h-158z" />
    <glyph glyph-name="arrowright" unicode="&#x2192;" horiz-adv-x="686" 
d="M472 346l-109 156h186l157 -235l-231 -235h-196l158 156h-363l25 158h373z" />
    <glyph glyph-name="arrowdown" unicode="&#x2193;" horiz-adv-x="560" 
d="M395 234l177 134l-30 -196l-266 -194l-204 194l30 186l135 -134l58 373h158z" />
    <glyph glyph-name="partialdiff" unicode="&#x2202;" horiz-adv-x="602" 
d="M297 714c96 0 171 -33 225 -99c55 -66 82 -149 82 -248c0 -101 -20 -188 -64 -261s-124 -119 -231 -119c-73 0 -132 22 -179 65s-70 101 -70 172c0 68 21 125 64 171c43 47 99 70 168 70c59 0 108 -21 145 -63c-4 45 -20 84 -49 116c-29 33 -67 49 -115 49
c-49 0 -94 -13 -136 -38v142c43 29 96 43 160 43zM432 264c-23 45 -56 67 -101 67c-56 0 -103 -39 -103 -104c0 -59 38 -100 97 -100s106 52 107 137z" />
    <glyph glyph-name="increment" unicode="&#x2206;" horiz-adv-x="783" 
d="M783 0h-782l399 700h205zM468 446l-138 -266h191z" />
    <glyph glyph-name="product" unicode="&#x220f;" horiz-adv-x="786" 
d="M283 -140h-170l110 695h-126l23 145h767l-23 -145h-127l-110 -695h-170l110 695h-174z" />
    <glyph glyph-name="summation" unicode="&#x2211;" horiz-adv-x="644" 
d="M608 0h-584l24 152l231 201l-157 196l24 151h562l-29 -185h-266l94 -127l-13 -81l-146 -122h289z" />
    <glyph glyph-name="minus" unicode="&#x2212;" horiz-adv-x="754" 
d="M73 245l29 183h682l-29 -183h-682z" />
    <glyph glyph-name="uni2215" unicode="&#x2215;" horiz-adv-x="550" 
d="M-3 0l539 700h129l-539 -700h-129z" />
    <glyph glyph-name="uni2219" unicode="&#x2219;" horiz-adv-x="263" 
d="M180 420c33 0 62 -12 86 -36c24 -23 36 -52 36 -86s-12 -63 -36 -87s-53 -36 -86 -36s-62 12 -87 36c-24 24 -36 53 -36 87s12 63 36 86c24 24 53 36 87 36z" />
    <glyph glyph-name="radical" unicode="&#x221a;" horiz-adv-x="779" 
d="M478 0h-171l-102 352h-137l28 177h259l73 -268l255 439h202z" />
    <glyph glyph-name="infinity" unicode="&#x221e;" horiz-adv-x="802" 
d="M649 502c55 0 99 -18 134 -53s53 -82 53 -140c0 -67 -23 -123 -68 -168s-101 -67 -168 -67s-131 30 -168 93c-53 -60 -117 -90 -190 -90c-55 0 -100 18 -135 53s-52 82 -52 140c0 67 23 123 68 168s101 67 168 67s131 -30 168 -93c53 60 117 90 190 90zM276 226
c33 0 64 21 91 62c-13 44 -39 66 -78 66c-43 0 -69 -36 -69 -72c0 -40 25 -56 56 -56zM602 225c43 0 69 36 69 72c0 40 -25 56 -56 56c-33 0 -64 -21 -91 -62c13 -44 39 -66 78 -66z" />
    <glyph glyph-name="integral" unicode="&#x222b;" horiz-adv-x="502" 
d="M461 714c48 0 85 -5 110 -16v-164c-19 5 -37 8 -56 8c-59 0 -93 -37 -102 -96l-70 -422c-11 -65 -37 -119 -79 -163c-41 -45 -101 -67 -180 -67c-48 0 -85 5 -110 16v164c19 -5 37 -8 56 -8c57 0 93 37 102 96l70 421c11 65 37 120 78 164c42 45 102 67 181 67z" />
    <glyph glyph-name="approxequal" unicode="&#x2248;" horiz-adv-x="596" 
d="M518 495c53 0 96 13 127 39l-29 -177c-24 -24 -78 -41 -130 -41c-31 0 -76 9 -133 27c-57 19 -103 28 -137 28c-53 0 -96 -13 -128 -39l29 177c29 27 73 41 131 41c31 0 76 -9 133 -28c58 -18 104 -27 137 -27zM481 261c53 0 95 13 128 39l-29 -177
c-25 -24 -79 -41 -131 -41c-31 0 -76 9 -133 27c-57 19 -103 28 -137 28c-53 0 -95 -13 -127 -39l29 177c29 27 72 41 130 41c31 0 76 -9 133 -28c58 -18 104 -27 137 -27z" />
    <glyph glyph-name="notequal" unicode="&#x2260;" horiz-adv-x="610" 
d="M296 365h-203l28 180h298l54 79h169l-54 -79h71l-28 -180h-166l-38 -55h196l-29 -180h-290l-63 -93h-169l63 93h-79l29 180h173z" />
    <glyph glyph-name="lessequal" unicode="&#x2264;" horiz-adv-x="610" 
d="M626 393l-32 -199l-510 176l28 179l566 176l-33 -212l-342 -60zM564 0h-539l27 171h539z" />
    <glyph glyph-name="greaterequal" unicode="&#x2265;" horiz-adv-x="610" 
d="M574 0h-537l26 171h538zM661 549l-28 -179l-566 -176l32 213l343 60l-324 60l33 198z" />
    <glyph glyph-name="dotmath" unicode="&#x22c5;" horiz-adv-x="287" 
d="M213 516c33 0 62 -12 86 -36c24 -23 36 -52 36 -86s-12 -63 -36 -87s-53 -36 -86 -36s-62 12 -87 36c-24 24 -36 53 -36 87s12 63 36 86c24 24 53 36 87 36z" />
    <glyph glyph-name="lozenge" unicode="&#x25ca;" horiz-adv-x="567" 
d="M373 0h-185l-125 350l236 350h185l126 -350zM252 348l54 -177l115 181l-54 177z" />
    <glyph glyph-name="uniF401" unicode="&#xf401;" horiz-adv-x="0" 
d="M-405 759l120 158h248l-195 -158h-173z" />
    <glyph glyph-name="uniF639" unicode="&#xf639;" 
d="M404 714c92 0 164 -30 216 -89c53 -59 79 -137 79 -232c0 -184 -120 -407 -336 -407c-92 0 -164 30 -217 89c-52 59 -78 137 -78 232c0 184 120 407 336 407zM369 179c87 0 115 132 115 212c0 72 -25 130 -86 130c-87 0 -114 -132 -114 -212c0 -72 24 -130 85 -130z" />
    <glyph glyph-name="uniF63A" unicode="&#xf63a;" 
d="M157 458l34 210c53 31 118 46 196 46c69 0 128 -20 177 -59s73 -93 73 -164c0 -99 -53 -174 -177 -265l-64 -47h230l-28 -179h-521l25 153l196 157c47 39 79 68 96 88s25 40 25 59c0 39 -27 64 -82 64c-57 0 -117 -21 -180 -63z" />
    <glyph glyph-name="uniF63B" unicode="&#xf63b;" 
d="M652 542l-136 -102c63 -32 117 -92 117 -185c0 -81 -28 -146 -85 -195s-130 -74 -221 -74c-101 0 -196 29 -244 64l32 194c55 -48 121 -72 197 -72c61 0 110 25 110 77c0 33 -28 63 -88 63c-43 0 -80 -7 -113 -22l21 128l148 103h-213l30 179h471z" />
    <glyph glyph-name="uniF63C" unicode="&#xf63c;" 
d="M541 0h-203l25 158h-329l24 149l382 393h212l-60 -380h91l-26 -162h-91zM412 466l-147 -146h124z" />
    <glyph glyph-name="uniF63D" unicode="&#xf63d;" 
d="M380 521l-11 -49l23 1c73 0 132 -20 176 -60c45 -39 67 -90 67 -153c0 -87 -30 -155 -90 -203c-60 -47 -139 -71 -236 -71c-93 0 -168 19 -223 58l30 196c62 -45 126 -68 192 -68c61 0 110 23 110 80c0 43 -38 65 -114 65c-44 0 -97 -9 -160 -26l105 409h408l-29 -179
h-248z" />
    <glyph glyph-name="uniF63E" unicode="&#xf63e;" 
d="M453 474c57 0 104 -20 140 -61c37 -41 55 -91 55 -150c0 -81 -27 -148 -81 -200c-54 -51 -125 -77 -213 -77c-86 0 -152 26 -197 79s-67 120 -67 202c0 112 35 220 96 305s164 142 285 142c75 0 136 -17 182 -52l-30 -184c-41 35 -90 52 -147 52
c-76 0 -136 -38 -157 -105c28 32 85 49 134 49zM358 161c47 0 82 36 82 84c0 43 -23 70 -67 70c-33 0 -60 -14 -81 -41c-3 -9 -5 -21 -5 -37c0 -49 32 -76 71 -76z" />
    <glyph glyph-name="uniF63F" unicode="&#xf63f;" 
d="M331 0h-227l340 521h-290l28 179h527l-27 -167z" />
    <glyph glyph-name="uniF640" unicode="&#xf640;" 
d="M557 359c52 -25 92 -86 92 -149c0 -67 -28 -122 -85 -163s-124 -61 -202 -61c-139 0 -300 62 -300 213c0 83 56 156 139 185c-40 24 -66 72 -66 123c0 61 26 110 79 149s115 58 187 58c41 0 81 -7 119 -20c39 -13 72 -35 100 -66c29 -31 43 -69 43 -112
c0 -67 -42 -126 -106 -157zM356 162c44 0 85 27 85 68c0 35 -31 65 -80 65c-44 0 -85 -27 -85 -70c0 -33 31 -63 80 -63zM462 487c0 31 -26 54 -66 54c-36 0 -67 -22 -67 -57c0 -29 27 -53 64 -53s69 21 69 56z" />
    <glyph glyph-name="uniF641" unicode="&#xf641;" 
d="M300 226c-57 0 -104 20 -141 61c-36 41 -54 91 -54 150c0 81 27 148 81 199c54 52 125 78 213 78c86 0 151 -26 196 -79s68 -120 68 -202c0 -112 -35 -220 -96 -305s-164 -142 -285 -142c-75 0 -136 17 -182 52l30 184c41 -35 90 -52 147 -52c76 0 136 38 157 105
c-28 -32 -85 -49 -134 -49zM395 539c-47 0 -82 -36 -82 -84c0 -43 23 -70 67 -70c33 0 60 14 81 41c3 9 5 21 5 37c0 49 -32 76 -71 76z" />
    <glyph glyph-name="uniF643" unicode="&#xf643;" 
d="M384 529c81 0 149 -24 204 -73c55 -48 83 -111 83 -188c0 -75 -29 -141 -86 -197s-127 -84 -212 -84c-81 0 -149 24 -204 72c-55 49 -82 112 -82 191c0 75 28 140 85 195c57 56 127 84 212 84zM372 165c53 0 95 46 95 107c0 51 -35 79 -82 79c-53 0 -94 -45 -94 -106
c0 -51 36 -80 81 -80z" />
    <glyph glyph-name="uniF644" unicode="&#xf644;" 
d="M597 0h-519l25 160h162l21 132l-148 -57l32 203l176 78h185l-56 -356h147z" />
    <glyph glyph-name="uniF645" unicode="&#xf645;" 
d="M617 371c0 -97 -83 -162 -256 -215h248l-26 -156h-510l23 155l228 108c48 24 70 38 70 58c0 15 -13 23 -38 23c-57 0 -129 -20 -214 -60l30 186c39 19 75 34 108 44s74 15 122 15c62 0 113 -14 154 -42c41 -27 61 -66 61 -116z" />
    <glyph glyph-name="uniF646" unicode="&#xf646;" 
d="M613 358l-136 -108c63 -32 117 -93 117 -186c0 -81 -28 -146 -85 -195c-57 -50 -130 -75 -221 -75c-101 0 -196 29 -244 64l32 194c55 -48 121 -72 197 -72c61 0 110 26 110 78c0 33 -28 64 -88 64c-42 0 -80 -7 -113 -22l21 128l148 109h-213l30 179h471z" />
    <glyph glyph-name="uniF647" unicode="&#xf647;" 
d="M520 -200h-215l31 200h-317l24 146l378 370h212l-56 -356h91l-26 -160h-91zM381 283l-126 -123h107z" />
    <glyph glyph-name="uniF648" unicode="&#xf648;" 
d="M342 337l-11 -51h22c73 0 131 -20 175 -61c45 -41 67 -93 67 -156c0 -87 -30 -154 -91 -202c-61 -49 -139 -73 -234 -73c-93 0 -168 19 -223 58l29 198c63 -45 127 -68 192 -68c64 0 111 21 111 72c0 46 -38 69 -115 69c-48 0 -101 -9 -159 -26l105 419h407l-28 -179
h-247z" />
    <glyph glyph-name="uniF649" unicode="&#xf649;" 
d="M453 474c57 0 104 -20 140 -61c37 -41 55 -91 55 -150c0 -81 -27 -148 -81 -200c-54 -51 -125 -77 -213 -77c-86 0 -152 26 -197 79s-67 120 -67 202c0 112 35 220 96 305s164 142 285 142c75 0 136 -17 182 -52l-30 -184c-41 35 -90 52 -147 52
c-76 0 -136 -38 -157 -105c28 32 85 49 134 49zM358 161c47 0 82 36 82 84c0 43 -23 70 -67 70c-33 0 -60 -14 -81 -41c-3 -9 -5 -21 -5 -37c0 -49 32 -76 71 -76z" />
    <glyph glyph-name="uniF64A" unicode="&#xf64a;" 
d="M287 -200h-227l348 537h-290l28 179h527l-26 -167z" />
    <glyph glyph-name="uniF64B" unicode="&#xf64b;" 
d="M556 359c52 -25 92 -86 92 -149c0 -67 -28 -122 -85 -163s-124 -61 -202 -61c-139 0 -300 62 -300 213c0 83 56 156 139 185c-40 24 -66 72 -66 123c0 61 26 110 79 149s115 58 187 58c41 0 81 -7 119 -20c39 -13 72 -35 100 -66c29 -31 43 -69 43 -112
c0 -67 -42 -126 -106 -157zM355 162c44 0 85 27 85 68c0 35 -31 65 -80 65c-44 0 -85 -27 -85 -70c0 -33 31 -63 80 -63zM461 487c0 31 -26 54 -66 54c-36 0 -67 -22 -67 -57c0 -29 27 -53 64 -53s69 21 69 56z" />
    <glyph glyph-name="uniF64C" unicode="&#xf64c;" 
d="M274 41c-57 0 -104 20 -141 61c-36 41 -54 91 -54 150c0 81 27 148 81 199c54 52 125 78 213 78c86 0 151 -26 196 -79s68 -120 68 -202c0 -112 -35 -221 -96 -308c-61 -88 -164 -146 -285 -146c-75 0 -136 17 -182 52l30 184c41 -35 90 -52 147 -52c75 0 136 44 157 112
c-28 -32 -85 -49 -134 -49zM369 354c-47 0 -82 -36 -82 -84c0 -43 23 -70 67 -70c33 0 60 14 81 41c3 9 5 21 5 37c0 49 -32 76 -71 76z" />
    <glyph glyph-name="uniF64E" unicode="&#xf64e;" horiz-adv-x="570" 
d="M304 246h139l-10 -63h-102c24 -24 59 -36 105 -36c36 0 71 7 105 20l-26 -157c-41 -16 -84 -24 -131 -24c-68 0 -128 17 -180 50c-51 34 -83 83 -96 147h-78l10 63h63c0 13 0 22 1 28h-59l10 63h62c39 121 152 191 300 191c64 0 120 -13 169 -38l-23 -152
c-42 19 -83 28 -123 28c-43 0 -76 -10 -99 -29h117l-10 -63h-142c-1 -11 -2 -18 -2 -23v-5z" />
    <glyph glyph-name="uniF653" unicode="&#xf653;" horiz-adv-x="506" 
d="M536 470l-27 -151c-47 32 -120 62 -183 62c-23 0 -35 -6 -35 -18c0 -9 12 -15 73 -34c111 -33 151 -77 151 -156c0 -104 -79 -165 -187 -181l-17 -110h-155l18 113c-57 9 -105 25 -143 49l26 155c57 -41 122 -62 194 -62c33 0 49 6 49 18c0 9 -9 16 -26 22l-54 17
c-88 28 -149 69 -149 145c0 105 74 168 187 185l17 106h155l-18 -110c48 -9 89 -25 124 -50z" />
    <glyph glyph-name="commaaccent" unicode="&#xf6c3;" horiz-adv-x="240" 
d="M262 -78l-126 -231h-153l96 231h183z" />
    <glyph glyph-name="cyrbreve" unicode="&#xf6d4;" horiz-adv-x="478" 
d="M142 731h143c-1 -4 -1 -8 -1 -12c0 -25 17 -41 46 -41c36 0 57 18 63 53h145c-20 -117 -105 -186 -216 -186c-51 0 -94 14 -129 41c-35 28 -53 66 -53 113c0 8 1 19 2 32z" />
    <glyph glyph-name="uniF6DC" unicode="&#xf6dc;" 
d="M482 179h152l-28 -179h-523l28 179h161l47 296l-148 -58l33 205l176 78h185z" />
    <glyph glyph-name="uniF721" unicode="&#xf721;" horiz-adv-x="579" 
d="M258 144c0 -19 27 -34 87 -34c51 0 102 8 153 23l-19 -123c-46 -15 -98 -23 -157 -23c-44 0 -88 6 -140 22c-51 16 -87 53 -87 104c0 26 7 47 20 64h-38l9 62h454l-9 -62h-245c-19 -7 -28 -18 -28 -33zM316 521c48 0 92 -6 140 -23c48 -16 81 -54 81 -103
c0 -26 -7 -46 -20 -60h39l-10 -62h-454l10 62h245c18 6 27 17 27 32c0 19 -29 29 -88 29c-50 0 -97 -7 -141 -21l19 123c46 15 97 23 152 23z" />
    <glyph glyph-name="uniF722" unicode="&#xf722;" horiz-adv-x="639" 
d="M325 107h129l-9 -63h-130l-6 -44h-202l7 44h-96l10 63h96l5 35h-96l19 120h96l40 254h258c127 0 209 -64 209 -168c0 -61 -22 -111 -65 -149s-100 -57 -173 -57h-87zM365 375l-18 -113h50c44 0 74 22 74 61c0 29 -19 52 -54 52h-52z" />
    <glyph glyph-name="uniF725" unicode="&#xf725;" horiz-adv-x="567" 
d="M162 211h-78l15 92h78l7 45c19 121 108 181 265 181c50 0 96 -6 137 -19l-26 -157c-29 11 -59 17 -91 17c-56 0 -84 -14 -89 -53l-3 -14h142l-15 -92h-142l-2 -16c-5 -29 -17 -49 -36 -58h223l-21 -137h-475l21 137h22c37 0 58 13 63 40z" />
    <glyph glyph-name="uniF727" unicode="&#xf727;" horiz-adv-x="690" 
d="M271 220h-128l10 63h86l-122 233h204l68 -160l122 160h208l-200 -233h89l-10 -63h-128l-4 -29h128l-10 -63h-128l-20 -128h-199l20 128h-128l10 63h128z" />
    <glyph glyph-name="uniF730" unicode="&#xf730;" horiz-adv-x="627" 
d="M357 529c81 0 149 -24 204 -73c55 -48 83 -111 83 -188c0 -75 -29 -141 -86 -197s-127 -84 -212 -84c-81 0 -149 24 -204 72c-55 49 -82 112 -82 191c0 75 28 140 85 195c57 56 127 84 212 84zM345 165c53 0 95 46 95 107c0 51 -35 79 -82 79c-53 0 -94 -45 -94 -106
c0 -51 36 -80 81 -80z" />
    <glyph glyph-name="uniF731" unicode="&#xf731;" horiz-adv-x="400" 
d="M363 0h-210l46 292l-148 -57l32 203l176 78h185z" />
    <glyph glyph-name="uniF732" unicode="&#xf732;" horiz-adv-x="578" 
d="M568 371c0 -97 -83 -162 -256 -215h248l-26 -156h-510l23 155l228 108c48 24 70 38 70 58c0 15 -13 23 -38 23c-57 0 -129 -20 -214 -60l30 186c39 19 75 34 108 44s74 15 122 15c62 0 113 -14 154 -42c41 -27 61 -66 61 -116z" />
    <glyph glyph-name="uniF733" unicode="&#xf733;" horiz-adv-x="563" 
d="M567 358l-136 -108c63 -32 117 -93 117 -186c0 -81 -28 -146 -85 -195c-57 -50 -130 -75 -221 -75c-101 0 -196 29 -244 64l32 194c55 -48 121 -72 197 -72c61 0 110 26 110 78c0 33 -28 64 -88 64c-42 0 -80 -7 -113 -22l21 128l148 109h-213l30 179h471z" />
    <glyph glyph-name="uniF734" unicode="&#xf734;" 
d="M510 -200h-215l31 200h-317l24 146l378 370h212l-56 -356h91l-26 -160h-91zM371 283l-126 -123h107z" />
    <glyph glyph-name="uniF735" unicode="&#xf735;" horiz-adv-x="549" 
d="M290 337l-11 -51h22c73 0 131 -20 175 -61c45 -41 67 -93 67 -156c0 -87 -30 -154 -91 -202c-61 -49 -139 -73 -234 -73c-93 0 -168 19 -223 58l29 198c63 -45 127 -68 192 -68c64 0 111 21 111 72c0 46 -38 69 -115 69c-48 0 -101 -9 -159 -26l105 419h407l-28 -179
h-247z" />
    <glyph glyph-name="uniF736" unicode="&#xf736;" horiz-adv-x="617" 
d="M437 474c57 0 104 -20 140 -61c37 -41 55 -91 55 -150c0 -81 -27 -148 -81 -200c-54 -51 -125 -77 -213 -77c-86 0 -152 26 -197 79s-67 120 -67 202c0 112 35 220 96 305s164 142 285 142c75 0 136 -17 182 -52l-30 -184c-41 35 -90 52 -147 52
c-76 0 -136 -38 -157 -105c28 32 85 49 134 49zM342 161c47 0 82 36 82 84c0 43 -23 70 -67 70c-33 0 -60 -14 -81 -41c-3 -9 -5 -21 -5 -37c0 -49 32 -76 71 -76z" />
    <glyph glyph-name="uniF737" unicode="&#xf737;" horiz-adv-x="580" 
d="M242 -200h-227l348 537h-290l28 179h527l-26 -167z" />
    <glyph glyph-name="uniF738" unicode="&#xf738;" horiz-adv-x="630" 
d="M547 359c52 -25 92 -86 92 -149c0 -67 -28 -122 -85 -163s-124 -61 -202 -61c-139 0 -300 62 -300 213c0 83 56 156 139 185c-40 24 -66 72 -66 123c0 61 26 110 79 149s115 58 187 58c41 0 81 -7 119 -20c39 -13 72 -35 100 -66c29 -31 43 -69 43 -112
c0 -67 -42 -126 -106 -157zM346 162c44 0 85 27 85 68c0 35 -31 65 -80 65c-44 0 -85 -27 -85 -70c0 -33 31 -63 80 -63zM452 487c0 31 -26 54 -66 54c-36 0 -67 -22 -67 -57c0 -29 27 -53 64 -53s69 21 69 56z" />
    <glyph glyph-name="uniF739" unicode="&#xf739;" horiz-adv-x="618" 
d="M256 41c-57 0 -104 20 -141 61c-36 41 -54 91 -54 150c0 81 27 148 81 199c54 52 125 78 213 78c86 0 151 -26 196 -79s68 -120 68 -202c0 -112 -35 -221 -96 -308c-61 -88 -164 -146 -285 -146c-75 0 -136 17 -182 52l30 184c41 -35 90 -52 147 -52c75 0 136 44 157 112
c-28 -32 -85 -49 -134 -49zM351 354c-47 0 -82 -36 -82 -84c0 -43 23 -70 67 -70c33 0 60 14 81 41c3 9 5 21 5 37c0 49 -32 76 -71 76z" />
    <glyph glyph-name="hungarumlaut.cap" horiz-adv-x="588" 
d="M263 759h-142l120 158h199zM498 759h-142l120 158h199z" />
    <glyph glyph-name="yen.mono" 
d="M61 118l19 123h183l9 53h-183l19 123h135l-151 283h224l93 -193l152 193h233l-244 -283h137l-19 -123h-182l-9 -53h182l-19 -123h-182l-19 -118h-214l19 118h-183z" />
    <glyph glyph-name="tilde.cap" horiz-adv-x="496" 
d="M511 923h104c-17 -108 -81 -172 -166 -172c-23 0 -46 6 -69 17c-22 11 -39 17 -52 17c-23 0 -39 -10 -50 -31h-103c17 115 72 172 165 172c22 0 44 -5 67 -16s41 -16 55 -16c23 0 39 10 49 29z" />
    <glyph glyph-name="dollar.mono" 
d="M692 658l-35 -197c-26 17 -64 33 -113 47s-93 21 -134 21c-49 0 -74 -9 -74 -27c0 -15 25 -24 105 -49l38 -12c127 -41 196 -97 196 -202c0 -69 -24 -126 -72 -169s-110 -70 -187 -80l-14 -95h-183l15 100c-71 10 -129 32 -174 65l35 216c27 -28 67 -52 120 -73
c54 -20 104 -30 149 -30c59 0 88 13 88 39c0 11 -10 20 -26 27c-9 5 -29 12 -44 16s-43 14 -62 19l-60 20c-15 6 -33 15 -54 26c-21 12 -37 24 -49 36c-23 25 -43 67 -43 116c0 133 90 212 233 235l15 98h183l-16 -99c64 -9 118 -25 163 -48z" />
    <glyph glyph-name="t.alt" horiz-adv-x="414" 
d="M72 142c0 6 1 19 3 39l73 459h208l-19 -124h117l-26 -165h-117l-18 -120c-2 -18 -3 -29 -3 -32c0 -23 14 -34 43 -34c24 0 48 7 72 20l-26 -163c-38 -23 -85 -35 -140 -35c-97 0 -167 58 -167 155z" />
    <glyph glyph-name="breve.cap" horiz-adv-x="500" 
d="M450 924h132c-23 -117 -105 -183 -208 -183c-49 0 -90 14 -125 41c-34 27 -51 65 -51 114c0 7 1 16 2 28h132v-4c0 -33 18 -56 50 -56c33 0 59 24 68 60z" />
    <glyph glyph-name="dotaccent.cap" horiz-adv-x="349" 
d="M284 939c57 0 101 -44 101 -99c0 -56 -45 -100 -101 -100c-55 0 -100 45 -100 100s45 99 100 99z" />
    <glyph glyph-name="lira.mono" 
d="M202 360h-92l15 97h92l2 12c25 156 134 245 302 245c69 0 125 -9 167 -28l-30 -190c-35 15 -71 22 -109 22c-61 0 -100 -20 -115 -61h187l-15 -97h-190l-6 -34h191l-16 -97h-192c-6 -22 -19 -37 -40 -44h279l-29 -185h-550l29 185h24c44 0 69 15 75 44h-92l16 97h91z" />
    <glyph glyph-name="franc.mono" 
d="M111 100h-90l17 107h90l78 493h550l-29 -185h-335l-11 -69h241l-27 -170h-241l-11 -69h124l-17 -107h-124l-16 -100h-215z" />
    <glyph glyph-name="circumflex.cap" horiz-adv-x="502" 
d="M492 917l104 -158h-169l-45 62l-63 -62h-182l157 158h198z" />
    <glyph glyph-name="dieresis.cap" horiz-adv-x="477" 
d="M417 769c-39 40 -39 102 0 141c40 39 102 39 141 0c40 -39 40 -101 0 -141c-39 -39 -101 -39 -141 0zM251 939c57 0 101 -44 101 -99c0 -56 -44 -100 -101 -100c-55 0 -100 45 -100 100s45 99 100 99z" />
    <glyph glyph-name="macron.cap" horiz-adv-x="546" 
d="M156 767l23 137h457l-23 -137h-457z" />
    <glyph glyph-name="peseta.mono" 
d="M159 700h308c133 0 222 -65 238 -165h78l-23 -146h-77c-44 -89 -143 -145 -264 -145h-118l-38 -244h-214l61 389h-82l23 146h82zM347 525l-20 -125h71c52 0 94 21 94 72c0 35 -23 53 -68 53h-77z" />
    <glyph glyph-name="t_t" horiz-adv-x="868" 
d="M62 351l26 165h82l20 124h208l-19 -124h203l20 124h208l-19 -124h117l-26 -165h-117l-18 -120c-2 -18 -3 -29 -3 -32c0 -23 14 -34 43 -34c24 0 48 7 72 20l-26 -163c-38 -23 -85 -35 -140 -35c-97 0 -167 58 -167 155c0 5 1 18 3 38l26 171h-202l-18 -120
c-2 -18 -3 -29 -3 -32c0 -23 14 -34 43 -34c24 0 48 7 72 20l-26 -163c-38 -23 -85 -35 -140 -35c-97 0 -167 58 -167 155c0 6 1 19 3 39l26 170h-81z" />
    <glyph glyph-name="acute.cap" horiz-adv-x="401" 
d="M172 759l120 158h248l-195 -158h-173z" />
    <glyph glyph-name="grave.cap" horiz-adv-x="488" 
d="M194 917h248l69 -158h-173z" />
    <glyph glyph-name="ring.cap" horiz-adv-x="508" 
d="M273 840c0 60 50 109 110 109s108 -49 108 -109s-48 -109 -108 -109c-30 0 -56 11 -78 32c-21 22 -32 48 -32 77zM424 840c0 23 -18 42 -41 42s-42 -19 -42 -42c0 -21 19 -41 42 -41s41 20 41 41z" />
    <glyph glyph-name="f_f_t" horiz-adv-x="1282" 
d="M768 351l-56 -351h-211l56 351h-201l-56 -351h-211l56 351h-81l26 165h81l3 19c17 109 97 179 234 179c55 0 103 -7 144 -22l-22 -139c-27 9 -53 13 -78 13c-41 0 -65 -17 -70 -50h201l3 19c17 109 97 179 234 179c55 0 103 -7 144 -22l-22 -139c-27 9 -53 13 -78 13
c-41 0 -65 -17 -70 -50h202l20 124h208l-19 -124h117l-26 -165h-117l-18 -120c-2 -18 -3 -29 -3 -32c0 -23 14 -34 43 -34c24 0 48 7 72 20l-26 -163c-38 -23 -85 -35 -140 -35c-97 0 -167 58 -167 155c0 6 1 19 3 39l26 170h-201z" />
    <glyph glyph-name="Euro.mono" 
d="M67 372l17 107h69c56 149 199 235 380 235c59 0 111 -8 154 -25l-35 -187c-35 17 -76 25 -124 25c-62 0 -112 -16 -149 -48h153l-17 -107h-191c-1 -15 -2 -26 -2 -34h187l-16 -107h-143c27 -39 78 -58 153 -58c61 0 109 14 144 41l-32 -205c-39 -15 -89 -23 -151 -23
c-175 0 -295 86 -328 245h-91l17 107h65l2 34h-62z" />
    <glyph glyph-name="uni0418_uni0419" horiz-adv-x="1159" 
d="M893 0l54 340l-302 -340h-164l54 340l-302 -340h-179l110 700h214l-53 -335l295 335h170l-53 -335l295 335h185l-110 -700h-214zM718 917h143c0 -3 -1 -8 -1 -9c0 -29 15 -43 46 -43c36 0 57 17 63 52h145c-21 -117 -105 -185 -216 -185c-51 0 -95 14 -130 41
s-52 65 -52 112c0 8 1 19 2 32z" />
    <glyph glyph-name="uni0438_uni0439" horiz-adv-x="972" 
d="M623 297l183 219h198l-81 -516h-196l32 212l-186 -212h-178l34 217l-183 -217h-197l81 516h196l-31 -213l185 213h178zM566 731h143c-1 -4 -1 -8 -1 -12c0 -25 17 -41 46 -41c36 0 57 18 63 53h145c-20 -117 -105 -186 -216 -186c-51 0 -94 14 -129 41
c-35 28 -53 66 -53 113c0 8 1 19 2 32z" />
    <glyph glyph-name="uni0438_uni043D" horiz-adv-x="970" 
d="M295 303l185 213h197l-26 -168h114l26 168h211l-82 -516h-210l27 180h-114l-27 -180h-201l34 217l-183 -217h-197l81 516h196z" />
    <glyph glyph-name="uni0418_uni041D" horiz-adv-x="1176" 
d="M378 700l-53 -335l295 335h186l-37 -235h214l37 235h214l-110 -700h-214l43 275h-215l-43 -275h-214l54 340l-302 -340h-179l110 700h214z" />
    <glyph glyph-name="uni043D_uni0438" horiz-adv-x="969" 
d="M454 516h201l-35 -219l183 219h198l-81 -516h-196l32 212l-186 -212h-197l27 180h-114l-27 -180h-210l81 516h210l-26 -168h114z" />
    <glyph glyph-name="uni041D_uni0418" horiz-adv-x="1176" 
d="M806 700l-52 -335l295 335h185l-110 -700h-214l54 340l-302 -340h-180l43 275h-214l-43 -275h-214l110 700h214l-37 -235h213l38 235h214z" />
    <glyph glyph-name="uni041F_uni0418" horiz-adv-x="1157" 
d="M891 0l53 330l-301 -330h-179l81 515h-196l-81 -515h-214l110 700h624l-52 -325l294 325h185l-110 -700h-214z" />
    <glyph glyph-name="uni043F_uni0438" horiz-adv-x="965" 
d="M651 516l-35 -219l183 219h198l-81 -516h-196l32 212l-186 -212h-197l54 351h-110l-54 -351h-210l81 516h521z" />
    <glyph glyph-name="T_h" horiz-adv-x="1144" 
d="M1154 287l-45 -287h-210l40 259c2 12 3 24 3 35c0 34 -15 51 -46 51c-24 0 -44 -9 -59 -27l-50 -318h-210l81 515h-140l-82 -515h-214l82 515h-200l29 185h765l-40 -250c36 53 87 79 152 79c93 0 149 -69 149 -172c0 -27 -2 -50 -5 -70z" />
    <glyph glyph-name="f_j" horiz-adv-x="767" 
d="M89 0l56 352h-81l26 164h81l3 19c17 109 97 179 234 179c55 0 103 -7 144 -22l-22 -139c-27 9 -53 13 -78 13c-41 0 -65 -17 -70 -50h412l-80 -502c-21 -136 -116 -220 -267 -220c-56 0 -96 7 -121 20l26 159c18 -10 40 -15 67 -15c47 0 78 22 85 63l53 331h-201
l-56 -352h-211zM592 659c0 33 11 60 34 83s51 35 83 35c33 0 61 -12 84 -35s35 -50 35 -83s-12 -62 -35 -85s-51 -34 -84 -34c-32 0 -60 11 -83 34s-34 52 -34 85z" />
    <glyph glyph-name="f.alt01" horiz-adv-x="415" 
d="M305 351l-56 -351h-211l84 531c17 109 98 183 235 183c55 0 103 -7 144 -22l-22 -139c-27 9 -53 13 -78 13c-41 0 -65 -17 -70 -50h142l-26 -165h-142z" />
    <glyph glyph-name="sterling.mono" 
d="M96 272l24 149h91l8 48c25 156 134 245 302 245c69 0 125 -9 167 -28l-30 -190c-35 15 -71 22 -109 22c-72 0 -113 -29 -122 -87l-2 -10h177l-24 -149h-176l-2 -14c-7 -40 -18 -62 -47 -73h279l-29 -185h-550l29 185h24c45 0 71 16 76 47l6 40h-92z" />
    <glyph glyph-name="caron.cap" horiz-adv-x="541" 
d="M400 855l63 62h182l-157 -158h-199l-103 158h169z" />
    <glyph glyph-name="uni215A.mono" horiz-adv-x="850" 
d="M268 0h-130l539 700h130zM741 252c64 0 109 -50 109 -114c0 -88 -65 -150 -164 -150c-96 0 -147 64 -147 152c0 65 19 121 56 169c38 49 90 73 156 73c43 0 77 -9 101 -28l-16 -100c-23 19 -50 28 -82 28c-46 0 -75 -19 -88 -56c17 17 42 26 75 26zM688 80
c27 0 48 20 48 48c0 27 -13 40 -39 40c-21 0 -37 -8 -48 -23c-2 -5 -3 -12 -3 -21c0 -28 19 -44 42 -44zM245 603l-6 -26l14 1c81 0 136 -48 136 -116c0 -95 -74 -148 -182 -148c-51 0 -93 10 -124 31l17 106c33 -24 70 -36 109 -36c42 0 63 14 63 43c0 23 -22 35 -66 35
c-27 0 -57 -5 -91 -14l59 221h227l-16 -97h-140z" />
    <glyph glyph-name="onehalf.mono" horiz-adv-x="850" 
d="M249 0h-130l539 700h130zM581 247l19 114c29 17 65 25 109 25c76 0 139 -44 139 -121c0 -53 -29 -94 -98 -143l-36 -26h128l-15 -96h-291l14 82l113 86c52 40 67 57 67 80s-15 34 -46 34c-34 0 -68 -12 -103 -35zM301 322h-115l41 261l-108 -47l18 112l112 52h111z" />
    <glyph glyph-name="uni2159.mono" horiz-adv-x="850" 
d="M257 0h-130l539 700h130zM309 322h-115l41 261l-108 -47l18 112l112 52h111zM718 256c64 0 109 -50 109 -114c0 -88 -65 -150 -164 -150c-96 0 -147 64 -147 152c0 65 19 121 56 169c38 49 90 73 156 73c43 0 77 -9 101 -28l-16 -100c-23 19 -50 28 -82 28
c-46 0 -75 -19 -88 -56c17 17 42 26 75 26zM665 84c27 0 48 20 48 48c0 27 -13 40 -39 40c-21 0 -37 -8 -48 -23c-2 -5 -3 -12 -3 -21c0 -28 19 -44 42 -44z" />
    <glyph glyph-name="uni2158.mono" horiz-adv-x="850" 
d="M300 0h-130l539 700h130zM705 281l-6 -26l14 1c81 0 136 -48 136 -116c0 -95 -74 -148 -182 -148c-51 0 -93 10 -124 31l17 106c33 -24 70 -36 109 -36c42 0 63 14 63 43c0 23 -22 35 -66 35c-27 0 -57 -5 -91 -14l59 221h227l-16 -97h-140zM434 700l-34 -205h51l-15 -88
h-50l-14 -85h-111l14 85h-186l14 81l213 212h118zM218 495h71l14 81z" />
    <glyph glyph-name="uni2157.mono" horiz-adv-x="850" 
d="M278 0h-130l539 700h130zM695 281l-6 -26l14 1c81 0 136 -48 136 -116c0 -95 -74 -148 -182 -148c-51 0 -93 10 -124 31l17 106c33 -24 70 -36 109 -36c42 0 63 14 63 43c0 23 -22 35 -66 35c-27 0 -57 -5 -91 -14l59 221h227l-16 -97h-140zM405 615l-76 -55
c43 -21 65 -55 65 -100c0 -88 -70 -146 -170 -146c-58 0 -103 12 -136 35l18 105c29 -26 66 -39 111 -39c36 0 64 14 64 41c0 17 -18 34 -51 34c-26 0 -48 -4 -65 -12l11 70l83 55h-119l17 97h262z" />
    <glyph glyph-name="uni2156.mono" horiz-adv-x="850" 
d="M292 0h-130l539 700h130zM693 281l-6 -26l14 1c81 0 136 -48 136 -116c0 -95 -74 -148 -182 -148c-51 0 -93 10 -124 31l17 106c33 -24 69 -36 109 -36c42 0 63 14 63 43c0 23 -22 35 -66 35c-27 0 -57 -5 -91 -14l59 221h227l-16 -97h-140zM130 569l19 114
c29 17 65 25 109 25c76 0 139 -44 139 -121c0 -53 -29 -94 -98 -143l-36 -26h128l-15 -96h-291l14 82l113 86c52 40 67 57 67 80s-15 34 -46 34c-34 0 -68 -12 -103 -35z" />
    <glyph glyph-name="oneeighth.mono" horiz-adv-x="850" 
d="M264 0h-130l539 700h130zM803 194c29 -13 51 -46 51 -81c0 -37 -16 -66 -48 -88c-31 -22 -69 -33 -112 -33c-44 0 -83 10 -117 29c-33 19 -50 48 -50 86c0 44 32 85 77 100c-24 14 -36 36 -36 67c0 33 14 59 43 80s64 32 105 32c37 0 70 -9 100 -28c31 -19 46 -45 46 -79
c0 -36 -23 -69 -59 -85zM691 86c25 0 49 14 49 38c0 20 -18 37 -46 37c-27 0 -50 -16 -50 -40c0 -19 18 -35 47 -35zM752 263c0 17 -15 31 -39 31c-21 0 -40 -13 -40 -33c-6 -37 81 -42 79 2zM316 322h-115l41 261l-108 -47l18 112l112 52h111z" />
    <glyph glyph-name="threeeighths.mono" horiz-adv-x="850" 
d="M819 194c29 -13 51 -46 51 -81c0 -37 -16 -66 -48 -88c-31 -22 -69 -33 -112 -33c-44 0 -83 10 -117 29c-33 19 -50 48 -50 86c0 44 32 85 77 100c-24 14 -36 36 -36 67c0 33 14 59 43 80s64 32 105 32c37 0 70 -9 100 -28c31 -19 46 -45 46 -79c0 -36 -23 -69 -59 -85z
M707 86c25 0 49 14 49 38c0 20 -18 37 -46 37c-27 0 -50 -16 -50 -40c0 -19 18 -35 47 -35zM768 263c0 17 -15 31 -39 31c-21 0 -40 -13 -40 -33c-6 -37 81 -42 79 2zM406 615l-76 -55c43 -21 65 -55 65 -100c0 -88 -70 -146 -170 -146c-58 0 -103 12 -136 35l18 105
c29 -26 66 -39 111 -39c36 0 64 14 64 41c0 17 -18 34 -51 34c-26 0 -48 -4 -65 -12l11 70l83 55h-119l17 97h262zM282 0h-130l539 700h130z" />
    <glyph glyph-name="fiveeighths.mono" horiz-adv-x="850" 
d="M819 194c29 -13 51 -46 51 -81c0 -37 -16 -66 -48 -88c-31 -22 -69 -33 -112 -33c-44 0 -83 10 -117 29c-33 19 -50 48 -50 86c0 44 32 85 77 100c-24 14 -36 36 -36 67c0 33 14 59 43 80s64 32 105 32c37 0 70 -9 100 -28c31 -19 46 -45 46 -79c0 -36 -23 -69 -59 -85z
M707 86c25 0 49 14 49 38c0 20 -18 37 -46 37c-27 0 -50 -16 -50 -40c0 -19 18 -35 47 -35zM768 263c0 17 -15 31 -39 31c-21 0 -40 -13 -40 -33c-6 -37 81 -42 79 2zM282 0h-130l539 700h130zM263 603l-6 -26l14 1c81 0 136 -48 136 -116c0 -95 -74 -148 -182 -148
c-51 0 -93 10 -124 31l17 106c33 -24 70 -36 109 -36c42 0 63 14 63 43c0 23 -22 35 -66 35c-27 0 -57 -5 -91 -14l59 221h227l-16 -97h-140z" />
    <glyph glyph-name="seveneighths.mono" horiz-adv-x="850" 
d="M807 194c29 -13 51 -46 51 -81c0 -37 -16 -66 -48 -88c-31 -22 -69 -33 -112 -33c-44 0 -83 10 -117 29c-33 19 -50 48 -50 86c0 44 32 85 77 100c-24 14 -36 36 -36 67c0 33 14 59 43 80s64 32 105 32c37 0 70 -9 100 -28c31 -19 46 -45 46 -79c0 -36 -23 -69 -59 -85z
M695 86c25 0 49 14 49 38c0 20 -18 37 -46 37c-27 0 -50 -16 -50 -40c0 -19 18 -35 47 -35zM756 263c0 17 -15 31 -39 31c-21 0 -40 -13 -40 -33c-6 -37 81 -42 79 2zM268 0h-130l539 700h130zM266 322h-128l189 281h-159l16 97h293l-15 -90z" />
    <glyph glyph-name="uni2155.mono" horiz-adv-x="850" 
d="M262 0h-130l539 700h130zM314 322h-115l41 261l-108 -47l18 112l112 52h111zM679 281l-6 -26l14 1c81 0 136 -48 136 -116c0 -95 -74 -148 -182 -148c-51 0 -93 10 -124 31l17 106c33 -24 70 -36 109 -36c42 0 63 14 63 43c0 23 -22 35 -66 35c-27 0 -57 -5 -91 -14
l59 221h227l-16 -97h-140z" />
    <glyph glyph-name="twothirds.mono" horiz-adv-x="850" 
d="M851 293l-76 -55c43 -21 65 -55 65 -100c0 -88 -70 -146 -170 -146c-58 0 -103 12 -136 35l18 105c29 -26 66 -39 111 -39c36 0 64 14 64 41c0 17 -18 34 -51 34c-26 0 -48 -4 -65 -12l11 70l83 55h-119l17 97h262zM120 569l19 114c29 17 65 25 109 25
c76 0 139 -44 139 -121c0 -53 -29 -94 -98 -143l-36 -26h128l-15 -96h-291l14 82l113 86c52 40 67 57 67 80s-15 34 -46 34c-34 0 -68 -12 -103 -35zM282 0h-130l539 700h130z" />
    <glyph glyph-name="onethird.mono" horiz-adv-x="850" 
d="M244 0h-130l539 700h130zM296 322h-115l41 261l-108 -47l18 112l112 52h111zM831 293l-76 -55c43 -21 65 -55 65 -100c0 -88 -70 -146 -170 -146c-58 0 -103 12 -136 35l18 105c29 -26 66 -39 111 -39c36 0 64 14 64 41c0 17 -18 34 -51 34c-26 0 -48 -4 -65 -12l11 70
l83 55h-119l17 97h262z" />
    <glyph glyph-name="threequarters.mono" horiz-adv-x="850" 
d="M269 0h-130l539 700h130zM823 378l-34 -205h51l-15 -88h-50l-14 -85h-111l14 85h-186l14 81l213 212h118zM607 173h71l14 81zM396 615l-76 -55c43 -21 65 -55 65 -100c0 -88 -70 -146 -170 -146c-58 0 -103 12 -136 35l18 105c29 -26 66 -39 111 -39c36 0 64 14 64 41
c0 17 -18 34 -51 34c-26 0 -48 -4 -65 -12l11 70l83 55h-119l17 97h262z" />
    <glyph glyph-name="onequarter.mono" horiz-adv-x="850" 
d="M256 0h-130l539 700h130zM810 378l-34 -205h51l-15 -88h-50l-14 -85h-111l14 85h-186l14 81l213 212h118zM594 173h71l14 81zM308 322h-115l41 261l-108 -47l18 112l112 52h111z" />
    <glyph glyph-name="uni20B6.mono" 
d="M343 207h215l-17 -107h-215l-16 -100h-214l15 100h-121l17 107h121l6 37h-121l23 144h121l49 312h313c74 0 133 -19 176 -56s65 -85 65 -144c0 -75 -27 -136 -81 -184s-123 -72 -208 -72h-122zM388 526l-21 -138h76c55 0 102 27 102 80c0 39 -25 58 -74 58h-83z" />
    <glyph glyph-name="liralow.mono" 
d="M200 269h-78l10 63h78l3 16c19 121 108 181 265 181c50 0 96 -6 137 -19l-26 -157c-29 11 -59 17 -91 17c-47 0 -76 -13 -85 -38h121l-10 -63h-123l-5 -29h124l-10 -63h-125c-6 -21 -17 -34 -32 -40h223l-21 -137h-475l21 137h22c37 0 58 13 63 40h-78l10 63h78z" />
    <glyph glyph-name="franclow.mono" 
d="M311 0h-201l7 49h-60l10 63h60l64 404h452l-25 -159h-251l-9 -61h177l-24 -147h-177l-6 -37h95l-10 -63h-95z" />
    <glyph glyph-name="uniF64E.mono" 
d="M353 246h139l-10 -63h-102c24 -24 59 -36 105 -36c36 0 71 7 105 20l-26 -157c-41 -16 -84 -24 -131 -24c-68 0 -128 17 -180 50c-51 34 -83 83 -96 147h-78l10 63h63c0 13 0 22 1 28h-59l10 63h62c39 121 152 191 300 191c64 0 120 -13 169 -38l-23 -152
c-42 19 -83 28 -123 28c-43 0 -76 -10 -99 -29h117l-10 -63h-142c-1 -11 -2 -18 -2 -23v-5z" />
    <glyph glyph-name="pesolow.mono" 
d="M125 269h-82l15 92h81l25 155h267c121 0 203 -59 208 -155h74l-15 -92h-72c-32 -84 -114 -137 -225 -137h-96l-20 -132h-202zM342 369l-16 -102h48c40 0 67 20 67 55c0 25 -18 47 -49 47h-50z" />
    <glyph glyph-name="uniF722.mono" 
d="M333 107h129l-9 -63h-130l-6 -44h-202l7 44h-96l10 63h96l5 35h-96l19 120h96l40 254h258c127 0 209 -64 209 -168c0 -61 -22 -111 -65 -149s-100 -57 -173 -57h-87zM373 375l-18 -113h50c44 0 74 22 74 61c0 29 -19 52 -54 52h-52z" />
    <glyph glyph-name="uniF727.mono" 
d="M250 220h-128l10 63h86l-122 233h204l68 -160l122 160h208l-200 -233h89l-10 -63h-128l-4 -29h128l-10 -63h-128l-20 -128h-199l20 128h-128l10 63h128z" />
    <glyph glyph-name="uniF725.mono" 
d="M191 211h-78l15 92h78l7 45c19 121 108 181 265 181c50 0 96 -6 137 -19l-26 -157c-29 11 -59 17 -91 17c-56 0 -84 -14 -89 -53l-3 -14h142l-15 -92h-142l-2 -16c-5 -29 -17 -49 -36 -58h223l-21 -137h-475l21 137h22c37 0 58 13 63 40z" />
    <glyph glyph-name="uniF653.mono" 
d="M611 470l-27 -151c-47 32 -120 62 -183 62c-23 0 -35 -6 -35 -18c0 -9 12 -15 73 -34c111 -33 151 -77 151 -156c0 -104 -79 -165 -187 -181l-17 -110h-155l18 113c-57 9 -105 25 -143 49l26 155c57 -41 122 -62 194 -62c33 0 49 6 49 18c0 9 -9 16 -26 22l-54 17
c-88 28 -149 69 -149 145c0 105 74 168 187 185l17 106h155l-18 -110c48 -9 89 -25 124 -50z" />
    <glyph glyph-name="uniF721.mono" 
d="M301 144c0 -19 27 -34 87 -34c51 0 102 8 153 23l-19 -123c-46 -15 -98 -23 -157 -23c-44 0 -88 6 -140 22c-51 16 -87 53 -87 104c0 26 7 47 20 64h-38l9 62h454l-9 -62h-245c-19 -7 -28 -18 -28 -33zM359 521c48 0 92 -6 140 -23c48 -16 81 -54 81 -103
c0 -26 -7 -46 -20 -60h39l-10 -62h-454l10 62h245c18 6 27 17 27 32c0 19 -29 29 -88 29c-50 0 -97 -7 -141 -21l19 123c46 15 97 23 152 23z" />
    <glyph glyph-name="g.alt" horiz-adv-x="608" 
d="M342 529c61 0 113 -15 156 -45l148 45l-16 -164l-52 -14c1 -13 2 -23 2 -29c0 -43 -13 -85 -40 -124c36 -43 54 -93 54 -148c0 -70 -27 -130 -81 -180c-54 -51 -122 -76 -203 -76s-148 25 -202 74c-53 49 -81 115 -83 197h192c0 -59 39 -93 95 -93c48 0 81 31 81 76
c0 22 -8 39 -23 52c-14 -2 -28 -3 -43 -3c-61 0 -115 19 -161 57c-46 39 -69 90 -69 153s23 115 69 158c47 43 105 64 176 64zM335 258c32 0 57 29 57 65c0 29 -23 46 -50 46c-31 0 -55 -27 -55 -63c0 -31 21 -48 48 -48z" />
    <glyph glyph-name="uni20B4.mono" 
d="M156 261h-52l14 85h535l-14 -85h-249c-19 -5 -43 -26 -43 -49c0 -28 30 -42 91 -42c27 0 57 3 92 9c35 7 62 15 83 24l-31 -189c-57 -19 -116 -28 -179 -28c-57 0 -117 9 -182 33c-64 24 -109 74 -109 142c0 44 15 77 44 100zM138 473h260c8 5 12 12 12 23
c0 25 -44 37 -88 37c-59 0 -111 -8 -154 -23l29 184c40 13 96 20 168 20c59 0 118 -11 177 -36c60 -24 101 -73 101 -136c0 -29 -6 -52 -17 -69h47l-14 -85h-535z" />
    </font>
</defs>
</svg>
