<?xml version="1.0" standalone="no"?>
<!DOCTYPE svg PUBLIC "-//W3C//DTD SVG 1.1//EN" "http://www.w3.org/Graphics/SVG/1.1/DTD/svg11.dtd" >
<svg xmlns="http://www.w3.org/2000/svg" xmlns:xlink="http://www.w3.org/1999/xlink" version="1.1">
<metadata>
Created by FontForge 20170910 at Wed Dec 11 00:50:27 2013
 By Jimmy Wärting
Copyright (c) 2012 by Vyacheslav Kirilenko, Gayane Bagdasaryan. All rights reserved.
</metadata>
<defs>
<font id="Geometria-MediumItalic" horiz-adv-x="644" >
  <font-face 
    font-family="Geometria"
    font-weight="500"
    font-style="italic"
    font-stretch="normal"
    units-per-em="1000"
    panose-1="2 11 6 3 2 2 4 9 2 4"
    ascent="777"
    descent="-223"
    x-height="491"
    cap-height="700"
    bbox="-312 -251 1484 932"
    underline-thickness="50"
    underline-position="-100"
    slope="-9"
    unicode-range="U+0020-FB04"
  />
<missing-glyph horiz-adv-x="646" 
d="M558 0h-471l111 700h471zM270 627l-87 -554h302l88 554h-303z" />
    <glyph glyph-name="ij" unicode="ij" horiz-adv-x="537" 
d="M429 647c0 39 31 69 68 69c39 0 68 -30 68 -69s-29 -68 -68 -68c-37 0 -68 31 -68 68zM349 38l72 453h108l-82 -520c-19 -117 -90 -176 -191 -176c-42 0 -74 7 -95 20l15 94c21 -13 44 -19 69 -19c35 0 59 11 71 32c13 21 24 60 33 116zM271 491l-77 -491h-108l77 491
h108zM171 647c0 39 31 69 68 69c39 0 68 -30 68 -69s-29 -68 -68 -68c-37 0 -68 31 -68 68z" />
    <glyph glyph-name="f_f" unicode="ff" horiz-adv-x="749" 
d="M621 396l-63 -396h-108l63 396h-227l-63 -396h-108l63 396h-92l15 95h92l9 59c15 99 79 160 180 160c43 0 80 -7 111 -21l-14 -91c-29 12 -56 18 -83 18c-64 0 -84 -38 -95 -125h227l9 59c15 99 79 160 180 160c43 0 80 -7 111 -21l-14 -91c-29 12 -56 18 -83 18
c-64 0 -84 -38 -95 -125h161l-15 -95h-161z" />
    <glyph glyph-name="fi" unicode="fi" horiz-adv-x="645" 
d="M636 491l-77 -491h-108l62 396h-227l-63 -396h-108l63 396h-92l15 95h92l9 59c15 99 79 160 180 160c43 0 80 -7 111 -21l-14 -91c-29 12 -56 18 -83 18c-64 0 -84 -38 -95 -125h335zM536 647c0 39 31 69 68 69c39 0 68 -30 68 -69s-29 -68 -68 -68c-37 0 -68 31 -68 68z
" />
    <glyph glyph-name="fl" unicode="fl" horiz-adv-x="680" 
d="M561 700h108l-85 -540c-3 -15 -4 -27 -4 -36c0 -25 15 -38 45 -38c16 0 30 3 42 9l-15 -93c-19 -10 -45 -15 -76 -15c-71 0 -107 34 -107 101c0 15 2 35 5 58l39 250h-227l-63 -396h-108l63 396h-92l15 95h92l9 59c15 99 79 160 180 160c43 0 80 -7 111 -21l-14 -91
c-29 12 -56 18 -83 18c-64 0 -84 -38 -95 -125h227z" />
    <glyph glyph-name="f_f_i" unicode="ffi" horiz-adv-x="975" 
d="M621 396l-63 -396h-108l63 396h-227l-63 -396h-108l63 396h-92l15 95h92l9 59c15 99 79 160 180 160c43 0 80 -7 111 -21l-14 -91c-29 12 -56 18 -83 18c-64 0 -84 -38 -95 -125h227l9 59c15 99 79 160 180 160c43 0 80 -7 111 -21l-14 -91c-29 12 -56 18 -83 18
c-64 0 -84 -38 -95 -125h335l-77 -491h-108l62 396h-227zM871 647c0 39 31 69 68 69c39 0 68 -30 68 -69s-29 -68 -68 -68c-37 0 -68 31 -68 68z" />
    <glyph glyph-name="f_f_l" unicode="ffl" horiz-adv-x="1015" 
d="M621 396l-63 -396h-108l63 396h-227l-63 -396h-108l63 396h-92l15 95h92l9 59c15 99 79 160 180 160c43 0 80 -7 111 -21l-14 -91c-29 12 -56 18 -83 18c-64 0 -84 -38 -95 -125h227l9 59c15 99 79 160 180 160c43 0 80 -7 111 -21l-14 -91c-29 12 -56 18 -83 18
c-64 0 -84 -38 -95 -125h227l33 209h108l-85 -540c-3 -15 -4 -27 -4 -36c0 -25 15 -38 45 -38c16 0 30 3 42 9l-15 -93c-19 -10 -45 -15 -76 -15c-71 0 -107 34 -107 101c0 15 2 35 5 58l39 250h-227z" />
    <glyph glyph-name=".notdef" horiz-adv-x="646" 
d="M558 0h-471l111 700h471zM270 627l-87 -554h302l88 554h-303z" />
    <glyph glyph-name="NULL" horiz-adv-x="0" 
 />
    <glyph glyph-name="CR" horiz-adv-x="333" 
 />
    <glyph glyph-name="space" unicode=" " horiz-adv-x="260" 
 />
    <glyph glyph-name="exclam" unicode="!" horiz-adv-x="311" 
d="M240 225h-99l52 475h146zM166 -8c-40 0 -71 31 -71 71c0 39 31 70 71 70c37 0 70 -31 70 -70c0 -40 -31 -71 -70 -71z" />
    <glyph glyph-name="quotedbl" unicode="&#x22;" horiz-adv-x="375" 
d="M205 424h-94l44 276h94zM398 424h-94l44 276h94z" />
    <glyph glyph-name="numbersign" unicode="#" horiz-adv-x="733" 
d="M273 0h-85l28 179h-141l13 83h141l28 175h-141l13 84h141l29 179h85l-28 -179h172l29 179h85l-28 -179h141l-13 -84h-142l-27 -175h141l-12 -83h-143l-28 -179h-85l29 179h-174zM342 437l-27 -175h172l29 175h-174z" />
    <glyph glyph-name="dollar" unicode="$" horiz-adv-x="628" 
d="M360 -11l-15 -100h-108l15 102c-88 11 -154 35 -197 71l18 115c23 -23 59 -44 108 -62c49 -17 98 -26 147 -26c66 0 172 26 172 115c0 51 -59 83 -132 104c-105 29 -244 69 -242 193c0 63 23 113 68 149s103 57 173 62l16 99h108l-17 -103c65 -9 117 -27 158 -54
l-17 -108c-57 37 -143 65 -224 65c-87 0 -152 -33 -152 -98c0 -44 59 -72 132 -93c106 -27 245 -72 243 -202c0 -66 -24 -119 -73 -160c-48 -40 -108 -63 -181 -69z" />
    <glyph glyph-name="percent" unicode="%" horiz-adv-x="819" 
d="M248 0h-91l525 700h90zM290 713c49 0 89 -15 120 -46c31 -30 46 -68 46 -114c0 -49 -17 -91 -52 -126c-34 -35 -76 -53 -126 -53c-49 0 -89 15 -120 46s-46 69 -46 115c0 49 17 90 51 125s76 53 127 53zM278 447c27 0 51 10 70 31s29 46 29 75c0 51 -35 86 -87 86
c-55 0 -98 -47 -98 -104c0 -51 37 -88 86 -88zM652 326c49 0 89 -15 120 -46c31 -30 46 -68 46 -114c0 -49 -17 -91 -52 -126c-34 -35 -76 -53 -126 -53c-49 0 -89 15 -120 46s-46 70 -46 116c0 48 17 89 51 124s76 53 127 53zM640 61c27 0 51 10 70 31s29 46 29 75
c0 51 -35 86 -87 86c-53 0 -98 -47 -98 -104c0 -51 37 -88 86 -88z" />
    <glyph glyph-name="ampersand" unicode="&#x26;" horiz-adv-x="724" 
d="M380 386l161 -196c39 53 65 115 77 188h104c-16 -107 -55 -196 -117 -265l92 -113h-123l-41 50c-60 -42 -127 -63 -201 -63c-75 0 -137 20 -186 61s-74 96 -74 165c0 51 16 96 47 135s68 66 109 81c-17 29 -25 62 -25 99c0 55 19 99 58 133s90 51 153 51
c71 0 146 -29 186 -66l-15 -101c-41 41 -105 73 -168 73c-65 0 -106 -38 -106 -97c0 -35 23 -80 69 -135zM338 82c48 0 92 14 132 41l-186 227c-60 -24 -105 -75 -105 -139c0 -80 67 -129 159 -129z" />
    <glyph glyph-name="quotesingle" unicode="'" horiz-adv-x="182" 
d="M205 424h-94l44 276h94z" />
    <glyph glyph-name="parenleft" unicode="(" horiz-adv-x="346" 
d="M308 706h114c-136 -152 -210 -343 -210 -543c0 -139 36 -262 107 -369h-113c-59 91 -96 225 -96 366c0 216 66 398 198 546z" />
    <glyph glyph-name="parenright" unicode=")" horiz-adv-x="347" 
d="M120 -206h-118c141 159 211 340 211 543c0 139 -36 262 -107 369h113c59 -91 96 -225 96 -366c0 -217 -65 -399 -195 -546z" />
    <glyph glyph-name="asterisk" unicode="*" horiz-adv-x="424" 
d="M299 332h-74l22 123l-116 -63l-27 64l118 61l-99 60l48 64l96 -64l17 123h74l-22 -123l116 64l27 -64l-118 -61l99 -61l-47 -63l-96 63z" />
    <glyph glyph-name="plus" unicode="+" horiz-adv-x="607" 
d="M364 81h-98l32 199h-198l15 97h198l32 199h98l-32 -199h199l-15 -97h-199z" />
    <glyph glyph-name="comma" unicode="," horiz-adv-x="269" 
d="M76 -152h-88l127 280h128z" />
    <glyph glyph-name="hyphen" unicode="-" horiz-adv-x="496" 
d="M431 227h-295l15 97h295z" />
    <glyph glyph-name="period" unicode="." horiz-adv-x="250" 
d="M135 -8c-40 0 -71 31 -71 71c0 39 31 70 71 70c39 0 70 -31 70 -70c0 -40 -31 -71 -70 -71z" />
    <glyph glyph-name="slash" unicode="/" horiz-adv-x="523" 
d="M81 -140h-112l568 932h112z" />
    <glyph glyph-name="zero" unicode="0" horiz-adv-x="704" 
d="M438 713c82 0 147 -29 194 -86s71 -132 71 -224c0 -99 -31 -201 -86 -281c-53 -80 -142 -135 -242 -135c-81 0 -146 29 -193 86s-71 132 -71 225c0 67 12 132 37 194s63 114 114 157s110 64 176 64zM380 90c43 0 82 17 115 50c67 67 98 165 98 260c0 59 -13 108 -40 149
s-66 61 -119 61c-43 0 -82 -17 -116 -50c-67 -67 -98 -165 -98 -260c0 -59 13 -108 40 -149s67 -61 120 -61z" />
    <glyph glyph-name="one" unicode="1" horiz-adv-x="390" 
d="M291 0h-108l93 582l-166 -82l17 107l179 93h96z" />
    <glyph glyph-name="two" unicode="2" horiz-adv-x="577" 
d="M122 531l19 115c60 44 128 66 203 66c65 0 118 -19 161 -56s64 -86 64 -147c0 -96 -57 -174 -184 -274l-172 -137h332l-14 -98h-489l12 80l246 203c56 45 96 83 121 114s37 62 37 95c0 73 -55 118 -135 118c-67 0 -134 -26 -201 -79z" />
    <glyph glyph-name="three" unicode="3" horiz-adv-x="574" 
d="M589 618l-215 -184c51 -8 94 -28 129 -61c36 -32 54 -76 54 -132c0 -77 -28 -139 -84 -185c-55 -46 -125 -69 -208 -69c-90 0 -164 20 -221 60l17 104c58 -44 125 -66 201 -66c50 0 93 13 130 40s56 65 56 113c0 77 -63 123 -159 123c-25 0 -51 -4 -76 -12l12 73l216 182
h-291l16 96h436z" />
    <glyph glyph-name="four" unicode="4" horiz-adv-x="637" 
d="M499 0h-108l29 183h-363l14 84l431 433h108l-67 -423h109l-15 -94h-109zM479 554l-276 -277h232z" />
    <glyph glyph-name="five" unicode="5" horiz-adv-x="590" 
d="M334 450c73 0 131 -20 175 -61c44 -40 66 -90 66 -150c0 -79 -29 -140 -88 -185s-131 -67 -218 -67c-86 0 -155 18 -208 55l16 104c56 -41 120 -61 192 -61c51 0 96 13 135 38c40 25 60 62 60 111c0 73 -63 128 -172 128c-48 0 -100 -8 -157 -24l99 362h365l-14 -97h-283
l-44 -160c21 5 46 7 76 7z" />
    <glyph glyph-name="six" unicode="6" horiz-adv-x="639" 
d="M416 452c61 0 110 -20 148 -59c39 -39 58 -87 58 -145c0 -74 -25 -136 -75 -186c-49 -50 -113 -75 -190 -75s-138 25 -183 75c-44 51 -66 116 -66 196c0 81 14 155 43 224s71 125 126 167c55 43 118 64 188 64c71 0 127 -17 168 -50l-16 -100c-41 34 -92 51 -151 51
c-60 0 -112 -24 -156 -71s-70 -104 -78 -171c45 53 106 80 184 80zM360 84c43 0 79 15 109 45c30 31 45 68 45 112c0 73 -53 125 -133 125c-33 0 -64 -11 -95 -33c-30 -21 -53 -48 -68 -80v-10c0 -43 12 -81 37 -112s60 -47 105 -47z" />
    <glyph glyph-name="seven" unicode="7" horiz-adv-x="561" 
d="M207 0h-117l397 601h-352l16 99h478l-14 -85z" />
    <glyph glyph-name="eight" unicode="8" horiz-adv-x="659" 
d="M519 362c78 -32 117 -86 117 -161c0 -66 -27 -118 -81 -157c-53 -38 -122 -57 -207 -57c-42 0 -82 7 -121 21s-72 37 -100 68c-28 32 -42 70 -42 114c0 92 63 167 168 192c-58 29 -87 75 -87 136c0 58 24 105 72 141s105 54 172 54c61 0 116 -16 165 -48
c49 -31 74 -76 74 -134c0 -80 -51 -142 -130 -169zM407 621c-35 0 -67 -10 -95 -29c-27 -19 -41 -46 -41 -81c0 -31 13 -56 39 -75c27 -19 58 -28 93 -28s67 10 95 29c28 20 42 47 42 82c0 63 -60 102 -133 102zM523 208c0 33 -15 61 -46 83c-30 22 -68 33 -113 33
c-44 0 -82 -11 -115 -34c-32 -22 -48 -52 -48 -91c0 -36 16 -65 47 -87c32 -21 69 -32 112 -32s80 11 113 34s50 55 50 94z" />
    <glyph glyph-name="nine" unicode="9" horiz-adv-x="639" 
d="M331 248c-61 0 -110 19 -149 58c-38 39 -57 88 -57 146c0 74 25 136 74 186c50 50 114 75 191 75s138 -25 182 -76c45 -50 67 -115 67 -195c0 -81 -15 -156 -44 -225s-71 -124 -126 -167c-55 -42 -117 -63 -187 -63c-71 0 -127 17 -168 50l16 100c41 -34 92 -51 151 -51
c60 0 112 23 156 70s70 105 78 172c-45 -53 -106 -80 -184 -80zM387 616c-43 0 -79 -15 -109 -46c-30 -30 -45 -67 -45 -111c0 -73 53 -125 133 -125c33 0 64 11 94 32c31 22 54 49 69 81v10c0 43 -13 81 -38 112s-59 47 -104 47z" />
    <glyph glyph-name="colon" unicode=":" horiz-adv-x="250" 
d="M190 342c-40 0 -71 31 -71 71c0 39 31 70 71 70c37 0 70 -31 70 -70c0 -40 -31 -71 -70 -71zM135 -8c-40 0 -71 31 -71 71c0 39 31 70 71 70c39 0 70 -31 70 -70c0 -40 -31 -71 -70 -71z" />
    <glyph glyph-name="semicolon" unicode=";" horiz-adv-x="267" 
d="M76 -152h-88l127 280h128zM207 342c-40 0 -71 31 -71 71c0 39 31 70 71 70c39 0 70 -31 70 -70c0 -40 -31 -71 -70 -71z" />
    <glyph glyph-name="less" unicode="&#x3c;" horiz-adv-x="607" 
d="M578 176l-17 -105l-461 205l16 101l527 207l-17 -107l-407 -151z" />
    <glyph glyph-name="equal" unicode="=" horiz-adv-x="607" 
d="M83 166l15 97h494l-15 -97h-494zM119 394l15 97h494l-15 -97h-494z" />
    <glyph glyph-name="greater" unicode="&#x3e;" horiz-adv-x="607" 
d="M594 276l-528 -205l17 106l406 150l-358 152l17 105l461 -207z" />
    <glyph glyph-name="question" unicode="?" horiz-adv-x="484" 
d="M152 63c0 39 32 70 71 70s70 -31 70 -70c0 -40 -31 -71 -70 -71s-71 31 -71 71zM301 225h-104l23 149c43 7 84 19 127 42s72 61 72 105c0 56 -49 92 -130 92c-54 0 -112 -17 -173 -50l16 99c52 32 114 48 185 48c56 0 106 -16 149 -47s65 -75 65 -130
c0 -56 -21 -102 -62 -139c-41 -36 -92 -62 -154 -78z" />
    <glyph glyph-name="at" unicode="@" horiz-adv-x="951" 
d="M549 713c117 0 213 -37 288 -110c76 -73 114 -164 114 -271c0 -72 -19 -136 -58 -191s-90 -83 -155 -83s-105 30 -120 73c-46 -51 -99 -76 -160 -76c-56 0 -101 19 -134 56s-49 84 -49 140c0 65 20 121 61 169c41 49 95 73 162 73c64 0 117 -32 145 -68l9 55h100
l-43 -280c-2 -18 -3 -28 -3 -29c0 -47 26 -71 63 -71c41 0 76 23 105 70s43 101 43 161c0 98 -34 181 -101 249s-156 102 -268 102c-77 0 -149 -20 -216 -59s-120 -92 -160 -160s-60 -142 -60 -222c0 -107 34 -195 103 -266s158 -107 265 -107c74 0 146 18 216 55l-6 -37
c-63 -33 -134 -49 -211 -49c-115 0 -210 38 -286 115c-76 76 -114 172 -114 288c0 83 20 161 61 233c41 73 97 131 169 174c73 44 153 66 240 66zM609 208l20 130c-19 36 -62 65 -111 65c-38 0 -70 -14 -97 -41c-26 -27 -39 -61 -39 -101c0 -68 49 -116 116 -116
c43 0 84 26 111 63z" />
    <glyph glyph-name="A" unicode="A" horiz-adv-x="762" 
d="M439 704h106l195 -704h-115l-47 174h-334l-102 -174h-120zM552 271l-80 294l-172 -294h252z" />
    <glyph glyph-name="B" unicode="B" horiz-adv-x="721" 
d="M579 381c72 -13 125 -73 125 -158c0 -69 -25 -123 -74 -163s-112 -60 -188 -60h-355l111 700h305c115 0 188 -58 188 -151c0 -75 -41 -139 -112 -168zM489 599h-197l-29 -181h198c69 0 121 35 121 102c0 49 -34 79 -93 79zM248 321l-35 -220h227c83 0 146 45 146 126
c0 57 -44 94 -116 94h-222z" />
    <glyph glyph-name="C" unicode="C" horiz-adv-x="684" 
d="M227 324c0 -68 22 -124 65 -168c44 -44 102 -66 174 -66c78 0 145 20 202 61l-17 -113c-60 -34 -125 -51 -195 -51c-102 0 -185 31 -248 93c-63 63 -94 142 -94 238c0 113 36 207 109 282s168 113 283 113c82 0 152 -17 211 -52l-18 -106c-55 37 -119 55 -194 55
c-81 0 -147 -27 -200 -81c-52 -54 -78 -122 -78 -205z" />
    <glyph glyph-name="D" unicode="D" horiz-adv-x="780" 
d="M198 700h225c105 0 190 -29 253 -88c64 -59 96 -135 96 -230c0 -124 -43 -219 -130 -284s-201 -98 -343 -98h-212zM292 599l-79 -498h156c87 0 156 26 209 77s80 119 80 204c0 63 -21 115 -64 156s-100 61 -173 61h-129z" />
    <glyph glyph-name="E" unicode="E" horiz-adv-x="647" 
d="M598 0h-511l111 700h498l-16 -101h-388l-28 -175h316l-16 -101h-316l-35 -222h401z" />
    <glyph glyph-name="F" unicode="F" horiz-adv-x="625" 
d="M197 0h-110l111 700h497l-16 -101h-387l-29 -183h307l-16 -101h-307z" />
    <glyph glyph-name="G" unicode="G" horiz-adv-x="773" 
d="M615 145l43 259h110l-50 -313c-73 -69 -163 -104 -270 -104c-99 0 -179 31 -241 93s-93 141 -93 238c0 112 37 206 110 281c73 76 167 114 282 114c92 0 167 -21 225 -62l-18 -106c-55 43 -125 65 -208 65c-81 0 -147 -27 -200 -81c-52 -54 -78 -123 -78 -206
c0 -69 21 -126 64 -169s99 -64 167 -64c59 0 112 18 157 55z" />
    <glyph glyph-name="H" unicode="H" horiz-adv-x="759" 
d="M197 0h-110l111 700h110l-44 -276h365l44 276h110l-111 -700h-110l51 323h-365z" />
    <glyph glyph-name="I" unicode="I" horiz-adv-x="295" 
d="M202 0h-110l111 700h110z" />
    <glyph glyph-name="J" unicode="J" horiz-adv-x="509" 
d="M430 700h110l-77 -487c-23 -151 -110 -226 -261 -226c-71 0 -126 16 -165 47l17 110c31 -32 88 -54 140 -54c95 0 147 43 164 154z" />
    <glyph glyph-name="K" unicode="K" horiz-adv-x="675" 
d="M197 0h-110l110 700h111l-45 -286l334 286h142l-380 -330l324 -370h-137l-296 336z" />
    <glyph glyph-name="L" unicode="L" horiz-adv-x="600" 
d="M570 0h-483l111 700h111l-95 -599h372z" />
    <glyph glyph-name="M" unicode="M" horiz-adv-x="847" 
d="M871 700l-111 -700h-110l84 532l-234 -264h-64l-155 265l-84 -533h-110l111 700h105l178 -316l276 316h114z" />
    <glyph glyph-name="N" unicode="N" horiz-adv-x="772" 
d="M686 0h-92l-317 519l-82 -519h-108l110 700h95l314 -517l82 517h108z" />
    <glyph glyph-name="O" unicode="O" horiz-adv-x="839" 
d="M492 713c102 0 184 -31 246 -94s93 -143 93 -241c0 -109 -36 -201 -109 -277s-163 -114 -271 -114c-101 0 -183 31 -245 94c-61 63 -92 144 -92 241c0 109 36 201 108 277c73 76 163 114 270 114zM454 90c75 0 137 28 188 83s76 124 76 205c0 66 -21 121 -63 165
c-42 45 -97 67 -166 67c-75 0 -137 -28 -187 -83s-75 -123 -75 -204c0 -67 21 -122 62 -167c42 -44 97 -66 165 -66z" />
    <glyph glyph-name="P" unicode="P" horiz-adv-x="662" 
d="M87 0l111 700h288c135 0 217 -73 217 -180c0 -68 -25 -124 -74 -167s-111 -64 -186 -64h-201l-45 -289h-110zM260 390h194c76 0 138 44 138 117c0 57 -40 92 -112 92h-188z" />
    <glyph glyph-name="Q" unicode="Q" horiz-adv-x="839" 
d="M492 713c102 0 184 -31 246 -94s93 -143 93 -241c0 -87 -24 -164 -72 -232s-111 -115 -189 -140c27 -34 61 -51 101 -51c28 0 56 7 83 22l-16 -101c-31 -15 -66 -22 -103 -22c-77 0 -131 43 -200 134c-97 3 -174 36 -233 98c-59 63 -88 141 -88 236c0 109 36 201 108 277
c73 76 163 114 270 114zM454 90c75 0 137 28 188 83s76 124 76 205c0 66 -21 121 -63 165c-42 45 -97 67 -166 67c-75 0 -137 -28 -187 -83s-75 -123 -75 -204c0 -67 21 -122 62 -167c42 -44 97 -66 165 -66z" />
    <glyph glyph-name="R" unicode="R" horiz-adv-x="733" 
d="M538 309l172 -309h-125l-165 296h-176l-47 -296h-110l111 700h303c133 0 213 -73 213 -180c0 -103 -69 -183 -176 -211zM489 599h-197l-33 -206h209c75 0 135 44 135 113c0 59 -42 93 -114 93z" />
    <glyph glyph-name="S" unicode="S" horiz-adv-x="628" 
d="M632 654l-17 -109c-57 37 -143 65 -224 65c-87 0 -152 -32 -152 -97c3 -32 18 -49 55 -65l34 -13l43 -13c19 -5 33 -10 43 -13c59 -19 96 -35 137 -64s63 -72 63 -127c0 -71 -28 -128 -85 -169s-125 -62 -205 -62c-53 0 -105 7 -154 20c-49 14 -88 32 -115 55l18 116
c23 -23 59 -44 108 -62c49 -17 98 -26 147 -26c25 0 50 3 74 9c49 12 98 50 98 105c0 56 -43 75 -143 106l-20 6l-66 21c-16 6 -35 14 -56 25c-57 30 -84 68 -89 139c0 69 26 121 78 157c53 37 118 55 196 55c89 0 179 -23 232 -59z" />
    <glyph glyph-name="T" unicode="T" horiz-adv-x="639" 
d="M128 599l16 101h573l-16 -101h-232l-95 -599h-110l95 599h-231z" />
    <glyph glyph-name="U" unicode="U" horiz-adv-x="744" 
d="M598 282l67 418h110l-67 -421c-15 -94 -52 -166 -111 -217c-59 -50 -129 -75 -211 -75c-81 0 -146 23 -195 68c-48 45 -72 107 -72 186c0 23 2 46 6 70l63 389h110l-63 -397c-3 -20 -5 -37 -5 -51c0 -103 62 -162 167 -162s181 67 201 192z" />
    <glyph glyph-name="V" unicode="V" horiz-adv-x="757" 
d="M399 150l319 550h123l-411 -704h-104l-190 704h119z" />
    <glyph glyph-name="W" unicode="W" horiz-adv-x="1065" 
d="M345 174l253 527h87l86 -526l251 525h123l-350 -704h-97l-84 521l-249 -521h-98l-127 704h119z" />
    <glyph glyph-name="X" unicode="X" horiz-adv-x="717" 
d="M575 0l-167 290l-257 -290h-134l337 379l-183 321h125l133 -232l207 232h131l-284 -320l218 -380h-126z" />
    <glyph glyph-name="Y" unicode="Y" horiz-adv-x="685" 
d="M406 417l246 283h127l-331 -380l-50 -320h-110l50 317l-212 383h124z" />
    <glyph glyph-name="Z" unicode="Z" horiz-adv-x="642" 
d="M688 700l-11 -77l-468 -522h407l-15 -101h-560l13 78l467 521h-372l16 101h523z" />
    <glyph glyph-name="bracketleft" unicode="[" horiz-adv-x="409" 
d="M338 -206h-284l144 912h284l-13 -85h-186l-118 -742h186z" />
    <glyph glyph-name="backslash" unicode="\" horiz-adv-x="522" 
d="M229 792l273 -932h-97l-273 932h97z" />
    <glyph glyph-name="bracketright" unicode="]" horiz-adv-x="409" 
d="M149 706h284l-144 -912h-283l12 85h186l118 742h-186z" />
    <glyph glyph-name="asciicircum" unicode="^" horiz-adv-x="535" 
d="M201 342h-103l233 386h103l111 -386h-103l-74 291z" />
    <glyph glyph-name="underscore" unicode="_" horiz-adv-x="634" 
d="M605 -139h-620l10 74h622z" />
    <glyph glyph-name="grave" unicode="`" horiz-adv-x="522" 
d="M275 715h133l72 -140h-97z" />
    <glyph glyph-name="a" unicode="a" horiz-adv-x="597" 
d="M562 84c9 0 17 1 23 4l-12 -83c-15 -9 -35 -14 -60 -14c-56 0 -88 23 -97 68c-51 -48 -111 -72 -180 -72c-53 0 -96 14 -129 43s-49 65 -49 110c0 55 20 98 60 129s89 46 147 46c64 0 122 -14 173 -43c4 20 6 36 6 48c0 61 -45 91 -136 91c-59 0 -112 -12 -157 -36l16 95
c45 23 103 34 174 34c61 0 112 -14 151 -41s59 -69 59 -126c0 -7 -2 -26 -6 -56l-21 -127c-2 -11 -3 -21 -3 -32c0 -25 14 -38 41 -38zM415 140l10 56c-41 25 -87 38 -139 38c-72 0 -121 -27 -121 -82c0 -47 43 -72 100 -72c63 0 121 28 150 60z" />
    <glyph glyph-name="b" unicode="b" horiz-adv-x="642" 
d="M197 74l-12 -74h-108l111 700h108l-43 -273c49 51 108 77 177 77c63 0 114 -22 153 -67s58 -99 58 -164c0 -77 -24 -144 -73 -201s-112 -85 -191 -85c-83 0 -145 40 -180 87zM391 409c-59 0 -123 -38 -155 -87l-24 -155c11 -22 30 -42 57 -59c28 -17 59 -26 92 -26
c47 0 87 17 120 52s50 77 50 128c0 87 -56 147 -140 147z" />
    <glyph glyph-name="c" unicode="c" horiz-adv-x="515" 
d="M332 -13c-74 0 -135 22 -182 66c-47 45 -71 102 -71 173c0 79 28 145 83 198c56 53 125 80 206 80c60 0 114 -14 161 -41l-15 -92c-42 25 -88 38 -137 38c-54 0 -99 -17 -136 -51c-36 -33 -54 -76 -54 -127c0 -46 16 -82 49 -109s73 -40 122 -40c43 0 86 10 127 31
l-15 -96c-41 -20 -87 -30 -138 -30z" />
    <glyph glyph-name="d" unicode="d" horiz-adv-x="642" 
d="M522 417l45 283h108l-110 -700h-109l10 64c-49 -51 -107 -77 -176 -77c-63 0 -114 22 -153 67s-58 99 -58 164c0 77 24 143 73 200s112 86 191 86c83 0 144 -39 179 -87zM329 82c59 0 123 37 154 86l24 155c-11 23 -30 43 -58 60c-27 17 -58 26 -91 26
c-47 0 -87 -17 -120 -52s-49 -77 -49 -128c0 -87 56 -147 140 -147z" />
    <glyph glyph-name="e" unicode="e" horiz-adv-x="569" 
d="M356 82c55 0 107 14 156 41l-14 -94c-39 -28 -94 -42 -165 -42c-74 0 -135 21 -183 64c-47 43 -71 101 -71 172c0 78 26 144 77 199s116 82 195 82c68 0 121 -21 160 -62s58 -91 58 -150c0 -30 -2 -56 -6 -78h-379c1 -85 73 -132 172 -132zM346 413
c-76 0 -138 -46 -154 -117h273v11c0 60 -46 106 -119 106z" />
    <glyph glyph-name="f" unicode="f" horiz-adv-x="414" 
d="M286 396l-63 -396h-108l63 396h-92l15 95h92l9 59c15 99 79 160 180 160c43 0 80 -7 111 -21l-14 -91c-29 12 -56 18 -83 18c-64 0 -84 -38 -95 -125h161l-15 -95h-161z" />
    <glyph glyph-name="g" unicode="g" horiz-adv-x="635" 
d="M460 34l6 40c-42 -48 -99 -72 -172 -72c-65 0 -117 22 -156 65c-39 44 -59 98 -59 162c0 74 24 138 73 193s112 82 191 82c81 0 146 -40 178 -85l12 72h108l-72 -461c-9 -55 -29 -101 -61 -137c-63 -72 -147 -98 -250 -98c-79 0 -142 15 -189 44l16 99
c48 -32 106 -48 175 -48c117 0 184 48 200 144zM336 97c56 0 116 37 148 85l22 143c-21 43 -80 83 -147 83c-47 0 -87 -16 -120 -49c-33 -32 -49 -73 -49 -123c0 -84 58 -139 146 -139z" />
    <glyph glyph-name="h" unicode="h" horiz-adv-x="612" 
d="M589 268l-42 -268h-108l40 249c4 23 6 42 6 57c0 63 -40 97 -100 97c-57 0 -115 -37 -148 -80l-52 -323h-108l111 700h108l-43 -270c49 49 109 74 179 74c101 0 165 -64 165 -163c0 -15 -3 -39 -8 -73z" />
    <glyph glyph-name="i" unicode="i" horiz-adv-x="279" 
d="M271 491l-77 -491h-108l77 491h108zM171 647c0 39 31 69 68 69c39 0 68 -30 68 -69s-29 -68 -68 -68c-37 0 -68 31 -68 68z" />
    <glyph glyph-name="j" unicode="j" horiz-adv-x="279" 
d="M171 647c0 39 31 69 68 69c39 0 68 -30 68 -69s-29 -68 -68 -68c-37 0 -68 31 -68 68zM91 38l72 453h108l-82 -520c-19 -117 -90 -176 -191 -176c-42 0 -74 7 -95 20l15 94c21 -13 44 -19 69 -19c35 0 59 11 71 32c13 21 24 60 33 116z" />
    <glyph glyph-name="k" unicode="k" horiz-adv-x="565" 
d="M185 0h-108l110 700h109l-63 -393l226 184h141l-277 -229l236 -262h-132l-206 230z" />
    <glyph glyph-name="l" unicode="l" horiz-adv-x="299" 
d="M180 700h108l-85 -540c-3 -15 -4 -27 -4 -36c0 -25 15 -38 45 -38c16 0 30 3 42 9l-15 -93c-19 -10 -45 -15 -76 -15c-71 0 -107 34 -107 101c0 15 2 35 5 58z" />
    <glyph glyph-name="m" unicode="m" horiz-adv-x="924" 
d="M185 0h-108l79 491h108l-11 -64c44 51 100 77 168 77c77 0 135 -37 147 -89c49 59 111 89 186 89c95 0 155 -55 155 -152c0 -19 -2 -37 -5 -56l-48 -296h-108l45 281c2 12 3 23 3 32c0 60 -31 90 -92 90c-51 0 -103 -35 -132 -82l-51 -321h-108l45 280c2 12 3 23 3 33
c0 60 -31 90 -92 90c-49 0 -101 -34 -132 -79z" />
    <glyph glyph-name="n" unicode="n" horiz-adv-x="612" 
d="M589 268l-42 -268h-108l40 249c4 23 6 42 6 57c0 63 -40 97 -100 97c-57 0 -115 -37 -148 -80l-52 -323h-108l78 491h108l-10 -61c49 49 109 74 179 74c101 0 165 -64 165 -163c0 -15 -3 -39 -8 -73z" />
    <glyph glyph-name="o" unicode="o" horiz-adv-x="610" 
d="M353 504c75 0 137 -23 184 -70c48 -46 72 -104 72 -175c0 -74 -26 -138 -79 -192c-53 -53 -118 -80 -197 -80c-75 0 -136 23 -183 70s-71 105 -71 175c0 74 26 138 79 191c53 54 118 81 195 81zM334 82c47 0 86 17 119 52s49 78 49 129c0 87 -60 146 -148 146
c-47 0 -86 -17 -119 -52s-49 -77 -49 -127c0 -88 61 -148 148 -148z" />
    <glyph glyph-name="p" unicode="p" horiz-adv-x="642" 
d="M197 74l-43 -274h-108l109 691h108l-10 -64c49 51 108 77 177 77c63 0 114 -22 153 -67s58 -99 58 -164c0 -77 -24 -144 -73 -201s-112 -85 -191 -85c-83 0 -145 40 -180 87zM391 409c-59 0 -123 -38 -155 -87l-24 -155c11 -22 30 -42 58 -59s59 -26 92 -26
c47 0 86 17 119 52s50 77 50 128c0 87 -56 147 -140 147z" />
    <glyph glyph-name="q" unicode="q" horiz-adv-x="641" 
d="M523 417l12 74h107l-108 -691h-109l42 264c-49 -51 -108 -77 -177 -77c-63 0 -114 22 -153 67s-58 99 -58 164c0 77 24 143 73 200s112 86 191 86c83 0 145 -40 180 -87zM330 82c59 0 123 37 154 86l24 155c-11 23 -30 43 -58 60s-59 26 -92 26c-47 0 -87 -17 -120 -52
s-49 -77 -49 -128c0 -87 57 -147 141 -147z" />
    <glyph glyph-name="r" unicode="r" horiz-adv-x="398" 
d="M185 0h-108l78 491h108l-13 -85c41 57 120 98 196 98c4 0 7 0 10 -1l-17 -108c-9 1 -19 2 -30 2c-77 0 -144 -44 -176 -95z" />
    <glyph glyph-name="s" unicode="s" horiz-adv-x="500" 
d="M503 448l-14 -96c-52 39 -111 59 -178 59s-101 -18 -101 -55c0 -16 7 -27 23 -36c9 -4 14 -7 29 -12c16 -6 40 -13 66 -21c104 -33 154 -72 154 -140c-1 -110 -112 -164 -217 -160c-87 0 -172 28 -220 61l14 96c41 -33 117 -64 205 -64c72 0 108 19 108 58
c0 29 -31 43 -107 67c-120 37 -168 73 -168 140c0 51 20 91 61 118s90 41 148 41c81 0 146 -19 197 -56z" />
    <glyph glyph-name="t" unicode="t" horiz-adv-x="436" 
d="M153 161l37 235h-105l15 95h104l23 143h108l-23 -143h155l-14 -95h-155l-34 -207c-4 -27 -6 -43 -6 -50c0 -35 23 -53 70 -53c25 0 50 6 74 18l-14 -92c-25 -17 -60 -25 -107 -25c-83 0 -135 39 -135 112c0 4 2 25 7 62z" />
    <glyph glyph-name="u" unicode="u" horiz-adv-x="611" 
d="M100 223l42 268h108l-40 -249c-4 -23 -6 -41 -6 -56c0 -63 41 -98 100 -98c57 0 115 37 148 80l52 323h108l-78 -491h-108l10 61c-49 -49 -109 -74 -179 -74c-101 0 -165 64 -165 163c0 15 3 39 8 73z" />
    <glyph glyph-name="v" unicode="v" horiz-adv-x="579" 
d="M308 134l210 357h116l-298 -495h-98l-142 495h113z" />
    <glyph glyph-name="w" unicode="w" horiz-adv-x="823" 
d="M591 154l172 337h109l-251 -495h-92l-67 342l-172 -342h-92l-92 495h104l63 -337l169 339h86z" />
    <glyph glyph-name="x" unicode="x" horiz-adv-x="578" 
d="M484 491h127l-220 -233l164 -258h-117l-115 180l-171 -180h-128l245 258l-146 233h116l99 -156z" />
    <glyph glyph-name="y" unicode="y" horiz-adv-x="573" 
d="M507 491h116l-313 -553c-56 -99 -121 -143 -212 -143c-33 0 -60 6 -83 18l15 96c22 -13 44 -19 67 -19c57 0 101 40 150 128l-151 473h112l106 -358z" />
    <glyph glyph-name="z" unicode="z" horiz-adv-x="516" 
d="M480 0h-445l11 72l320 324h-256l16 95h410l-11 -74l-320 -322h290z" />
    <glyph glyph-name="braceleft" unicode="{" horiz-adv-x="384" 
d="M77 208l14 84c65 7 85 47 97 126l21 135c15 95 82 153 177 153h68l-12 -85h-47c-48 0 -82 -31 -89 -78l-24 -155c-12 -75 -44 -121 -97 -138c38 -13 57 -44 57 -92c0 -11 -2 -30 -6 -58l-18 -112c-4 -26 -6 -43 -6 -50c0 -35 24 -59 65 -59h47l-13 -85h-69
c-83 0 -132 45 -132 121c0 10 3 31 8 63l16 104c4 25 6 43 6 54c0 44 -21 68 -63 72z" />
    <glyph glyph-name="bar" unicode="|" horiz-adv-x="334" 
d="M198 -111h-98l138 871h98z" />
    <glyph glyph-name="braceright" unicode="}" horiz-adv-x="380" 
d="M375 292l-14 -84c-65 -7 -85 -47 -97 -126l-21 -135c-15 -95 -82 -153 -177 -153h-68l12 85h47c48 0 82 31 89 78l24 155c12 75 44 121 97 138c-38 13 -57 44 -57 92c0 11 2 30 6 58l18 112c4 26 6 43 6 50c0 35 -24 59 -65 59h-47l13 85h69c83 0 132 -45 132 -121
c0 -10 -3 -31 -8 -63l-16 -104c-4 -25 -6 -43 -6 -54c0 -44 21 -68 63 -72z" />
    <glyph glyph-name="asciitilde" unicode="~" horiz-adv-x="585" 
d="M460 278c47 0 87 15 119 46l-15 -99c-24 -27 -64 -41 -119 -41c-30 0 -70 9 -120 26c-49 18 -89 27 -120 27c-47 0 -86 -15 -118 -46l15 98c23 25 70 42 119 42c30 0 70 -9 119 -27c49 -17 89 -26 120 -26z" />
    <glyph glyph-name="nbspace" unicode="&#xa0;" horiz-adv-x="260" 
 />
    <glyph glyph-name="exclamdown" unicode="&#xa1;" horiz-adv-x="311" 
d="M145 270h100l-51 -470h-146zM170 478c28 28 72 28 99 0c28 -27 28 -71 0 -99c-27 -28 -71 -28 -99 0c-27 28 -27 72 0 99z" />
    <glyph glyph-name="cent" unicode="&#xa2;" horiz-adv-x="515" 
d="M348 -12l-16 -105h-91l18 113c-109 27 -180 114 -180 230c0 74 25 137 74 188c49 52 111 81 186 88l17 106h91l-18 -109c35 -7 68 -19 100 -36l-15 -92c-42 25 -88 38 -137 38c-54 0 -99 -17 -136 -51c-36 -33 -54 -76 -54 -127c0 -46 16 -82 49 -109s73 -40 122 -40
c43 0 86 10 127 31l-15 -96c-37 -17 -77 -27 -122 -29z" />
    <glyph glyph-name="sterling" unicode="&#xa3;" horiz-adv-x="594" 
d="M95 289l14 89h77l18 110c24 145 123 225 274 225c64 0 116 -13 157 -39l-16 -104c-38 27 -84 40 -137 40c-96 0 -158 -52 -173 -148l-13 -84h249l-14 -89h-249l-20 -126c-5 -31 -17 -52 -36 -64h331l-16 -99h-491l15 99h17c24 0 42 11 51 22c5 5 9 14 13 25
c8 24 9 32 13 60l13 83h-77z" />
    <glyph glyph-name="currency" unicode="&#xa4;" horiz-adv-x="569" 
d="M219 181l-65 -65l-48 47l65 66c-25 35 -38 75 -38 122s13 87 38 122l-65 65l48 48l65 -65c35 27 76 40 122 40s87 -13 122 -40l65 65l49 -48l-66 -65c26 -35 39 -76 39 -122s-13 -87 -39 -122l66 -66l-49 -47l-65 64c-36 -26 -77 -39 -122 -39c-46 0 -87 13 -122 40z
M251 260c25 -25 55 -37 90 -37s65 12 89 37c25 25 37 56 37 91s-12 65 -37 90c-24 25 -54 38 -89 38s-65 -13 -90 -38c-24 -25 -36 -55 -36 -90s12 -66 36 -91z" />
    <glyph glyph-name="yen" unicode="&#xa5;" horiz-adv-x="652" 
d="M86 134l12 79h203l13 83h-202l12 78h166l-166 326h123l138 -283l230 283h128l-270 -326h167l-13 -78h-203l-13 -83h203l-13 -79h-203l-20 -134h-110l20 134h-202z" />
    <glyph glyph-name="brokenbar" unicode="&#xa6;" horiz-adv-x="334" 
d="M198 -111h-98l56 353h98zM280 407h-98l56 353h98z" />
    <glyph glyph-name="section" unicode="&#xa7;" horiz-adv-x="646" 
d="M423 452c43 -12 65 -20 109 -41c61 -28 101 -71 105 -137c0 -73 -50 -126 -126 -157c35 -27 52 -60 52 -99c0 -61 -25 -106 -74 -135c-49 -30 -111 -45 -186 -45c-88 0 -173 25 -221 57l14 107c69 -41 141 -62 217 -62c50 0 137 11 137 68c0 41 -46 63 -143 92
c-43 12 -65 20 -109 41c-61 28 -101 71 -105 137c0 73 50 126 126 157c-35 27 -52 60 -52 99c0 60 24 105 73 134c49 30 112 45 187 45c88 0 173 -25 221 -57l-14 -106c-69 41 -141 62 -217 62c-50 0 -137 -11 -137 -68c0 -41 46 -63 143 -92zM346 194l90 -31
c53 13 97 45 97 94c0 16 -9 31 -26 44c-17 14 -33 24 -50 31c-16 7 -40 15 -73 26l-90 31c-53 -13 -97 -45 -97 -94c0 -16 8 -31 25 -45c17 -13 34 -23 50 -30c17 -7 41 -15 74 -26z" />
    <glyph glyph-name="dieresis" unicode="&#xa8;" horiz-adv-x="522" 
d="M214 605c-24 24 -24 62 0 85c24 24 62 24 85 0c23 -23 23 -61 0 -85c-23 -23 -61 -23 -85 0zM421 605c-24 24 -24 62 0 85c24 24 62 24 85 0c23 -23 23 -61 0 -85c-23 -23 -61 -23 -85 0z" />
    <glyph glyph-name="copyright" unicode="&#xa9;" horiz-adv-x="851" 
d="M119 350c0 99 35 185 106 256s156 107 256 107c101 0 186 -36 256 -107c71 -71 106 -156 106 -256c0 -99 -35 -185 -106 -256s-156 -107 -257 -107s-186 35 -256 106s-105 157 -105 257zM502 153c-57 0 -106 19 -145 57s-58 85 -58 140s19 102 58 139c39 38 87 57 145 57
c38 0 72 -8 101 -23v-73c-30 19 -64 29 -101 29c-73 0 -128 -54 -128 -129c0 -76 56 -129 132 -129c41 0 77 11 106 34v-73c-31 -19 -67 -29 -110 -29zM809 350c0 92 -32 170 -96 235c-63 65 -141 98 -232 98s-169 -33 -233 -98s-96 -144 -96 -235c0 -92 32 -171 95 -236
c64 -65 142 -97 233 -97s169 33 233 98s96 144 96 235z" />
    <glyph glyph-name="ordfeminine" unicode="&#xaa;" horiz-adv-x="492" 
d="M387 430l7 45c-32 19 -69 29 -110 29c-56 0 -95 -21 -95 -65c0 -37 35 -58 84 -58c45 0 83 16 114 49zM491 384c7 0 13 1 18 4l-8 -59c-13 -7 -28 -10 -44 -10c-42 0 -66 18 -71 53c-37 -37 -83 -56 -137 -56c-80 0 -135 47 -135 115c0 42 15 74 46 97s68 34 111 34
c48 0 92 -11 132 -34c4 21 6 35 6 42c0 47 -35 71 -104 71c-44 0 -84 -10 -120 -29l10 67c37 18 81 27 132 27c91 0 156 -40 156 -125c0 -9 -2 -24 -5 -44l-14 -88c-3 -17 -4 -29 -4 -35c0 -20 10 -30 31 -30z" />
    <glyph glyph-name="guillemotleft" unicode="&#xab;" horiz-adv-x="588" 
d="M531 38h-108l-115 180l9 55l171 181h112l-196 -214zM293 38h-108l-116 180l9 55l171 181h112l-196 -214z" />
    <glyph glyph-name="logicalnot" unicode="&#xac;" horiz-adv-x="560" 
d="M525 145h-97l26 166h-349l16 97h446z" />
    <glyph glyph-name="uni00AD" unicode="&#xad;" horiz-adv-x="496" 
d="M431 227h-295l15 97h295z" />
    <glyph glyph-name="registered" unicode="&#xae;" horiz-adv-x="851" 
d="M119 350c0 99 35 185 106 256s156 107 256 107c101 0 186 -36 256 -107c71 -71 106 -156 106 -256c0 -99 -35 -185 -106 -256s-156 -107 -257 -107s-186 35 -256 106s-105 157 -105 257zM404 168h-72v380h176c80 0 128 -45 128 -112c0 -51 -29 -90 -80 -103l119 -165h-81
l-113 156h-77v-156zM404 486v-102h100c37 0 59 19 59 50c0 35 -20 52 -59 52h-100zM809 350c0 92 -32 170 -96 235c-63 65 -141 98 -232 98s-169 -33 -233 -98s-96 -144 -96 -235c0 -92 32 -171 95 -236c64 -65 142 -97 233 -97s169 33 233 98s96 144 96 235z" />
    <glyph glyph-name="overscore" unicode="&#xaf;" horiz-adv-x="519" 
d="M198 609l11 74h317l-13 -74h-315z" />
    <glyph glyph-name="degree" unicode="&#xb0;" horiz-adv-x="406" 
d="M354 622c-35 36 -91 36 -126 0c-35 -35 -35 -93 0 -128s91 -35 126 0s35 93 0 128zM181 667c31 31 68 46 110 46s78 -15 109 -46s47 -67 47 -109s-16 -78 -47 -109c-31 -30 -67 -45 -109 -45s-79 15 -110 45c-31 31 -46 67 -46 109s15 78 46 109z" />
    <glyph glyph-name="plusminus" unicode="&#xb1;" horiz-adv-x="607" 
d="M383 202h-98l27 167h-198l15 97h198l27 169h98l-27 -169h199l-15 -97h-199zM556 36h-495l15 96h495z" />
    <glyph glyph-name="twosuperior" unicode="&#xb2;" horiz-adv-x="350" 
d="M136 586l15 90c31 21 67 31 110 31c75 0 132 -44 132 -116c0 -52 -30 -93 -98 -145l-65 -50h153l-12 -74h-281l12 63l124 98c56 44 76 65 76 93c0 29 -23 49 -59 49c-34 0 -70 -13 -107 -39z" />
    <glyph glyph-name="threesuperior" unicode="&#xb3;" horiz-adv-x="332" 
d="M397 700l-10 -65l-96 -76c45 -12 81 -47 81 -102c0 -85 -69 -142 -165 -142c-54 0 -97 11 -129 34l14 82c29 -25 66 -38 111 -38c44 0 82 22 82 61c0 28 -27 49 -68 49c-19 0 -37 -3 -54 -9l8 55l100 77h-138l13 74h251z" />
    <glyph glyph-name="acute" unicode="&#xb4;" horiz-adv-x="480" 
d="M360 575h-99l118 140h135z" />
    <glyph glyph-name="mu" unicode="&#xb5;" horiz-adv-x="624" 
d="M172 13l-18 -213h-108l109 691h108l-40 -249c-4 -23 -6 -42 -6 -57c0 -63 41 -98 100 -98c57 0 115 38 148 81l52 323h108l-78 -491h-108l10 61c-49 -49 -109 -74 -179 -74c-39 0 -71 9 -98 26z" />
    <glyph glyph-name="paragraph" unicode="&#xb6;" horiz-adv-x="550" 
d="M381 700h191l-110 -700h-110l48 302h-82c-127 0 -202 70 -202 171c0 69 25 124 76 165s114 62 189 62z" />
    <glyph glyph-name="middot" unicode="&#xb7;" horiz-adv-x="250" 
d="M175 315c-40 0 -71 31 -71 71c0 39 31 70 71 70c39 0 70 -33 70 -70c0 -40 -31 -71 -70 -71z" />
    <glyph glyph-name="cedilla" unicode="&#xb8;" horiz-adv-x="493" 
d="M230 8h88l-78 -146h-126z" />
    <glyph glyph-name="onesuperior" unicode="&#xb9;" horiz-adv-x="273" 
d="M261 322h-89l45 287l-109 -53l13 88l114 56h85z" />
    <glyph glyph-name="ordmasculine" unicode="&#xba;" horiz-adv-x="461" 
d="M317 706c57 0 104 -18 141 -53s56 -79 56 -132c0 -56 -20 -104 -61 -145c-40 -40 -90 -60 -150 -60c-57 0 -104 18 -141 53c-37 36 -56 81 -56 134c0 55 20 102 60 142c41 41 91 61 151 61zM303 390c35 0 64 13 88 38c24 26 36 57 36 94c0 63 -45 108 -110 108
c-35 0 -64 -13 -88 -38s-36 -55 -36 -92c0 -63 46 -110 110 -110z" />
    <glyph glyph-name="guillemotright" unicode="&#xbb;" horiz-adv-x="588" 
d="M124 454h108l116 -181l-9 -55l-171 -180h-112l196 214zM363 454h108l116 -181l-10 -55l-171 -180h-111l196 214z" />
    <glyph glyph-name="onequarter" unicode="&#xbc;" horiz-adv-x="764" 
d="M108 0l529 700h98l-529 -700h-98zM262 322h-89l45 287l-109 -53l13 88l114 56h85zM692 0h-86l15 92h-192l11 63l223 223h90l-35 -217h55l-12 -69h-54zM651 278l-120 -117h101z" />
    <glyph glyph-name="onehalf" unicode="&#xbd;" horiz-adv-x="816" 
d="M108 0l529 700h98l-529 -700h-98zM262 322h-89l45 287l-109 -53l13 88l114 56h85zM552 264l15 90c31 21 67 31 110 31c75 0 132 -44 132 -116c0 -52 -30 -93 -98 -145l-65 -50h153l-12 -74h-281l12 63l124 98c56 44 76 65 76 93c0 29 -23 49 -59 49
c-34 0 -70 -13 -107 -39z" />
    <glyph glyph-name="threequarters" unicode="&#xbe;" horiz-adv-x="805" 
d="M733 0h-86l15 92h-192l11 63l223 223h90l-35 -217h55l-12 -69h-54zM692 278l-120 -117h101zM397 700l-10 -65l-96 -76c45 -12 81 -47 81 -102c0 -85 -69 -142 -165 -142c-54 0 -97 11 -129 34l14 82c29 -25 66 -38 111 -38c44 0 82 22 82 61c0 28 -27 49 -68 49
c-19 0 -37 -3 -54 -9l8 55l100 77h-138l13 74h251zM148 0l529 700h98l-529 -700h-98z" />
    <glyph glyph-name="questiondown" unicode="&#xbf;" horiz-adv-x="484" 
d="M415 428c0 -39 -30 -70 -69 -70s-71 31 -71 70c0 40 32 71 71 71s69 -31 69 -71zM267 270h104l-22 -142c-43 -7 -84 -18 -127 -41s-72 -60 -72 -105c0 -56 49 -90 130 -90c54 0 112 17 173 50l-16 -100c-53 -31 -114 -47 -184 -47c-55 0 -105 15 -149 46s-66 74 -66 129
c0 57 20 103 61 139s93 62 155 77z" />
    <glyph glyph-name="Agrave" unicode="&#xc0;" horiz-adv-x="762" 
d="M439 704h106l195 -704h-115l-47 174h-334l-102 -174h-120zM552 271l-80 294l-172 -294h252zM347 902h133l72 -140h-97z" />
    <glyph glyph-name="Aacute" unicode="&#xc1;" horiz-adv-x="762" 
d="M439 704h106l195 -704h-115l-47 174h-334l-102 -174h-120zM552 271l-80 294l-172 -294h252zM549 762h-99l118 140h135z" />
    <glyph glyph-name="Acircumflex" unicode="&#xc2;" horiz-adv-x="762" 
d="M439 704h106l195 -704h-115l-47 174h-334l-102 -174h-120zM552 271l-80 294l-172 -294h252zM428 762h-100l140 140h108l92 -140h-98l-57 86z" />
    <glyph glyph-name="Atilde" unicode="&#xc3;" horiz-adv-x="762" 
d="M439 704h106l195 -704h-115l-47 174h-334l-102 -174h-120zM552 271l-80 294l-172 -294h252zM632 891h59c-11 -69 -59 -123 -115 -123c-21 0 -45 9 -72 26c-26 18 -46 27 -60 27c-24 0 -41 -16 -51 -47h-59c12 72 59 122 116 122c21 0 44 -9 70 -26s46 -26 60 -26
c25 0 43 16 52 47z" />
    <glyph glyph-name="Adieresis" unicode="&#xc4;" horiz-adv-x="762" 
d="M439 704h106l195 -704h-115l-47 174h-334l-102 -174h-120zM552 271l-80 294l-172 -294h252zM553 831c0 35 27 62 62 62s61 -27 61 -62s-28 -62 -61 -62s-62 29 -62 62zM402 769c-35 0 -62 29 -62 62c-4 54 71 83 105 44c40 -35 9 -110 -43 -106z" />
    <glyph glyph-name="Aring" unicode="&#xc5;" horiz-adv-x="762" 
d="M439 704h106l195 -704h-115l-47 174h-334l-102 -174h-120zM552 271l-80 294l-172 -294h252zM503 735c-55 0 -99 43 -99 98s44 99 99 99c53 0 98 -46 98 -99s-45 -98 -98 -98zM503 783c27 0 50 22 50 50s-23 51 -50 51c-66 3 -66 -105 0 -101z" />
    <glyph glyph-name="AE" unicode="&#xc6;" horiz-adv-x="1048" 
d="M999 0h-505l28 176h-268l-131 -176h-123l521 700h576l-16 -99h-381l-28 -178h309l-16 -99h-309l-36 -225h394zM324 270h213l52 331h-19z" />
    <glyph glyph-name="Ccedilla" unicode="&#xc7;" horiz-adv-x="684" 
d="M227 324c0 -68 22 -124 65 -168c44 -44 102 -66 174 -66c78 0 145 20 202 61l-17 -113c-54 -31 -112 -47 -175 -50l-67 -126h-126l104 131c-83 13 -150 50 -199 109s-74 131 -74 216c0 113 36 207 109 282s168 113 283 113c82 0 152 -17 211 -52l-18 -106
c-55 37 -119 55 -194 55c-81 0 -147 -27 -200 -81c-52 -54 -78 -122 -78 -205z" />
    <glyph glyph-name="Egrave" unicode="&#xc8;" horiz-adv-x="647" 
d="M598 0h-511l111 700h498l-16 -101h-388l-28 -175h316l-16 -101h-316l-35 -222h401zM327 902h133l72 -140h-97z" />
    <glyph glyph-name="Eacute" unicode="&#xc9;" horiz-adv-x="647" 
d="M598 0h-511l111 700h498l-16 -101h-388l-28 -175h316l-16 -101h-316l-35 -222h401zM454 762h-99l118 140h135z" />
    <glyph glyph-name="Ecircumflex" unicode="&#xca;" horiz-adv-x="647" 
d="M598 0h-511l111 700h498l-16 -101h-388l-28 -175h316l-16 -101h-316l-35 -222h401zM386 762h-100l140 140h108l92 -140h-98l-57 86z" />
    <glyph glyph-name="Edieresis" unicode="&#xcb;" horiz-adv-x="647" 
d="M598 0h-511l111 700h498l-16 -101h-388l-28 -175h316l-16 -101h-316l-35 -222h401zM568 769c-35 0 -62 29 -62 62c-4 54 71 83 105 44c40 -35 9 -110 -43 -106zM293 831c0 35 27 62 62 62s61 -27 61 -62s-28 -62 -61 -62s-62 29 -62 62z" />
    <glyph glyph-name="Igrave" unicode="&#xcc;" horiz-adv-x="295" 
d="M202 0h-110l111 700h110zM111 902h133l72 -140h-97z" />
    <glyph glyph-name="Iacute" unicode="&#xcd;" horiz-adv-x="295" 
d="M202 0h-110l111 700h110zM314 762h-99l118 140h135z" />
    <glyph glyph-name="Icircumflex" unicode="&#xce;" horiz-adv-x="295" 
d="M196 762h-100l140 140h108l92 -140h-98l-57 86zM202 0h-110l111 700h110z" />
    <glyph glyph-name="Idieresis" unicode="&#xcf;" horiz-adv-x="295" 
d="M202 0h-110l111 700h110zM382 769c-35 0 -62 29 -62 62c-4 54 71 83 105 44c40 -35 9 -110 -43 -106zM107 831c0 35 27 62 62 62s61 -27 61 -62s-28 -62 -61 -62s-62 29 -62 62z" />
    <glyph glyph-name="Eth" unicode="&#xd0;" horiz-adv-x="828" 
d="M246 700h225c105 0 190 -29 253 -88c64 -59 96 -135 96 -230c0 -124 -43 -219 -130 -284s-201 -98 -343 -98h-212l49 312h-102l17 99h101zM294 312l-33 -211h156c87 0 156 26 209 77s80 119 80 204c0 63 -21 115 -64 156s-100 61 -173 61h-129l-30 -188h153l-17 -99h-152
z" />
    <glyph glyph-name="Ntilde" unicode="&#xd1;" horiz-adv-x="772" 
d="M686 0h-92l-317 519l-82 -519h-108l110 700h95l314 -517l82 517h108zM641 891h59c-11 -69 -59 -123 -115 -123c-21 0 -45 9 -72 26c-26 18 -46 27 -60 27c-24 0 -41 -16 -51 -47h-59c12 72 59 122 116 122c21 0 44 -9 70 -26s46 -26 60 -26c25 0 43 16 52 47z" />
    <glyph glyph-name="Ograve" unicode="&#xd2;" horiz-adv-x="839" 
d="M492 713c102 0 184 -31 246 -94s93 -143 93 -241c0 -109 -36 -201 -109 -277s-163 -114 -271 -114c-101 0 -183 31 -245 94c-61 63 -92 144 -92 241c0 109 36 201 108 277c73 76 163 114 270 114zM454 90c75 0 137 28 188 83s76 124 76 205c0 66 -21 121 -63 165
c-42 45 -97 67 -166 67c-75 0 -137 -28 -187 -83s-75 -123 -75 -204c0 -67 21 -122 62 -167c42 -44 97 -66 165 -66zM392 902h133l72 -140h-97z" />
    <glyph glyph-name="Oacute" unicode="&#xd3;" horiz-adv-x="839" 
d="M492 713c102 0 184 -31 246 -94s93 -143 93 -241c0 -109 -36 -201 -109 -277s-163 -114 -271 -114c-101 0 -183 31 -245 94c-61 63 -92 144 -92 241c0 109 36 201 108 277c73 76 163 114 270 114zM454 90c75 0 137 28 188 83s76 124 76 205c0 66 -21 121 -63 165
c-42 45 -97 67 -166 67c-75 0 -137 -28 -187 -83s-75 -123 -75 -204c0 -67 21 -122 62 -167c42 -44 97 -66 165 -66zM541 762h-99l118 140h135z" />
    <glyph glyph-name="Ocircumflex" unicode="&#xd4;" horiz-adv-x="839" 
d="M492 713c102 0 184 -31 246 -94s93 -143 93 -241c0 -109 -36 -201 -109 -277s-163 -114 -271 -114c-101 0 -183 31 -245 94c-61 63 -92 144 -92 241c0 109 36 201 108 277c73 76 163 114 270 114zM454 90c75 0 137 28 188 83s76 124 76 205c0 66 -21 121 -63 165
c-42 45 -97 67 -166 67c-75 0 -137 -28 -187 -83s-75 -123 -75 -204c0 -67 21 -122 62 -167c42 -44 97 -66 165 -66zM458 762h-100l140 140h108l92 -140h-98l-57 86z" />
    <glyph glyph-name="Otilde" unicode="&#xd5;" horiz-adv-x="839" 
d="M492 713c102 0 184 -31 246 -94s93 -143 93 -241c0 -109 -36 -201 -109 -277s-163 -114 -271 -114c-101 0 -183 31 -245 94c-61 63 -92 144 -92 241c0 109 36 201 108 277c73 76 163 114 270 114zM454 90c75 0 137 28 188 83s76 124 76 205c0 66 -21 121 -63 165
c-42 45 -97 67 -166 67c-75 0 -137 -28 -187 -83s-75 -123 -75 -204c0 -67 21 -122 62 -167c42 -44 97 -66 165 -66zM661 891h59c-11 -69 -59 -123 -115 -123c-21 0 -45 9 -72 26c-26 18 -46 27 -60 27c-24 0 -41 -16 -51 -47h-59c12 72 59 122 116 122c21 0 44 -9 70 -26
s46 -26 60 -26c25 0 43 16 52 47z" />
    <glyph glyph-name="Odieresis" unicode="&#xd6;" horiz-adv-x="839" 
d="M492 713c102 0 184 -31 246 -94s93 -143 93 -241c0 -109 -36 -201 -109 -277s-163 -114 -271 -114c-101 0 -183 31 -245 94c-61 63 -92 144 -92 241c0 109 36 201 108 277c73 76 163 114 270 114zM454 90c75 0 137 28 188 83s76 124 76 205c0 66 -21 121 -63 165
c-42 45 -97 67 -166 67c-75 0 -137 -28 -187 -83s-75 -123 -75 -204c0 -67 21 -122 62 -167c42 -44 97 -66 165 -66zM638 769c-35 0 -62 29 -62 62c-4 54 71 83 105 44c40 -35 9 -110 -43 -106zM363 831c0 35 27 62 62 62s61 -27 61 -62s-28 -62 -61 -62s-62 29 -62 62z" />
    <glyph glyph-name="multiply" unicode="&#xd7;" horiz-adv-x="562" 
d="M326 260l-175 -150l-60 71l174 150l-127 152l77 65l126 -151l175 151l59 -71l-173 -152l127 -150l-77 -65z" />
    <glyph glyph-name="Oslash" unicode="&#xd8;" horiz-adv-x="839" 
d="M492 713c87 0 161 -24 220 -72l58 59h96l-105 -107c47 -59 70 -131 70 -215c0 -109 -36 -201 -109 -277s-163 -114 -271 -114c-85 0 -158 23 -217 70l-56 -57h-96l103 105c-47 60 -71 132 -71 217c0 109 36 201 108 277c73 76 163 114 270 114zM227 323
c0 -52 13 -97 38 -136l369 375c-41 32 -89 48 -145 48c-75 0 -137 -28 -187 -83s-75 -123 -75 -204zM454 90c75 0 137 28 188 83s76 124 76 205c0 49 -13 93 -38 133l-368 -375c39 -31 87 -46 142 -46z" />
    <glyph glyph-name="Ugrave" unicode="&#xd9;" horiz-adv-x="744" 
d="M598 282l67 418h110l-67 -421c-15 -94 -52 -166 -111 -217c-59 -50 -129 -75 -211 -75c-81 0 -146 23 -195 68c-48 45 -72 107 -72 186c0 23 2 46 6 70l63 389h110l-63 -397c-3 -20 -5 -37 -5 -51c0 -103 62 -162 167 -162s181 67 201 192zM356 902h133l72 -140h-97z" />
    <glyph glyph-name="Uacute" unicode="&#xda;" horiz-adv-x="744" 
d="M598 282l67 418h110l-67 -421c-15 -94 -52 -166 -111 -217c-59 -50 -129 -75 -211 -75c-81 0 -146 23 -195 68c-48 45 -72 107 -72 186c0 23 2 46 6 70l63 389h110l-63 -397c-3 -20 -5 -37 -5 -51c0 -103 62 -162 167 -162s181 67 201 192zM507 762h-99l118 140h135z" />
    <glyph glyph-name="Ucircumflex" unicode="&#xdb;" horiz-adv-x="744" 
d="M598 282l67 418h110l-67 -421c-15 -94 -52 -166 -111 -217c-59 -50 -129 -75 -211 -75c-81 0 -146 23 -195 68c-48 45 -72 107 -72 186c0 23 2 46 6 70l63 389h110l-63 -397c-3 -20 -5 -37 -5 -51c0 -103 62 -162 167 -162s181 67 201 192zM422 762h-100l140 140h108
l92 -140h-98l-57 86z" />
    <glyph glyph-name="Udieresis" unicode="&#xdc;" horiz-adv-x="744" 
d="M598 282l67 418h110l-67 -421c-15 -94 -52 -166 -111 -217c-59 -50 -129 -75 -211 -75c-81 0 -146 23 -195 68c-48 45 -72 107 -72 186c0 23 2 46 6 70l63 389h110l-63 -397c-3 -20 -5 -37 -5 -51c0 -103 62 -162 167 -162s181 67 201 192zM547 831c0 35 27 62 62 62
s61 -27 61 -62s-28 -62 -61 -62s-62 29 -62 62zM396 769c-35 0 -62 29 -62 62c-4 54 71 83 105 44c40 -35 9 -110 -43 -106z" />
    <glyph glyph-name="Yacute" unicode="&#xdd;" horiz-adv-x="685" 
d="M406 417l246 283h127l-331 -380l-50 -320h-110l50 317l-212 383h124zM461 762h-99l118 140h135z" />
    <glyph glyph-name="Thorn" unicode="&#xde;" horiz-adv-x="662" 
d="M308 700l-23 -146h178c135 0 217 -73 217 -180c0 -68 -25 -124 -74 -167s-111 -64 -186 -64h-201l-22 -143h-110l111 700h110zM237 244h194c76 0 138 44 138 117c0 57 -40 92 -112 92h-188z" />
    <glyph glyph-name="germandbls" unicode="&#xdf;" horiz-adv-x="622" 
d="M378 -13c-47 0 -82 6 -106 18l15 94c23 -11 50 -17 83 -17c39 0 72 12 100 37s42 56 42 95c0 67 -56 119 -143 119h-24l15 92h33c65 1 116 39 116 103c0 51 -41 88 -106 88c-69 0 -125 -42 -140 -129l-78 -487h-108l78 493c21 136 122 217 251 217c58 0 107 -16 147 -47
c41 -31 61 -71 61 -122c0 -73 -44 -135 -120 -162c67 -20 122 -81 122 -165c0 -66 -23 -120 -68 -163s-101 -64 -170 -64z" />
    <glyph glyph-name="agrave" unicode="&#xe0;" horiz-adv-x="597" 
d="M562 84c9 0 17 1 23 4l-12 -83c-15 -9 -35 -14 -60 -14c-56 0 -88 23 -97 68c-51 -48 -111 -72 -180 -72c-53 0 -96 14 -129 43s-49 65 -49 110c0 55 20 98 60 129s89 46 147 46c64 0 122 -14 173 -43c4 20 6 36 6 48c0 61 -45 91 -136 91c-59 0 -112 -12 -157 -36l16 95
c45 23 103 34 174 34c61 0 112 -14 151 -41s59 -69 59 -126c0 -7 -2 -26 -6 -56l-21 -127c-2 -11 -3 -21 -3 -32c0 -25 14 -38 41 -38zM415 140l10 56c-41 25 -87 38 -139 38c-72 0 -121 -27 -121 -82c0 -47 43 -72 100 -72c63 0 121 28 150 60zM271 715h133l72 -140h-97z
" />
    <glyph glyph-name="aacute" unicode="&#xe1;" horiz-adv-x="597" 
d="M562 84c9 0 17 1 23 4l-12 -83c-15 -9 -35 -14 -60 -14c-56 0 -88 23 -97 68c-51 -48 -111 -72 -180 -72c-53 0 -96 14 -129 43s-49 65 -49 110c0 55 20 98 60 129s89 46 147 46c64 0 122 -14 173 -43c4 20 6 36 6 48c0 61 -45 91 -136 91c-59 0 -112 -12 -157 -36l16 95
c45 23 103 34 174 34c61 0 112 -14 151 -41s59 -69 59 -126c0 -7 -2 -26 -6 -56l-21 -127c-2 -11 -3 -21 -3 -32c0 -25 14 -38 41 -38zM415 140l10 56c-41 25 -87 38 -139 38c-72 0 -121 -27 -121 -82c0 -47 43 -72 100 -72c63 0 121 28 150 60zM422 575h-99l118 140h135z
" />
    <glyph glyph-name="acircumflex" unicode="&#xe2;" horiz-adv-x="597" 
d="M562 84c9 0 17 1 23 4l-12 -83c-15 -9 -35 -14 -60 -14c-56 0 -88 23 -97 68c-51 -48 -111 -72 -180 -72c-53 0 -96 14 -129 43s-49 65 -49 110c0 55 20 98 60 129s89 46 147 46c64 0 122 -14 173 -43c4 20 6 36 6 48c0 61 -45 91 -136 91c-59 0 -112 -12 -157 -36l16 95
c45 23 103 34 174 34c61 0 112 -14 151 -41s59 -69 59 -126c0 -7 -2 -26 -6 -56l-21 -127c-2 -11 -3 -21 -3 -32c0 -25 14 -38 41 -38zM415 140l10 56c-41 25 -87 38 -139 38c-72 0 -121 -27 -121 -82c0 -47 43 -72 100 -72c63 0 121 28 150 60zM307 575h-102l138 140h108
l93 -140h-95l-58 86z" />
    <glyph glyph-name="atilde" unicode="&#xe3;" horiz-adv-x="597" 
d="M562 84c9 0 17 1 23 4l-12 -83c-15 -9 -35 -14 -60 -14c-56 0 -88 23 -97 68c-51 -48 -111 -72 -180 -72c-53 0 -96 14 -129 43s-49 65 -49 110c0 55 20 98 60 129s89 46 147 46c64 0 122 -14 173 -43c4 20 6 36 6 48c0 61 -45 91 -136 91c-59 0 -112 -12 -157 -36l16 95
c45 23 103 34 174 34c61 0 112 -14 151 -41s59 -69 59 -126c0 -7 -2 -26 -6 -56l-21 -127c-2 -11 -3 -21 -3 -32c0 -25 14 -38 41 -38zM415 140l10 56c-41 25 -87 38 -139 38c-72 0 -121 -27 -121 -82c0 -47 43 -72 100 -72c63 0 121 28 150 60zM517 707h58
c-11 -69 -59 -123 -115 -123c-21 0 -44 9 -71 26c-26 17 -46 26 -60 26c-25 0 -42 -16 -52 -47h-59c13 72 58 123 117 123c20 0 43 -9 69 -26s46 -26 61 -26c25 0 43 16 52 47z" />
    <glyph glyph-name="adieresis" unicode="&#xe4;" horiz-adv-x="597" 
d="M562 84c9 0 17 1 23 4l-12 -83c-15 -9 -35 -14 -60 -14c-56 0 -88 23 -97 68c-51 -48 -111 -72 -180 -72c-53 0 -96 14 -129 43s-49 65 -49 110c0 55 20 98 60 129s89 46 147 46c64 0 122 -14 173 -43c4 20 6 36 6 48c0 61 -45 91 -136 91c-59 0 -112 -12 -157 -36l16 95
c45 23 103 34 174 34c61 0 112 -14 151 -41s59 -69 59 -126c0 -7 -2 -26 -6 -56l-21 -127c-2 -11 -3 -21 -3 -32c0 -25 14 -38 41 -38zM415 140l10 56c-41 25 -87 38 -139 38c-72 0 -121 -27 -121 -82c0 -47 43 -72 100 -72c63 0 121 28 150 60zM238 605c-24 24 -24 62 0 85
c24 24 62 24 85 0c23 -23 23 -61 0 -85c-23 -23 -61 -23 -85 0zM445 605c-24 24 -24 62 0 85c24 24 62 24 85 0c23 -23 23 -61 0 -85c-23 -23 -61 -23 -85 0z" />
    <glyph glyph-name="aring" unicode="&#xe5;" horiz-adv-x="597" 
d="M562 84c9 0 17 1 23 4l-12 -83c-15 -9 -35 -14 -60 -14c-56 0 -88 23 -97 68c-51 -48 -111 -72 -180 -72c-53 0 -96 14 -129 43s-49 65 -49 110c0 55 20 98 60 129s89 46 147 46c64 0 122 -14 173 -43c4 20 6 36 6 48c0 61 -45 91 -136 91c-59 0 -112 -12 -157 -36l16 95
c45 23 103 34 174 34c61 0 112 -14 151 -41s59 -69 59 -126c0 -7 -2 -26 -6 -56l-21 -127c-2 -11 -3 -21 -3 -32c0 -25 14 -38 41 -38zM415 140l10 56c-41 25 -87 38 -139 38c-72 0 -121 -27 -121 -82c0 -47 43 -72 100 -72c63 0 121 28 150 60zM469 569
c-39 -39 -99 -39 -139 0c-39 39 -39 99 0 138c40 40 100 40 139 0c40 -39 40 -99 0 -138zM451 638c3 66 -105 66 -102 0c0 -27 23 -50 51 -50s51 23 51 50z" />
    <glyph glyph-name="ae" unicode="&#xe6;" horiz-adv-x="915" 
d="M915 292c0 -30 -2 -56 -6 -78h-379c1 -85 73 -132 172 -132c55 0 107 14 156 41l-14 -94c-41 -28 -96 -42 -165 -42c-95 0 -165 33 -212 98c-65 -65 -141 -98 -226 -98c-111 0 -183 62 -183 153c0 55 20 98 60 129s89 46 147 46c64 0 122 -14 173 -43c4 26 6 42 6 48
c0 61 -45 91 -136 91c-59 0 -112 -12 -157 -36l16 95c45 23 103 34 174 34c76 0 134 -26 174 -77c51 51 112 77 182 77c68 0 121 -21 160 -62s58 -91 58 -150zM273 78c65 0 131 35 162 72c-3 9 -6 25 -9 46c-41 25 -88 38 -140 38c-72 0 -121 -28 -121 -83
c0 -48 44 -73 108 -73zM538 296h273v11c0 60 -46 106 -119 106c-76 0 -138 -46 -154 -117z" />
    <glyph glyph-name="ccedilla" unicode="&#xe7;" horiz-adv-x="515" 
d="M354 -12l-67 -126h-126l105 132c-113 24 -187 113 -187 232c0 79 28 145 83 198c56 53 125 80 206 80c60 0 114 -14 161 -41l-15 -92c-42 25 -88 38 -137 38c-54 0 -99 -17 -136 -51c-36 -33 -54 -76 -54 -127c0 -46 16 -82 49 -109s73 -40 122 -40c43 0 86 10 127 31
l-15 -96c-35 -17 -74 -27 -116 -29z" />
    <glyph glyph-name="egrave" unicode="&#xe8;" horiz-adv-x="569" 
d="M356 82c55 0 107 14 156 41l-14 -94c-39 -28 -94 -42 -165 -42c-74 0 -135 21 -183 64c-47 43 -71 101 -71 172c0 78 26 144 77 199s116 82 195 82c68 0 121 -21 160 -62s58 -91 58 -150c0 -30 -2 -56 -6 -78h-379c1 -85 73 -132 172 -132zM346 413
c-76 0 -138 -46 -154 -117h273v11c0 60 -46 106 -119 106zM253 715h133l72 -140h-97z" />
    <glyph glyph-name="eacute" unicode="&#xe9;" horiz-adv-x="569" 
d="M356 82c55 0 107 14 156 41l-14 -94c-39 -28 -94 -42 -165 -42c-74 0 -135 21 -183 64c-47 43 -71 101 -71 172c0 78 26 144 77 199s116 82 195 82c68 0 121 -21 160 -62s58 -91 58 -150c0 -30 -2 -56 -6 -78h-379c1 -85 73 -132 172 -132zM346 413
c-76 0 -138 -46 -154 -117h273v11c0 60 -46 106 -119 106zM416 575h-99l118 140h135z" />
    <glyph glyph-name="ecircumflex" unicode="&#xea;" horiz-adv-x="569" 
d="M356 82c55 0 107 14 156 41l-14 -94c-39 -28 -94 -42 -165 -42c-74 0 -135 21 -183 64c-47 43 -71 101 -71 172c0 78 26 144 77 199s116 82 195 82c68 0 121 -21 160 -62s58 -91 58 -150c0 -30 -2 -56 -6 -78h-379c1 -85 73 -132 172 -132zM346 413
c-76 0 -138 -46 -154 -117h273v11c0 60 -46 106 -119 106zM311 575h-102l138 140h108l93 -140h-95l-58 86z" />
    <glyph glyph-name="edieresis" unicode="&#xeb;" horiz-adv-x="569" 
d="M356 82c55 0 107 14 156 41l-14 -94c-39 -28 -94 -42 -165 -42c-74 0 -135 21 -183 64c-47 43 -71 101 -71 172c0 78 26 144 77 199s116 82 195 82c68 0 121 -21 160 -62s58 -91 58 -150c0 -30 -2 -56 -6 -78h-379c1 -85 73 -132 172 -132zM346 413
c-76 0 -138 -46 -154 -117h273v11c0 60 -46 106 -119 106zM240 605c-24 24 -24 62 0 85c24 24 62 24 85 0c23 -23 23 -61 0 -85c-23 -23 -61 -23 -85 0zM447 605c-24 24 -24 62 0 85c24 24 62 24 85 0c23 -23 23 -61 0 -85c-23 -23 -61 -23 -85 0z" />
    <glyph glyph-name="igrave" unicode="&#xec;" horiz-adv-x="279" 
d="M271 491l-77 -491h-108l77 491h108zM77 715h133l72 -140h-97z" />
    <glyph glyph-name="iacute" unicode="&#xed;" horiz-adv-x="279" 
d="M285 576h-99l118 140h134zM271 491l-77 -491h-108l77 491h108z" />
    <glyph glyph-name="icircumflex" unicode="&#xee;" horiz-adv-x="279" 
d="M160 575h-102l138 140h108l93 -140h-95l-58 86zM271 491l-77 -491h-108l77 491h108z" />
    <glyph glyph-name="idieresis" unicode="&#xef;" horiz-adv-x="279" 
d="M94 605c-24 24 -24 62 0 85c24 24 62 24 85 0c23 -23 23 -61 0 -85c-23 -23 -61 -23 -85 0zM301 605c-24 24 -24 62 0 85c24 24 62 24 85 0c23 -23 23 -61 0 -85c-23 -23 -61 -23 -85 0zM271 491l-77 -491h-108l77 491h108z" />
    <glyph glyph-name="eth" unicode="&#xf0;" horiz-adv-x="602" 
d="M327 82c44 0 81 15 112 45s47 68 47 114c0 80 -57 140 -141 140c-44 0 -82 -16 -113 -47s-46 -70 -46 -115c0 -80 56 -137 141 -137zM430 592l92 -146c51 -79 72 -129 72 -192c0 -74 -25 -137 -76 -189s-116 -78 -195 -78c-71 0 -129 21 -175 63s-69 97 -69 165
c0 67 23 125 70 172c47 48 105 72 175 72c33 0 65 -8 97 -24l-82 127l-134 -48l-37 58l131 47l-54 81h115l32 -49l113 41l37 -59z" />
    <glyph glyph-name="ntilde" unicode="&#xf1;" horiz-adv-x="612" 
d="M589 268l-42 -268h-108l40 249c4 23 6 42 6 57c0 63 -40 97 -100 97c-57 0 -115 -37 -148 -80l-52 -323h-108l78 491h108l-10 -61c49 49 109 74 179 74c101 0 165 -64 165 -163c0 -15 -3 -39 -8 -73zM535 707h58c-11 -69 -59 -123 -115 -123c-21 0 -44 9 -71 26
c-26 17 -46 26 -60 26c-25 0 -42 -16 -52 -47h-59c13 72 58 123 117 123c20 0 43 -9 69 -26s46 -26 61 -26c25 0 43 16 52 47z" />
    <glyph glyph-name="ograve" unicode="&#xf2;" horiz-adv-x="610" 
d="M353 504c75 0 137 -23 184 -70c48 -46 72 -104 72 -175c0 -74 -26 -138 -79 -192c-53 -53 -118 -80 -197 -80c-75 0 -136 23 -183 70s-71 105 -71 175c0 74 26 138 79 191c53 54 118 81 195 81zM334 82c47 0 86 17 119 52s49 78 49 129c0 87 -60 146 -148 146
c-47 0 -86 -17 -119 -52s-49 -77 -49 -127c0 -88 61 -148 148 -148zM267 715h133l72 -140h-97z" />
    <glyph glyph-name="oacute" unicode="&#xf3;" horiz-adv-x="610" 
d="M353 504c75 0 137 -23 184 -70c48 -46 72 -104 72 -175c0 -74 -26 -138 -79 -192c-53 -53 -118 -80 -197 -80c-75 0 -136 23 -183 70s-71 105 -71 175c0 74 26 138 79 191c53 54 118 81 195 81zM334 82c47 0 86 17 119 52s49 78 49 129c0 87 -60 146 -148 146
c-47 0 -86 -17 -119 -52s-49 -77 -49 -127c0 -88 61 -148 148 -148zM413 575h-99l118 140h135z" />
    <glyph glyph-name="ocircumflex" unicode="&#xf4;" horiz-adv-x="610" 
d="M353 504c75 0 137 -23 184 -70c48 -46 72 -104 72 -175c0 -74 -26 -138 -79 -192c-53 -53 -118 -80 -197 -80c-75 0 -136 23 -183 70s-71 105 -71 175c0 74 26 138 79 191c53 54 118 81 195 81zM334 82c47 0 86 17 119 52s49 78 49 129c0 87 -60 146 -148 146
c-47 0 -86 -17 -119 -52s-49 -77 -49 -127c0 -88 61 -148 148 -148zM318 575h-102l138 140h108l93 -140h-95l-58 86z" />
    <glyph glyph-name="otilde" unicode="&#xf5;" horiz-adv-x="610" 
d="M353 504c75 0 137 -23 184 -70c48 -46 72 -104 72 -175c0 -74 -26 -138 -79 -192c-53 -53 -118 -80 -197 -80c-75 0 -136 23 -183 70s-71 105 -71 175c0 74 26 138 79 191c53 54 118 81 195 81zM334 82c47 0 86 17 119 52s49 78 49 129c0 87 -60 146 -148 146
c-47 0 -86 -17 -119 -52s-49 -77 -49 -127c0 -88 61 -148 148 -148zM531 707h58c-11 -69 -59 -123 -115 -123c-21 0 -44 9 -71 26c-26 17 -46 26 -60 26c-25 0 -42 -16 -52 -47h-59c13 72 58 123 117 123c20 0 43 -9 69 -26s46 -26 61 -26c25 0 43 16 52 47z" />
    <glyph glyph-name="odieresis" unicode="&#xf6;" horiz-adv-x="610" 
d="M353 504c75 0 137 -23 184 -70c48 -46 72 -104 72 -175c0 -74 -26 -138 -79 -192c-53 -53 -118 -80 -197 -80c-75 0 -136 23 -183 70s-71 105 -71 175c0 74 26 138 79 191c53 54 118 81 195 81zM334 82c47 0 86 17 119 52s49 78 49 129c0 87 -60 146 -148 146
c-47 0 -86 -17 -119 -52s-49 -77 -49 -127c0 -88 61 -148 148 -148zM251 605c-24 24 -24 62 0 85c24 24 62 24 85 0c23 -23 23 -61 0 -85c-23 -23 -61 -23 -85 0zM458 605c-24 24 -24 62 0 85c24 24 62 24 85 0c23 -23 23 -61 0 -85c-23 -23 -61 -23 -85 0z" />
    <glyph glyph-name="divide" unicode="&#xf7;" horiz-adv-x="592" 
d="M574 280h-479l16 97h479zM310 543c0 39 31 70 70 70s70 -31 70 -70c0 -40 -31 -71 -70 -71s-70 31 -70 71zM299 42c-40 0 -70 31 -70 71c0 39 30 70 70 70c39 0 70 -31 70 -70c0 -40 -31 -71 -70 -71z" />
    <glyph glyph-name="oslash" unicode="&#xf8;" horiz-adv-x="623" 
d="M359 504c61 0 113 -16 158 -48l36 35h91l-80 -80c34 -43 51 -94 51 -152c0 -74 -26 -138 -79 -192c-53 -53 -118 -80 -197 -80c-60 0 -112 16 -156 47l-34 -34h-92l79 78c-34 43 -51 95 -51 154c0 74 26 138 79 191c53 54 118 81 195 81zM192 230c0 -29 6 -55 19 -78
l235 233c-25 16 -54 24 -86 24c-47 0 -86 -17 -119 -52s-49 -77 -49 -127zM340 82c47 0 86 17 119 52s49 78 49 129c0 26 -6 51 -18 75l-235 -233c25 -15 53 -23 85 -23z" />
    <glyph glyph-name="ugrave" unicode="&#xf9;" horiz-adv-x="611" 
d="M100 223l42 268h108l-40 -249c-4 -23 -6 -41 -6 -56c0 -63 41 -98 100 -98c57 0 115 37 148 80l52 323h108l-78 -491h-108l10 61c-49 -49 -109 -74 -179 -74c-101 0 -165 64 -165 163c0 15 3 39 8 73zM254 715h133l72 -140h-97z" />
    <glyph glyph-name="uacute" unicode="&#xfa;" horiz-adv-x="611" 
d="M100 223l42 268h108l-40 -249c-4 -23 -6 -41 -6 -56c0 -63 41 -98 100 -98c57 0 115 37 148 80l52 323h108l-78 -491h-108l10 61c-49 -49 -109 -74 -179 -74c-101 0 -165 64 -165 163c0 15 3 39 8 73zM427 575h-99l118 140h135z" />
    <glyph glyph-name="ucircumflex" unicode="&#xfb;" horiz-adv-x="611" 
d="M100 223l42 268h108l-40 -249c-4 -23 -6 -41 -6 -56c0 -63 41 -98 100 -98c57 0 115 37 148 80l52 323h108l-78 -491h-108l10 61c-49 -49 -109 -74 -179 -74c-101 0 -165 64 -165 163c0 15 3 39 8 73zM320 575h-102l138 140h108l93 -140h-95l-58 86z" />
    <glyph glyph-name="udieresis" unicode="&#xfc;" horiz-adv-x="611" 
d="M100 223l42 268h108l-40 -249c-4 -23 -6 -41 -6 -56c0 -63 41 -98 100 -98c57 0 115 37 148 80l52 323h108l-78 -491h-108l10 61c-49 -49 -109 -74 -179 -74c-101 0 -165 64 -165 163c0 15 3 39 8 73zM258 605c-24 24 -24 62 0 85c24 24 62 24 85 0c23 -23 23 -61 0 -85
c-23 -23 -61 -23 -85 0zM465 605c-24 24 -24 62 0 85c24 24 62 24 85 0c23 -23 23 -61 0 -85c-23 -23 -61 -23 -85 0z" />
    <glyph glyph-name="yacute" unicode="&#xfd;" horiz-adv-x="573" 
d="M507 491h116l-313 -553c-56 -99 -121 -143 -212 -143c-33 0 -60 6 -83 18l15 96c22 -13 44 -19 67 -19c57 0 101 40 150 128l-151 473h112l106 -358zM409 575h-99l118 140h135z" />
    <glyph glyph-name="thorn" unicode="&#xfe;" horiz-adv-x="642" 
d="M197 74l-43 -274h-108l143 900h109l-45 -273c49 51 108 77 177 77c63 0 114 -22 153 -67s58 -99 58 -164c0 -77 -24 -144 -73 -201s-112 -85 -191 -85c-83 0 -145 40 -180 87zM390 409c-59 0 -122 -38 -154 -87l-24 -155c11 -22 30 -42 58 -59s59 -26 92 -26
c47 0 86 17 119 52s50 77 50 128c0 87 -57 147 -141 147z" />
    <glyph glyph-name="ydieresis" unicode="&#xff;" horiz-adv-x="573" 
d="M507 491h116l-313 -553c-56 -99 -121 -143 -212 -143c-33 0 -60 6 -83 18l15 96c22 -13 44 -19 67 -19c57 0 101 40 150 128l-151 473h112l106 -358zM227 605c-24 24 -24 62 0 85c24 24 62 24 85 0c23 -23 23 -61 0 -85c-23 -23 -61 -23 -85 0zM434 605
c-24 24 -24 62 0 85c24 24 62 24 85 0c23 -23 23 -61 0 -85c-23 -23 -61 -23 -85 0z" />
    <glyph glyph-name="Amacron" unicode="&#x100;" horiz-adv-x="762" 
d="M439 704h106l195 -704h-115l-47 174h-334l-102 -174h-120zM552 271l-80 294l-172 -294h252zM649 793h-281l13 77h281z" />
    <glyph glyph-name="amacron" unicode="&#x101;" horiz-adv-x="597" 
d="M562 84c9 0 17 1 23 4l-12 -83c-15 -9 -35 -14 -60 -14c-56 0 -88 23 -97 68c-51 -48 -111 -72 -180 -72c-53 0 -96 14 -129 43s-49 65 -49 110c0 55 20 98 60 129s89 46 147 46c64 0 122 -14 173 -43c4 20 6 36 6 48c0 61 -45 91 -136 91c-59 0 -112 -12 -157 -36l16 95
c45 23 103 34 174 34c61 0 112 -14 151 -41s59 -69 59 -126c0 -7 -2 -26 -6 -56l-21 -127c-2 -11 -3 -21 -3 -32c0 -25 14 -38 41 -38zM415 140l10 56c-41 25 -87 38 -139 38c-72 0 -121 -27 -121 -82c0 -47 43 -72 100 -72c63 0 121 28 150 60zM234 609l11 74h317l-13 -74
h-315z" />
    <glyph glyph-name="Abreve" unicode="&#x102;" horiz-adv-x="762" 
d="M439 704h106l195 -704h-115l-47 174h-334l-102 -174h-120zM552 271l-80 294l-172 -294h252zM504 748c-79 0 -140 53 -140 132c0 10 0 17 1 22h79c0 -3 -1 -9 -1 -12c0 -40 25 -67 62 -67c41 0 77 34 86 79h81c-17 -93 -85 -154 -168 -154z" />
    <glyph glyph-name="abreve" unicode="&#x103;" horiz-adv-x="597" 
d="M562 84c9 0 17 1 23 4l-12 -83c-15 -9 -35 -14 -60 -14c-56 0 -88 23 -97 68c-51 -48 -111 -72 -180 -72c-53 0 -96 14 -129 43s-49 65 -49 110c0 55 20 98 60 129s89 46 147 46c64 0 122 -14 173 -43c4 20 6 36 6 48c0 61 -45 91 -136 91c-59 0 -112 -12 -157 -36l16 95
c45 23 103 34 174 34c61 0 112 -14 151 -41s59 -69 59 -126c0 -7 -2 -26 -6 -56l-21 -127c-2 -11 -3 -21 -3 -32c0 -25 14 -38 41 -38zM415 140l10 56c-41 25 -87 38 -139 38c-72 0 -121 -27 -121 -82c0 -47 43 -72 100 -72c63 0 121 28 150 60zM379 561
c-39 0 -73 12 -100 36c-27 25 -41 57 -41 96c0 10 0 17 1 22h79c-1 -5 -1 -10 -1 -15c0 -37 26 -64 65 -64c41 0 74 30 83 79h81c-16 -96 -84 -154 -167 -154z" />
    <glyph glyph-name="Aogonek" unicode="&#x104;" horiz-adv-x="762" 
d="M545 704l195 -704c-33 -31 -49 -59 -49 -86c0 -29 21 -47 54 -47c13 0 26 2 39 7l-11 -66c-14 -5 -33 -7 -56 -7c-67 0 -106 37 -106 86c0 41 20 79 60 113h-46l-47 174h-334l-102 -174h-120l417 704h106zM552 271l-80 294l-172 -294h252z" />
    <glyph glyph-name="aogonek" unicode="&#x105;" horiz-adv-x="602" 
d="M562 84c9 0 17 1 23 4l-12 -83c-33 -31 -49 -59 -49 -86c0 -29 21 -47 54 -47c13 0 26 2 39 7l-11 -66c-14 -5 -33 -7 -56 -7c-67 0 -106 37 -106 86c0 37 15 70 46 101c-43 5 -67 27 -74 66c-51 -48 -111 -72 -180 -72c-53 0 -96 14 -129 43s-49 65 -49 110
c0 55 20 98 60 129s89 46 147 46c64 0 122 -14 173 -43c4 20 6 36 6 48c0 61 -45 91 -136 91c-59 0 -112 -12 -157 -36l16 95c45 23 103 34 174 34c61 0 112 -14 151 -41s59 -69 59 -126c0 -7 -2 -26 -6 -56l-21 -127c-2 -11 -3 -21 -3 -32c0 -25 14 -38 41 -38zM415 140
l10 56c-41 25 -87 38 -139 38c-72 0 -121 -27 -121 -82c0 -47 43 -72 100 -72c63 0 121 28 150 60z" />
    <glyph glyph-name="Cacute" unicode="&#x106;" horiz-adv-x="684" 
d="M227 324c0 -68 22 -124 65 -168c44 -44 102 -66 174 -66c78 0 145 20 202 61l-17 -113c-60 -34 -125 -51 -195 -51c-102 0 -185 31 -248 93c-63 63 -94 142 -94 238c0 113 36 207 109 282s168 113 283 113c82 0 152 -17 211 -52l-18 -106c-55 37 -119 55 -194 55
c-81 0 -147 -27 -200 -81c-52 -54 -78 -122 -78 -205zM530 762h-99l118 140h135z" />
    <glyph glyph-name="cacute" unicode="&#x107;" horiz-adv-x="515" 
d="M332 -13c-74 0 -135 22 -182 66c-47 45 -71 102 -71 173c0 79 28 145 83 198c56 53 125 80 206 80c60 0 114 -14 161 -41l-15 -92c-42 25 -88 38 -137 38c-54 0 -99 -17 -136 -51c-36 -33 -54 -76 -54 -127c0 -46 16 -82 49 -109s73 -40 122 -40c43 0 86 10 127 31
l-15 -96c-41 -20 -87 -30 -138 -30zM425 575h-99l118 140h135z" />
    <glyph glyph-name="Ccircumflex" unicode="&#x108;" horiz-adv-x="684" 
d="M227 324c0 -68 22 -124 65 -168c44 -44 102 -66 174 -66c78 0 145 20 202 61l-17 -113c-60 -34 -125 -51 -195 -51c-102 0 -185 31 -248 93c-63 63 -94 142 -94 238c0 113 36 207 109 282s168 113 283 113c82 0 152 -17 211 -52l-18 -106c-55 37 -119 55 -194 55
c-81 0 -147 -27 -200 -81c-52 -54 -78 -122 -78 -205zM447 762h-100l140 140h108l92 -140h-98l-57 86z" />
    <glyph glyph-name="ccircumflex" unicode="&#x109;" horiz-adv-x="515" 
d="M332 -13c-74 0 -135 22 -182 66c-47 45 -71 102 -71 173c0 79 28 145 83 198c56 53 125 80 206 80c60 0 114 -14 161 -41l-15 -92c-42 25 -88 38 -137 38c-54 0 -99 -17 -136 -51c-36 -33 -54 -76 -54 -127c0 -46 16 -82 49 -109s73 -40 122 -40c43 0 86 10 127 31
l-15 -96c-41 -20 -87 -30 -138 -30zM301 575h-102l138 140h108l93 -140h-95l-58 86z" />
    <glyph glyph-name="Cdotaccent" unicode="&#x10a;" horiz-adv-x="684" 
d="M227 324c0 -68 22 -124 65 -168c44 -44 102 -66 174 -66c78 0 145 20 202 61l-17 -113c-60 -34 -125 -51 -195 -51c-102 0 -185 31 -248 93c-63 63 -94 142 -94 238c0 113 36 207 109 282s168 113 283 113c82 0 152 -17 211 -52l-18 -106c-55 37 -119 55 -194 55
c-81 0 -147 -27 -200 -81c-52 -54 -78 -122 -78 -205zM474 831c0 33 27 61 62 61s62 -26 62 -61s-27 -63 -62 -63s-62 28 -62 63z" />
    <glyph glyph-name="cdotaccent" unicode="&#x10b;" horiz-adv-x="515" 
d="M332 -13c-74 0 -135 22 -182 66c-47 45 -71 102 -71 173c0 79 28 145 83 198c56 53 125 80 206 80c60 0 114 -14 161 -41l-15 -92c-42 25 -88 38 -137 38c-54 0 -99 -17 -136 -51c-36 -33 -54 -76 -54 -127c0 -46 16 -82 49 -109s73 -40 122 -40c43 0 86 10 127 31
l-15 -96c-41 -20 -87 -30 -138 -30zM405 586c-33 0 -62 27 -62 62c-4 52 71 83 106 43c39 -34 10 -109 -44 -105z" />
    <glyph glyph-name="Ccaron" unicode="&#x10c;" horiz-adv-x="684" 
d="M227 324c0 -68 22 -124 65 -168c44 -44 102 -66 174 -66c78 0 145 20 202 61l-17 -113c-60 -34 -125 -51 -195 -51c-102 0 -185 31 -248 93c-63 63 -94 142 -94 238c0 113 36 207 109 282s168 113 283 113c82 0 152 -17 211 -52l-18 -106c-55 37 -119 55 -194 55
c-81 0 -147 -27 -200 -81c-52 -54 -78 -122 -78 -205zM618 902h100l-140 -140h-108l-92 140h98l57 -86z" />
    <glyph glyph-name="ccaron" unicode="&#x10d;" horiz-adv-x="515" 
d="M332 -13c-74 0 -135 22 -182 66c-47 45 -71 102 -71 173c0 79 28 145 83 198c56 53 125 80 206 80c60 0 114 -14 161 -41l-15 -92c-42 25 -88 38 -137 38c-54 0 -99 -17 -136 -51c-36 -33 -54 -76 -54 -127c0 -46 16 -82 49 -109s73 -40 122 -40c43 0 86 10 127 31
l-15 -96c-41 -20 -87 -30 -138 -30zM487 715h100l-140 -140h-108l-92 140h98l57 -86z" />
    <glyph glyph-name="Dcaron" unicode="&#x10e;" horiz-adv-x="780" 
d="M198 700h225c105 0 190 -29 253 -88c64 -59 96 -135 96 -230c0 -124 -43 -219 -130 -284s-201 -98 -343 -98h-212zM292 599l-79 -498h156c87 0 156 26 209 77s80 119 80 204c0 63 -21 115 -64 156s-100 61 -173 61h-129zM557 902h100l-140 -140h-108l-92 140h98l57 -86z
" />
    <glyph glyph-name="dcaron" unicode="&#x10f;" horiz-adv-x="792" 
d="M522 417l45 283h108l-110 -700h-109l10 64c-49 -51 -107 -77 -176 -77c-63 0 -114 22 -153 67s-58 99 -58 164c0 77 24 143 73 200s112 86 191 86c83 0 144 -39 179 -87zM329 82c59 0 123 37 154 86l24 155c-11 23 -30 43 -58 60c-27 17 -58 26 -91 26
c-47 0 -87 -17 -120 -52s-49 -77 -49 -128c0 -87 56 -147 140 -147zM888 700l-81 -191h-82l68 191h95z" />
    <glyph glyph-name="Dcroat" unicode="&#x110;" horiz-adv-x="828" 
d="M246 700h225c105 0 190 -29 253 -88c64 -59 96 -135 96 -230c0 -124 -43 -219 -130 -284s-201 -98 -343 -98h-212l49 312h-102l17 99h101zM294 312l-33 -211h156c87 0 156 26 209 77s80 119 80 204c0 63 -21 115 -64 156s-100 61 -173 61h-129l-30 -188h153l-17 -99h-152
z" />
    <glyph glyph-name="dslash" unicode="&#x111;" horiz-adv-x="641" 
d="M555 624l12 76h108l-12 -76h97l-11 -69h-97l-87 -555h-109l10 64c-49 -51 -107 -77 -176 -77c-63 0 -114 22 -153 67s-58 99 -58 164c0 77 24 143 73 200s112 86 191 86c83 0 144 -39 179 -87l22 138h-123l11 69h123zM329 82c59 0 123 37 154 86l24 155
c-11 23 -30 43 -58 60c-27 17 -58 26 -91 26c-47 0 -87 -17 -120 -52s-49 -77 -49 -128c0 -87 56 -147 140 -147z" />
    <glyph glyph-name="Emacron" unicode="&#x112;" horiz-adv-x="647" 
d="M598 0h-511l111 700h498l-16 -101h-388l-28 -175h316l-16 -101h-316l-35 -222h401zM606 793h-281l13 77h281z" />
    <glyph glyph-name="emacron" unicode="&#x113;" horiz-adv-x="569" 
d="M356 82c55 0 107 14 156 41l-14 -94c-39 -28 -94 -42 -165 -42c-74 0 -135 21 -183 64c-47 43 -71 101 -71 172c0 78 26 144 77 199s116 82 195 82c68 0 121 -21 160 -62s58 -91 58 -150c0 -30 -2 -56 -6 -78h-379c1 -85 73 -132 172 -132zM346 413
c-76 0 -138 -46 -154 -117h273v11c0 60 -46 106 -119 106zM229 609l11 74h317l-13 -74h-315z" />
    <glyph glyph-name="Ebreve" unicode="&#x114;" horiz-adv-x="647" 
d="M598 0h-511l111 700h498l-16 -101h-388l-28 -175h316l-16 -101h-316l-35 -222h401zM453 748c-79 0 -140 53 -140 132c0 10 0 17 1 22h79c0 -3 -1 -9 -1 -12c0 -40 25 -67 62 -67c41 0 77 34 86 79h81c-17 -93 -85 -154 -168 -154z" />
    <glyph glyph-name="ebreve" unicode="&#x115;" horiz-adv-x="569" 
d="M356 82c55 0 107 14 156 41l-14 -94c-39 -28 -94 -42 -165 -42c-74 0 -135 21 -183 64c-47 43 -71 101 -71 172c0 78 26 144 77 199s116 82 195 82c68 0 121 -21 160 -62s58 -91 58 -150c0 -30 -2 -56 -6 -78h-379c1 -85 73 -132 172 -132zM346 413
c-76 0 -138 -46 -154 -117h273v11c0 60 -46 106 -119 106zM380 561c-39 0 -73 12 -100 36c-27 25 -41 57 -41 96c0 10 0 17 1 22h79c-1 -5 -1 -10 -1 -15c0 -37 26 -64 65 -64c41 0 74 30 83 79h81c-16 -96 -84 -154 -167 -154z" />
    <glyph glyph-name="Edotaccent" unicode="&#x116;" horiz-adv-x="647" 
d="M598 0h-511l111 700h498l-16 -101h-388l-28 -175h316l-16 -101h-316l-35 -222h401zM401 831c0 33 27 61 62 61s62 -26 62 -61s-27 -63 -62 -63s-62 28 -62 63z" />
    <glyph glyph-name="edotaccent" unicode="&#x117;" horiz-adv-x="569" 
d="M356 82c55 0 107 14 156 41l-14 -94c-39 -28 -94 -42 -165 -42c-74 0 -135 21 -183 64c-47 43 -71 101 -71 172c0 78 26 144 77 199s116 82 195 82c68 0 121 -21 160 -62s58 -91 58 -150c0 -30 -2 -56 -6 -78h-379c1 -85 73 -132 172 -132zM346 413
c-76 0 -138 -46 -154 -117h273v11c0 60 -46 106 -119 106zM320 648c0 33 27 61 62 61s62 -26 62 -61s-27 -62 -62 -62s-62 27 -62 62z" />
    <glyph glyph-name="Eogonek" unicode="&#x118;" horiz-adv-x="647" 
d="M529 0h-442l111 700h498l-16 -101h-388l-28 -175h316l-16 -101h-316l-35 -222h401l-16 -101c-33 -31 -49 -59 -49 -86c0 -29 21 -47 54 -47c13 0 26 2 39 7l-11 -66c-14 -5 -33 -7 -56 -7c-67 0 -106 37 -106 86c0 41 20 79 60 113z" />
    <glyph glyph-name="eogonek" unicode="&#x119;" horiz-adv-x="569" 
d="M356 82c55 0 107 14 156 41l-14 -94c-33 -31 -49 -59 -49 -86c0 -29 21 -47 54 -47c13 0 26 2 39 7l-11 -66c-14 -5 -33 -7 -56 -7c-67 0 -106 37 -106 86c0 28 8 53 25 76c-22 -3 -42 -5 -61 -5c-74 0 -135 21 -183 64c-47 43 -71 101 -71 172c0 78 26 144 77 199
s116 82 195 82c68 0 121 -21 160 -62s58 -91 58 -150c0 -30 -2 -56 -6 -78h-379c1 -85 73 -132 172 -132zM346 413c-76 0 -138 -46 -154 -117h273v11c0 60 -46 106 -119 106z" />
    <glyph glyph-name="Ecaron" unicode="&#x11a;" horiz-adv-x="647" 
d="M598 0h-511l111 700h498l-16 -101h-388l-28 -175h316l-16 -101h-316l-35 -222h401zM550 902h100l-140 -140h-108l-92 140h98l57 -86z" />
    <glyph glyph-name="ecaron" unicode="&#x11b;" horiz-adv-x="569" 
d="M356 82c55 0 107 14 156 41l-14 -94c-39 -28 -94 -42 -165 -42c-74 0 -135 21 -183 64c-47 43 -71 101 -71 172c0 78 26 144 77 199s116 82 195 82c68 0 121 -21 160 -62s58 -91 58 -150c0 -30 -2 -56 -6 -78h-379c1 -85 73 -132 172 -132zM346 413
c-76 0 -138 -46 -154 -117h273v11c0 60 -46 106 -119 106zM455 715h100l-140 -140h-108l-92 140h98l57 -86z" />
    <glyph glyph-name="Gcircumflex" unicode="&#x11c;" horiz-adv-x="773" 
d="M615 145l43 259h110l-50 -313c-73 -69 -163 -104 -270 -104c-99 0 -179 31 -241 93s-93 141 -93 238c0 112 37 206 110 281c73 76 167 114 282 114c92 0 167 -21 225 -62l-18 -106c-55 43 -125 65 -208 65c-81 0 -147 -27 -200 -81c-52 -54 -78 -123 -78 -206
c0 -69 21 -126 64 -169s99 -64 167 -64c59 0 112 18 157 55zM450 762h-100l140 140h108l92 -140h-98l-57 86z" />
    <glyph glyph-name="gcircumflex" unicode="&#x11d;" horiz-adv-x="635" 
d="M460 34l6 40c-42 -48 -99 -72 -172 -72c-65 0 -117 22 -156 65c-39 44 -59 98 -59 162c0 74 24 138 73 193s112 82 191 82c81 0 146 -40 178 -85l12 72h108l-72 -461c-9 -55 -29 -101 -61 -137c-63 -72 -147 -98 -250 -98c-79 0 -142 15 -189 44l16 99
c48 -32 106 -48 175 -48c117 0 184 48 200 144zM336 97c56 0 116 37 148 85l22 143c-21 43 -80 83 -147 83c-47 0 -87 -16 -120 -49c-33 -32 -49 -73 -49 -123c0 -84 58 -139 146 -139zM332 575h-102l138 140h108l93 -140h-95l-58 86z" />
    <glyph glyph-name="Gbreve" unicode="&#x11e;" horiz-adv-x="773" 
d="M615 145l43 259h110l-50 -313c-73 -69 -163 -104 -270 -104c-99 0 -179 31 -241 93s-93 141 -93 238c0 112 37 206 110 281c73 76 167 114 282 114c92 0 167 -21 225 -62l-18 -106c-55 43 -125 65 -208 65c-81 0 -147 -27 -200 -81c-52 -54 -78 -123 -78 -206
c0 -69 21 -126 64 -169s99 -64 167 -64c59 0 112 18 157 55zM539 757c-79 0 -140 53 -140 132c0 10 0 17 1 22h79c0 -3 -1 -9 -1 -12c0 -40 25 -67 62 -67c41 0 77 34 86 79h81c-17 -93 -85 -154 -168 -154z" />
    <glyph glyph-name="gbreve" unicode="&#x11f;" horiz-adv-x="635" 
d="M460 34l6 40c-42 -48 -99 -72 -172 -72c-65 0 -117 22 -156 65c-39 44 -59 98 -59 162c0 74 24 138 73 193s112 82 191 82c81 0 146 -40 178 -85l12 72h108l-72 -461c-9 -55 -29 -101 -61 -137c-63 -72 -147 -98 -250 -98c-79 0 -142 15 -189 44l16 99
c48 -32 106 -48 175 -48c117 0 184 48 200 144zM336 97c56 0 116 37 148 85l22 143c-21 43 -80 83 -147 83c-47 0 -87 -16 -120 -49c-33 -32 -49 -73 -49 -123c0 -84 58 -139 146 -139zM398 561c-39 0 -73 12 -100 36c-27 25 -41 57 -41 96c0 10 0 17 1 22h79
c-1 -5 -1 -10 -1 -15c0 -37 26 -64 65 -64c41 0 74 30 83 79h81c-16 -96 -84 -154 -167 -154z" />
    <glyph glyph-name="Gdotaccent" unicode="&#x120;" horiz-adv-x="773" 
d="M615 145l43 259h110l-50 -313c-73 -69 -163 -104 -270 -104c-99 0 -179 31 -241 93s-93 141 -93 238c0 112 37 206 110 281c73 76 167 114 282 114c92 0 167 -21 225 -62l-18 -106c-55 43 -125 65 -208 65c-81 0 -147 -27 -200 -81c-52 -54 -78 -123 -78 -206
c0 -69 21 -126 64 -169s99 -64 167 -64c59 0 112 18 157 55zM476 831c0 33 27 61 62 61s62 -26 62 -61s-27 -63 -62 -63s-62 28 -62 63z" />
    <glyph glyph-name="gdotaccent" unicode="&#x121;" horiz-adv-x="635" 
d="M460 34l6 40c-42 -48 -99 -72 -172 -72c-65 0 -117 22 -156 65c-39 44 -59 98 -59 162c0 74 24 138 73 193s112 82 191 82c81 0 146 -40 178 -85l12 72h108l-72 -461c-9 -55 -29 -101 -61 -137c-63 -72 -147 -98 -250 -98c-79 0 -142 15 -189 44l16 99
c48 -32 106 -48 175 -48c117 0 184 48 200 144zM336 97c56 0 116 37 148 85l22 143c-21 43 -80 83 -147 83c-47 0 -87 -16 -120 -49c-33 -32 -49 -73 -49 -123c0 -84 58 -139 146 -139zM427 586c-33 0 -62 27 -62 62c-4 52 71 83 106 43c39 -34 10 -109 -44 -105z" />
    <glyph glyph-name="uni0122" unicode="&#x122;" horiz-adv-x="773" 
d="M615 145l43 259h110l-50 -313c-73 -69 -163 -104 -270 -104c-99 0 -179 31 -241 93s-93 141 -93 238c0 112 37 206 110 281c73 76 167 114 282 114c92 0 167 -21 225 -62l-18 -106c-55 43 -125 65 -208 65c-81 0 -147 -27 -200 -81c-52 -54 -78 -123 -78 -206
c0 -69 21 -126 64 -169s99 -64 167 -64c59 0 112 18 157 55zM487 -60l-81 -191h-82l68 191h95z" />
    <glyph glyph-name="uni0123" unicode="&#x123;" horiz-adv-x="635" 
d="M460 34l6 40c-42 -48 -99 -72 -172 -72c-65 0 -117 22 -156 65c-39 44 -59 98 -59 162c0 74 24 138 73 193s112 82 191 82c81 0 146 -40 178 -85l12 72h108l-72 -461c-9 -55 -29 -101 -61 -137c-63 -72 -147 -98 -250 -98c-79 0 -142 15 -189 44l16 99
c48 -32 106 -48 175 -48c117 0 184 48 200 144zM336 97c56 0 116 37 148 85l22 143c-21 43 -80 83 -147 83c-47 0 -87 -16 -120 -49c-33 -32 -49 -73 -49 -123c0 -84 58 -139 146 -139zM331 566l81 191h82l-68 -191h-95z" />
    <glyph glyph-name="Hcircumflex" unicode="&#x124;" horiz-adv-x="759" 
d="M197 0h-110l111 700h110l-44 -276h365l44 276h110l-111 -700h-110l51 323h-365zM425 762h-100l140 140h108l92 -140h-98l-57 86z" />
    <glyph glyph-name="hcircumflex" unicode="&#x125;" horiz-adv-x="606" 
d="M583 268l-42 -268h-108l40 249c4 23 6 42 6 57c0 63 -40 97 -100 97c-57 0 -115 -37 -148 -80l-52 -323h-108l111 700h108l-43 -270c49 49 109 74 179 74c101 0 165 -64 165 -163c0 -15 -3 -39 -8 -73zM175 762h-100l140 140h108l92 -140h-98l-57 86z" />
    <glyph glyph-name="Hbar" unicode="&#x126;" horiz-adv-x="848" 
d="M241 0h-110l82 519h-80l12 72h80l17 109h110l-18 -109h365l18 109h110l-17 -109h80l-12 -72h-80l-82 -519h-110l51 323h-365zM323 519l-15 -95h365l15 95h-365z" />
    <glyph glyph-name="hbar" unicode="&#x127;" horiz-adv-x="634" 
d="M192 537h-102l14 87h102l12 76h108l-12 -76h151l-14 -87h-151l-25 -159c49 49 109 74 179 74c101 0 165 -64 165 -163c0 -15 -3 -39 -8 -73l-34 -216h-108l32 196c4 23 6 42 6 57c0 63 -41 98 -100 98c-57 0 -115 -38 -148 -81l-44 -270h-108z" />
    <glyph glyph-name="Itilde" unicode="&#x128;" horiz-adv-x="295" 
d="M398 891h59c-11 -69 -59 -123 -115 -123c-21 0 -45 9 -72 26c-26 18 -46 27 -60 27c-24 0 -41 -16 -51 -47h-59c12 72 59 122 116 122c21 0 44 -9 70 -26s46 -26 60 -26c25 0 43 16 52 47zM202 0h-110l111 700h110z" />
    <glyph glyph-name="itilde" unicode="&#x129;" horiz-adv-x="279" 
d="M354 707h58c-11 -69 -59 -123 -115 -123c-21 0 -44 9 -71 26c-26 17 -46 26 -60 26c-25 0 -42 -16 -52 -47h-59c13 72 58 123 117 123c20 0 43 -9 69 -26s46 -26 61 -26c25 0 43 16 52 47zM271 491l-77 -491h-108l77 491h108z" />
    <glyph glyph-name="Imacron" unicode="&#x12a;" horiz-adv-x="295" 
d="M202 0h-110l111 700h110zM416 793h-281l13 77h281z" />
    <glyph glyph-name="imacron" unicode="&#x12b;" horiz-adv-x="279" 
d="M271 491l-77 -491h-108l77 491h108zM71 609l11 74h317l-13 -74h-315z" />
    <glyph glyph-name="Ibreve" unicode="&#x12c;" horiz-adv-x="295" 
d="M271 748c-79 0 -140 53 -140 132c0 10 0 17 1 22h79c0 -3 -1 -9 -1 -12c0 -40 25 -67 62 -67c41 0 77 34 86 79h81c-17 -93 -85 -154 -168 -154zM202 0h-110l111 700h110z" />
    <glyph glyph-name="ibreve" unicode="&#x12d;" horiz-adv-x="279" 
d="M241 561c-39 0 -73 12 -100 36c-27 25 -41 57 -41 96c0 10 0 17 1 22h79c-1 -5 -1 -10 -1 -15c0 -37 26 -64 65 -64c41 0 74 30 83 79h81c-16 -96 -84 -154 -167 -154zM271 491l-77 -491h-108l77 491h108z" />
    <glyph glyph-name="Iogonek" unicode="&#x12e;" horiz-adv-x="295" 
d="M133 0h-41l111 700h110l-111 -700c-33 -31 -49 -59 -49 -86c0 -29 21 -47 54 -47c13 0 26 2 39 7l-11 -66c-14 -5 -33 -7 -56 -7c-67 0 -106 37 -106 86c0 41 20 79 60 113z" />
    <glyph glyph-name="iogonek" unicode="&#x12f;" horiz-adv-x="279" 
d="M271 491l-77 -491c-33 -31 -49 -59 -49 -86c0 -29 21 -47 54 -47c13 0 26 2 39 7l-11 -66c-14 -5 -33 -7 -56 -7c-67 0 -106 37 -106 86c0 41 20 79 60 113h-39l77 491h108zM171 647c0 39 31 69 68 69c39 0 68 -30 68 -69s-29 -68 -68 -68c-37 0 -68 31 -68 68z" />
    <glyph glyph-name="Idot" unicode="&#x130;" horiz-adv-x="295" 
d="M202 0h-110l111 700h110zM211 831c0 33 27 61 62 61s62 -26 62 -61s-27 -63 -62 -63s-62 28 -62 63z" />
    <glyph glyph-name="dotlessi" unicode="&#x131;" horiz-adv-x="279" 
d="M271 491l-77 -491h-108l77 491h108z" />
    <glyph glyph-name="IJ" unicode="&#x132;" horiz-adv-x="617" 
d="M244 262h-110l70 438h110zM278 -13c-74 0 -134 15 -180 46l17 109c48 -35 103 -52 164 -52c111 0 171 48 188 159l71 451h110l-73 -463c-28 -173 -140 -249 -297 -250z" />
    <glyph glyph-name="Jcircumflex" unicode="&#x134;" horiz-adv-x="509" 
d="M430 700h110l-77 -487c-23 -151 -110 -226 -261 -226c-71 0 -126 16 -165 47l17 110c31 -32 88 -54 140 -54c95 0 147 43 164 154zM423 762h-100l140 140h108l92 -140h-98l-57 86z" />
    <glyph glyph-name="jcircumflex" unicode="&#x135;" horiz-adv-x="279" 
d="M91 38l72 453h108l-82 -520c-19 -117 -90 -176 -191 -176c-42 0 -74 7 -95 20l15 94c21 -13 44 -19 69 -19c35 0 59 11 71 32c13 21 24 60 33 116zM162 575h-102l138 140h108l93 -140h-95l-58 86z" />
    <glyph glyph-name="uni0136" unicode="&#x136;" horiz-adv-x="675" 
d="M197 0h-110l110 700h111l-45 -286l334 286h142l-380 -330l324 -370h-137l-296 336zM407 -60l-81 -191h-82l68 191h95z" />
    <glyph glyph-name="uni0137" unicode="&#x137;" horiz-adv-x="565" 
d="M185 0h-108l110 700h109l-63 -393l226 184h141l-277 -229l236 -262h-132l-206 230zM356 -60l-81 -191h-82l68 191h95z" />
    <glyph glyph-name="kgreenlandic" unicode="&#x138;" horiz-adv-x="563" 
d="M185 0h-108l78 491h109l-31 -184l226 184h139l-274 -229l236 -262h-132l-207 230z" />
    <glyph glyph-name="Lacute" unicode="&#x139;" horiz-adv-x="600" 
d="M570 0h-483l111 700h111l-95 -599h372zM313 762h-99l118 140h135z" />
    <glyph glyph-name="lacute" unicode="&#x13a;" horiz-adv-x="299" 
d="M180 700h108l-85 -540c-3 -15 -4 -27 -4 -36c0 -25 15 -38 45 -38c16 0 30 3 42 9l-15 -93c-19 -10 -45 -15 -76 -15c-71 0 -107 34 -107 101c0 15 2 35 5 58zM291 762h-99l118 140h135z" />
    <glyph glyph-name="uni013B" unicode="&#x13b;" horiz-adv-x="600" 
d="M570 0h-483l111 700h111l-95 -599h372zM390 -60l-81 -191h-82l68 191h95z" />
    <glyph glyph-name="lcommaaccent" unicode="&#x13c;" horiz-adv-x="299" 
d="M180 700h108l-85 -540c-3 -15 -4 -27 -4 -36c0 -25 15 -38 45 -38c16 0 30 3 42 9l-15 -93c-19 -10 -45 -15 -76 -15c-71 0 -107 34 -107 101c0 15 2 35 5 58zM218 -60l-81 -191h-82l68 191h95z" />
    <glyph glyph-name="Lcaron" unicode="&#x13d;" horiz-adv-x="615" 
d="M570 0h-483l111 700h111l-95 -599h372zM688 700l-81 -191h-82l68 191h95z" />
    <glyph glyph-name="lcaron" unicode="&#x13e;" horiz-adv-x="418" 
d="M177 700h108l-85 -540c-3 -15 -4 -27 -4 -36c0 -25 15 -38 45 -38c16 0 30 3 42 9l-15 -93c-19 -10 -45 -15 -76 -15c-71 0 -107 34 -107 101c0 15 2 35 5 58zM514 700l-81 -191h-82l68 191h95z" />
    <glyph glyph-name="Ldot" unicode="&#x13f;" horiz-adv-x="600" 
d="M570 0h-483l111 700h111l-95 -599h372zM560 313c-40 0 -71 31 -71 71c0 39 31 70 71 70c37 0 70 -33 70 -70c0 -40 -31 -71 -70 -71z" />
    <glyph glyph-name="ldot" unicode="&#x140;" horiz-adv-x="439" 
d="M185 700h108l-85 -540c-3 -15 -4 -27 -4 -36c0 -25 15 -38 45 -38c16 0 30 3 42 9l-15 -93c-19 -10 -45 -15 -76 -15c-71 0 -107 34 -107 101c0 15 2 35 5 58zM406 313c-40 0 -71 31 -71 71c0 39 31 70 71 70c37 0 70 -33 70 -70c0 -40 -31 -71 -70 -71z" />
    <glyph glyph-name="Lslash" unicode="&#x141;" horiz-adv-x="623" 
d="M593 0h-483l48 303l-105 -61l14 96l106 60l48 302h110l-36 -231l166 95l-16 -95l-166 -95l-43 -273h373z" />
    <glyph glyph-name="lslash" unicode="&#x142;" horiz-adv-x="395" 
d="M246 700h108l-38 -241l112 65l-15 -95l-112 -64l-31 -205c-3 -16 -4 -28 -4 -36c0 -25 15 -38 44 -38c17 0 31 3 42 9l-14 -93c-20 -10 -46 -15 -77 -15c-71 0 -107 34 -107 101c0 15 2 35 5 58l24 150l-114 -66l16 96l113 65z" />
    <glyph glyph-name="Nacute" unicode="&#x143;" horiz-adv-x="772" 
d="M686 0h-92l-317 519l-82 -519h-108l110 700h95l314 -517l82 517h108zM525 762h-99l118 140h135z" />
    <glyph glyph-name="nacute" unicode="&#x144;" horiz-adv-x="612" 
d="M589 268l-42 -268h-108l40 249c4 23 6 42 6 57c0 63 -40 97 -100 97c-57 0 -115 -37 -148 -80l-52 -323h-108l78 491h108l-10 -61c49 49 109 74 179 74c101 0 165 -64 165 -163c0 -15 -3 -39 -8 -73zM437 575h-99l118 140h135z" />
    <glyph glyph-name="uni0145" unicode="&#x145;" horiz-adv-x="772" 
d="M686 0h-92l-317 519l-82 -519h-108l110 700h95l314 -517l82 517h108zM451 -60l-81 -191h-82l68 191h95z" />
    <glyph glyph-name="uni0146" unicode="&#x146;" horiz-adv-x="612" 
d="M589 268l-42 -268h-108l40 249c4 23 6 42 6 57c0 63 -40 97 -100 97c-57 0 -115 -37 -148 -80l-52 -323h-108l78 491h108l-10 -61c49 49 109 74 179 74c101 0 165 -64 165 -163c0 -15 -3 -39 -8 -73zM358 -60l-81 -191h-82l68 191h95z" />
    <glyph glyph-name="Ncaron" unicode="&#x147;" horiz-adv-x="772" 
d="M686 0h-92l-317 519l-82 -519h-108l110 700h95l314 -517l82 517h108zM594 902h100l-140 -140h-108l-92 140h98l57 -86z" />
    <glyph glyph-name="ncaron" unicode="&#x148;" horiz-adv-x="612" 
d="M589 268l-42 -268h-108l40 249c4 23 6 42 6 57c0 63 -40 97 -100 97c-57 0 -115 -37 -148 -80l-52 -323h-108l78 491h108l-10 -61c49 49 109 74 179 74c101 0 165 -64 165 -163c0 -15 -3 -39 -8 -73zM490 715h100l-140 -140h-108l-92 140h98l57 -86z" />
    <glyph glyph-name="napostrophe" unicode="&#x149;" horiz-adv-x="732" 
d="M709 268l-42 -268h-108l40 249c4 23 6 42 6 57c0 63 -40 97 -100 97c-57 0 -115 -37 -148 -80l-52 -323h-108l78 491h108l-10 -61c49 49 109 74 179 74c101 0 165 -64 165 -163c0 -15 -3 -39 -8 -73zM264 700l-81 -191h-82l68 191h95z" />
    <glyph glyph-name="Eng" unicode="&#x14a;" horiz-adv-x="772" 
d="M468 -205c-49 0 -87 8 -112 24l15 104c25 -17 53 -25 86 -25c69 0 110 36 122 108l2 14l-304 499l-82 -519h-108l110 700h95l314 -517l82 517h108l-110 -700c-21 -132 -102 -205 -218 -205z" />
    <glyph glyph-name="eng" unicode="&#x14b;" horiz-adv-x="612" 
d="M77 0l78 491h108l-10 -61c49 49 109 74 179 74c101 0 165 -64 165 -163c0 -15 -3 -39 -8 -73l-47 -297c-19 -117 -89 -176 -190 -176c-43 0 -74 7 -95 20l15 94c19 -13 42 -19 69 -19c56 0 85 30 96 97l42 261c4 23 6 42 6 57c0 63 -41 98 -100 98
c-57 0 -115 -37 -148 -80l-52 -323h-108z" />
    <glyph glyph-name="Omacron" unicode="&#x14c;" horiz-adv-x="839" 
d="M492 713c102 0 184 -31 246 -94s93 -143 93 -241c0 -109 -36 -201 -109 -277s-163 -114 -271 -114c-101 0 -183 31 -245 94c-61 63 -92 144 -92 241c0 109 36 201 108 277c73 76 163 114 270 114zM454 90c75 0 137 28 188 83s76 124 76 205c0 66 -21 121 -63 165
c-42 45 -97 67 -166 67c-75 0 -137 -28 -187 -83s-75 -123 -75 -204c0 -67 21 -122 62 -167c42 -44 97 -66 165 -66zM677 793h-281l13 77h281z" />
    <glyph glyph-name="omacron" unicode="&#x14d;" horiz-adv-x="610" 
d="M353 504c75 0 137 -23 184 -70c48 -46 72 -104 72 -175c0 -74 -26 -138 -79 -192c-53 -53 -118 -80 -197 -80c-75 0 -136 23 -183 70s-71 105 -71 175c0 74 26 138 79 191c53 54 118 81 195 81zM334 82c47 0 86 17 119 52s49 78 49 129c0 87 -60 146 -148 146
c-47 0 -86 -17 -119 -52s-49 -77 -49 -127c0 -88 61 -148 148 -148zM246 609l11 74h317l-13 -74h-315z" />
    <glyph glyph-name="Obreve" unicode="&#x14e;" horiz-adv-x="839" 
d="M492 713c102 0 184 -31 246 -94s93 -143 93 -241c0 -109 -36 -201 -109 -277s-163 -114 -271 -114c-101 0 -183 31 -245 94c-61 63 -92 144 -92 241c0 109 36 201 108 277c73 76 163 114 270 114zM454 90c75 0 137 28 188 83s76 124 76 205c0 66 -21 121 -63 165
c-42 45 -97 67 -166 67c-75 0 -137 -28 -187 -83s-75 -123 -75 -204c0 -67 21 -122 62 -167c42 -44 97 -66 165 -66zM543 757c-79 0 -140 53 -140 132c0 10 0 17 1 22h79c0 -3 -1 -9 -1 -12c0 -40 25 -67 62 -67c41 0 77 34 86 79h81c-17 -93 -85 -154 -168 -154z" />
    <glyph glyph-name="obreve" unicode="&#x14f;" horiz-adv-x="610" 
d="M353 504c75 0 137 -23 184 -70c48 -46 72 -104 72 -175c0 -74 -26 -138 -79 -192c-53 -53 -118 -80 -197 -80c-75 0 -136 23 -183 70s-71 105 -71 175c0 74 26 138 79 191c53 54 118 81 195 81zM334 82c47 0 86 17 119 52s49 78 49 129c0 87 -60 146 -148 146
c-47 0 -86 -17 -119 -52s-49 -77 -49 -127c0 -88 61 -148 148 -148zM398 566c-39 0 -73 12 -100 36c-27 25 -41 57 -41 96c0 10 0 17 1 22h79c-1 -5 -1 -10 -1 -15c0 -37 26 -64 65 -64c41 0 74 30 83 79h81c-16 -96 -84 -154 -167 -154z" />
    <glyph glyph-name="Ohungarumlaut" unicode="&#x150;" horiz-adv-x="839" 
d="M492 713c102 0 184 -31 246 -94s93 -143 93 -241c0 -109 -36 -201 -109 -277s-163 -114 -271 -114c-101 0 -183 31 -245 94c-61 63 -92 144 -92 241c0 109 36 201 108 277c73 76 163 114 270 114zM454 90c75 0 137 28 188 83s76 124 76 205c0 66 -21 121 -63 165
c-42 45 -97 67 -166 67c-75 0 -137 -28 -187 -83s-75 -123 -75 -204c0 -67 21 -122 62 -167c42 -44 97 -66 165 -66zM654 762h-99l118 140h135zM449 762h-99l118 140h135z" />
    <glyph glyph-name="ohungarumlaut" unicode="&#x151;" horiz-adv-x="610" 
d="M353 504c75 0 137 -23 184 -70c48 -46 72 -104 72 -175c0 -74 -26 -138 -79 -192c-53 -53 -118 -80 -197 -80c-75 0 -136 23 -183 70s-71 105 -71 175c0 74 26 138 79 191c53 54 118 81 195 81zM334 82c47 0 86 17 119 52s49 78 49 129c0 87 -60 146 -148 146
c-47 0 -86 -17 -119 -52s-49 -77 -49 -127c0 -88 61 -148 148 -148zM533 575h-99l118 140h135zM328 575h-99l118 140h135z" />
    <glyph glyph-name="OE" unicode="&#x152;" horiz-adv-x="1130" 
d="M525 700h654l-16 -101h-381l-28 -175h309l-16 -101h-308l-35 -222h393l-16 -101h-620c-105 0 -189 29 -252 87c-63 59 -95 136 -95 231c0 111 38 202 115 274s176 108 296 108zM593 101l79 498h-156c-87 0 -157 -26 -210 -77s-79 -119 -79 -204c0 -63 21 -115 64 -156
s100 -61 173 -61h129z" />
    <glyph glyph-name="oe" unicode="&#x153;" horiz-adv-x="981" 
d="M981 292c0 -30 -2 -56 -6 -78h-379c1 -85 74 -132 171 -132c55 0 108 14 157 41l-14 -94c-39 -28 -94 -42 -165 -42c-90 0 -159 31 -208 92c-53 -61 -122 -92 -205 -92c-75 0 -136 23 -183 70s-70 105 -70 175c0 74 26 138 78 191c53 54 118 81 196 81
c88 0 156 -32 204 -95c53 63 122 95 206 95c67 0 120 -21 159 -62s59 -91 59 -150zM603 296h274v11c0 60 -45 106 -120 106s-137 -46 -154 -117zM334 82c47 0 86 17 119 52s49 78 49 129c0 87 -60 146 -148 146c-47 0 -86 -17 -119 -52s-49 -77 -49 -127
c0 -88 61 -148 148 -148z" />
    <glyph glyph-name="Racute" unicode="&#x154;" horiz-adv-x="733" 
d="M538 309l172 -309h-125l-165 296h-176l-47 -296h-110l111 700h303c133 0 213 -73 213 -180c0 -103 -69 -183 -176 -211zM489 599h-197l-33 -206h209c75 0 135 44 135 113c0 59 -42 93 -114 93zM464 762h-99l118 140h135z" />
    <glyph glyph-name="racute" unicode="&#x155;" horiz-adv-x="398" 
d="M185 0h-108l78 491h108l-13 -85c41 57 120 98 196 98c4 0 7 0 10 -1l-17 -108c-9 1 -19 2 -30 2c-77 0 -144 -44 -176 -95zM344 575h-99l118 140h135z" />
    <glyph glyph-name="uni0156" unicode="&#x156;" horiz-adv-x="733" 
d="M538 309l172 -309h-125l-165 296h-176l-47 -296h-110l111 700h303c133 0 213 -73 213 -180c0 -103 -69 -183 -176 -211zM489 599h-197l-33 -206h209c75 0 135 44 135 113c0 59 -42 93 -114 93zM426 -60l-81 -191h-82l68 191h95z" />
    <glyph glyph-name="uni0157" unicode="&#x157;" horiz-adv-x="398" 
d="M185 0h-108l78 491h108l-13 -85c41 57 120 98 196 98c4 0 7 0 10 -1l-17 -108c-9 1 -19 2 -30 2c-77 0 -144 -44 -176 -95zM170 -60l-81 -191h-82l68 191h95z" />
    <glyph glyph-name="Rcaron" unicode="&#x158;" horiz-adv-x="733" 
d="M538 309l172 -309h-125l-165 296h-176l-47 -296h-110l111 700h303c133 0 213 -73 213 -180c0 -103 -69 -183 -176 -211zM489 599h-197l-33 -206h209c75 0 135 44 135 113c0 59 -42 93 -114 93zM548 902h100l-140 -140h-108l-92 140h98l57 -86z" />
    <glyph glyph-name="rcaron" unicode="&#x159;" horiz-adv-x="398" 
d="M185 0h-108l78 491h108l-13 -85c41 57 120 98 196 98c4 0 7 0 10 -1l-17 -108c-9 1 -19 2 -30 2c-77 0 -144 -44 -176 -95zM417 715h100l-140 -140h-108l-92 140h98l57 -86z" />
    <glyph glyph-name="Sacute" unicode="&#x15a;" horiz-adv-x="628" 
d="M632 654l-17 -109c-57 37 -143 65 -224 65c-87 0 -152 -32 -152 -97c3 -32 18 -49 55 -65l34 -13l43 -13c19 -5 33 -10 43 -13c59 -19 96 -35 137 -64s63 -72 63 -127c0 -71 -28 -128 -85 -169s-125 -62 -205 -62c-53 0 -105 7 -154 20c-49 14 -88 32 -115 55l18 116
c23 -23 59 -44 108 -62c49 -17 98 -26 147 -26c25 0 50 3 74 9c49 12 98 50 98 105c0 56 -43 75 -143 106l-20 6l-66 21c-16 6 -35 14 -56 25c-57 30 -84 68 -89 139c0 69 26 121 78 157c53 37 118 55 196 55c89 0 179 -23 232 -59zM429 762h-99l118 140h135z" />
    <glyph glyph-name="sacute" unicode="&#x15b;" horiz-adv-x="500" 
d="M503 448l-14 -96c-52 39 -111 59 -178 59s-101 -18 -101 -55c0 -16 7 -27 23 -36c9 -4 14 -7 29 -12c16 -6 40 -13 66 -21c104 -33 154 -72 154 -140c-1 -110 -112 -164 -217 -160c-87 0 -172 28 -220 61l14 96c41 -33 117 -64 205 -64c72 0 108 19 108 58
c0 29 -31 43 -107 67c-120 37 -168 73 -168 140c0 51 20 91 61 118s90 41 148 41c81 0 146 -19 197 -56zM369 575h-99l118 140h135z" />
    <glyph glyph-name="Scircumflex" unicode="&#x15c;" horiz-adv-x="628" 
d="M632 654l-17 -109c-57 37 -143 65 -224 65c-87 0 -152 -32 -152 -97c3 -32 18 -49 55 -65l34 -13l43 -13c19 -5 33 -10 43 -13c59 -19 96 -35 137 -64s63 -72 63 -127c0 -71 -28 -128 -85 -169s-125 -62 -205 -62c-53 0 -105 7 -154 20c-49 14 -88 32 -115 55l18 116
c23 -23 59 -44 108 -62c49 -17 98 -26 147 -26c25 0 50 3 74 9c49 12 98 50 98 105c0 56 -43 75 -143 106l-20 6l-66 21c-16 6 -35 14 -56 25c-57 30 -84 68 -89 139c0 69 26 121 78 157c53 37 118 55 196 55c89 0 179 -23 232 -59zM350 762h-100l140 140h108l92 -140h-98
l-57 86z" />
    <glyph glyph-name="scircumflex" unicode="&#x15d;" horiz-adv-x="500" 
d="M503 448l-14 -96c-52 39 -111 59 -178 59s-101 -18 -101 -55c0 -16 7 -27 23 -36c9 -4 14 -7 29 -12c16 -6 40 -13 66 -21c104 -33 154 -72 154 -140c-1 -110 -112 -164 -217 -160c-87 0 -172 28 -220 61l14 96c41 -33 117 -64 205 -64c72 0 108 19 108 58
c0 29 -31 43 -107 67c-120 37 -168 73 -168 140c0 51 20 91 61 118s90 41 148 41c81 0 146 -19 197 -56zM272 575h-102l138 140h108l93 -140h-95l-58 86z" />
    <glyph glyph-name="Scedilla" unicode="&#x15e;" horiz-adv-x="628" 
d="M632 654l-17 -109c-57 37 -143 65 -224 65c-87 0 -152 -32 -152 -97c3 -32 18 -49 55 -65l34 -13l43 -13c19 -5 33 -10 43 -13c59 -19 96 -35 137 -64s63 -72 63 -127c0 -64 -23 -116 -70 -157c-46 -40 -104 -64 -174 -71l-68 -128h-126l101 127c-100 9 -174 33 -222 73
l18 116c23 -23 59 -44 108 -62c49 -17 98 -26 147 -26c25 0 50 3 74 9c49 12 98 50 98 105c0 56 -43 75 -143 106l-20 6l-66 21c-16 6 -35 14 -56 25c-57 30 -84 68 -89 139c0 69 26 121 78 157c53 37 118 55 196 55c89 0 179 -23 232 -59z" />
    <glyph glyph-name="scedilla" unicode="&#x15f;" horiz-adv-x="500" 
d="M503 448l-14 -96c-52 39 -111 59 -178 59s-101 -18 -101 -55c0 -16 7 -27 23 -36c9 -4 14 -7 29 -12c16 -6 40 -13 66 -21c104 -33 154 -72 154 -140c0 -91 -74 -145 -173 -157l-68 -128h-126l101 128c-71 8 -128 27 -171 58l14 96c41 -33 117 -64 205 -64
c72 0 108 19 108 58c0 29 -31 43 -107 67c-120 37 -168 73 -168 140c0 51 20 91 61 118s90 41 148 41c81 0 146 -19 197 -56z" />
    <glyph glyph-name="Scaron" unicode="&#x160;" horiz-adv-x="628" 
d="M632 654l-17 -109c-57 37 -143 65 -224 65c-87 0 -152 -32 -152 -97c3 -32 18 -49 55 -65l34 -13l43 -13c19 -5 33 -10 43 -13c59 -19 96 -35 137 -64s63 -72 63 -127c0 -71 -28 -128 -85 -169s-125 -62 -205 -62c-53 0 -105 7 -154 20c-49 14 -88 32 -115 55l18 116
c23 -23 59 -44 108 -62c49 -17 98 -26 147 -26c25 0 50 3 74 9c49 12 98 50 98 105c0 56 -43 75 -143 106l-20 6l-66 21c-16 6 -35 14 -56 25c-57 30 -84 68 -89 139c0 69 26 121 78 157c53 37 118 55 196 55c89 0 179 -23 232 -59zM514 902h100l-140 -140h-108l-92 140h98
l57 -86z" />
    <glyph glyph-name="scaron" unicode="&#x161;" horiz-adv-x="500" 
d="M503 448l-14 -96c-52 39 -111 59 -178 59s-101 -18 -101 -55c0 -16 7 -27 23 -36c9 -4 14 -7 29 -12c16 -6 40 -13 66 -21c104 -33 154 -72 154 -140c-1 -110 -112 -164 -217 -160c-87 0 -172 28 -220 61l14 96c41 -33 117 -64 205 -64c72 0 108 19 108 58
c0 29 -31 43 -107 67c-120 37 -168 73 -168 140c0 51 20 91 61 118s90 41 148 41c81 0 146 -19 197 -56zM427 715h100l-140 -140h-108l-92 140h98l57 -86z" />
    <glyph glyph-name="uni0162" unicode="&#x162;" horiz-adv-x="639" 
d="M128 599l16 101h573l-16 -101h-232l-95 -599h-10l-73 -138h-126l109 138h-10l95 599h-231z" />
    <glyph glyph-name="uni0163" unicode="&#x163;" horiz-adv-x="436" 
d="M153 161l37 235h-105l15 95h104l23 143h108l-23 -143h155l-14 -95h-155l-34 -207c-4 -27 -6 -43 -6 -50c0 -35 23 -53 70 -53c25 0 50 6 74 18l-14 -92c-18 -13 -45 -21 -81 -24l-67 -126h-126l106 134c-49 16 -74 50 -74 103c0 4 2 25 7 62z" />
    <glyph glyph-name="Tcaron" unicode="&#x164;" horiz-adv-x="639" 
d="M530 902h100l-140 -140h-108l-92 140h98l57 -86zM128 599l16 101h573l-16 -101h-232l-95 -599h-110l95 599h-231z" />
    <glyph glyph-name="tcaron" unicode="&#x165;" horiz-adv-x="587" 
d="M156 161l37 235h-105l15 95h104l23 143h108l-23 -143h155l-14 -95h-155l-34 -207c-4 -27 -6 -43 -6 -50c0 -35 23 -53 70 -53c25 0 50 6 74 18l-14 -92c-25 -17 -60 -25 -107 -25c-83 0 -135 39 -135 112c0 4 2 25 7 62zM683 700l-81 -191h-82l68 191h95z" />
    <glyph glyph-name="Tbar" unicode="&#x166;" horiz-adv-x="639" 
d="M374 0h-110l49 312h-120l16 99h120l30 188h-231l16 101h573l-16 -101h-232l-30 -188h119l-16 -99h-119z" />
    <glyph glyph-name="tbar" unicode="&#x167;" horiz-adv-x="452" 
d="M153 161l9 56h-105l14 92h105l14 87h-105l15 95h104l23 143h108l-23 -143h155l-14 -95h-155l-15 -87h156l-14 -92h-157l-4 -28c-4 -27 -6 -43 -6 -50c0 -35 23 -53 70 -53c25 0 50 6 74 18l-14 -92c-25 -17 -60 -25 -107 -25c-83 0 -135 39 -135 112c0 4 2 25 7 62z" />
    <glyph glyph-name="Utilde" unicode="&#x168;" horiz-adv-x="744" 
d="M598 282l67 418h110l-67 -421c-15 -94 -52 -166 -111 -217c-59 -50 -129 -75 -211 -75c-81 0 -146 23 -195 68c-48 45 -72 107 -72 186c0 23 2 46 6 70l63 389h110l-63 -397c-3 -20 -5 -37 -5 -51c0 -103 62 -162 167 -162s181 67 201 192zM627 891h59
c-11 -69 -59 -123 -115 -123c-21 0 -45 9 -72 26c-26 18 -46 27 -60 27c-24 0 -41 -16 -51 -47h-59c12 72 59 122 116 122c21 0 44 -9 70 -26s46 -26 60 -26c25 0 43 16 52 47z" />
    <glyph glyph-name="utilde" unicode="&#x169;" horiz-adv-x="611" 
d="M100 223l42 268h108l-40 -249c-4 -23 -6 -41 -6 -56c0 -63 41 -98 100 -98c57 0 115 37 148 80l52 323h108l-78 -491h-108l10 61c-49 -49 -109 -74 -179 -74c-101 0 -165 64 -165 163c0 15 3 39 8 73zM524 707h58c-11 -69 -59 -123 -115 -123c-21 0 -44 9 -71 26
c-26 17 -46 26 -60 26c-25 0 -42 -16 -52 -47h-59c13 72 58 123 117 123c20 0 43 -9 69 -26s46 -26 61 -26c25 0 43 16 52 47z" />
    <glyph glyph-name="Umacron" unicode="&#x16a;" horiz-adv-x="744" 
d="M598 282l67 418h110l-67 -421c-15 -94 -52 -166 -111 -217c-59 -50 -129 -75 -211 -75c-81 0 -146 23 -195 68c-48 45 -72 107 -72 186c0 23 2 46 6 70l63 389h110l-63 -397c-3 -20 -5 -37 -5 -51c0 -103 62 -162 167 -162s181 67 201 192zM634 793h-281l13 77h281z" />
    <glyph glyph-name="umacron" unicode="&#x16b;" horiz-adv-x="611" 
d="M100 223l42 268h108l-40 -249c-4 -23 -6 -41 -6 -56c0 -63 41 -98 100 -98c57 0 115 37 148 80l52 323h108l-78 -491h-108l10 61c-49 -49 -109 -74 -179 -74c-101 0 -165 64 -165 163c0 15 3 39 8 73zM239 609l11 74h317l-13 -74h-315z" />
    <glyph glyph-name="Ubreve" unicode="&#x16c;" horiz-adv-x="744" 
d="M598 282l67 418h110l-67 -421c-15 -94 -52 -166 -111 -217c-59 -50 -129 -75 -211 -75c-81 0 -146 23 -195 68c-48 45 -72 107 -72 186c0 23 2 46 6 70l63 389h110l-63 -397c-3 -20 -5 -37 -5 -51c0 -103 62 -162 167 -162s181 67 201 192zM489 748
c-79 0 -140 53 -140 132c0 10 0 17 1 22h79c0 -3 -1 -9 -1 -12c0 -40 25 -67 62 -67c41 0 77 34 86 79h81c-17 -93 -85 -154 -168 -154z" />
    <glyph glyph-name="ubreve" unicode="&#x16d;" horiz-adv-x="611" 
d="M100 223l42 268h108l-40 -249c-4 -23 -6 -41 -6 -56c0 -63 41 -98 100 -98c57 0 115 37 148 80l52 323h108l-78 -491h-108l10 61c-49 -49 -109 -74 -179 -74c-101 0 -165 64 -165 163c0 15 3 39 8 73zM393 561c-39 0 -73 12 -100 36c-27 25 -41 57 -41 96c0 10 0 17 1 22
h79c-1 -5 -1 -10 -1 -15c0 -37 26 -64 65 -64c41 0 74 30 83 79h81c-16 -96 -84 -154 -167 -154z" />
    <glyph glyph-name="Uring" unicode="&#x16e;" horiz-adv-x="744" 
d="M598 282l67 418h110l-67 -421c-15 -94 -52 -166 -111 -217c-59 -50 -129 -75 -211 -75c-81 0 -146 23 -195 68c-48 45 -72 107 -72 186c0 23 2 46 6 70l63 389h110l-63 -397c-3 -20 -5 -37 -5 -51c0 -103 62 -162 167 -162s181 67 201 192zM493 735c-55 0 -99 43 -99 98
s44 99 99 99c53 0 98 -46 98 -99s-45 -98 -98 -98zM493 783c27 0 50 22 50 50s-23 51 -50 51c-66 3 -66 -105 0 -101z" />
    <glyph glyph-name="uring" unicode="&#x16f;" horiz-adv-x="611" 
d="M100 223l42 268h108l-40 -249c-4 -23 -6 -41 -6 -56c0 -63 41 -98 100 -98c57 0 115 37 148 80l52 323h108l-78 -491h-108l10 61c-49 -49 -109 -74 -179 -74c-101 0 -165 64 -165 163c0 15 3 39 8 73zM466 579c-39 -39 -99 -39 -139 0c-39 39 -39 99 0 138
c39 40 101 40 140 0c39 -39 39 -99 -1 -138zM448 648c3 66 -105 66 -102 0c0 -27 23 -50 51 -50s51 23 51 50z" />
    <glyph glyph-name="Uhungarumlaut" unicode="&#x170;" horiz-adv-x="744" 
d="M598 282l67 418h110l-67 -421c-15 -94 -52 -166 -111 -217c-59 -50 -129 -75 -211 -75c-81 0 -146 23 -195 68c-48 45 -72 107 -72 186c0 23 2 46 6 70l63 389h110l-63 -397c-3 -20 -5 -37 -5 -51c0 -103 62 -162 167 -162s181 67 201 192zM618 762h-99l118 140h135z
M413 762h-99l118 140h135z" />
    <glyph glyph-name="uhungarumlaut" unicode="&#x171;" horiz-adv-x="694" 
d="M100 223l42 268h108l-40 -249c-4 -23 -6 -41 -6 -56c0 -63 41 -98 100 -98c57 0 115 37 148 80l52 323h108l-78 -491h-108l10 61c-49 -49 -109 -74 -179 -74c-101 0 -165 64 -165 163c0 15 3 39 8 73zM541 575h-99l118 140h135zM336 575h-99l118 140h135z" />
    <glyph glyph-name="Uogonek" unicode="&#x172;" horiz-adv-x="744" 
d="M598 282l67 418h110l-67 -421c-20 -127 -78 -209 -187 -265c-64 -33 -96 -67 -96 -102c0 -27 21 -44 54 -44c13 0 26 2 39 7l-11 -66c-14 -5 -33 -7 -56 -7c-67 0 -106 37 -106 86c0 37 16 70 49 99h-8c-81 0 -146 23 -195 68c-48 45 -72 107 -72 186c0 23 2 46 6 70
l63 389h110l-63 -397c-3 -20 -5 -37 -5 -51c0 -103 62 -162 167 -162s181 67 201 192z" />
    <glyph glyph-name="uogonek" unicode="&#x173;" horiz-adv-x="611" 
d="M100 223l42 268h108l-40 -249c-4 -23 -6 -41 -6 -56c0 -63 41 -98 100 -98c57 0 115 37 148 80l52 323h108l-78 -491c-33 -31 -49 -59 -49 -86c0 -29 21 -47 54 -47c13 0 26 2 39 7l-11 -66c-14 -5 -33 -7 -56 -7c-67 0 -106 37 -106 86c0 41 20 79 60 113h-39l10 61
c-49 -49 -109 -74 -179 -74c-101 0 -165 64 -165 163c0 15 3 39 8 73z" />
    <glyph glyph-name="Wcircumflex" unicode="&#x174;" horiz-adv-x="1065" 
d="M345 174l253 527h87l86 -526l251 525h123l-350 -704h-97l-84 521l-249 -521h-98l-127 704h119zM572 762h-100l140 140h108l92 -140h-98l-57 86z" />
    <glyph glyph-name="wcircumflex" unicode="&#x175;" horiz-adv-x="823" 
d="M591 154l172 337h109l-251 -495h-92l-67 342l-172 -342h-92l-92 495h104l63 -337l169 339h86zM422 575h-102l138 140h108l93 -140h-95l-58 86z" />
    <glyph glyph-name="Ycircumflex" unicode="&#x176;" horiz-adv-x="685" 
d="M406 417l246 283h127l-331 -380l-50 -320h-110l50 317l-212 383h124zM378 762h-100l140 140h108l92 -140h-98l-57 86z" />
    <glyph glyph-name="ycircumflex" unicode="&#x177;" horiz-adv-x="573" 
d="M507 491h116l-313 -553c-56 -99 -121 -143 -212 -143c-33 0 -60 6 -83 18l15 96c22 -13 44 -19 67 -19c57 0 101 40 150 128l-151 473h112l106 -358zM295 575h-102l138 140h108l93 -140h-95l-58 86z" />
    <glyph glyph-name="Ydieresis" unicode="&#x178;" horiz-adv-x="685" 
d="M406 417l246 283h127l-331 -380l-50 -320h-110l50 317l-212 383h124zM503 831c0 35 27 62 62 62s61 -27 61 -62s-28 -62 -61 -62s-62 29 -62 62zM352 769c-35 0 -62 29 -62 62c-4 54 71 83 105 44c40 -35 9 -110 -43 -106z" />
    <glyph glyph-name="Zacute" unicode="&#x179;" horiz-adv-x="642" 
d="M688 700l-11 -77l-468 -522h407l-15 -101h-560l13 78l467 521h-372l16 101h523zM442 762h-99l118 140h135z" />
    <glyph glyph-name="zacute" unicode="&#x17a;" horiz-adv-x="516" 
d="M480 0h-445l11 72l320 324h-256l16 95h410l-11 -74l-320 -322h290zM378 575h-99l118 140h135z" />
    <glyph glyph-name="Zdotaccent" unicode="&#x17b;" horiz-adv-x="642" 
d="M688 700l-11 -77l-468 -522h407l-15 -101h-560l13 78l467 521h-372l16 101h523zM375 831c0 33 27 61 62 61s62 -26 62 -61s-27 -63 -62 -63s-62 28 -62 63z" />
    <glyph glyph-name="zdotaccent" unicode="&#x17c;" horiz-adv-x="516" 
d="M480 0h-445l11 72l320 324h-256l16 95h410l-11 -74l-320 -322h290zM276 648c0 33 27 61 62 61s62 -26 62 -61s-27 -62 -62 -62s-62 27 -62 62z" />
    <glyph glyph-name="Zcaron" unicode="&#x17d;" horiz-adv-x="642" 
d="M688 700l-11 -77l-468 -522h407l-15 -101h-560l13 78l467 521h-372l16 101h523zM525 902h100l-140 -140h-108l-92 140h98l57 -86z" />
    <glyph glyph-name="zcaron" unicode="&#x17e;" horiz-adv-x="516" 
d="M480 0h-445l11 72l320 324h-256l16 95h410l-11 -74l-320 -322h290zM436 715h100l-140 -140h-108l-92 140h98l57 -86z" />
    <glyph glyph-name="longs" unicode="&#x17f;" horiz-adv-x="386" 
d="M307 532l-84 -532h-108l63 396h-92l15 95h92l9 59c16 99 79 160 180 160c43 0 80 -7 111 -21l-14 -91c-29 12 -56 18 -83 18c-50 0 -80 -28 -89 -84z" />
    <glyph glyph-name="florin" unicode="&#x192;" horiz-adv-x="510" 
d="M81 -205c-35 0 -66 6 -91 19v90c24 -9 47 -14 70 -14c67 0 111 47 124 132l46 301h-115v92h131l15 95c19 121 86 200 209 200c35 0 66 -6 92 -18v-90c-21 9 -45 14 -71 14c-68 0 -108 -37 -123 -128l-12 -73h146v-92h-160l-52 -328c-19 -117 -88 -200 -209 -200z" />
    <glyph glyph-name="uni0218" unicode="&#x218;" horiz-adv-x="628" 
d="M632 654l-17 -109c-57 37 -143 65 -224 65c-87 0 -152 -32 -152 -97c3 -32 18 -49 55 -65l34 -13l43 -13c19 -5 33 -10 43 -13c59 -19 96 -35 137 -64s63 -72 63 -127c0 -71 -28 -128 -85 -169s-125 -62 -205 -62c-53 0 -105 7 -154 20c-49 14 -88 32 -115 55l18 116
c23 -23 59 -44 108 -62c49 -17 98 -26 147 -26c25 0 50 3 74 9c49 12 98 50 98 105c0 56 -43 75 -143 106l-20 6l-66 21c-16 6 -35 14 -56 25c-57 30 -84 68 -89 139c0 69 26 121 78 157c53 37 118 55 196 55c89 0 179 -23 232 -59zM370 -60l-81 -191h-82l68 191h95z" />
    <glyph glyph-name="uni0219" unicode="&#x219;" horiz-adv-x="500" 
d="M503 448l-14 -96c-52 39 -111 59 -178 59s-101 -18 -101 -55c0 -16 7 -27 23 -36c9 -4 14 -7 29 -12c16 -6 40 -13 66 -21c104 -33 154 -72 154 -140c-1 -110 -112 -164 -217 -160c-87 0 -172 28 -220 61l14 96c41 -33 117 -64 205 -64c72 0 108 19 108 58
c0 29 -31 43 -107 67c-120 37 -168 73 -168 140c0 51 20 91 61 118s90 41 148 41c81 0 146 -19 197 -56zM309 -60l-81 -191h-82l68 191h95z" />
    <glyph glyph-name="uni021A" unicode="&#x21a;" horiz-adv-x="639" 
d="M128 599l16 101h573l-16 -101h-232l-95 -599h-110l95 599h-231zM357 -60l-81 -191h-82l68 191h95z" />
    <glyph glyph-name="uni021B" unicode="&#x21b;" horiz-adv-x="436" 
d="M153 161l37 235h-105l15 95h104l23 143h108l-23 -143h155l-14 -95h-155l-34 -207c-4 -27 -6 -43 -6 -50c0 -35 23 -53 70 -53c25 0 50 6 74 18l-14 -92c-25 -17 -60 -25 -107 -25c-83 0 -135 39 -135 112c0 4 2 25 7 62zM312 -60l-81 -191h-82l68 191h95z" />
    <glyph glyph-name="circumflex" unicode="&#x2c6;" horiz-adv-x="536" 
d="M289 575h-102l138 140h108l93 -140h-95l-58 86z" />
    <glyph glyph-name="caron" unicode="&#x2c7;" horiz-adv-x="587" 
d="M479 715h100l-140 -140h-108l-92 140h98l57 -86z" />
    <glyph glyph-name="uni02C9" unicode="&#x2c9;" horiz-adv-x="510" 
d="M167 610l12 73h368l-13 -73h-367z" />
    <glyph glyph-name="breve" unicode="&#x2d8;" horiz-adv-x="555" 
d="M380 561c-39 0 -73 12 -100 36c-27 25 -41 57 -41 96c0 10 0 17 1 22h79c-1 -5 -1 -10 -1 -15c0 -37 26 -64 65 -64c41 0 74 30 83 79h81c-16 -96 -84 -154 -167 -154z" />
    <glyph glyph-name="dotaccent" unicode="&#x2d9;" horiz-adv-x="463" 
d="M323 586c-33 0 -62 27 -62 62c-4 52 71 83 106 43c39 -34 10 -109 -44 -105z" />
    <glyph glyph-name="ring" unicode="&#x2da;" horiz-adv-x="461" 
d="M389 579c-39 -39 -99 -39 -139 0c-39 39 -39 99 0 138c40 40 100 40 139 0c40 -39 40 -99 0 -138zM371 648c3 66 -105 66 -102 0c0 -27 23 -50 51 -50s51 23 51 50z" />
    <glyph glyph-name="ogonek" unicode="&#x2db;" horiz-adv-x="504" 
d="M228 4h69c-33 -31 -49 -59 -49 -86c0 -29 21 -47 54 -47c13 0 26 2 39 7l-11 -66c-14 -5 -33 -7 -56 -7c-67 0 -106 37 -106 86c0 41 20 79 60 113z" />
    <glyph glyph-name="tilde" unicode="&#x2dc;" horiz-adv-x="514" 
d="M478 707h58c-11 -69 -59 -123 -115 -123c-21 0 -44 9 -71 26c-26 17 -46 26 -60 26c-25 0 -42 -16 -52 -47h-59c13 72 58 123 117 123c20 0 43 -9 69 -26s46 -26 61 -26c25 0 43 16 52 47z" />
    <glyph glyph-name="hungarumlaut" unicode="&#x2dd;" horiz-adv-x="605" 
d="M476 575h-99l118 140h135zM271 575h-99l118 140h135z" />
    <glyph glyph-name="acutecomb" unicode="&#x301;" horiz-adv-x="16" 
d="M-139 575h-99l118 140h135z" />
    <glyph glyph-name="uni037E" unicode="&#x37e;" horiz-adv-x="267" 
d="M76 -152h-88l127 280h128zM207 342c-40 0 -71 31 -71 71c0 39 31 70 71 70c39 0 70 -31 70 -70c0 -40 -31 -71 -70 -71z" />
    <glyph glyph-name="uni0394" unicode="&#x394;" horiz-adv-x="761" 
d="M739 0h-717l416 700h106zM472 562l-272 -461h400z" />
    <glyph glyph-name="uni03A9" unicode="&#x3a9;" horiz-adv-x="798" 
d="M773 418c0 -124 -55 -236 -154 -317h109l-16 -101h-241l13 86c52 34 94 79 125 136c32 57 48 117 48 180c0 58 -16 107 -48 147c-31 41 -76 61 -134 61c-68 0 -123 -29 -166 -88c-42 -58 -63 -123 -63 -196c0 -47 9 -93 27 -138s40 -79 66 -102l-14 -86h-239l15 101h116
c-49 56 -81 150 -81 243c0 61 13 119 40 174c27 56 66 102 119 139s112 56 179 56c85 0 156 -27 213 -81s86 -125 86 -214z" />
    <glyph glyph-name="uni03BC" unicode="&#x3bc;" horiz-adv-x="613" 
d="M166 13l-18 -213h-108l109 691h108l-40 -249c-4 -23 -6 -42 -6 -57c0 -63 41 -98 100 -98c57 0 115 38 148 81l52 323h108l-78 -491h-108l10 61c-49 -49 -109 -74 -179 -74c-39 0 -71 9 -98 26z" />
    <glyph glyph-name="pi" unicode="&#x3c0;" horiz-adv-x="698" 
d="M563 -8c-64 0 -107 33 -107 106c0 11 1 23 3 37l41 261h-201l-63 -396h-108l63 396h-95l15 95h610l-15 -95h-98l-36 -225c-3 -17 -4 -29 -4 -36c0 -30 15 -45 45 -45c18 0 34 5 47 14l-15 -92c-21 -13 -49 -20 -82 -20z" />
    <glyph glyph-name="uni0401" unicode="&#x401;" horiz-adv-x="647" 
d="M598 0h-511l111 700h498l-16 -101h-388l-28 -175h316l-16 -101h-316l-35 -222h401zM572 769c-35 0 -62 29 -62 62c-4 54 71 83 105 44c40 -35 9 -110 -43 -106zM297 831c0 35 27 62 62 62s61 -27 61 -62s-28 -62 -61 -62s-62 29 -62 62z" />
    <glyph glyph-name="uni0402" unicode="&#x402;" horiz-adv-x="765" 
d="M633 599h-241l-33 -203c57 22 115 33 173 33c69 0 124 -21 167 -62s64 -91 64 -150c0 -67 -24 -122 -72 -164c-47 -41 -108 -62 -181 -62c-35 0 -69 5 -102 16l14 98c27 -10 54 -15 81 -15c41 0 77 11 106 32s44 51 44 89c0 68 -53 115 -142 115c-59 0 -116 -12 -169 -37
l-45 -289h-111l96 599h-154l16 101h505z" />
    <glyph glyph-name="uni0403" unicode="&#x403;" horiz-adv-x="608" 
d="M197 0h-110l111 700h490l-16 -101h-380zM449 762h-99l118 140h135z" />
    <glyph glyph-name="uni0404" unicode="&#x404;" horiz-adv-x="685" 
d="M540 409l-16 -101h-298c1 -67 23 -120 66 -159c44 -39 102 -59 174 -59c77 0 144 21 202 62l-17 -114c-60 -34 -125 -51 -195 -51c-102 0 -185 31 -248 93c-63 63 -94 142 -94 238c0 113 37 207 110 282s167 113 282 113c81 0 152 -17 212 -52l-18 -107
c-55 37 -120 56 -195 56c-136 0 -241 -77 -269 -201h304z" />
    <glyph glyph-name="uni0405" unicode="&#x405;" horiz-adv-x="628" 
d="M632 654l-17 -109c-57 37 -143 65 -224 65c-87 0 -152 -32 -152 -97c3 -32 18 -49 55 -65l34 -13l43 -13c19 -5 33 -10 43 -13c59 -19 96 -35 137 -64s63 -72 63 -127c0 -71 -28 -128 -85 -169s-125 -62 -205 -62c-53 0 -105 7 -154 20c-49 14 -88 32 -115 55l18 116
c23 -23 59 -44 108 -62c49 -17 98 -26 147 -26c25 0 50 3 74 9c49 12 98 50 98 105c0 56 -43 75 -143 106l-20 6l-66 21c-16 6 -35 14 -56 25c-57 30 -84 68 -89 139c0 69 26 121 78 157c53 37 118 55 196 55c89 0 179 -23 232 -59z" />
    <glyph glyph-name="uni0406" unicode="&#x406;" horiz-adv-x="295" 
d="M202 0h-110l111 700h110z" />
    <glyph glyph-name="uni0407" unicode="&#x407;" horiz-adv-x="295" 
d="M202 0h-110l111 700h110zM382 769c-35 0 -62 29 -62 62c-4 54 71 83 105 44c40 -35 9 -110 -43 -106zM107 831c0 35 27 62 62 62s61 -27 61 -62s-28 -62 -61 -62s-62 29 -62 62z" />
    <glyph glyph-name="uni0408" unicode="&#x408;" horiz-adv-x="509" 
d="M430 700h110l-77 -487c-23 -151 -110 -226 -261 -226c-71 0 -126 16 -165 47l17 110c31 -32 88 -54 140 -54c95 0 147 43 164 154z" />
    <glyph glyph-name="uni0409" unicode="&#x409;" horiz-adv-x="1111" 
d="M712 458h163c73 0 131 -19 172 -56s62 -86 62 -145c0 -77 -29 -139 -86 -186s-127 -71 -210 -71h-284l95 599h-247l-20 -116c-7 -41 -12 -72 -17 -95c-4 -22 -10 -51 -18 -87c-7 -35 -15 -63 -23 -84c-7 -21 -17 -44 -29 -71c-23 -53 -49 -79 -85 -108s-82 -41 -137 -41
c-15 0 -28 1 -38 4l16 101c11 -3 21 -4 31 -4c49 0 87 26 112 69c13 21 24 49 33 83c20 69 34 141 51 244c1 6 1 11 2 14l33 192h462zM655 101h173c47 0 87 13 120 38s50 61 50 107c0 68 -52 111 -136 111h-166z" />
    <glyph glyph-name="uni040A" unicode="&#x40a;" horiz-adv-x="1124" 
d="M724 454h166c73 0 130 -19 171 -56s61 -84 61 -143c0 -76 -28 -138 -85 -185c-56 -47 -125 -70 -208 -70h-287l54 353h-343l-55 -353h-111l111 700h111l-40 -246h344l39 246h111zM668 101h176c46 0 85 12 118 37s49 61 49 106c0 67 -50 109 -134 109h-169z" />
    <glyph glyph-name="uni040B" unicode="&#x40b;" horiz-adv-x="791" 
d="M633 599h-241l-32 -200c61 21 122 31 185 31c147 0 221 -57 221 -171c0 -9 -1 -22 -2 -38l-35 -221h-110l30 188c2 12 3 25 3 40c0 72 -44 99 -136 99c-62 0 -120 -11 -173 -34l-46 -293h-111l96 599h-154l16 101h505z" />
    <glyph glyph-name="uni040C" unicode="&#x40c;" horiz-adv-x="675" 
d="M197 0h-110l110 700h111l-45 -286l334 286h142l-380 -330l324 -370h-137l-296 336zM463 762h-99l118 140h135z" />
    <glyph glyph-name="uni040E" unicode="&#x40e;" horiz-adv-x="660" 
d="M618 700h121l-330 -550c-75 -124 -142 -163 -223 -163c-39 0 -71 7 -98 20l16 100c23 -11 49 -17 78 -17c31 0 56 7 75 20c19 14 43 45 72 92l-207 498h118l156 -384zM271 906h92c-1 -3 -1 -8 -1 -14c0 -41 27 -68 74 -68c52 0 91 34 98 82h92c-9 -50 -31 -90 -67 -120
s-79 -45 -128 -45c-93 0 -161 53 -161 137c0 13 0 22 1 28z" />
    <glyph glyph-name="uni040F" unicode="&#x40f;" horiz-adv-x="738" 
d="M397 -150h-105l24 150h-229l111 700h110l-95 -599h344l95 599h110l-111 -700h-230z" />
    <glyph glyph-name="uni0410" unicode="&#x410;" horiz-adv-x="762" 
d="M439 704h106l195 -704h-115l-47 174h-334l-102 -174h-120zM552 271l-80 294l-172 -294h252z" />
    <glyph glyph-name="uni0411" unicode="&#x411;" horiz-adv-x="692" 
d="M268 451h177c72 0 128 -19 169 -57c41 -37 62 -85 62 -144c0 -76 -28 -137 -84 -182c-55 -45 -124 -68 -206 -68h-299l111 700h493l-15 -101h-384zM252 350l-39 -249h189c45 0 84 12 115 36s47 59 47 104c0 68 -49 109 -132 109h-180z" />
    <glyph glyph-name="uni0412" unicode="&#x412;" horiz-adv-x="721" 
d="M579 381c72 -13 125 -73 125 -158c0 -69 -25 -123 -74 -163s-112 -60 -188 -60h-355l111 700h305c115 0 188 -58 188 -151c0 -75 -41 -139 -112 -168zM489 599h-197l-29 -181h198c69 0 121 35 121 102c0 49 -34 79 -93 79zM248 321l-35 -220h227c83 0 146 45 146 126
c0 57 -44 94 -116 94h-222z" />
    <glyph glyph-name="uni0413" unicode="&#x413;" horiz-adv-x="608" 
d="M197 0h-110l111 700h490l-16 -101h-380z" />
    <glyph glyph-name="uni0414" unicode="&#x414;" horiz-adv-x="783" 
d="M94 -150h-103l40 251h66c47 58 84 122 111 193c28 71 53 174 75 309l16 97h463l-95 -599h101l-40 -251h-104l24 150h-530zM225 101h332l79 498h-244c-19 -117 -41 -215 -66 -294s-59 -147 -101 -204z" />
    <glyph glyph-name="uni0415" unicode="&#x415;" horiz-adv-x="647" 
d="M598 0h-511l111 700h498l-16 -101h-388l-28 -175h316l-16 -101h-316l-35 -222h401z" />
    <glyph glyph-name="uni0416" unicode="&#x416;" horiz-adv-x="1027" 
d="M161 0h-144l399 374l-232 326h130l208 -299l48 299h110l-48 -299l310 299h138l-353 -342l269 -358h-138l-239 320l-50 -320h-110l50 321z" />
    <glyph glyph-name="uni0417" unicode="&#x417;" horiz-adv-x="628" 
d="M500 378c65 -24 113 -78 113 -157c0 -49 -16 -92 -47 -129c-63 -73 -158 -105 -262 -105c-99 0 -179 20 -241 61l15 111c70 -46 146 -69 228 -69c53 0 99 11 137 33c39 22 58 55 58 99c0 65 -55 100 -152 100h-94l13 101h98c84 0 145 35 145 100c0 56 -51 87 -142 87
c-77 0 -151 -18 -220 -54l16 107c68 33 141 50 220 50c145 0 238 -70 238 -175c0 -76 -50 -135 -123 -160z" />
    <glyph glyph-name="uni0418" unicode="&#x418;" horiz-adv-x="765" 
d="M181 0h-94l111 700h110l-81 -515l466 515h96l-111 -700h-110l82 517z" />
    <glyph glyph-name="uni0419" unicode="&#x419;" horiz-adv-x="765" 
d="M181 0h-94l111 700h110l-81 -515l466 515h96l-111 -700h-110l82 517zM345 906h92c-1 -3 -1 -8 -1 -14c0 -41 27 -68 74 -68c52 0 91 34 98 82h92c-9 -50 -31 -90 -67 -120s-79 -45 -128 -45c-93 0 -161 53 -161 137c0 13 0 22 1 28z" />
    <glyph glyph-name="uni041A" unicode="&#x41a;" horiz-adv-x="675" 
d="M197 0h-110l110 700h111l-45 -286l334 286h142l-380 -330l324 -370h-137l-296 336z" />
    <glyph glyph-name="uni041B" unicode="&#x41b;" horiz-adv-x="728" 
d="M752 700l-110 -700h-109l95 599h-251l-20 -116c-7 -41 -12 -72 -17 -95c-4 -22 -10 -51 -18 -87c-7 -35 -15 -63 -23 -84c-7 -21 -17 -44 -29 -71c-23 -53 -49 -79 -85 -108s-82 -41 -137 -41c-15 0 -28 1 -38 4l16 101c11 -3 21 -4 31 -4c25 0 47 4 66 19
c9 7 18 14 25 21c16 15 31 50 40 70c5 11 11 27 16 48l14 52l12 62l12 65c3 16 8 40 13 73l33 192h464z" />
    <glyph glyph-name="uni041C" unicode="&#x41c;" horiz-adv-x="847" 
d="M871 700l-111 -700h-110l84 532l-234 -264h-64l-155 265l-84 -533h-110l111 700h105l178 -316l276 316h114z" />
    <glyph glyph-name="uni041D" unicode="&#x41d;" horiz-adv-x="759" 
d="M197 0h-110l111 700h110l-44 -276h365l44 276h110l-111 -700h-110l51 323h-365z" />
    <glyph glyph-name="uni041E" unicode="&#x41e;" horiz-adv-x="839" 
d="M492 713c102 0 184 -31 246 -94s93 -143 93 -241c0 -109 -36 -201 -109 -277s-163 -114 -271 -114c-101 0 -183 31 -245 94c-61 63 -92 144 -92 241c0 109 36 201 108 277c73 76 163 114 270 114zM454 90c75 0 137 28 188 83s76 124 76 205c0 66 -21 121 -63 165
c-42 45 -97 67 -166 67c-75 0 -137 -28 -187 -83s-75 -123 -75 -204c0 -67 21 -122 62 -167c42 -44 97 -66 165 -66z" />
    <glyph glyph-name="uni041F" unicode="&#x41f;" horiz-adv-x="743" 
d="M197 0h-110l111 700h569l-111 -700h-110l95 599h-349z" />
    <glyph glyph-name="uni0420" unicode="&#x420;" horiz-adv-x="662" 
d="M87 0l111 700h288c135 0 217 -73 217 -180c0 -68 -25 -124 -74 -167s-111 -64 -186 -64h-201l-45 -289h-110zM260 390h194c76 0 138 44 138 117c0 57 -40 92 -112 92h-188z" />
    <glyph glyph-name="uni0421" unicode="&#x421;" horiz-adv-x="684" 
d="M227 324c0 -68 22 -124 65 -168c44 -44 102 -66 174 -66c78 0 145 20 202 61l-17 -113c-60 -34 -125 -51 -195 -51c-102 0 -185 31 -248 93c-63 63 -94 142 -94 238c0 113 36 207 109 282s168 113 283 113c82 0 152 -17 211 -52l-18 -106c-55 37 -119 55 -194 55
c-81 0 -147 -27 -200 -81c-52 -54 -78 -122 -78 -205z" />
    <glyph glyph-name="uni0422" unicode="&#x422;" horiz-adv-x="639" 
d="M128 599l16 101h573l-16 -101h-232l-95 -599h-110l95 599h-231z" />
    <glyph glyph-name="uni0423" unicode="&#x423;" horiz-adv-x="660" 
d="M618 700h121l-330 -550c-75 -124 -142 -163 -223 -163c-39 0 -71 7 -98 20l16 100c23 -11 49 -17 78 -17c31 0 56 7 75 20c19 14 43 45 72 92l-207 498h118l156 -384z" />
    <glyph glyph-name="uni0424" unicode="&#x424;" horiz-adv-x="926" 
d="M511 -24h-110l12 78c-188 16 -299 121 -299 274c0 103 37 183 110 242c74 59 169 89 285 89l10 64h110l-11 -66c94 -8 167 -37 220 -86s80 -112 80 -188c0 -103 -37 -184 -111 -243c-73 -58 -168 -87 -284 -87zM429 151l64 411c-77 0 -141 -20 -191 -61
c-50 -40 -75 -96 -75 -167c0 -109 81 -176 202 -183zM804 377c0 109 -80 176 -201 183l-64 -410c77 0 141 20 190 60c50 40 75 96 75 167z" />
    <glyph glyph-name="uni0425" unicode="&#x425;" horiz-adv-x="717" 
d="M575 0l-167 290l-257 -290h-134l337 379l-183 321h125l133 -232l207 232h131l-284 -320l218 -380h-126z" />
    <glyph glyph-name="uni0426" unicode="&#x426;" horiz-adv-x="783" 
d="M728 -150h-104l24 150h-561l111 700h110l-95 -599h344l95 599h110l-95 -599h101z" />
    <glyph glyph-name="uni0427" unicode="&#x427;" horiz-adv-x="690" 
d="M556 400l48 300h110l-110 -700h-111l47 293c-61 -21 -122 -31 -185 -31c-147 0 -220 58 -220 173c0 13 2 33 6 61l31 204h110l-29 -186c-3 -19 -5 -35 -5 -50c0 -72 43 -99 135 -99c63 0 121 12 173 35z" />
    <glyph glyph-name="uni0428" unicode="&#x428;" horiz-adv-x="1026" 
d="M939 0h-852l111 700h110l-95 -599h261l95 599h110l-95 -599h261l95 599h110z" />
    <glyph glyph-name="uni0429" unicode="&#x429;" horiz-adv-x="1071" 
d="M937 0h-850l111 700h110l-95 -599h261l95 599h110l-95 -599h261l95 599h110l-95 -599h101l-40 -251h-103z" />
    <glyph glyph-name="uni042A" unicode="&#x42a;" horiz-adv-x="794" 
d="M386 458h172c73 0 131 -19 172 -56s62 -86 62 -145c0 -77 -29 -139 -86 -186s-127 -71 -210 -71h-293l95 601h-184l16 99h294zM329 101h182c47 0 87 13 120 38s50 61 50 107c0 68 -52 111 -136 111h-175z" />
    <glyph glyph-name="uni042B" unicode="&#x42b;" horiz-adv-x="908" 
d="M821 0h-110l111 700h110zM270 458h151c73 0 131 -19 172 -56s62 -86 62 -145c0 -77 -29 -139 -86 -186s-127 -71 -210 -71h-272l111 700h110zM213 101h161c47 0 87 13 120 38s50 61 50 107c0 68 -52 111 -136 111h-154z" />
    <glyph glyph-name="uni042C" unicode="&#x42c;" horiz-adv-x="678" 
d="M270 458h172c73 0 131 -19 172 -56s62 -86 62 -145c0 -77 -29 -139 -86 -186s-127 -71 -210 -71h-293l111 700h110zM213 101h182c47 0 87 13 120 38s50 61 50 107c0 68 -52 111 -136 111h-175z" />
    <glyph glyph-name="uni042D" unicode="&#x42d;" horiz-adv-x="679" 
d="M552 308h-307l16 101h295c-16 120 -106 201 -238 201c-71 0 -135 -18 -190 -53l18 112c55 29 116 44 182 44c102 0 185 -31 248 -94c63 -62 95 -141 95 -237c0 -113 -37 -207 -110 -282s-168 -113 -283 -113c-81 0 -152 17 -212 52l17 107c55 -37 120 -56 196 -56
c69 0 127 20 176 59c49 40 82 93 97 159z" />
    <glyph glyph-name="uni042E" unicode="&#x42e;" horiz-adv-x="1049" 
d="M1041 387c0 -97 -38 -197 -101 -273c-61 -76 -160 -127 -267 -127c-89 0 -161 30 -216 90c-55 61 -84 136 -85 227h-125l-48 -304h-112l111 700h112l-47 -295h119c19 86 61 159 126 218c65 60 143 90 232 90s162 -31 217 -94c56 -63 84 -140 84 -232zM684 90
c73 0 132 30 177 89c46 60 69 128 69 205c0 67 -19 122 -56 163c-37 42 -85 63 -145 63c-73 0 -132 -30 -178 -90c-45 -59 -68 -127 -68 -204c0 -67 18 -122 55 -164c37 -41 86 -62 146 -62z" />
    <glyph glyph-name="uni042F" unicode="&#x42f;" horiz-adv-x="733" 
d="M419 296l-254 -296h-131l267 313c-81 19 -129 84 -129 163c0 68 26 122 77 163s114 61 189 61h319l-110 -700h-110l47 296h-165zM391 393h207l34 206h-209c-76 0 -139 -42 -139 -118c0 -53 40 -88 107 -88z" />
    <glyph glyph-name="uni0430" unicode="&#x430;" horiz-adv-x="597" 
d="M562 84c9 0 17 1 23 4l-12 -83c-15 -9 -35 -14 -60 -14c-56 0 -88 23 -97 68c-51 -48 -111 -72 -180 -72c-53 0 -96 14 -129 43s-49 65 -49 110c0 55 20 98 60 129s89 46 147 46c64 0 122 -14 173 -43c4 20 6 36 6 48c0 61 -45 91 -136 91c-59 0 -112 -12 -157 -36l16 95
c45 23 103 34 174 34c61 0 112 -14 151 -41s59 -69 59 -126c0 -7 -2 -26 -6 -56l-21 -127c-2 -11 -3 -21 -3 -32c0 -25 14 -38 41 -38zM415 140l10 56c-41 25 -87 38 -139 38c-72 0 -121 -27 -121 -82c0 -47 43 -72 100 -72c63 0 121 28 150 60z" />
    <glyph glyph-name="uni0431" unicode="&#x431;" horiz-adv-x="612" 
d="M448 581c-148 -23 -227 -91 -247 -214c44 56 121 97 201 97c59 0 108 -20 147 -60s59 -90 59 -150c0 -74 -26 -137 -77 -189s-116 -78 -195 -78c-76 0 -136 25 -179 75s-65 114 -65 193c0 233 105 370 315 413c21 5 44 9 67 12c23 4 50 8 79 12l71 12l-16 -102
c-65 -7 -118 -14 -160 -21zM200 259v-13c0 -95 47 -164 144 -164c43 0 80 16 110 48c31 32 46 71 46 116c0 75 -56 125 -133 125c-37 0 -72 -11 -104 -34c-31 -23 -52 -49 -63 -78z" />
    <glyph glyph-name="uni0432" unicode="&#x432;" horiz-adv-x="582" 
d="M477 254c51 -18 77 -53 77 -105c0 -99 -78 -149 -194 -149h-283l77 491h269c87 0 135 -48 135 -112c0 -60 -34 -105 -81 -125zM199 87h166c47 1 81 26 81 70c0 31 -24 51 -63 51h-165zM232 295h144c43 0 73 23 73 64c0 30 -20 45 -59 45h-141z" />
    <glyph glyph-name="uni0433" unicode="&#x433;" horiz-adv-x="491" 
d="M185 0h-108l77 491h380l-15 -95h-272z" />
    <glyph glyph-name="uni0434" unicode="&#x434;" horiz-adv-x="663" 
d="M103 -135h-103l36 230h64c54 67 93 171 118 314l15 82h391l-63 -396h86l-36 -230h-103l21 135h-405zM217 95h236l48 301h-184c-19 -129 -52 -230 -100 -301z" />
    <glyph glyph-name="uni0435" unicode="&#x435;" horiz-adv-x="569" 
d="M356 82c55 0 107 14 156 41l-14 -94c-39 -28 -94 -42 -165 -42c-74 0 -135 21 -183 64c-47 43 -71 101 -71 172c0 78 26 144 77 199s116 82 195 82c68 0 121 -21 160 -62s58 -91 58 -150c0 -30 -2 -56 -6 -78h-379c1 -85 73 -132 172 -132zM346 413
c-76 0 -138 -46 -154 -117h273v11c0 60 -46 106 -119 106z" />
    <glyph glyph-name="uni0436" unicode="&#x436;" horiz-adv-x="815" 
d="M152 0h-132l277 268l-158 223h124l131 -194l31 194h107l-30 -194l203 194h127l-243 -233l194 -258h-130l-163 221l-35 -221h-107l35 221z" />
    <glyph glyph-name="uni0437" unicode="&#x437;" horiz-adv-x="528" 
d="M416 264c47 -13 85 -52 85 -109c0 -51 -24 -92 -72 -123c-48 -30 -108 -45 -180 -45c-81 0 -145 12 -190 35l16 98c50 -27 106 -40 167 -40c41 0 76 6 105 19s44 33 44 58c0 37 -34 56 -101 56h-94l12 87h90c64 0 98 25 98 61c0 37 -36 55 -109 55
c-56 0 -111 -12 -164 -36l14 90c54 23 112 34 175 34c116 0 196 -52 196 -125c0 -60 -43 -106 -92 -115z" />
    <glyph glyph-name="uni0438" unicode="&#x438;" horiz-adv-x="627" 
d="M178 0h-101l77 491h108l-52 -332l317 332h101l-77 -491h-108l52 333z" />
    <glyph glyph-name="uni0439" unicode="&#x439;" horiz-adv-x="627" 
d="M178 0h-101l77 491h108l-52 -332l317 332h101l-77 -491h-108l52 333zM250 722h90c-1 -5 -1 -9 -1 -14c0 -41 26 -68 73 -68c48 0 84 33 92 82h92c-17 -101 -92 -165 -191 -165c-91 0 -157 53 -157 136c0 7 1 17 2 29z" />
    <glyph glyph-name="uni043A" unicode="&#x43a;" horiz-adv-x="563" 
d="M185 0h-108l78 491h109l-31 -184l226 184h139l-274 -229l236 -262h-132l-207 230z" />
    <glyph glyph-name="uni043B" unicode="&#x43b;" horiz-adv-x="618" 
d="M496 396h-185c-5 -31 -10 -55 -13 -72c-3 -16 -7 -39 -14 -68c-6 -29 -12 -52 -19 -69c-6 -17 -14 -37 -24 -60c-19 -45 -40 -66 -71 -93c-29 -25 -70 -36 -115 -36c-13 0 -24 1 -34 4l15 93c5 -2 12 -3 22 -3c71 0 108 68 137 239l27 160h397l-78 -491h-108z" />
    <glyph glyph-name="uni043C" unicode="&#x43c;" horiz-adv-x="702" 
d="M181 0h-104l77 491h104l136 -204l201 204h108l-77 -491h-104l54 344l-178 -181h-42l-121 181z" />
    <glyph glyph-name="uni043D" unicode="&#x43d;" horiz-adv-x="618" 
d="M185 0h-108l77 491h108l-30 -192h249l30 192h108l-77 -491h-108l32 204h-249z" />
    <glyph glyph-name="uni043E" unicode="&#x43e;" horiz-adv-x="610" 
d="M353 504c75 0 137 -23 184 -70c48 -46 72 -104 72 -175c0 -74 -26 -138 -79 -192c-53 -53 -118 -80 -197 -80c-75 0 -136 23 -183 70s-71 105 -71 175c0 74 26 138 79 191c53 54 118 81 195 81zM334 82c47 0 86 17 119 52s49 78 49 129c0 87 -60 146 -148 146
c-47 0 -86 -17 -119 -52s-49 -77 -49 -127c0 -88 61 -148 148 -148z" />
    <glyph glyph-name="uni043F" unicode="&#x43f;" horiz-adv-x="611" 
d="M185 0h-108l77 491h458l-77 -491h-108l62 396h-242z" />
    <glyph glyph-name="uni0440" unicode="&#x440;" horiz-adv-x="642" 
d="M197 74l-43 -274h-108l109 691h108l-10 -64c49 51 108 77 177 77c63 0 114 -22 153 -67s58 -99 58 -164c0 -77 -24 -144 -73 -201s-112 -85 -191 -85c-83 0 -145 40 -180 87zM391 409c-59 0 -123 -38 -155 -87l-24 -155c11 -22 30 -42 58 -59s59 -26 92 -26
c47 0 86 17 119 52s50 77 50 128c0 87 -56 147 -140 147z" />
    <glyph glyph-name="uni0441" unicode="&#x441;" horiz-adv-x="515" 
d="M332 -13c-74 0 -135 22 -182 66c-47 45 -71 102 -71 173c0 79 28 145 83 198c56 53 125 80 206 80c60 0 114 -14 161 -41l-15 -92c-42 25 -88 38 -137 38c-54 0 -99 -17 -136 -51c-36 -33 -54 -76 -54 -127c0 -46 16 -82 49 -109s73 -40 122 -40c43 0 86 10 127 31
l-15 -96c-41 -20 -87 -30 -138 -30z" />
    <glyph glyph-name="uni0442" unicode="&#x442;" horiz-adv-x="480" 
d="M294 0h-108l62 396h-166l15 95h439l-15 -95h-165z" />
    <glyph glyph-name="uni0443" unicode="&#x443;" horiz-adv-x="573" 
d="M507 491h116l-313 -553c-56 -99 -121 -143 -212 -143c-33 0 -60 6 -83 18l15 96c22 -13 44 -19 67 -19c57 0 101 40 150 128l-151 473h112l106 -358z" />
    <glyph glyph-name="uni0444" unicode="&#x444;" horiz-adv-x="745" 
d="M397 499l31 201h109l-32 -202c151 -17 239 -108 239 -228c0 -81 -30 -147 -89 -198c-59 -50 -135 -77 -230 -80l-31 -192h-108l31 193c-75 9 -133 34 -175 76s-63 93 -63 153c0 82 29 148 88 197c59 50 135 77 230 80zM493 407l-52 -324c57 0 104 17 141 50s56 78 56 134
c0 77 -57 135 -145 140zM330 84l52 324c-116 -1 -198 -70 -198 -182c0 -79 58 -135 146 -142z" />
    <glyph glyph-name="uni0445" unicode="&#x445;" horiz-adv-x="578" 
d="M484 491h127l-220 -233l164 -258h-117l-115 180l-171 -180h-128l245 258l-146 233h116l99 -156z" />
    <glyph glyph-name="uni0446" unicode="&#x446;" horiz-adv-x="652" 
d="M600 -135h-105l21 135h-439l78 491h108l-63 -396h242l63 396h108l-63 -396h86z" />
    <glyph glyph-name="uni0447" unicode="&#x447;" horiz-adv-x="571" 
d="M282 154c-108 0 -180 48 -180 148c0 14 3 36 8 67l20 122h108l-19 -124c-3 -15 -4 -30 -4 -46c0 -49 33 -73 99 -73c41 0 79 8 114 25l35 218h109l-78 -491h-108l28 177c-39 -15 -83 -23 -132 -23z" />
    <glyph glyph-name="uni0448" unicode="&#x448;" horiz-adv-x="843" 
d="M767 0h-690l77 491h108l-62 -396h183l62 396h108l-62 -396h183l62 396h108z" />
    <glyph glyph-name="uni0449" unicode="&#x449;" horiz-adv-x="884" 
d="M748 0h-671l78 491h108l-63 -396h183l63 396h108l-63 -396h183l63 396h108l-63 -396h86l-36 -230h-105z" />
    <glyph glyph-name="uni044A" unicode="&#x44a;" horiz-adv-x="645" 
d="M344 491l-22 -149h127c111 0 180 -61 180 -152c0 -56 -20 -102 -59 -137s-89 -53 -152 -53h-259l62 397h-143l14 94h252zM307 251l-26 -160h134c61 0 107 32 107 89c0 47 -35 71 -106 71h-109z" />
    <glyph glyph-name="uni044B" unicode="&#x44b;" horiz-adv-x="755" 
d="M756 491l-77 -491h-108l77 491h108zM262 491l-22 -149h108c111 0 180 -61 180 -152c0 -56 -20 -102 -59 -137s-89 -53 -152 -53h-240l77 491h108zM225 251l-26 -160h115c61 0 107 32 107 89c0 47 -35 71 -106 71h-90z" />
    <glyph glyph-name="uni044C" unicode="&#x44c;" horiz-adv-x="563" 
d="M262 491l-22 -149h127c111 0 180 -61 180 -152c0 -56 -20 -102 -59 -137s-89 -53 -152 -53h-259l77 491h108zM225 251l-26 -160h134c61 0 107 32 107 89c0 47 -35 71 -106 71h-109z" />
    <glyph glyph-name="uni044D" unicode="&#x44d;" horiz-adv-x="515" 
d="M262 504c74 0 134 -22 181 -66s71 -101 71 -171c0 -79 -28 -146 -84 -200c-55 -53 -124 -80 -206 -80c-61 0 -114 14 -160 41l15 92c42 -25 88 -38 137 -38c87 0 157 47 182 122h-210l13 87h202c-7 37 -26 66 -57 87c-30 21 -67 31 -110 31s-83 -9 -118 -26l15 95
c39 17 82 26 129 26z" />
    <glyph glyph-name="uni044E" unicode="&#x44e;" horiz-adv-x="819" 
d="M584 504c69 0 125 -23 168 -69c44 -45 66 -103 66 -172c0 -73 -26 -138 -77 -193s-113 -83 -187 -83c-65 0 -118 20 -161 60c-43 41 -67 93 -72 156h-104l-32 -203h-108l77 491h108l-30 -193h96c15 59 45 108 92 147s102 59 164 59zM555 82c43 0 81 18 112 53
c31 36 47 79 47 130c0 85 -53 144 -132 144c-43 0 -81 -18 -112 -53s-47 -78 -47 -129c0 -85 55 -145 132 -145z" />
    <glyph glyph-name="uni044F" unicode="&#x44f;" horiz-adv-x="585" 
d="M324 491h262l-78 -491h-108l27 169h-115l-148 -169h-125l169 191c-59 16 -92 63 -92 124c0 111 84 175 208 176zM303 256h137l24 148h-141c-53 0 -98 -30 -98 -85c0 -39 30 -63 78 -63z" />
    <glyph glyph-name="uni0451" unicode="&#x451;" horiz-adv-x="569" 
d="M356 82c55 0 107 14 156 41l-14 -94c-39 -28 -94 -42 -165 -42c-74 0 -135 21 -183 64c-47 43 -71 101 -71 172c0 78 26 144 77 199s116 82 195 82c68 0 121 -21 160 -62s58 -91 58 -150c0 -30 -2 -56 -6 -78h-379c1 -85 73 -132 172 -132zM346 413
c-76 0 -138 -46 -154 -117h273v11c0 60 -46 106 -119 106zM234 592c-24 24 -24 62 0 85c24 24 62 24 85 0c23 -23 23 -61 0 -85c-23 -23 -61 -23 -85 0zM441 592c-24 24 -24 62 0 85c24 24 62 24 85 0c23 -23 23 -61 0 -85c-23 -23 -61 -23 -85 0z" />
    <glyph glyph-name="uni0452" unicode="&#x452;" horiz-adv-x="634" 
d="M611 216l-39 -245c-19 -117 -90 -176 -191 -176c-42 0 -74 7 -95 20l15 94c21 -13 44 -19 69 -19c54 0 86 32 97 96l34 210c4 23 6 42 6 57c0 63 -41 98 -100 98c-57 0 -115 -38 -148 -81l-44 -270h-108l85 537h-102l14 87h102l12 76h108l-12 -76h151l-14 -87h-151
l-25 -159c49 49 109 74 179 74c101 0 165 -64 165 -163c0 -15 -3 -39 -8 -73z" />
    <glyph glyph-name="uni0453" unicode="&#x453;" horiz-adv-x="491" 
d="M185 0h-108l77 491h380l-15 -95h-272zM389 575h-99l118 140h135z" />
    <glyph glyph-name="uni0454" unicode="&#x454;" horiz-adv-x="515" 
d="M331 -13c-74 0 -135 22 -182 66c-47 45 -70 102 -70 172c0 79 28 146 83 199s124 80 206 80c60 0 114 -14 161 -41l-15 -92c-41 25 -86 38 -137 38c-92 0 -162 -43 -182 -118h207l-13 -87h-202c8 -81 76 -122 169 -122c45 0 87 11 128 32l-15 -97
c-41 -20 -87 -30 -138 -30z" />
    <glyph glyph-name="uni0455" unicode="&#x455;" horiz-adv-x="500" 
d="M503 448l-14 -96c-52 39 -111 59 -178 59s-101 -18 -101 -55c0 -16 7 -27 23 -36c9 -4 14 -7 29 -12c16 -6 40 -13 66 -21c104 -33 154 -72 154 -140c-1 -110 -112 -164 -217 -160c-87 0 -172 28 -220 61l14 96c41 -33 117 -64 205 -64c72 0 108 19 108 58
c0 29 -31 43 -107 67c-120 37 -168 73 -168 140c0 51 20 91 61 118s90 41 148 41c81 0 146 -19 197 -56z" />
    <glyph glyph-name="uni0456" unicode="&#x456;" horiz-adv-x="279" 
d="M271 491l-77 -491h-108l77 491h108zM171 647c0 39 31 69 68 69c39 0 68 -30 68 -69s-29 -68 -68 -68c-37 0 -68 31 -68 68z" />
    <glyph glyph-name="uni0457" unicode="&#x457;" horiz-adv-x="279" 
d="M94 605c-24 24 -24 62 0 85c24 24 62 24 85 0c23 -23 23 -61 0 -85c-23 -23 -61 -23 -85 0zM301 605c-24 24 -24 62 0 85c24 24 62 24 85 0c23 -23 23 -61 0 -85c-23 -23 -61 -23 -85 0zM271 491l-77 -491h-108l77 491h108z" />
    <glyph glyph-name="uni0458" unicode="&#x458;" horiz-adv-x="279" 
d="M171 647c0 39 31 69 68 69c39 0 68 -30 68 -69s-29 -68 -68 -68c-37 0 -68 31 -68 68zM91 38l72 453h108l-82 -520c-19 -117 -90 -176 -191 -176c-42 0 -74 7 -95 20l15 94c21 -13 44 -19 69 -19c35 0 59 11 71 32c13 21 24 60 33 116z" />
    <glyph glyph-name="uni0459" unicode="&#x459;" horiz-adv-x="919" 
d="M618 491l-22 -149h127c111 0 180 -61 180 -152c0 -56 -20 -102 -59 -137s-89 -53 -152 -53h-259l62 396h-184c-5 -31 -10 -55 -13 -72c-3 -16 -7 -39 -14 -68c-6 -29 -12 -52 -19 -69c-6 -17 -14 -37 -24 -60c-19 -45 -40 -66 -71 -93c-29 -25 -70 -36 -115 -36
c-13 0 -24 1 -34 4l15 93c5 -2 12 -3 22 -3c71 0 108 68 137 239l27 160h396zM581 251l-26 -160h134c61 0 107 32 107 89c0 47 -35 71 -106 71h-109z" />
    <glyph glyph-name="uni045A" unicode="&#x45a;" horiz-adv-x="892" 
d="M602 491l-25 -167h128c105 0 171 -57 171 -144c0 -53 -19 -96 -56 -130c-37 -33 -85 -50 -145 -50h-254l36 235h-234l-38 -235h-108l78 491h108l-27 -170h235l27 170h104zM567 239l-25 -151h128c56 0 100 30 100 85c0 44 -34 66 -102 66h-101z" />
    <glyph glyph-name="uni045B" unicode="&#x45b;" horiz-adv-x="634" 
d="M192 537h-102l14 87h102l12 76h108l-12 -76h151l-14 -87h-151l-25 -159c49 49 109 74 179 74c101 0 165 -64 165 -163c0 -15 -3 -39 -8 -73l-34 -216h-108l32 196c4 23 6 42 6 57c0 63 -41 98 -100 98c-57 0 -115 -38 -148 -81l-44 -270h-108z" />
    <glyph glyph-name="uni045C" unicode="&#x45c;" horiz-adv-x="563" 
d="M185 0h-108l78 491h109l-31 -184l226 184h139l-274 -229l236 -262h-132l-207 230zM419 575h-99l118 140h135z" />
    <glyph glyph-name="uni045E" unicode="&#x45e;" horiz-adv-x="573" 
d="M507 491h116l-313 -553c-56 -99 -121 -143 -212 -143c-33 0 -60 6 -83 18l15 96c22 -13 44 -19 67 -19c57 0 101 40 150 128l-151 473h112l106 -358zM207 722h90c-1 -5 -1 -9 -1 -14c0 -41 26 -68 73 -68c48 0 84 33 92 82h92c-17 -101 -92 -165 -191 -165
c-91 0 -157 53 -157 136c0 7 1 17 2 29z" />
    <glyph glyph-name="uni045F" unicode="&#x45f;" horiz-adv-x="612" 
d="M337 -135h-105l21 135h-176l78 491h108l-63 -396h242l63 396h108l-78 -491h-177z" />
    <glyph glyph-name="uni0490" unicode="&#x490;" horiz-adv-x="605" 
d="M197 0h-110l111 700h390l22 142h100l-38 -243h-380z" />
    <glyph glyph-name="uni0491" unicode="&#x491;" horiz-adv-x="491" 
d="M185 0h-108l78 491h280l21 128h100l-36 -223h-272z" />
    <glyph glyph-name="uni1E02" unicode="&#x1e02;" horiz-adv-x="721" 
d="M579 381c72 -13 125 -73 125 -158c0 -69 -25 -123 -74 -163s-112 -60 -188 -60h-355l111 700h305c115 0 188 -58 188 -151c0 -75 -41 -139 -112 -168zM489 599h-197l-29 -181h198c69 0 121 35 121 102c0 49 -34 79 -93 79zM248 321l-35 -220h227c83 0 146 45 146 126
c0 57 -44 94 -116 94h-222zM397 831c0 33 27 61 62 61s62 -26 62 -61s-27 -63 -62 -63s-62 28 -62 63z" />
    <glyph glyph-name="uni1E03" unicode="&#x1e03;" horiz-adv-x="642" 
d="M197 74l-12 -74h-108l111 700h108l-43 -273c49 51 108 77 177 77c63 0 114 -22 153 -67s58 -99 58 -164c0 -77 -24 -144 -73 -201s-112 -85 -191 -85c-83 0 -145 40 -180 87zM391 409c-59 0 -123 -38 -155 -87l-24 -155c11 -22 30 -42 57 -59c28 -17 59 -26 92 -26
c47 0 87 17 120 52s50 77 50 128c0 87 -56 147 -140 147zM384 831c0 33 27 61 62 61s62 -26 62 -61s-27 -63 -62 -63s-62 28 -62 63z" />
    <glyph glyph-name="uni1E0A" unicode="&#x1e0a;" horiz-adv-x="780" 
d="M198 700h225c105 0 190 -29 253 -88c64 -59 96 -135 96 -230c0 -124 -43 -219 -130 -284s-201 -98 -343 -98h-212zM292 599l-79 -498h156c87 0 156 26 209 77s80 119 80 204c0 63 -21 115 -64 156s-100 61 -173 61h-129zM412 831c0 33 27 61 62 61s62 -26 62 -61
s-27 -63 -62 -63s-62 28 -62 63z" />
    <glyph glyph-name="uni1E0B" unicode="&#x1e0b;" horiz-adv-x="642" 
d="M522 417l45 283h108l-110 -700h-109l10 64c-49 -51 -107 -77 -176 -77c-63 0 -114 22 -153 67s-58 99 -58 164c0 77 24 143 73 200s112 86 191 86c83 0 144 -39 179 -87zM329 82c59 0 123 37 154 86l24 155c-11 23 -30 43 -58 60c-27 17 -58 26 -91 26
c-47 0 -87 -17 -120 -52s-49 -77 -49 -128c0 -87 56 -147 140 -147zM395 831c0 33 27 61 62 61s62 -26 62 -61s-27 -63 -62 -63s-62 28 -62 63z" />
    <glyph glyph-name="uni1E1E" unicode="&#x1e1e;" horiz-adv-x="625" 
d="M197 0h-110l111 700h497l-16 -101h-387l-29 -183h307l-16 -101h-307zM396 831c0 33 27 61 62 61s62 -26 62 -61s-27 -63 -62 -63s-62 28 -62 63z" />
    <glyph glyph-name="uni1E1F" unicode="&#x1e1f;" horiz-adv-x="414" 
d="M115 0l63 396h-92l15 95h92l9 59c15 99 79 160 180 160c43 0 80 -7 111 -21l-14 -91c-29 12 -56 18 -83 18c-64 0 -84 -38 -95 -125h161l-15 -95h-161l-63 -396h-108zM320 831c0 33 27 61 62 61s62 -26 62 -61s-27 -63 -62 -63s-62 28 -62 63z" />
    <glyph glyph-name="uni1E40" unicode="&#x1e40;" horiz-adv-x="847" 
d="M871 700l-111 -700h-110l84 532l-234 -264h-64l-155 265l-84 -533h-110l111 700h105l178 -316l276 316h114zM478 831c0 33 27 61 62 61s62 -26 62 -61s-27 -63 -62 -63s-62 28 -62 63z" />
    <glyph glyph-name="uni1E41" unicode="&#x1e41;" horiz-adv-x="924" 
d="M185 0h-108l79 491h108l-11 -64c44 51 100 77 168 77c77 0 135 -37 147 -89c49 59 111 89 186 89c95 0 155 -55 155 -152c0 -19 -2 -37 -5 -56l-48 -296h-108l45 281c2 12 3 23 3 32c0 60 -31 90 -92 90c-51 0 -103 -35 -132 -82l-51 -321h-108l45 280c2 12 3 23 3 33
c0 60 -31 90 -92 90c-49 0 -101 -34 -132 -79zM504 648c0 33 27 61 62 61s62 -26 62 -61s-27 -62 -62 -62s-62 27 -62 62z" />
    <glyph glyph-name="uni1E56" unicode="&#x1e56;" horiz-adv-x="662" 
d="M87 0l111 700h288c135 0 217 -73 217 -180c0 -68 -25 -124 -74 -167s-111 -64 -186 -64h-201l-45 -289h-110zM260 390h194c76 0 138 44 138 117c0 57 -40 92 -112 92h-188zM396 831c0 33 27 61 62 61s62 -26 62 -61s-27 -63 -62 -63s-62 28 -62 63z" />
    <glyph glyph-name="uni1E57" unicode="&#x1e57;" horiz-adv-x="642" 
d="M197 74l-43 -274h-108l109 691h108l-10 -64c49 51 108 77 177 77c63 0 114 -22 153 -67s58 -99 58 -164c0 -77 -24 -144 -73 -201s-112 -85 -191 -85c-83 0 -145 40 -180 87zM391 409c-59 0 -123 -38 -155 -87l-24 -155c11 -22 30 -42 58 -59s59 -26 92 -26
c47 0 86 17 119 52s50 77 50 128c0 87 -56 147 -140 147zM358 648c0 33 27 61 62 61s62 -26 62 -61s-27 -62 -62 -62s-62 27 -62 62z" />
    <glyph glyph-name="uni1E60" unicode="&#x1e60;" horiz-adv-x="628" 
d="M632 654l-17 -109c-57 37 -143 65 -224 65c-87 0 -152 -32 -152 -97c3 -32 18 -49 55 -65l34 -13l43 -13c19 -5 33 -10 43 -13c59 -19 96 -35 137 -64s63 -72 63 -127c0 -71 -28 -128 -85 -169s-125 -62 -205 -62c-53 0 -105 7 -154 20c-49 14 -88 32 -115 55l18 116
c23 -23 59 -44 108 -62c49 -17 98 -26 147 -26c25 0 50 3 74 9c49 12 98 50 98 105c0 56 -43 75 -143 106l-20 6l-66 21c-16 6 -35 14 -56 25c-57 30 -84 68 -89 139c0 69 26 121 78 157c53 37 118 55 196 55c89 0 179 -23 232 -59zM366 831c0 33 27 61 62 61s62 -26 62 -61
s-27 -63 -62 -63s-62 28 -62 63z" />
    <glyph glyph-name="uni1E61" unicode="&#x1e61;" horiz-adv-x="500" 
d="M503 448l-14 -96c-52 39 -111 59 -178 59s-101 -18 -101 -55c0 -16 7 -27 23 -36c9 -4 14 -7 29 -12c16 -6 40 -13 66 -21c104 -33 154 -72 154 -140c-1 -110 -112 -164 -217 -160c-87 0 -172 28 -220 61l14 96c41 -33 117 -64 205 -64c72 0 108 19 108 58
c0 29 -31 43 -107 67c-120 37 -168 73 -168 140c0 51 20 91 61 118s90 41 148 41c81 0 146 -19 197 -56zM343 586c-33 0 -62 27 -62 62c-4 52 71 83 106 43c39 -34 10 -109 -44 -105z" />
    <glyph glyph-name="uni1E6A" unicode="&#x1e6a;" horiz-adv-x="639" 
d="M128 599l16 101h573l-16 -101h-232l-95 -599h-110l95 599h-231zM380 831c0 33 27 61 62 61s62 -26 62 -61s-27 -63 -62 -63s-62 28 -62 63z" />
    <glyph glyph-name="uni1E6B" unicode="&#x1e6b;" horiz-adv-x="436" 
d="M153 161l37 235h-105l15 95h104l23 143h108l-23 -143h155l-14 -95h-155l-34 -207c-4 -27 -6 -43 -6 -50c0 -35 23 -53 70 -53c25 0 50 6 74 18l-14 -92c-25 -17 -60 -25 -107 -25c-83 0 -135 39 -135 112c0 4 2 25 7 62zM299 691c-33 0 -62 29 -62 62s27 61 62 61
s62 -26 62 -61s-27 -62 -62 -62z" />
    <glyph glyph-name="Wgrave" unicode="&#x1e80;" horiz-adv-x="1065" 
d="M345 174l253 527h87l86 -526l251 525h123l-350 -704h-97l-84 521l-249 -521h-98l-127 704h119zM490 902h133l72 -140h-97z" />
    <glyph glyph-name="wgrave" unicode="&#x1e81;" horiz-adv-x="823" 
d="M591 154l172 337h109l-251 -495h-92l-67 342l-172 -342h-92l-92 495h104l63 -337l169 339h86zM336 715h133l72 -140h-97z" />
    <glyph glyph-name="Wacute" unicode="&#x1e82;" horiz-adv-x="1065" 
d="M345 174l253 527h87l86 -526l251 525h123l-350 -704h-97l-84 521l-249 -521h-98l-127 704h119zM695 762h-99l118 140h135z" />
    <glyph glyph-name="wacute" unicode="&#x1e83;" horiz-adv-x="823" 
d="M591 154l172 337h109l-251 -495h-92l-67 342l-172 -342h-92l-92 495h104l63 -337l169 339h86zM560 575h-99l118 140h135z" />
    <glyph glyph-name="Wdieresis" unicode="&#x1e84;" horiz-adv-x="1065" 
d="M345 174l253 527h87l86 -526l251 525h123l-350 -704h-97l-84 521l-249 -521h-98l-127 704h119zM766 769c-35 0 -62 29 -62 62c-4 54 71 83 105 44c40 -35 9 -110 -43 -106zM491 831c0 35 27 62 62 62s61 -27 61 -62s-28 -62 -61 -62s-62 29 -62 62z" />
    <glyph glyph-name="wdieresis" unicode="&#x1e85;" horiz-adv-x="823" 
d="M591 154l172 337h109l-251 -495h-92l-67 342l-172 -342h-92l-92 495h104l63 -337l169 339h86zM354 605c-24 24 -24 62 0 85c24 24 62 24 85 0c23 -23 23 -61 0 -85c-23 -23 -61 -23 -85 0zM561 605c-24 24 -24 62 0 85c24 24 62 24 85 0c23 -23 23 -61 0 -85
c-23 -23 -61 -23 -85 0z" />
    <glyph glyph-name="Ygrave" unicode="&#x1ef2;" horiz-adv-x="685" 
d="M406 417l246 283h127l-331 -380l-50 -320h-110l50 317l-212 383h124zM311 902h133l72 -140h-97z" />
    <glyph glyph-name="ygrave" unicode="&#x1ef3;" horiz-adv-x="573" 
d="M507 491h116l-313 -553c-56 -99 -121 -143 -212 -143c-33 0 -60 6 -83 18l15 96c22 -13 44 -19 67 -19c57 0 101 40 150 128l-151 473h112l106 -358zM227 715h133l72 -140h-97z" />
    <glyph glyph-name="endash" unicode="&#x2013;" horiz-adv-x="756" 
d="M691 227h-555l15 97h555z" />
    <glyph glyph-name="emdash" unicode="&#x2014;" horiz-adv-x="917" 
d="M852 227h-716l15 97h716z" />
    <glyph glyph-name="uni2015" unicode="&#x2015;" horiz-adv-x="756" 
d="M691 227h-555l15 97h555z" />
    <glyph glyph-name="quoteleft" unicode="&#x2018;" horiz-adv-x="234" 
d="M243 700h88l-127 -280h-128z" />
    <glyph glyph-name="quoteright" unicode="&#x2019;" horiz-adv-x="234" 
d="M164 420h-88l127 280h128z" />
    <glyph glyph-name="quotesinglbase" unicode="&#x201a;" horiz-adv-x="269" 
d="M76 -152h-88l127 280h128z" />
    <glyph glyph-name="quotedblleft" unicode="&#x201c;" horiz-adv-x="420" 
d="M428 700h88l-127 -280h-128zM242 700h88l-127 -280h-128z" />
    <glyph glyph-name="quotedblright" unicode="&#x201d;" horiz-adv-x="420" 
d="M350 420h-88l127 280h128zM164 420h-88l127 280h128z" />
    <glyph glyph-name="quotedblbase" unicode="&#x201e;" horiz-adv-x="455" 
d="M262 -152h-88l127 280h128zM76 -152h-88l127 280h128z" />
    <glyph glyph-name="dagger" unicode="&#x2020;" horiz-adv-x="511" 
d="M300 0h-92l63 402h-168l15 89h168l33 209h92l-33 -209h169l-15 -89h-169z" />
    <glyph glyph-name="daggerdbl" unicode="&#x2021;" horiz-adv-x="511" 
d="M300 0h-92l29 182h-169l14 89h169l20 131h-168l15 89h168l33 209h92l-33 -209h169l-15 -89h-169l-20 -131h168l-14 -89h-168z" />
    <glyph glyph-name="bullet" unicode="&#x2022;" horiz-adv-x="412" 
d="M129 385c0 36 13 67 38 92c25 26 56 39 92 39s67 -13 92 -39c25 -25 38 -56 38 -92c0 -35 -13 -66 -38 -91s-56 -38 -92 -38s-67 13 -92 38s-38 56 -38 91z" />
    <glyph glyph-name="ellipsis" unicode="&#x2026;" horiz-adv-x="713" 
d="M135 -8c-40 0 -71 31 -71 71c0 39 31 70 71 70c39 0 70 -31 70 -70c0 -40 -31 -71 -70 -71zM366 -8c-40 0 -71 31 -71 71c0 39 31 70 71 70c37 0 70 -31 70 -70c0 -40 -31 -71 -70 -71zM596 -8c-40 0 -71 31 -71 71c0 39 31 70 71 70c37 0 70 -31 70 -70
c0 -40 -31 -71 -70 -71z" />
    <glyph glyph-name="perthousand" unicode="&#x2030;" horiz-adv-x="1207" 
d="M248 0h-91l525 700h90zM290 713c49 0 89 -15 120 -46c31 -30 46 -68 46 -114c0 -49 -17 -91 -52 -126c-34 -35 -76 -53 -126 -53c-49 0 -89 15 -120 46s-46 69 -46 115c0 49 17 90 51 125s76 53 127 53zM278 447c27 0 51 10 70 31s29 46 29 75c0 51 -35 86 -87 86
c-55 0 -98 -47 -98 -104c0 -51 37 -88 86 -88zM1036 326c49 0 88 -15 119 -46s47 -69 47 -114c0 -49 -17 -91 -52 -126c-34 -35 -76 -53 -127 -53c-49 0 -89 15 -120 46s-46 70 -46 116c0 48 17 89 51 124c35 35 77 53 128 53zM1023 61c27 0 51 10 70 31s29 46 29 75
c0 51 -35 86 -86 86c-55 0 -99 -47 -99 -104c0 -51 37 -88 86 -88zM652 326c49 0 89 -15 120 -46c31 -30 46 -68 46 -114c0 -49 -17 -91 -52 -126c-34 -35 -76 -53 -126 -53c-49 0 -89 15 -120 46s-46 70 -46 116c0 48 17 89 51 124s76 53 127 53zM640 61c27 0 51 10 70 31
s29 46 29 75c0 51 -35 86 -87 86c-53 0 -98 -47 -98 -104c0 -51 37 -88 86 -88z" />
    <glyph glyph-name="guilsinglleft" unicode="&#x2039;" horiz-adv-x="349" 
d="M293 38h-108l-116 180l9 55l171 181h112l-196 -214z" />
    <glyph glyph-name="guilsinglright" unicode="&#x203a;" horiz-adv-x="349" 
d="M124 454h108l116 -181l-9 -55l-171 -180h-112l196 214z" />
    <glyph glyph-name="fraction" unicode="&#x2044;" horiz-adv-x="188" 
d="M-155 0l529 700h98l-529 -700h-98z" />
    <glyph glyph-name="zerosuperior" unicode="&#x2070;" horiz-adv-x="396" 
d="M294 707c96 0 157 -71 157 -171c0 -55 -17 -106 -52 -152c-34 -46 -79 -69 -136 -69c-96 0 -157 71 -157 171c0 55 17 106 51 152c35 46 80 69 137 69zM265 392c30 0 53 15 70 46s26 64 26 99c0 52 -22 93 -69 93c-30 0 -53 -16 -70 -47s-25 -63 -25 -98
c0 -52 21 -93 68 -93z" />
    <glyph glyph-name="foursuperior" unicode="&#x2074;" horiz-adv-x="366" 
d="M344 322h-86l15 92h-192l11 63l223 223h90l-35 -217h55l-12 -69h-54zM303 600l-120 -117h101z" />
    <glyph glyph-name="fivesuperior" unicode="&#x2075;" horiz-adv-x="336" 
d="M242 572c81 0 135 -49 135 -114c0 -91 -74 -143 -175 -143c-50 0 -90 10 -120 30l13 83c32 -23 68 -35 108 -35c44 0 83 20 83 61c0 29 -29 51 -78 51c-25 0 -55 -4 -90 -13l57 208h214l-12 -74h-147l-15 -56c9 1 18 2 27 2z" />
    <glyph glyph-name="sixsuperior" unicode="&#x2076;" horiz-adv-x="353" 
d="M307 630c-53 0 -96 -34 -108 -91c20 23 49 34 88 34c65 0 112 -49 112 -112c0 -42 -15 -77 -44 -105c-29 -27 -66 -41 -111 -41c-89 0 -141 61 -141 152c0 63 18 119 53 167c36 49 86 73 150 73c40 0 72 -9 97 -27l-13 -78c-23 19 -51 28 -83 28zM257 508
c-30 0 -53 -13 -69 -38c-1 -7 -2 -13 -2 -19c0 -36 23 -64 60 -64c36 0 65 28 65 67c0 32 -21 54 -54 54z" />
    <glyph glyph-name="sevensuperior" unicode="&#x2077;" horiz-adv-x="330" 
d="M196 322h-99l203 304h-175l12 74h278l-11 -69z" />
    <glyph glyph-name="eightsuperior" unicode="&#x2078;" horiz-adv-x="358" 
d="M346 517c35 -15 59 -48 59 -84c0 -35 -15 -64 -46 -86c-31 -21 -67 -32 -109 -32c-43 0 -80 10 -112 29s-48 47 -48 83c0 47 34 88 85 101c-28 15 -42 39 -42 71c0 31 14 57 41 77c28 21 61 31 100 31c35 0 66 -9 95 -27s44 -43 44 -76c0 -39 -28 -72 -67 -87zM214 591
c-5 -57 115 -59 113 3c0 25 -24 43 -56 43c-29 0 -57 -18 -57 -46zM248 387c36 0 69 20 69 53c0 28 -28 51 -67 51c-37 0 -70 -20 -70 -55c0 -28 29 -49 68 -49z" />
    <glyph glyph-name="ninesuperior" unicode="&#x2079;" horiz-adv-x="359" 
d="M201 392c53 0 96 34 108 91c-20 -23 -49 -34 -88 -34c-65 0 -112 49 -112 112c0 42 14 77 43 104c29 28 67 42 112 42c89 0 141 -61 141 -152c0 -63 -18 -119 -54 -168c-35 -48 -85 -72 -149 -72c-40 0 -72 9 -97 27l13 78c23 -19 51 -28 83 -28zM251 514
c30 0 53 13 69 38c1 7 2 13 2 19c0 36 -23 64 -60 64c-36 0 -65 -28 -65 -67c0 -32 21 -54 54 -54z" />
    <glyph glyph-name="zeroinferior" unicode="&#x2080;" horiz-adv-x="395" 
d="M244 385c96 0 157 -71 157 -171c0 -55 -17 -106 -52 -152c-34 -46 -79 -69 -136 -69c-96 0 -157 71 -157 171c0 55 17 106 51 152c35 46 80 69 137 69zM215 70c30 0 53 15 70 46s26 64 26 99c0 52 -22 93 -69 93c-30 0 -53 -16 -70 -47s-25 -63 -25 -98
c0 -52 21 -93 68 -93z" />
    <glyph glyph-name="oneinferior" unicode="&#x2081;" horiz-adv-x="273" 
d="M212 0h-89l45 287l-109 -53l13 88l114 56h85z" />
    <glyph glyph-name="twoinferior" unicode="&#x2082;" horiz-adv-x="350" 
d="M86 264l15 90c31 21 67 31 110 31c75 0 132 -44 132 -116c0 -52 -30 -93 -98 -145l-65 -50h153l-12 -74h-281l12 63l124 98c56 44 76 65 76 93c0 29 -23 49 -59 49c-34 0 -70 -13 -107 -39z" />
    <glyph glyph-name="threeinferior" unicode="&#x2083;" horiz-adv-x="332" 
d="M347 378l-10 -65l-96 -76c45 -12 81 -47 81 -102c0 -85 -69 -142 -165 -142c-54 0 -97 11 -129 34l14 82c29 -25 66 -38 111 -38c44 0 82 22 82 61c0 28 -27 49 -68 49c-19 0 -37 -3 -54 -9l8 55l100 77h-138l13 74h251z" />
    <glyph glyph-name="fourinferior" unicode="&#x2084;" horiz-adv-x="366" 
d="M294 0h-86l15 92h-192l11 63l223 223h90l-35 -217h55l-12 -69h-54zM253 278l-120 -117h101z" />
    <glyph glyph-name="fiveinferior" unicode="&#x2085;" horiz-adv-x="336" 
d="M192 250c81 0 135 -49 135 -114c0 -91 -74 -143 -175 -143c-50 0 -90 10 -120 30l13 83c32 -23 68 -35 108 -35c44 0 83 20 83 61c0 29 -29 51 -78 51c-25 0 -55 -4 -90 -13l57 208h214l-12 -74h-147l-15 -56c9 1 18 2 27 2z" />
    <glyph glyph-name="sixinferior" unicode="&#x2086;" horiz-adv-x="353" 
d="M257 308c-53 0 -96 -34 -108 -91c20 23 49 34 88 34c65 0 112 -49 112 -112c0 -42 -15 -77 -44 -105c-29 -27 -66 -41 -111 -41c-89 0 -141 61 -141 152c0 63 18 119 53 167c36 49 86 73 150 73c40 0 72 -9 97 -27l-13 -78c-23 19 -51 28 -83 28zM207 186
c-30 0 -53 -13 -69 -38c-1 -7 -2 -13 -2 -19c0 -36 23 -64 60 -64c36 0 65 28 65 67c0 32 -21 54 -54 54z" />
    <glyph glyph-name="seveninferior" unicode="&#x2087;" horiz-adv-x="330" 
d="M146 0h-99l203 304h-175l12 74h278l-11 -69z" />
    <glyph glyph-name="eightinferior" unicode="&#x2088;" horiz-adv-x="358" 
d="M296 195c35 -15 59 -48 59 -84c0 -35 -15 -64 -46 -86c-31 -21 -67 -32 -109 -32c-43 0 -80 10 -112 29s-48 47 -48 83c0 47 34 88 85 101c-28 15 -42 39 -42 71c0 31 14 57 41 77c28 21 61 31 100 31c35 0 66 -9 95 -27s44 -43 44 -76c0 -39 -28 -72 -67 -87zM164 269
c-5 -57 115 -59 113 3c0 25 -24 43 -56 43c-29 0 -57 -18 -57 -46zM198 65c36 0 69 20 69 53c0 28 -28 51 -67 51c-37 0 -70 -20 -70 -55c0 -28 29 -49 68 -49z" />
    <glyph glyph-name="nineinferior" unicode="&#x2089;" horiz-adv-x="359" 
d="M157 70c53 0 96 34 108 91c-20 -23 -49 -34 -88 -34c-65 0 -112 49 -112 112c0 42 14 77 43 104c29 28 67 42 112 42c89 0 141 -61 141 -152c0 -63 -18 -119 -54 -168c-35 -48 -85 -72 -149 -72c-40 0 -72 9 -97 27l13 78c23 -19 51 -28 83 -28zM207 192
c30 0 53 13 69 38c1 7 2 13 2 19c0 36 -23 64 -60 64c-36 0 -65 -28 -65 -67c0 -32 21 -54 54 -54z" />
    <glyph glyph-name="franc" unicode="&#x20a3;" horiz-adv-x="652" 
d="M135 128h-107l13 80h107l78 492h496l-16 -100h-386l-29 -185h307l-16 -99h-307l-17 -108h161l-13 -80h-161l-20 -128h-110z" />
    <glyph glyph-name="lira" unicode="&#x20a4;" horiz-adv-x="596" 
d="M270 217l-8 -54c-5 -31 -17 -52 -36 -64h331l-16 -99h-491l15 99h17c24 0 42 11 51 22c5 5 9 14 13 25c8 24 9 32 13 60l2 11h-77l12 76h77l13 82h-77l12 76h77l6 37c24 145 123 225 274 225c64 0 116 -13 157 -39l-16 -104c-38 27 -84 40 -137 40
c-96 0 -158 -52 -173 -148l-2 -11h222l-12 -76h-222l-13 -82h222l-12 -76h-222z" />
    <glyph glyph-name="peseta" unicode="&#x20a7;" horiz-adv-x="731" 
d="M195 543l25 157h290c124 0 202 -62 213 -157h76l-14 -91h-70c-15 -49 -45 -89 -90 -118s-97 -43 -158 -43h-202l-46 -291h-110l71 452h-84l14 91h85zM281 388h193c76 0 140 43 140 119c0 60 -39 94 -114 94h-186z" />
    <glyph glyph-name="Euro" unicode="&#x20ac;" horiz-adv-x="679" 
d="M74 242l12 78h75c0 27 3 54 8 82h-69l12 78h78c27 73 72 130 133 171s132 62 211 62c71 0 131 -16 178 -48l-20 -103c-46 33 -99 49 -158 49c-103 0 -184 -46 -227 -131h234l-12 -78h-249c-5 -23 -7 -51 -7 -82h242l-12 -78h-223c24 -104 104 -153 211 -153
c69 0 126 18 172 54l-17 -112c-45 -29 -103 -44 -173 -44c-77 0 -143 22 -200 65c-57 44 -92 107 -106 190h-93z" />
    <glyph glyph-name="uni20B4" unicode="&#x20b4;" horiz-adv-x="604" 
d="M489 546c0 45 -43 68 -129 68c-59 0 -113 -10 -162 -31l15 102c47 19 103 28 169 28c63 0 117 -13 161 -38s66 -62 66 -111c0 -38 -17 -72 -51 -101h70l-12 -74h-498l12 74h300c39 23 59 51 59 83zM233 160c0 -49 45 -73 135 -73c66 0 124 12 174 36l-16 -103
c-55 -22 -114 -33 -177 -33c-41 0 -78 4 -112 13c-67 19 -124 68 -124 139c0 47 22 88 67 123h-82l11 74h498l-11 -74h-278c-57 -29 -85 -63 -85 -102z" />
    <glyph glyph-name="uni20B6" unicode="&#x20b6;" horiz-adv-x="702" 
d="M192 372l52 328h281c67 0 119 -17 157 -52c39 -35 58 -79 58 -133c0 -67 -24 -122 -73 -163c-48 -41 -110 -61 -185 -61h-193l-13 -83h273l-12 -80h-274l-19 -128h-110l19 128h-103l13 80h103l13 83h-103l13 81h103zM339 601l-38 -229h170c43 0 80 10 110 31
c31 21 46 53 46 95c0 65 -45 103 -126 103h-162z" />
    <glyph glyph-name="uni20B6" unicode="&#x20cf;" horiz-adv-x="702" 
d="M192 372l52 328h281c67 0 119 -17 157 -52c39 -35 58 -79 58 -133c0 -67 -24 -122 -73 -163c-48 -41 -110 -61 -185 -61h-193l-13 -83h273l-12 -80h-274l-19 -128h-110l19 128h-103l13 80h103l13 83h-103l13 81h103zM339 601l-38 -229h170c43 0 80 10 110 31
c31 21 46 53 46 95c0 65 -45 103 -126 103h-162z" />
    <glyph glyph-name="uni20B6" unicode="&#x20ce;" horiz-adv-x="702" 
d="M192 372l52 328h281c67 0 119 -17 157 -52c39 -35 58 -79 58 -133c0 -67 -24 -122 -73 -163c-48 -41 -110 -61 -185 -61h-193l-13 -83h273l-12 -80h-274l-19 -128h-110l19 128h-103l13 80h103l13 83h-103l13 81h103zM339 601l-38 -229h170c43 0 80 10 110 31
c31 21 46 53 46 95c0 65 -45 103 -126 103h-162z" />
    <glyph glyph-name="uni20B6" unicode="&#x20cd;" horiz-adv-x="702" 
d="M192 372l52 328h281c67 0 119 -17 157 -52c39 -35 58 -79 58 -133c0 -67 -24 -122 -73 -163c-48 -41 -110 -61 -185 -61h-193l-13 -83h273l-12 -80h-274l-19 -128h-110l19 128h-103l13 80h103l13 83h-103l13 81h103zM339 601l-38 -229h170c43 0 80 10 110 31
c31 21 46 53 46 95c0 65 -45 103 -126 103h-162z" />
    <glyph glyph-name="uni20B6" unicode="&#x20cc;" horiz-adv-x="702" 
d="M192 372l52 328h281c67 0 119 -17 157 -52c39 -35 58 -79 58 -133c0 -67 -24 -122 -73 -163c-48 -41 -110 -61 -185 -61h-193l-13 -83h273l-12 -80h-274l-19 -128h-110l19 128h-103l13 80h103l13 83h-103l13 81h103zM339 601l-38 -229h170c43 0 80 10 110 31
c31 21 46 53 46 95c0 65 -45 103 -126 103h-162z" />
    <glyph glyph-name="uni20B6" unicode="&#x20cb;" horiz-adv-x="702" 
d="M192 372l52 328h281c67 0 119 -17 157 -52c39 -35 58 -79 58 -133c0 -67 -24 -122 -73 -163c-48 -41 -110 -61 -185 -61h-193l-13 -83h273l-12 -80h-274l-19 -128h-110l19 128h-103l13 80h103l13 83h-103l13 81h103zM339 601l-38 -229h170c43 0 80 10 110 31
c31 21 46 53 46 95c0 65 -45 103 -126 103h-162z" />
    <glyph glyph-name="uni20B6" unicode="&#x20ca;" horiz-adv-x="702" 
d="M192 372l52 328h281c67 0 119 -17 157 -52c39 -35 58 -79 58 -133c0 -67 -24 -122 -73 -163c-48 -41 -110 -61 -185 -61h-193l-13 -83h273l-12 -80h-274l-19 -128h-110l19 128h-103l13 80h103l13 83h-103l13 81h103zM339 601l-38 -229h170c43 0 80 10 110 31
c31 21 46 53 46 95c0 65 -45 103 -126 103h-162z" />
    <glyph glyph-name="uni20B6" unicode="&#x20c9;" horiz-adv-x="702" 
d="M192 372l52 328h281c67 0 119 -17 157 -52c39 -35 58 -79 58 -133c0 -67 -24 -122 -73 -163c-48 -41 -110 -61 -185 -61h-193l-13 -83h273l-12 -80h-274l-19 -128h-110l19 128h-103l13 80h103l13 83h-103l13 81h103zM339 601l-38 -229h170c43 0 80 10 110 31
c31 21 46 53 46 95c0 65 -45 103 -126 103h-162z" />
    <glyph glyph-name="uni20B6" unicode="&#x20c8;" horiz-adv-x="702" 
d="M192 372l52 328h281c67 0 119 -17 157 -52c39 -35 58 -79 58 -133c0 -67 -24 -122 -73 -163c-48 -41 -110 -61 -185 -61h-193l-13 -83h273l-12 -80h-274l-19 -128h-110l19 128h-103l13 80h103l13 83h-103l13 81h103zM339 601l-38 -229h170c43 0 80 10 110 31
c31 21 46 53 46 95c0 65 -45 103 -126 103h-162z" />
    <glyph glyph-name="uni20B6" unicode="&#x20c7;" horiz-adv-x="702" 
d="M192 372l52 328h281c67 0 119 -17 157 -52c39 -35 58 -79 58 -133c0 -67 -24 -122 -73 -163c-48 -41 -110 -61 -185 -61h-193l-13 -83h273l-12 -80h-274l-19 -128h-110l19 128h-103l13 80h103l13 83h-103l13 81h103zM339 601l-38 -229h170c43 0 80 10 110 31
c31 21 46 53 46 95c0 65 -45 103 -126 103h-162z" />
    <glyph glyph-name="uni20B6" unicode="&#x20c6;" horiz-adv-x="702" 
d="M192 372l52 328h281c67 0 119 -17 157 -52c39 -35 58 -79 58 -133c0 -67 -24 -122 -73 -163c-48 -41 -110 -61 -185 -61h-193l-13 -83h273l-12 -80h-274l-19 -128h-110l19 128h-103l13 80h103l13 83h-103l13 81h103zM339 601l-38 -229h170c43 0 80 10 110 31
c31 21 46 53 46 95c0 65 -45 103 -126 103h-162z" />
    <glyph glyph-name="uni20B6" unicode="&#x20c5;" horiz-adv-x="702" 
d="M192 372l52 328h281c67 0 119 -17 157 -52c39 -35 58 -79 58 -133c0 -67 -24 -122 -73 -163c-48 -41 -110 -61 -185 -61h-193l-13 -83h273l-12 -80h-274l-19 -128h-110l19 128h-103l13 80h103l13 83h-103l13 81h103zM339 601l-38 -229h170c43 0 80 10 110 31
c31 21 46 53 46 95c0 65 -45 103 -126 103h-162z" />
    <glyph glyph-name="uni20B6" unicode="&#x20c4;" horiz-adv-x="702" 
d="M192 372l52 328h281c67 0 119 -17 157 -52c39 -35 58 -79 58 -133c0 -67 -24 -122 -73 -163c-48 -41 -110 -61 -185 -61h-193l-13 -83h273l-12 -80h-274l-19 -128h-110l19 128h-103l13 80h103l13 83h-103l13 81h103zM339 601l-38 -229h170c43 0 80 10 110 31
c31 21 46 53 46 95c0 65 -45 103 -126 103h-162z" />
    <glyph glyph-name="uni20B6" unicode="&#x20c3;" horiz-adv-x="702" 
d="M192 372l52 328h281c67 0 119 -17 157 -52c39 -35 58 -79 58 -133c0 -67 -24 -122 -73 -163c-48 -41 -110 -61 -185 -61h-193l-13 -83h273l-12 -80h-274l-19 -128h-110l19 128h-103l13 80h103l13 83h-103l13 81h103zM339 601l-38 -229h170c43 0 80 10 110 31
c31 21 46 53 46 95c0 65 -45 103 -126 103h-162z" />
    <glyph glyph-name="uni20B6" unicode="&#x20c2;" horiz-adv-x="702" 
d="M192 372l52 328h281c67 0 119 -17 157 -52c39 -35 58 -79 58 -133c0 -67 -24 -122 -73 -163c-48 -41 -110 -61 -185 -61h-193l-13 -83h273l-12 -80h-274l-19 -128h-110l19 128h-103l13 80h103l13 83h-103l13 81h103zM339 601l-38 -229h170c43 0 80 10 110 31
c31 21 46 53 46 95c0 65 -45 103 -126 103h-162z" />
    <glyph glyph-name="uni20B6" unicode="&#x20c1;" horiz-adv-x="702" 
d="M192 372l52 328h281c67 0 119 -17 157 -52c39 -35 58 -79 58 -133c0 -67 -24 -122 -73 -163c-48 -41 -110 -61 -185 -61h-193l-13 -83h273l-12 -80h-274l-19 -128h-110l19 128h-103l13 80h103l13 83h-103l13 81h103zM339 601l-38 -229h170c43 0 80 10 110 31
c31 21 46 53 46 95c0 65 -45 103 -126 103h-162z" />
    <glyph glyph-name="uni20B6" unicode="&#x20c0;" horiz-adv-x="702" 
d="M192 372l52 328h281c67 0 119 -17 157 -52c39 -35 58 -79 58 -133c0 -67 -24 -122 -73 -163c-48 -41 -110 -61 -185 -61h-193l-13 -83h273l-12 -80h-274l-19 -128h-110l19 128h-103l13 80h103l13 83h-103l13 81h103zM339 601l-38 -229h170c43 0 80 10 110 31
c31 21 46 53 46 95c0 65 -45 103 -126 103h-162z" />
    <glyph glyph-name="uni20B6" unicode="&#x20bf;" horiz-adv-x="702" 
d="M192 372l52 328h281c67 0 119 -17 157 -52c39 -35 58 -79 58 -133c0 -67 -24 -122 -73 -163c-48 -41 -110 -61 -185 -61h-193l-13 -83h273l-12 -80h-274l-19 -128h-110l19 128h-103l13 80h103l13 83h-103l13 81h103zM339 601l-38 -229h170c43 0 80 10 110 31
c31 21 46 53 46 95c0 65 -45 103 -126 103h-162z" />
    <glyph glyph-name="uni20B6" unicode="&#x20be;" horiz-adv-x="702" 
d="M192 372l52 328h281c67 0 119 -17 157 -52c39 -35 58 -79 58 -133c0 -67 -24 -122 -73 -163c-48 -41 -110 -61 -185 -61h-193l-13 -83h273l-12 -80h-274l-19 -128h-110l19 128h-103l13 80h103l13 83h-103l13 81h103zM339 601l-38 -229h170c43 0 80 10 110 31
c31 21 46 53 46 95c0 65 -45 103 -126 103h-162z" />
    <glyph glyph-name="uni20B6" unicode="&#x20bd;" horiz-adv-x="702" 
d="M192 372l52 328h281c67 0 119 -17 157 -52c39 -35 58 -79 58 -133c0 -67 -24 -122 -73 -163c-48 -41 -110 -61 -185 -61h-193l-13 -83h273l-12 -80h-274l-19 -128h-110l19 128h-103l13 80h103l13 83h-103l13 81h103zM339 601l-38 -229h170c43 0 80 10 110 31
c31 21 46 53 46 95c0 65 -45 103 -126 103h-162z" />
    <glyph glyph-name="uni20B6" unicode="&#x20bc;" horiz-adv-x="702" 
d="M192 372l52 328h281c67 0 119 -17 157 -52c39 -35 58 -79 58 -133c0 -67 -24 -122 -73 -163c-48 -41 -110 -61 -185 -61h-193l-13 -83h273l-12 -80h-274l-19 -128h-110l19 128h-103l13 80h103l13 83h-103l13 81h103zM339 601l-38 -229h170c43 0 80 10 110 31
c31 21 46 53 46 95c0 65 -45 103 -126 103h-162z" />
    <glyph glyph-name="uni20B6" unicode="&#x20bb;" horiz-adv-x="702" 
d="M192 372l52 328h281c67 0 119 -17 157 -52c39 -35 58 -79 58 -133c0 -67 -24 -122 -73 -163c-48 -41 -110 -61 -185 -61h-193l-13 -83h273l-12 -80h-274l-19 -128h-110l19 128h-103l13 80h103l13 83h-103l13 81h103zM339 601l-38 -229h170c43 0 80 10 110 31
c31 21 46 53 46 95c0 65 -45 103 -126 103h-162z" />
    <glyph glyph-name="uni20B6" unicode="&#x20ba;" horiz-adv-x="702" 
d="M192 372l52 328h281c67 0 119 -17 157 -52c39 -35 58 -79 58 -133c0 -67 -24 -122 -73 -163c-48 -41 -110 -61 -185 -61h-193l-13 -83h273l-12 -80h-274l-19 -128h-110l19 128h-103l13 80h103l13 83h-103l13 81h103zM339 601l-38 -229h170c43 0 80 10 110 31
c31 21 46 53 46 95c0 65 -45 103 -126 103h-162z" />
    <glyph glyph-name="uni20B6" unicode="&#x20b9;" horiz-adv-x="702" 
d="M192 372l52 328h281c67 0 119 -17 157 -52c39 -35 58 -79 58 -133c0 -67 -24 -122 -73 -163c-48 -41 -110 -61 -185 -61h-193l-13 -83h273l-12 -80h-274l-19 -128h-110l19 128h-103l13 80h103l13 83h-103l13 81h103zM339 601l-38 -229h170c43 0 80 10 110 31
c31 21 46 53 46 95c0 65 -45 103 -126 103h-162z" />
    <glyph glyph-name="uni20B6" unicode="&#x20b7;" horiz-adv-x="702" 
d="M192 372l52 328h281c67 0 119 -17 157 -52c39 -35 58 -79 58 -133c0 -67 -24 -122 -73 -163c-48 -41 -110 -61 -185 -61h-193l-13 -83h273l-12 -80h-274l-19 -128h-110l19 128h-103l13 80h103l13 83h-103l13 81h103zM339 601l-38 -229h170c43 0 80 10 110 31
c31 21 46 53 46 95c0 65 -45 103 -126 103h-162z" />
    <glyph glyph-name="uni2113" unicode="&#x2113;" horiz-adv-x="422" 
d="M173 126c0 -49 27 -65 84 -65c35 0 68 11 99 32l-11 -74c-30 -21 -68 -32 -113 -32c-93 0 -140 45 -140 121c0 7 2 23 5 50l46 310c7 44 16 82 36 127c30 64 77 115 158 115c122 4 154 -131 100 -243c-17 -38 -40 -75 -71 -110c-60 -71 -111 -115 -186 -175l-3 -17
c-3 -16 -4 -29 -4 -39zM228 486l-32 -201c129 109 194 203 194 284c0 43 -18 65 -55 65c-47 0 -91 -48 -107 -148z" />
    <glyph glyph-name="uni2116" unicode="&#x2116;" horiz-adv-x="1146" 
d="M1118 245h-310l11 68h310zM686 0h-92l-317 519l-81 -519h-109l110 700h95l314 -518l82 518h108zM1014 712c49 0 89 -15 120 -46c31 -30 46 -68 46 -114c0 -49 -17 -91 -52 -126c-34 -35 -76 -53 -126 -53c-49 0 -89 15 -120 46s-46 69 -46 115c0 49 17 90 51 125
s76 53 127 53zM1002 446c27 0 51 10 70 31s29 46 29 75c0 51 -35 86 -87 86c-55 0 -98 -47 -98 -104c0 -51 37 -88 86 -88z" />
    <glyph glyph-name="trademark" unicode="&#x2122;" horiz-adv-x="684" 
d="M449 390h-61l49 310h56l74 -127l113 127h60l-49 -310h-62l34 214l-90 -96h-31l-59 97zM236 390h-62l40 256h-97l9 54h259l-9 -54h-100z" />
    <glyph glyph-name="Omega" unicode="&#x2126;" horiz-adv-x="798" 
d="M773 418c0 -124 -55 -236 -154 -317h109l-16 -101h-241l13 86c52 34 94 79 125 136c32 57 48 117 48 180c0 58 -16 107 -48 147c-31 41 -76 61 -134 61c-68 0 -123 -29 -166 -88c-42 -58 -63 -123 -63 -196c0 -47 9 -93 27 -138s40 -79 66 -102l-14 -86h-239l15 101h116
c-49 56 -81 150 -81 243c0 61 13 119 40 174c27 56 66 102 119 139s112 56 179 56c85 0 156 -27 213 -81s86 -125 86 -214z" />
    <glyph glyph-name="estimated" unicode="&#x212e;" horiz-adv-x="798" 
d="M430 16c121 0 228 64 287 167h34c-29 -57 -71 -104 -128 -141s-121 -55 -194 -55c-90 0 -165 29 -225 86s-90 131 -90 221c0 100 34 185 103 256s155 106 258 106c91 0 167 -29 226 -88c59 -58 89 -130 89 -216c0 -13 -1 -24 -2 -32h-570l-20 -193
c55 -74 133 -111 232 -111zM242 530l-20 -181h464l18 169c-56 73 -133 109 -230 109c-92 0 -169 -32 -232 -97z" />
    <glyph glyph-name="onethird" unicode="&#x2153;" horiz-adv-x="800" 
d="M108 0l529 700h98l-529 -700h-98zM262 322h-89l45 287l-109 -53l13 88l114 56h85zM815 378l-10 -65l-96 -76c45 -12 81 -47 81 -102c0 -85 -69 -142 -165 -142c-54 0 -97 11 -129 34l14 82c29 -25 66 -38 111 -38c44 0 82 22 82 61c0 28 -27 49 -68 49
c-19 0 -37 -3 -54 -9l8 55l100 77h-138l13 74h251z" />
    <glyph glyph-name="twothirds" unicode="&#x2154;" horiz-adv-x="898" 
d="M136 586l15 90c31 21 67 31 110 31c75 0 132 -44 132 -116c0 -52 -30 -93 -98 -145l-65 -50h153l-12 -74h-281l12 63l124 98c56 44 76 65 76 93c0 29 -23 49 -59 49c-34 0 -70 -13 -107 -39zM913 378l-10 -65l-96 -76c45 -12 81 -47 81 -102c0 -85 -69 -142 -165 -142
c-54 0 -97 11 -129 34l14 82c29 -25 66 -38 111 -38c44 0 82 22 82 61c0 28 -27 49 -68 49c-19 0 -37 -3 -54 -9l8 55l100 77h-138l13 74h251zM205 0l529 700h98l-529 -700h-98z" />
    <glyph glyph-name="uni2155" unicode="&#x2155;" horiz-adv-x="778" 
d="M108 0l529 700h98l-529 -700h-98zM262 322h-89l45 287l-109 -53l13 88l114 56h85zM634 250c81 0 135 -49 135 -114c0 -91 -74 -143 -175 -143c-50 0 -90 10 -120 30l13 83c32 -23 68 -35 108 -35c44 0 83 20 83 61c0 29 -29 51 -78 51c-25 0 -55 -4 -90 -13l57 208h214
l-12 -74h-147l-15 -56c9 1 18 2 27 2z" />
    <glyph glyph-name="uni2156" unicode="&#x2156;" horiz-adv-x="875" 
d="M205 0l529 700h98l-529 -700h-98zM136 586l15 90c31 21 67 31 110 31c75 0 132 -44 132 -116c0 -52 -30 -93 -98 -145l-65 -50h153l-12 -74h-281l12 63l124 98c56 44 76 65 76 93c0 29 -23 49 -59 49c-34 0 -70 -13 -107 -39zM731 250c81 0 135 -49 135 -114
c0 -91 -74 -143 -175 -143c-50 0 -90 10 -120 30l13 83c32 -23 68 -35 108 -35c44 0 83 20 83 61c0 29 -29 51 -78 51c-25 0 -55 -4 -90 -13l57 208h214l-12 -74h-147l-15 -56c9 1 18 2 27 2z" />
    <glyph glyph-name="uni2157" unicode="&#x2157;" horiz-adv-x="819" 
d="M397 700l-10 -65l-96 -76c45 -12 81 -47 81 -102c0 -85 -69 -142 -165 -142c-54 0 -97 11 -129 34l14 82c29 -25 66 -38 111 -38c44 0 82 22 82 61c0 28 -27 49 -68 49c-19 0 -37 -3 -54 -9l8 55l100 77h-138l13 74h251zM675 250c81 0 135 -49 135 -114
c0 -91 -74 -143 -175 -143c-50 0 -90 10 -120 30l13 83c32 -23 68 -35 108 -35c44 0 83 20 83 61c0 29 -29 51 -78 51c-25 0 -55 -4 -90 -13l57 208h214l-12 -74h-147l-15 -56c9 1 18 2 27 2zM148 0l529 700h98l-529 -700h-98z" />
    <glyph glyph-name="uni2158" unicode="&#x2158;" horiz-adv-x="862" 
d="M344 322h-86l15 92h-192l11 63l223 223h90l-35 -217h55l-12 -69h-54zM303 600l-120 -117h101zM718 250c81 0 135 -49 135 -114c0 -91 -74 -143 -175 -143c-50 0 -90 10 -120 30l13 83c32 -23 68 -35 108 -35c44 0 83 20 83 61c0 29 -29 51 -78 51c-25 0 -55 -4 -90 -13
l57 208h214l-12 -74h-147l-15 -56c9 1 18 2 27 2zM191 0l529 700h98l-529 -700h-98z" />
    <glyph glyph-name="uni2159" unicode="&#x2159;" horiz-adv-x="783" 
d="M108 0l529 700h98l-529 -700h-98zM262 322h-89l45 287l-109 -53l13 88l114 56h85zM687 308c-53 0 -96 -34 -108 -91c20 23 49 34 88 34c65 0 112 -49 112 -112c0 -42 -15 -77 -44 -105c-29 -27 -66 -41 -111 -41c-89 0 -141 61 -141 152c0 63 18 119 53 167
c36 49 86 73 150 73c40 0 72 -9 97 -27l-13 -78c-23 19 -51 28 -83 28zM637 186c-30 0 -53 -13 -69 -38c-1 -7 -2 -13 -2 -19c0 -36 23 -64 60 -64c36 0 65 28 65 67c0 32 -21 54 -54 54z" />
    <glyph glyph-name="uni215A" unicode="&#x215a;" horiz-adv-x="828" 
d="M732 308c-53 0 -96 -34 -108 -91c20 23 49 34 88 34c65 0 112 -49 112 -112c0 -42 -15 -77 -44 -105c-29 -27 -66 -41 -111 -41c-89 0 -141 61 -141 152c0 63 18 119 53 167c36 49 86 73 150 73c40 0 72 -9 97 -27l-13 -78c-23 19 -51 28 -83 28zM682 186
c-30 0 -53 -13 -69 -38c-1 -7 -2 -13 -2 -19c0 -36 23 -64 60 -64c36 0 65 28 65 67c0 32 -21 54 -54 54zM242 572c81 0 135 -49 135 -114c0 -91 -74 -143 -175 -143c-50 0 -90 10 -120 30l13 83c32 -23 68 -35 108 -35c44 0 83 20 83 61c0 29 -29 51 -78 51
c-25 0 -55 -4 -90 -13l57 208h214l-12 -74h-147l-15 -56c9 1 18 2 27 2zM151 0l529 700h98l-529 -700h-98z" />
    <glyph glyph-name="oneeighth" unicode="&#x215b;" horiz-adv-x="809" 
d="M747 195c35 -15 59 -48 59 -84c0 -35 -15 -64 -46 -86c-31 -21 -67 -32 -109 -32c-43 0 -80 10 -112 29s-48 47 -48 83c0 47 34 88 85 101c-28 15 -42 39 -42 71c0 31 14 57 41 77c28 21 61 31 100 31c35 0 66 -9 95 -27s44 -43 44 -76c0 -39 -28 -72 -67 -87zM615 269
c-5 -57 115 -59 113 3c0 25 -24 43 -56 43c-29 0 -57 -18 -57 -46zM649 65c36 0 69 20 69 53c0 28 -28 51 -67 51c-37 0 -70 -20 -70 -55c0 -28 29 -49 68 -49zM265 322h-89l45 287l-109 -53l13 88l114 56h85zM108 0l529 700h98l-529 -700h-98z" />
    <glyph glyph-name="threeeighths" unicode="&#x215c;" horiz-adv-x="839" 
d="M777 195c35 -15 59 -48 59 -84c0 -35 -15 -64 -46 -86c-31 -21 -67 -32 -109 -32c-43 0 -80 10 -112 29s-48 47 -48 83c0 47 34 88 85 101c-28 15 -42 39 -42 71c0 31 14 57 41 77c28 21 61 31 100 31c35 0 66 -9 95 -27s44 -43 44 -76c0 -39 -28 -72 -67 -87zM645 269
c-5 -57 115 -59 113 3c0 25 -24 43 -56 43c-29 0 -57 -18 -57 -46zM679 65c36 0 69 20 69 53c0 28 -28 51 -67 51c-37 0 -70 -20 -70 -55c0 -28 29 -49 68 -49zM397 700l-10 -65l-96 -76c45 -12 81 -47 81 -102c0 -85 -69 -142 -165 -142c-54 0 -97 11 -129 34l14 82
c29 -25 66 -38 111 -38c44 0 82 22 82 61c0 28 -27 49 -68 49c-19 0 -37 -3 -54 -9l8 55l100 77h-138l13 74h251zM148 0l529 700h98l-529 -700h-98z" />
    <glyph glyph-name="fiveeighths" unicode="&#x215d;" horiz-adv-x="841" 
d="M779 195c35 -15 59 -48 59 -84c0 -35 -15 -64 -46 -86c-31 -21 -67 -32 -109 -32c-43 0 -80 10 -112 29s-48 47 -48 83c0 47 34 88 85 101c-28 15 -42 39 -42 71c0 31 14 57 41 77c28 21 61 31 100 31c35 0 66 -9 95 -27s44 -43 44 -76c0 -39 -28 -72 -67 -87zM647 269
c-5 -57 115 -59 113 3c0 25 -24 43 -56 43c-29 0 -57 -18 -57 -46zM681 65c36 0 69 20 69 53c0 28 -28 51 -67 51c-37 0 -70 -20 -70 -55c0 -28 29 -49 68 -49zM242 572c81 0 135 -49 135 -114c0 -91 -74 -143 -175 -143c-50 0 -90 10 -120 30l13 83c32 -23 68 -35 108 -35
c44 0 83 20 83 61c0 29 -29 51 -78 51c-25 0 -55 -4 -90 -13l57 208h214l-12 -74h-147l-15 -56c9 1 18 2 27 2zM150 0l529 700h98l-529 -700h-98z" />
    <glyph glyph-name="seveneighths" unicode="&#x215e;" horiz-adv-x="787" 
d="M725 195c35 -15 59 -48 59 -84c0 -35 -15 -64 -46 -86c-31 -21 -67 -32 -109 -32c-43 0 -80 10 -112 29s-48 47 -48 83c0 47 34 88 85 101c-28 15 -42 39 -42 71c0 31 14 57 41 77c28 21 61 31 100 31c35 0 66 -9 95 -27s44 -43 44 -76c0 -39 -28 -72 -67 -87zM593 269
c-5 -57 115 -59 113 3c0 25 -24 43 -56 43c-29 0 -57 -18 -57 -46zM627 65c36 0 69 20 69 53c0 28 -28 51 -67 51c-37 0 -70 -20 -70 -55c0 -28 29 -49 68 -49zM196 322h-99l203 304h-175l12 74h278l-11 -69zM97 0l529 700h98l-529 -700h-98z" />
    <glyph glyph-name="uni215F" unicode="&#x215f;" horiz-adv-x="455" 
d="M262 322h-89l45 287l-109 -53l13 88l114 56h85zM108 0l529 700h98l-529 -700h-98z" />
    <glyph glyph-name="arrowleft" unicode="&#x2190;" horiz-adv-x="718" 
d="M94 267l222 216h118l-180 -171h441l-14 -88h-452l127 -172h-108z" />
    <glyph glyph-name="arrowup" unicode="&#x2191;" horiz-adv-x="574" 
d="M380 594l187 -188l-18 -109l-147 153l-70 -450h-88l70 442l-196 -153l18 117z" />
    <glyph glyph-name="arrowright" unicode="&#x2192;" horiz-adv-x="718" 
d="M572 312l-126 171h108l153 -216l-221 -215h-118l179 172h-441l15 88h451z" />
    <glyph glyph-name="arrowdown" unicode="&#x2193;" horiz-adv-x="574" 
d="M286 -12l-187 187l18 109l147 -153l70 450h88l-70 -442l196 153l-18 -117z" />
    <glyph glyph-name="partialdiff" unicode="&#x2202;" horiz-adv-x="616" 
d="M308 -13c-67 0 -122 20 -165 60s-64 94 -64 162c0 71 22 131 66 181c45 50 100 75 167 75c80 0 141 -30 182 -91c0 39 -6 77 -19 112c-12 35 -33 66 -63 91c-30 26 -66 39 -109 39c-51 0 -98 -13 -141 -39v90c45 29 96 43 153 43c85 0 154 -32 205 -97
c51 -64 77 -149 77 -255c0 -93 -21 -179 -65 -252c-43 -72 -123 -119 -224 -119zM317 82c91 0 155 69 170 177c-27 65 -87 111 -155 111c-42 0 -77 -14 -106 -42s-43 -64 -43 -109c0 -81 55 -137 134 -137z" />
    <glyph glyph-name="increment" unicode="&#x2206;" horiz-adv-x="761" 
d="M739 0h-717l416 700h106zM472 562l-272 -461h400z" />
    <glyph glyph-name="product" unicode="&#x220f;" horiz-adv-x="768" 
d="M243 -131h-99l117 743h-117l14 88h670l-14 -88h-117l-117 -743h-99l117 743h-238z" />
    <glyph glyph-name="summation" unicode="&#x2211;" horiz-adv-x="628" 
d="M572 0h-520l12 78l284 278l-193 266l12 78h510l-16 -101h-361l165 -227l-7 -45l-235 -226h364z" />
    <glyph glyph-name="minus" unicode="&#x2212;" horiz-adv-x="645" 
d="M100 280l16 97h532l-16 -97h-532z" />
    <glyph glyph-name="uni2215" unicode="&#x2215;" horiz-adv-x="533" 
d="M7 0l529 700h98l-529 -700h-98z" />
    <glyph glyph-name="uni2219" unicode="&#x2219;" horiz-adv-x="239" 
d="M159 181c-40 0 -71 31 -71 71c0 39 31 70 71 70c39 0 70 -33 70 -70c0 -40 -31 -71 -70 -71z" />
    <glyph glyph-name="radical" unicode="&#x221a;" horiz-adv-x="705" 
d="M410 0h-91l-118 403h-136l14 88h197l105 -369l318 578h101z" />
    <glyph glyph-name="infinity" unicode="&#x221e;" horiz-adv-x="802" 
d="M647 485c93 0 156 -65 156 -160c0 -55 -19 -101 -56 -139s-83 -57 -139 -57c-65 0 -121 37 -167 111c-61 -74 -125 -111 -192 -111c-95 0 -157 65 -157 160c0 55 18 101 55 139s84 57 140 57c67 0 123 -37 168 -111c61 74 125 111 192 111zM263 208c44 0 91 33 141 100
c-35 66 -75 99 -120 99c-30 0 -55 -11 -76 -34c-20 -23 -30 -49 -30 -78c0 -49 32 -87 85 -87zM612 207c29 0 54 11 75 34s31 50 31 79c0 48 -33 87 -86 87c-41 0 -88 -33 -141 -100c35 -67 76 -100 121 -100z" />
    <glyph glyph-name="integral" unicode="&#x222b;" horiz-adv-x="510" 
d="M81 -205c-35 0 -66 6 -91 19v90c24 -9 47 -14 70 -14c69 0 110 44 124 132l77 488c20 121 86 200 209 200c35 0 66 -6 92 -18v-91c-21 9 -45 14 -71 14c-69 0 -110 -43 -123 -128l-78 -492c-19 -117 -88 -200 -209 -200z" />
    <glyph glyph-name="approxequal" unicode="&#x2248;" horiz-adv-x="637" 
d="M530 450c53 0 97 16 133 48l-16 -99c-25 -25 -79 -43 -132 -43c-33 0 -78 9 -133 28s-99 28 -133 28c-52 0 -96 -16 -131 -47l15 98c24 25 79 44 131 44c34 0 78 -10 132 -29c55 -19 99 -28 134 -28zM494 220c52 0 96 16 132 48l-15 -99c-25 -25 -79 -43 -132 -43
c-34 0 -78 9 -133 28s-99 29 -133 29c-51 0 -95 -16 -131 -48l15 98c24 25 79 44 131 44c34 0 78 -10 132 -29c55 -19 99 -28 134 -28z" />
    <glyph glyph-name="notequal" unicode="&#x2260;" horiz-adv-x="607" 
d="M218 53h-97l77 113h-115l16 97h166l88 131h-234l16 97h285l73 107h97l-73 -107h113l-16 -97h-164l-88 -131h232l-16 -97h-283z" />
    <glyph glyph-name="lessequal" unicode="&#x2264;" horiz-adv-x="607" 
d="M596 281l-18 -108l-465 187l15 93l525 187l-18 -109l-403 -125zM555 36h-493l16 96h493z" />
    <glyph glyph-name="greaterequal" unicode="&#x2265;" horiz-adv-x="607" 
d="M609 360l-525 -187l18 109l402 126l-363 124l18 108l465 -187zM557 36h-494l16 96h494z" />
    <glyph glyph-name="dotmath" unicode="&#x22c5;" horiz-adv-x="250" 
d="M175 315c-40 0 -71 31 -71 71c0 39 31 70 71 70c39 0 70 -33 70 -70c0 -40 -31 -71 -70 -71z" />
    <glyph glyph-name="lozenge" unicode="&#x25ca;" horiz-adv-x="564" 
d="M328 0h-92l-139 350l250 350h92l140 -350zM199 347l96 -254l185 260l-97 254z" />
    <glyph glyph-name="uniF401" unicode="&#xf401;" horiz-adv-x="61" 
d="M-213 762h-99l118 140h135z" />
    <glyph glyph-name="uniF639" unicode="&#xf639;" 
d="M400 713c80 0 143 -29 188 -87c46 -57 69 -133 69 -226c0 -66 -12 -130 -36 -192c-24 -61 -61 -114 -111 -157c-49 -43 -106 -64 -169 -64c-79 0 -142 29 -188 86c-45 58 -68 134 -68 227c0 66 12 130 36 191c24 62 61 114 110 157s106 65 169 65zM345 86
c42 0 79 17 110 51c64 69 91 168 91 263c0 62 -13 113 -39 153c-25 41 -62 61 -110 61c-42 0 -79 -17 -111 -52c-63 -68 -90 -167 -90 -262c0 -62 13 -113 38 -154c26 -40 63 -60 111 -60z" />
    <glyph glyph-name="uniF63A" unicode="&#xf63a;" 
d="M153 531l19 115c60 44 128 66 203 66c65 0 118 -19 161 -56s64 -86 64 -147c0 -96 -57 -174 -184 -274l-172 -137h332l-14 -98h-489l12 80l246 203c56 45 96 83 121 114s37 62 37 95c0 73 -55 118 -135 118c-67 0 -134 -26 -201 -79z" />
    <glyph glyph-name="uniF63B" unicode="&#xf63b;" 
d="M635 618l-215 -184c51 -8 94 -28 129 -61c36 -32 54 -76 54 -132c0 -77 -28 -139 -84 -185c-55 -46 -125 -69 -208 -69c-90 0 -164 20 -221 60l17 104c58 -44 125 -66 201 -66c50 0 93 13 130 40s56 65 56 113c0 77 -63 123 -159 123c-25 0 -51 -4 -76 -12l12 73l216 182
h-291l16 96h436z" />
    <glyph glyph-name="uniF63C" unicode="&#xf63c;" 
d="M499 0h-108l29 183h-363l14 84l431 433h108l-67 -423h109l-15 -94h-109zM479 554l-276 -277h232z" />
    <glyph glyph-name="uniF63D" unicode="&#xf63d;" 
d="M362 450c73 0 131 -20 175 -61c44 -40 66 -90 66 -150c0 -79 -29 -140 -88 -185s-131 -67 -218 -67c-86 0 -155 18 -208 55l16 104c56 -41 120 -61 192 -61c51 0 96 13 135 38c40 25 60 62 60 111c0 73 -63 128 -172 128c-48 0 -100 -8 -157 -24l99 362h365l-14 -97h-283
l-44 -160c21 5 46 7 76 7z" />
    <glyph glyph-name="uniF63E" unicode="&#xf63e;" 
d="M413 452c61 0 110 -20 148 -59c39 -39 58 -87 58 -145c0 -74 -25 -136 -75 -186c-49 -50 -113 -75 -190 -75s-138 25 -183 75c-44 51 -66 116 -66 196c0 81 14 155 43 224s71 125 126 167c55 43 118 64 188 64c71 0 127 -17 168 -50l-16 -100c-41 34 -92 51 -151 51
c-60 0 -112 -24 -156 -71s-70 -104 -78 -171c45 53 106 80 184 80zM357 84c43 0 79 15 109 45c30 31 45 68 45 112c0 73 -53 125 -133 125c-33 0 -64 -11 -95 -33c-30 -21 -53 -48 -68 -80v-10c0 -43 12 -81 37 -112s60 -47 105 -47z" />
    <glyph glyph-name="uniF63F" unicode="&#xf63f;" 
d="M256 0h-117l397 601h-352l16 99h478l-14 -85z" />
    <glyph glyph-name="uniF640" unicode="&#xf640;" 
d="M509 362c78 -32 117 -86 117 -161c0 -66 -27 -118 -81 -157c-53 -38 -122 -57 -207 -57c-42 0 -82 7 -121 21s-72 37 -100 68c-28 32 -42 70 -42 114c0 92 63 167 168 192c-58 29 -87 75 -87 136c0 58 24 105 72 141s105 54 172 54c61 0 116 -16 165 -48
c49 -31 74 -76 74 -134c0 -80 -51 -142 -130 -169zM397 621c-35 0 -67 -10 -95 -29c-27 -19 -41 -46 -41 -81c0 -31 13 -56 39 -75c27 -19 58 -28 93 -28s67 10 95 29c28 20 42 47 42 82c0 63 -60 102 -133 102zM513 208c0 33 -15 61 -46 83c-30 22 -68 33 -113 33
c-44 0 -82 -11 -115 -34c-32 -22 -48 -52 -48 -91c0 -36 16 -65 47 -87c32 -21 69 -32 112 -32s80 11 113 34s50 55 50 94z" />
    <glyph glyph-name="uniF641" unicode="&#xf641;" 
d="M322 248c-61 0 -110 19 -149 58c-38 39 -57 88 -57 146c0 74 25 136 74 186c50 50 114 75 191 75s138 -25 182 -76c45 -50 67 -115 67 -195c0 -81 -15 -156 -44 -225s-71 -124 -126 -167c-55 -42 -117 -63 -187 -63c-71 0 -127 17 -168 50l16 100c41 -34 92 -51 151 -51
c60 0 112 23 156 70s70 105 78 172c-45 -53 -106 -80 -184 -80zM378 616c-43 0 -79 -15 -109 -46c-30 -30 -45 -67 -45 -111c0 -73 53 -125 133 -125c33 0 64 11 94 32c31 22 54 49 69 81v10c0 43 -13 81 -38 112s-59 47 -104 47z" />
    <glyph glyph-name="uniF643" unicode="&#xf643;" 
d="M365 504c75 0 137 -23 184 -70c48 -46 72 -104 72 -175c0 -74 -26 -138 -79 -192c-53 -53 -118 -80 -197 -80c-75 0 -136 23 -183 70s-71 105 -71 175c0 74 26 138 79 191c53 54 118 81 195 81zM346 82c47 0 86 17 119 52s49 78 49 129c0 87 -60 146 -148 146
c-47 0 -86 -17 -119 -52s-49 -77 -49 -127c0 -88 61 -148 148 -148z" />
    <glyph glyph-name="uniF644" unicode="&#xf644;" 
d="M406 96h175l-15 -96h-470l16 96h186l44 279l-166 -83l17 106l180 93h96z" />
    <glyph glyph-name="uniF645" unicode="&#xf645;" 
d="M576 350c0 -91 -99 -176 -296 -254h286l-15 -96h-470l13 81c124 62 207 104 249 127c24 13 43 25 57 34c29 19 63 57 63 94c0 43 -38 68 -103 68c-69 0 -140 -25 -213 -76l17 105c69 47 141 71 218 71c57 0 104 -15 140 -44s54 -65 54 -110z" />
    <glyph glyph-name="uniF646" unicode="&#xf646;" 
d="M579 410l-215 -177c51 -7 94 -27 129 -58c36 -31 54 -74 54 -130c0 -77 -28 -137 -84 -182c-55 -45 -125 -68 -208 -68c-90 0 -164 20 -221 60l16 104c59 -45 126 -67 202 -67c50 0 93 13 130 39s56 63 56 111c0 76 -63 119 -159 119c-25 0 -50 -4 -76 -13l11 74l216 174
h-290l16 95h436z" />
    <glyph glyph-name="uniF647" unicode="&#xf647;" 
d="M468 -200h-108l32 200h-363l13 85l427 406h108l-62 -396h108l-14 -95h-109zM449 361l-280 -266h237z" />
    <glyph glyph-name="uniF648" unicode="&#xf648;" 
d="M321 250c73 0 131 -20 175 -60s66 -90 66 -149c0 -78 -29 -138 -88 -181c-58 -43 -131 -65 -218 -65c-86 0 -155 18 -208 55l16 104c56 -41 120 -61 192 -61c32 0 62 4 90 13c56 17 105 63 105 130c0 72 -63 127 -172 127c-49 0 -102 -8 -157 -24l98 352h366l-14 -96
h-283l-45 -152c26 5 52 7 77 7z" />
    <glyph glyph-name="uniF649" unicode="&#xf649;" 
d="M413 452c61 0 110 -20 148 -59c39 -39 58 -87 58 -145c0 -74 -25 -136 -75 -186c-49 -50 -113 -75 -190 -75s-138 25 -183 75c-44 51 -66 116 -66 196c0 81 14 155 43 224s71 125 126 167c55 43 118 64 188 64c71 0 127 -17 168 -50l-16 -100c-41 34 -92 51 -151 51
c-60 0 -112 -24 -156 -71s-70 -104 -78 -171c45 53 106 80 184 80zM357 84c43 0 79 15 109 45c30 31 45 68 45 112c0 73 -53 125 -133 125c-33 0 -64 -11 -95 -33c-30 -21 -53 -48 -68 -80v-10c0 -43 12 -81 37 -112s60 -47 105 -47z" />
    <glyph glyph-name="uniF64A" unicode="&#xf64a;" 
d="M214 -200h-118l391 593h-352l16 98h478l-14 -84z" />
    <glyph glyph-name="uniF64B" unicode="&#xf64b;" 
d="M506 362c78 -32 117 -86 117 -161c0 -66 -27 -118 -81 -157c-53 -38 -122 -57 -207 -57c-42 0 -82 7 -121 21s-72 37 -100 68c-28 32 -42 70 -42 114c0 92 63 167 168 192c-58 29 -87 75 -87 136c0 58 24 105 72 141s105 54 172 54c61 0 116 -16 165 -48
c49 -31 74 -76 74 -134c0 -80 -51 -142 -130 -169zM394 621c-35 0 -67 -10 -95 -29c-27 -19 -41 -46 -41 -81c0 -31 13 -56 39 -75c27 -19 58 -28 93 -28s67 10 95 29c28 20 42 47 42 82c0 63 -60 102 -133 102zM510 208c0 33 -15 61 -46 83c-30 22 -68 33 -113 33
c-44 0 -82 -11 -115 -34c-32 -22 -48 -52 -48 -91c0 -36 16 -65 47 -87c32 -21 69 -32 112 -32s80 11 113 34s50 55 50 94z" />
    <glyph glyph-name="uniF64C" unicode="&#xf64c;" 
d="M292 39c-61 0 -110 19 -149 58c-38 39 -57 88 -57 146c0 74 25 136 74 186c50 50 114 75 191 75s138 -25 182 -76c45 -50 67 -115 67 -195c5 -238 -146 -440 -357 -438c-71 0 -127 17 -168 50l16 100c41 -34 92 -51 151 -51c61 0 114 21 157 63c44 42 70 96 77 162
c-45 -53 -106 -80 -184 -80zM348 407c-43 0 -79 -15 -109 -46c-30 -30 -45 -67 -45 -111c0 -73 53 -125 133 -125c33 0 64 11 94 32c31 22 54 49 69 81v10c0 43 -13 81 -38 112s-59 47 -104 47z" />
    <glyph glyph-name="uniF64E" unicode="&#xf64e;" horiz-adv-x="575" 
d="M67 277l9 60h70c43 103 145 167 269 167c61 0 114 -14 160 -41l-14 -91c-41 26 -87 39 -138 39c-75 0 -129 -25 -163 -74h192l-9 -60h-207c-3 -13 -4 -29 -4 -46v-17h200l-9 -60h-174c27 -49 78 -73 155 -73c45 0 87 10 127 31l-15 -95c-41 -20 -86 -30 -137 -30
c-124 0 -217 62 -245 167h-87l9 60h69v13c0 19 1 36 4 50h-62z" />
    <glyph glyph-name="uniF653" unicode="&#xf653;" horiz-adv-x="500" 
d="M292 -12l-17 -102h-92l17 106c-64 9 -116 27 -155 56l14 97c41 -33 117 -64 205 -64c72 0 108 19 108 57c0 16 -7 26 -31 38c-12 6 -22 10 -31 13l-45 16c-119 36 -168 72 -168 140c0 47 17 84 52 111s79 43 132 47l17 103h92l-18 -107c52 -8 96 -25 131 -51l-14 -96
c-52 39 -111 59 -178 59s-101 -18 -101 -55c0 -16 7 -27 23 -36c9 -4 14 -7 29 -12c16 -6 40 -13 66 -21c104 -33 154 -72 154 -140c0 -49 -18 -86 -55 -113c-37 -26 -82 -41 -135 -46z" />
    <glyph glyph-name="commaaccent" unicode="&#xf6c3;" horiz-adv-x="234" 
d="M207 -60l-81 -191h-82l68 191h95z" />
    <glyph glyph-name="cyrbreve" unicode="&#xf6d4;" horiz-adv-x="471" 
d="M187 722h90c-1 -5 -1 -9 -1 -14c0 -41 26 -68 73 -68c48 0 84 33 92 82h92c-17 -101 -92 -165 -191 -165c-91 0 -157 53 -157 136c0 7 1 17 2 29z" />
    <glyph glyph-name="uniF6DC" unicode="&#xf6dc;" 
d="M404 95h179l-14 -95h-477l15 95h189l77 488l-166 -83l17 107l180 93h96z" />
    <glyph glyph-name="uniF721" unicode="&#xf721;" horiz-adv-x="552" 
d="M126 170h-52l9 59h431l-9 -59h-255c-24 -12 -36 -27 -36 -45c0 -31 49 -48 113 -48c46 0 94 7 145 22l-15 -91c-42 -14 -91 -21 -147 -21c-41 0 -83 5 -132 20c-48 15 -82 49 -82 96c0 25 10 47 30 67zM90 273l9 58h262c19 11 28 25 28 41c0 29 -37 43 -110 43
c-47 0 -94 -7 -139 -22l15 91c43 15 91 23 146 23c44 0 85 -5 130 -21c45 -15 76 -48 76 -95c0 -24 -8 -44 -24 -60h47l-9 -58h-431z" />
    <glyph glyph-name="uniF722" unicode="&#xf722;" horiz-adv-x="595" 
d="M410 124l-9 -60h-181l-9 -64h-108l10 64h-82l9 60h82l7 45h-81l11 67h81l40 255h239c109 0 177 -58 177 -147c0 -109 -85 -175 -214 -175h-145l-7 -45h180zM248 236h119c67 0 119 33 119 97c0 43 -31 69 -80 72c-7 1 -51 2 -132 2z" />
    <glyph glyph-name="uniF725" unicode="&#xf725;" horiz-adv-x="574" 
d="M234 93h289l-14 -93h-441l14 93h26c31 0 49 20 55 61l5 37h-70l13 82h70l7 42c19 121 102 189 245 189c56 0 102 -11 139 -32l-15 -95c-43 23 -86 34 -129 34c-75 0 -126 -43 -134 -96l-7 -42h208l-13 -82h-208l-6 -37c-5 -29 -16 -50 -34 -61z" />
    <glyph glyph-name="uniF727" unicode="&#xf727;" horiz-adv-x="604" 
d="M277 196h-150l9 61h126l-142 234h120l106 -183l165 183h123l-220 -234h129l-9 -61h-150l-9 -54h150l-9 -60h-150l-13 -82h-107l13 82h-150l9 60h150z" />
    <glyph glyph-name="uniF730" unicode="&#xf730;" horiz-adv-x="623" 
d="M358 504c75 0 137 -23 184 -70c48 -46 72 -104 72 -175c0 -74 -26 -138 -79 -192c-53 -53 -118 -80 -197 -80c-75 0 -136 23 -183 70s-71 105 -71 175c0 74 26 138 79 191c53 54 118 81 195 81zM339 82c47 0 86 17 119 52s49 78 49 129c0 87 -60 146 -148 146
c-47 0 -86 -17 -119 -52s-49 -77 -49 -127c0 -88 61 -148 148 -148z" />
    <glyph glyph-name="uniF731" unicode="&#xf731;" horiz-adv-x="359" 
d="M287 0h-108l60 375l-166 -84l17 107l179 93h96z" />
    <glyph glyph-name="uniF732" unicode="&#xf732;" horiz-adv-x="570" 
d="M542 350c0 -91 -99 -176 -296 -254h286l-15 -96h-470l13 81c124 62 207 104 249 127c24 13 43 25 57 34c29 19 63 57 63 94c0 43 -38 68 -103 68c-69 0 -140 -25 -213 -76l17 105c69 47 141 71 218 71c57 0 104 -15 140 -44s54 -65 54 -110z" />
    <glyph glyph-name="uniF733" unicode="&#xf733;" horiz-adv-x="557" 
d="M556 410l-215 -176c51 -8 94 -28 129 -59c36 -31 54 -74 54 -130c0 -77 -28 -137 -84 -182c-55 -45 -125 -68 -208 -68c-90 0 -164 20 -221 60l17 104c57 -44 124 -66 201 -66c50 0 93 13 130 39c37 25 56 62 56 110c0 76 -63 119 -159 119c-29 0 -54 -4 -76 -13l11 74
l216 173h-290l16 96h436z" />
    <glyph glyph-name="uniF734" unicode="&#xf734;" horiz-adv-x="645" 
d="M468 -200h-108l32 200h-363l13 85l427 406h108l-62 -396h108l-14 -95h-109zM449 361l-280 -266h237z" />
    <glyph glyph-name="uniF735" unicode="&#xf735;" horiz-adv-x="576" 
d="M304 251c73 0 131 -20 175 -61c44 -40 66 -90 66 -149c0 -78 -29 -138 -88 -181c-58 -43 -131 -65 -218 -65c-86 0 -155 18 -208 55l16 105c57 -41 121 -62 192 -62c32 0 62 4 90 13c56 17 105 63 105 130c0 72 -63 127 -172 127c-49 0 -102 -8 -157 -24l98 352h366
l-14 -97h-283l-45 -150c26 5 52 7 77 7z" />
    <glyph glyph-name="uniF736" unicode="&#xf736;" horiz-adv-x="636" 
d="M412 452c61 0 110 -20 148 -59c39 -39 58 -87 58 -145c0 -74 -25 -136 -75 -186c-49 -50 -113 -75 -190 -75s-138 25 -183 75c-44 51 -66 116 -66 196c0 81 14 155 43 224s71 125 126 167c55 43 118 64 188 64c71 0 127 -17 168 -50l-16 -100c-41 34 -92 51 -151 51
c-60 0 -112 -24 -156 -71s-70 -104 -78 -171c45 53 106 80 184 80zM356 84c43 0 79 15 109 45c30 31 45 68 45 112c0 73 -53 125 -133 125c-33 0 -64 -11 -95 -33c-30 -21 -53 -48 -68 -80v-10c0 -43 12 -81 37 -112s60 -47 105 -47z" />
    <glyph glyph-name="uniF737" unicode="&#xf737;" horiz-adv-x="563" 
d="M188 -200h-118l391 593h-352l16 98h478l-14 -84z" />
    <glyph glyph-name="uniF738" unicode="&#xf738;" horiz-adv-x="635" 
d="M505 362c78 -32 117 -86 117 -161c0 -66 -27 -118 -81 -157c-53 -38 -122 -57 -207 -57c-42 0 -82 7 -121 21s-72 37 -100 68c-28 32 -42 70 -42 114c0 92 63 167 168 192c-58 29 -87 75 -87 136c0 58 24 105 72 141s105 54 172 54c61 0 116 -16 165 -48
c49 -31 74 -76 74 -134c0 -80 -51 -142 -130 -169zM393 621c-35 0 -67 -10 -95 -29c-27 -19 -41 -46 -41 -81c0 -31 13 -56 39 -75c27 -19 58 -28 93 -28s67 10 95 29c28 20 42 47 42 82c0 63 -60 102 -133 102zM509 208c0 33 -15 61 -46 83c-30 22 -68 33 -113 33
c-44 0 -82 -11 -115 -34c-32 -22 -48 -52 -48 -91c0 -36 16 -65 47 -87c32 -21 69 -32 112 -32s80 11 113 34s50 55 50 94z" />
    <glyph glyph-name="uniF739" unicode="&#xf739;" horiz-adv-x="635" 
d="M296 39c-61 0 -110 19 -149 58c-38 39 -57 88 -57 146c0 74 25 136 74 186c50 50 114 75 191 75s138 -25 182 -76c45 -50 67 -115 67 -195c5 -238 -146 -440 -357 -438c-71 0 -127 17 -168 50l16 100c41 -34 92 -51 151 -51c61 0 114 21 157 63c44 42 70 96 77 162
c-45 -53 -106 -80 -184 -80zM352 407c-43 0 -79 -15 -109 -46c-30 -30 -45 -67 -45 -111c0 -73 53 -125 133 -125c33 0 64 11 94 32c31 22 54 49 69 81v10c0 43 -13 81 -38 112s-59 47 -104 47z" />
    <glyph glyph-name="t.alt" horiz-adv-x="382" 
d="M99 161l74 473h108l-23 -143h155l-14 -95h-155l-34 -207c-4 -27 -6 -43 -6 -50c0 -35 23 -53 70 -53c25 0 50 6 74 18l-14 -92c-25 -17 -60 -25 -107 -25c-83 0 -135 39 -135 112c0 4 2 25 7 62z" />
    <glyph glyph-name="T_h" horiz-adv-x="1103" 
d="M128 599l16 101h643l-43 -270c49 49 109 74 179 74c101 0 165 -64 165 -163c0 -15 -3 -39 -8 -73l-42 -268h-108l40 249c4 23 6 42 6 57c0 63 -40 97 -100 97c-57 0 -115 -37 -148 -80l-52 -323h-108l95 599h-194l-95 -599h-110l95 599h-231z" />
    <glyph glyph-name="aring.alt" horiz-adv-x="641" 
d="M522 417l12 74h108l-77 -491h-109l10 64c-49 -51 -107 -77 -176 -77c-63 0 -114 22 -153 67s-58 99 -58 164c0 77 24 143 73 200s112 86 191 86c83 0 144 -39 179 -87zM329 82c59 0 123 37 154 86l24 155c-11 23 -30 43 -58 60c-27 17 -58 26 -91 26
c-47 0 -87 -17 -120 -52s-49 -77 -49 -128c0 -87 56 -147 140 -147zM479 579c-39 -39 -99 -39 -139 0c-39 39 -39 99 0 138c40 40 100 40 139 0c40 -39 40 -99 0 -138zM461 648c3 66 -105 66 -102 0c0 -27 23 -50 51 -50s51 23 51 50z" />
    <glyph glyph-name="atilde.alt" horiz-adv-x="641" 
d="M522 417l12 74h108l-77 -491h-109l10 64c-49 -51 -107 -77 -176 -77c-63 0 -114 22 -153 67s-58 99 -58 164c0 77 24 143 73 200s112 86 191 86c83 0 144 -39 179 -87zM329 82c59 0 123 37 154 86l24 155c-11 23 -30 43 -58 60c-27 17 -58 26 -91 26
c-47 0 -87 -17 -120 -52s-49 -77 -49 -128c0 -87 56 -147 140 -147zM542 707h58c-11 -69 -59 -123 -115 -123c-21 0 -44 9 -71 26c-26 17 -46 26 -60 26c-25 0 -42 -16 -52 -47h-59c13 72 58 123 117 123c20 0 43 -9 69 -26s46 -26 61 -26c25 0 43 16 52 47z" />
    <glyph glyph-name="f_j" 
d="M115 0l63 396h-92l15 95h92l9 59c15 99 79 160 180 160c43 0 80 -7 111 -21l-14 -91c-29 12 -56 18 -83 18c-64 0 -84 -38 -95 -125h335l-82 -520c-19 -117 -90 -176 -191 -176c-42 0 -74 7 -95 20l15 94c21 -13 44 -19 69 -19c35 0 59 11 71 32c13 21 24 60 33 116
l57 358h-227l-63 -396h-108zM536 647c0 39 31 69 68 69c39 0 68 -30 68 -69s-29 -68 -68 -68c-37 0 -68 31 -68 68z" />
    <glyph glyph-name="adieresis.alt" horiz-adv-x="641" 
d="M522 417l12 74h108l-77 -491h-109l10 64c-49 -51 -107 -77 -176 -77c-63 0 -114 22 -153 67s-58 99 -58 164c0 77 24 143 73 200s112 86 191 86c83 0 144 -39 179 -87zM329 82c59 0 123 37 154 86l24 155c-11 23 -30 43 -58 60c-27 17 -58 26 -91 26
c-47 0 -87 -17 -120 -52s-49 -77 -49 -128c0 -87 56 -147 140 -147zM264 605c-24 24 -24 62 0 85c24 24 62 24 85 0c23 -23 23 -61 0 -85c-23 -23 -61 -23 -85 0zM471 605c-24 24 -24 62 0 85c24 24 62 24 85 0c23 -23 23 -61 0 -85c-23 -23 -61 -23 -85 0z" />
    <glyph glyph-name="gcircumflex.alt" horiz-adv-x="605" 
d="M336 504c63 0 114 -18 154 -55l151 56l-8 -89l-96 -40c8 -23 12 -45 12 -66c0 -45 -14 -86 -41 -123c35 -42 53 -90 53 -144c0 -69 -26 -127 -78 -175c-52 -49 -117 -73 -194 -73c-73 0 -133 22 -180 66s-71 100 -72 169h105c7 -84 62 -140 150 -140c46 0 85 14 117 42
s48 65 48 110c0 32 -9 59 -27 80c-35 -18 -72 -27 -113 -27c-60 0 -111 17 -152 52s-61 83 -61 142c0 60 22 111 66 152c45 42 100 63 166 63zM319 183c35 0 65 12 90 37s37 56 37 91c0 60 -47 105 -112 105c-35 0 -65 -13 -90 -38s-37 -55 -37 -90c0 -60 47 -105 112 -105z
M304 575h-102l138 140h108l93 -140h-95l-58 86z" />
    <glyph glyph-name="f.alt01" horiz-adv-x="370" 
d="M242 396l-63 -396h-108l87 550c16 99 79 160 180 160c43 0 80 -7 111 -21l-14 -91c-29 12 -56 18 -83 18c-64 0 -84 -38 -95 -125h161l-15 -95h-161z" />
    <glyph glyph-name="gcommaaccent.alt" horiz-adv-x="605" 
d="M336 504c63 0 114 -18 154 -55l151 56l-8 -89l-96 -40c8 -23 12 -45 12 -66c0 -45 -14 -86 -41 -123c35 -42 53 -90 53 -144c0 -69 -26 -127 -78 -175c-52 -49 -117 -73 -194 -73c-73 0 -133 22 -180 66s-71 100 -72 169h105c7 -84 62 -140 150 -140c46 0 85 14 117 42
s48 65 48 110c0 32 -9 59 -27 80c-35 -18 -72 -27 -113 -27c-60 0 -111 17 -152 52s-61 83 -61 142c0 60 22 111 66 152c45 42 100 63 166 63zM319 183c35 0 65 12 90 37s37 56 37 91c0 60 -47 105 -112 105c-35 0 -65 -13 -90 -38s-37 -55 -37 -90c0 -60 47 -105 112 -105z
M302 566l81 191h82l-68 -191h-95z" />
    <glyph glyph-name="gdotaccent.alt" horiz-adv-x="605" 
d="M336 504c63 0 114 -18 154 -55l151 56l-8 -89l-96 -40c8 -23 12 -45 12 -66c0 -45 -14 -86 -41 -123c35 -42 53 -90 53 -144c0 -69 -26 -127 -78 -175c-52 -49 -117 -73 -194 -73c-73 0 -133 22 -180 66s-71 100 -72 169h105c7 -84 62 -140 150 -140c46 0 85 14 117 42
s48 65 48 110c0 32 -9 59 -27 80c-35 -18 -72 -27 -113 -27c-60 0 -111 17 -152 52s-61 83 -61 142c0 60 22 111 66 152c45 42 100 63 166 63zM319 183c35 0 65 12 90 37s37 56 37 91c0 60 -47 105 -112 105c-35 0 -65 -13 -90 -38s-37 -55 -37 -90c0 -60 47 -105 112 -105z
M302 648c0 33 27 61 62 61s62 -26 62 -61s-27 -62 -62 -62s-62 27 -62 62z" />
    <glyph glyph-name="gbreve.alt" horiz-adv-x="605" 
d="M336 504c63 0 114 -18 154 -55l151 56l-8 -89l-96 -40c8 -23 12 -45 12 -66c0 -45 -14 -86 -41 -123c35 -42 53 -90 53 -144c0 -69 -26 -127 -78 -175c-52 -49 -117 -73 -194 -73c-73 0 -133 22 -180 66s-71 100 -72 169h105c7 -84 62 -140 150 -140c46 0 85 14 117 42
s48 65 48 110c0 32 -9 59 -27 80c-35 -18 -72 -27 -113 -27c-60 0 -111 17 -152 52s-61 83 -61 142c0 60 22 111 66 152c45 42 100 63 166 63zM319 183c35 0 65 12 90 37s37 56 37 91c0 60 -47 105 -112 105c-35 0 -65 -13 -90 -38s-37 -55 -37 -90c0 -60 47 -105 112 -105z
M386 561c-39 0 -73 12 -100 36c-27 25 -41 57 -41 96c0 10 0 17 1 22h79c-1 -5 -1 -10 -1 -15c0 -37 26 -64 65 -64c41 0 74 30 83 79h81c-16 -96 -84 -154 -167 -154z" />
    <glyph glyph-name="f_f_t" horiz-adv-x="1095" 
d="M621 396l-63 -396h-108l63 396h-227l-63 -396h-108l63 396h-92l15 95h92l9 59c15 99 79 160 180 160c43 0 80 -7 111 -21l-14 -91c-29 12 -56 18 -83 18c-64 0 -84 -38 -95 -125h227l9 59c15 99 79 160 180 160c43 0 80 -7 111 -21l-14 -91c-29 12 -56 18 -83 18
c-64 0 -84 -38 -95 -125h227l23 143h108l-23 -143h155l-14 -95h-155l-34 -207c-4 -27 -6 -43 -6 -50c0 -35 23 -53 70 -53c25 0 50 6 74 18l-14 -92c-25 -17 -60 -25 -107 -25c-83 0 -135 39 -135 112c0 4 2 25 7 62l37 235h-228z" />
    <glyph glyph-name="amacron.alt" horiz-adv-x="641" 
d="M522 417l12 74h108l-77 -491h-109l10 64c-49 -51 -107 -77 -176 -77c-63 0 -114 22 -153 67s-58 99 -58 164c0 77 24 143 73 200s112 86 191 86c83 0 144 -39 179 -87zM329 82c59 0 123 37 154 86l24 155c-11 23 -30 43 -58 60c-27 17 -58 26 -91 26
c-47 0 -87 -17 -120 -52s-49 -77 -49 -128c0 -87 56 -147 140 -147zM258 609l11 74h317l-13 -74h-315z" />
    <glyph glyph-name="aogonek.alt" horiz-adv-x="641" 
d="M522 417l12 74h108l-77 -491c-33 -31 -49 -59 -49 -86c0 -29 21 -47 54 -47c13 0 26 2 39 7l-11 -66c-14 -5 -33 -7 -56 -7c-67 0 -106 37 -106 86c0 41 20 79 60 113h-40l10 64c-49 -51 -107 -77 -176 -77c-63 0 -114 22 -153 67s-58 99 -58 164c0 77 24 143 73 200
s112 86 191 86c83 0 144 -39 179 -87zM329 82c59 0 123 37 154 86l24 155c-11 23 -30 43 -58 60c-27 17 -58 26 -91 26c-47 0 -87 -17 -120 -52s-49 -77 -49 -128c0 -87 56 -147 140 -147z" />
    <glyph glyph-name="abreve.alt" horiz-adv-x="641" 
d="M522 417l12 74h108l-77 -491h-109l10 64c-49 -51 -107 -77 -176 -77c-63 0 -114 22 -153 67s-58 99 -58 164c0 77 24 143 73 200s112 86 191 86c83 0 144 -39 179 -87zM329 82c59 0 123 37 154 86l24 155c-11 23 -30 43 -58 60c-27 17 -58 26 -91 26
c-47 0 -87 -17 -120 -52s-49 -77 -49 -128c0 -87 56 -147 140 -147zM419 561c-39 0 -73 12 -100 36c-27 25 -41 57 -41 96c0 10 0 17 1 22h79c-1 -5 -1 -10 -1 -15c0 -37 26 -64 65 -64c41 0 74 30 83 79h81c-16 -96 -84 -154 -167 -154z" />
    <glyph glyph-name="uni041D_uni0418" horiz-adv-x="1240" 
d="M197 0h-110l111 700h110l-44 -276h365l44 276h110l-81 -514l466 514h96l-111 -700h-110l82 516l-469 -516h-94l51 323h-365z" />
    <glyph glyph-name="Q.alt02" horiz-adv-x="845" 
d="M492 713c102 0 184 -31 246 -94s93 -143 93 -241c0 -105 -34 -195 -103 -270c-68 -75 -153 -115 -256 -120c26 -8 58 -21 97 -39c67 -29 119 -44 157 -44c25 0 47 5 64 16l-16 -102c-18 -9 -42 -13 -71 -13c-47 0 -104 16 -172 48c-65 30 -115 45 -152 45
c-63 0 -115 -17 -157 -51l16 113c31 20 68 33 111 39c-73 19 -130 58 -172 116s-63 127 -63 206c0 109 36 201 108 277c73 76 163 114 270 114zM454 90c75 0 137 28 188 83s76 124 76 205c0 66 -21 121 -63 165c-42 45 -97 67 -166 67c-75 0 -137 -28 -187 -83
s-75 -123 -75 -204c0 -67 21 -122 62 -167c42 -44 97 -66 165 -66z" />
    <glyph glyph-name="uniF721.mono" 
d="M169 170h-52l9 59h431l-9 -59h-255c-24 -12 -36 -27 -36 -45c0 -31 49 -48 113 -48c46 0 94 7 145 22l-15 -91c-42 -14 -91 -21 -147 -21c-41 0 -83 5 -132 20c-48 15 -82 49 -82 96c0 25 10 47 30 67zM133 273l9 58h262c19 11 28 25 28 41c0 29 -37 43 -110 43
c-47 0 -94 -7 -139 -22l15 91c43 15 91 23 146 23c44 0 85 -5 130 -21c45 -15 76 -48 76 -95c0 -24 -8 -44 -24 -60h47l-9 -58h-431z" />
    <glyph glyph-name="uni20B4.mono" 
d="M497 546c0 45 -43 68 -129 68c-59 0 -113 -10 -162 -31l15 102c47 19 103 28 169 28c63 0 117 -13 161 -38s66 -62 66 -111c0 -38 -17 -72 -51 -101h70l-12 -74h-498l12 74h300c39 23 59 51 59 83zM241 160c0 -49 45 -73 135 -73c66 0 124 12 174 36l-16 -103
c-55 -22 -114 -33 -177 -33c-41 0 -78 4 -112 13c-67 19 -124 68 -124 139c0 47 22 88 67 123h-82l11 74h498l-11 -74h-278c-57 -29 -85 -63 -85 -102z" />
    <glyph glyph-name="uni041F_uni0418" horiz-adv-x="1224" 
d="M197 0h-110l111 700h569l-81 -514l466 514h96l-111 -700h-110l82 516l-469 -516h-94l95 599h-349z" />
    <glyph glyph-name="aacute.alt" horiz-adv-x="641" 
d="M522 417l12 74h108l-77 -491h-109l10 64c-49 -51 -107 -77 -176 -77c-63 0 -114 22 -153 67s-58 99 -58 164c0 77 24 143 73 200s112 86 191 86c83 0 144 -39 179 -87zM329 82c59 0 123 37 154 86l24 155c-11 23 -30 43 -58 60c-27 17 -58 26 -91 26
c-47 0 -87 -17 -120 -52s-49 -77 -49 -128c0 -87 56 -147 140 -147zM432 575h-99l118 140h135z" />
    <glyph glyph-name="cyrbreve.cap" horiz-adv-x="562" 
d="M219 906h92c-1 -3 -1 -8 -1 -14c0 -41 27 -68 74 -68c52 0 91 34 98 82h92c-9 -50 -31 -90 -67 -120s-79 -45 -128 -45c-93 0 -161 53 -161 137c0 13 0 22 1 28z" />
    <glyph glyph-name="acircumflex.alt" horiz-adv-x="641" 
d="M522 417l12 74h108l-77 -491h-109l10 64c-49 -51 -107 -77 -176 -77c-63 0 -114 22 -153 67s-58 99 -58 164c0 77 24 143 73 200s112 86 191 86c83 0 144 -39 179 -87zM329 82c59 0 123 37 154 86l24 155c-11 23 -30 43 -58 60c-27 17 -58 26 -91 26
c-47 0 -87 -17 -120 -52s-49 -77 -49 -128c0 -87 56 -147 140 -147zM330 575h-102l138 140h108l93 -140h-95l-58 86z" />
    <glyph glyph-name="idieresis_idieresis" horiz-adv-x="531" 
d="M195 0h-109l78 491h109zM445 0h-109l78 491h109zM94 605c-24 24 -24 62 0 85c24 24 62 24 85 0c23 -23 23 -61 0 -85c-23 -23 -61 -23 -85 0zM326 605c-24 24 -24 62 0 85c24 24 62 24 85 0c23 -23 23 -61 0 -85c-23 -23 -61 -23 -85 0zM557 605c-24 24 -24 62 0 85
c24 24 62 24 85 0c23 -23 23 -61 0 -85c-23 -23 -61 -23 -85 0z" />
    <glyph glyph-name="uni043F_uni0438" horiz-adv-x="977" 
d="M185 0h-108l77 491h458l-52 -332l317 332h101l-77 -491h-108l52 333l-317 -333h-101l62 396h-242z" />
    <glyph glyph-name="Q.alt01" horiz-adv-x="839" 
d="M492 713c102 0 184 -31 246 -94s93 -143 93 -241c0 -108 -36 -200 -108 -276l68 -102h-111l-29 43c-61 -37 -127 -56 -200 -56c-101 0 -183 31 -245 94c-61 63 -92 144 -92 241c0 109 36 201 108 277c73 76 163 114 270 114zM454 90c51 0 97 14 139 41l-135 203h111
l92 -138c38 52 57 113 57 182c0 66 -21 121 -63 165c-42 45 -97 67 -166 67c-75 0 -137 -28 -187 -83s-75 -123 -75 -204c0 -67 21 -122 62 -167c42 -44 97 -66 165 -66z" />
    <glyph glyph-name="uni0418_uni0419" horiz-adv-x="1246" 
d="M181 0h-94l111 700h110l-81 -514l466 514h96l-81 -514l466 514h96l-111 -700h-110l82 516l-469 -516h-94l82 516zM826 906h92c-1 -3 -1 -8 -1 -14c0 -41 27 -68 74 -68c52 0 91 34 98 82h92c-9 -50 -31 -90 -67 -120s-79 -45 -128 -45c-93 0 -161 53 -161 137
c0 13 0 22 1 28z" />
    <glyph glyph-name="Euro.mono" 
d="M69 242l12 78h75c0 27 3 54 8 82h-69l12 78h78c27 73 72 130 133 171s132 62 211 62c71 0 131 -16 178 -48l-20 -103c-46 33 -99 49 -158 49c-103 0 -184 -46 -227 -131h234l-12 -78h-249c-5 -23 -7 -51 -7 -82h242l-12 -78h-223c24 -104 104 -153 211 -153
c69 0 126 18 172 54l-17 -112c-45 -29 -103 -44 -173 -44c-77 0 -143 22 -200 65c-57 44 -92 107 -106 190h-93z" />
    <glyph glyph-name="tilde.cap" horiz-adv-x="514" 
d="M515 891h59c-11 -69 -59 -123 -115 -123c-21 0 -45 9 -72 26c-26 18 -46 27 -60 27c-24 0 -41 -16 -51 -47h-59c12 72 59 122 116 122c21 0 44 -9 70 -26s46 -26 60 -26c25 0 43 16 52 47z" />
    <glyph glyph-name="uni0438_uni0439" horiz-adv-x="993" 
d="M178 0h-101l77 491h108l-52 -332l317 332h101l-52 -332l317 332h101l-77 -491h-108l52 333l-317 -333h-101l52 333zM616 722h90c-1 -5 -1 -9 -1 -14c0 -41 26 -68 73 -68c48 0 84 33 92 82h92c-17 -101 -92 -165 -191 -165c-91 0 -157 53 -157 136c0 7 1 17 2 29z" />
    <glyph glyph-name="circumflex.cap" horiz-adv-x="517" 
d="M304 762h-100l140 140h108l92 -140h-98l-57 86z" />
    <glyph glyph-name="dieresis.cap" horiz-adv-x="505" 
d="M425 831c0 35 27 62 62 62s61 -27 61 -62s-28 -62 -61 -62s-62 29 -62 62zM274 769c-35 0 -62 29 -62 62c-4 54 71 83 105 44c40 -35 9 -110 -43 -106z" />
    <glyph glyph-name="franc.mono" 
d="M130 128h-107l13 80h107l78 492h496l-16 -100h-386l-29 -185h307l-16 -99h-307l-17 -108h161l-13 -80h-161l-20 -128h-110z" />
    <glyph glyph-name="macron.cap" horiz-adv-x="537" 
d="M538 793h-281l13 77h281z" />
    <glyph glyph-name="acute.cap" horiz-adv-x="470" 
d="M319 762h-99l118 140h135z" />
    <glyph glyph-name="grave.cap" horiz-adv-x="511" 
d="M275 902h133l72 -140h-97z" />
    <glyph glyph-name="uni0438_uni043D" horiz-adv-x="984" 
d="M178 0h-101l77 491h108l-52 -332l317 332h101l-30 -192h249l30 192h108l-77 -491h-108l32 204h-249l-32 -204h-108l52 333z" />
    <glyph glyph-name="ring.cap" horiz-adv-x="426" 
d="M320 735c-55 0 -99 43 -99 98s44 99 99 99c53 0 98 -46 98 -99s-45 -98 -98 -98zM320 783c27 0 50 22 50 50s-23 51 -50 51c-66 3 -66 -105 0 -101z" />
    <glyph glyph-name="caron.cap" horiz-adv-x="535" 
d="M479 902h100l-140 -140h-108l-92 140h98l57 -86z" />
    <glyph glyph-name="dotaccent.cap" horiz-adv-x="445" 
d="M281 831c0 33 27 61 62 61s62 -26 62 -61s-27 -63 -62 -63s-62 28 -62 63z" />
    <glyph glyph-name="breve.cap" horiz-adv-x="516" 
d="M379 748c-79 0 -140 53 -140 132c0 10 0 17 1 22h79c0 -3 -1 -9 -1 -12c0 -40 25 -67 62 -67c41 0 77 34 86 79h81c-17 -93 -85 -154 -168 -154z" />
    <glyph glyph-name="hungarumlaut.cap" horiz-adv-x="538" 
d="M476 762h-99l118 140h135zM271 762h-99l118 140h135z" />
    <glyph glyph-name="sterling.mono" 
d="M122 289l14 89h77l18 110c24 145 123 225 274 225c64 0 116 -13 157 -39l-16 -104c-38 27 -84 40 -137 40c-96 0 -158 -52 -173 -148l-13 -84h249l-14 -89h-249l-20 -126c-5 -31 -17 -52 -36 -64h331l-16 -99h-491l15 99h17c24 0 42 11 51 22c5 5 9 14 13 25
c8 24 9 32 13 60l13 83h-77z" />
    <glyph glyph-name="t_t" horiz-adv-x="771" 
d="M153 161l37 235h-105l15 95h104l23 143h108l-23 -143h227l23 143h108l-23 -143h155l-14 -95h-155l-34 -207c-4 -27 -6 -43 -6 -50c0 -35 23 -53 70 -53c25 0 50 6 74 18l-14 -92c-25 -17 -60 -25 -107 -25c-83 0 -135 39 -135 112c0 4 2 25 7 62l37 235h-227l-34 -207
c-4 -27 -6 -43 -6 -50c0 -35 23 -53 70 -53c25 0 50 6 74 18l-14 -92c-25 -17 -60 -25 -107 -25c-83 0 -135 39 -135 112c0 4 2 25 7 62z" />
    <glyph glyph-name="dollar.mono" 
d="M368 -11l-15 -100h-108l15 102c-88 11 -154 35 -197 71l18 115c23 -23 59 -44 108 -62c49 -17 98 -26 147 -26c66 0 172 26 172 115c0 51 -59 83 -132 104c-105 29 -244 69 -242 193c0 63 23 113 68 149s103 57 173 62l16 99h108l-17 -103c65 -9 117 -27 158 -54
l-17 -108c-65 43 -140 65 -224 65c-87 0 -152 -33 -152 -98c0 -44 59 -72 132 -93c106 -27 245 -72 243 -202c0 -66 -24 -119 -73 -160c-48 -40 -108 -63 -181 -69z" />
    <glyph glyph-name="lira.mono" 
d="M297 217l-8 -54c-5 -31 -17 -52 -36 -64h331l-16 -99h-491l15 99h17c24 0 42 11 51 22c5 5 9 14 13 25c8 24 9 32 13 60l2 11h-77l12 76h77l13 82h-77l12 76h77l6 37c24 145 123 225 274 225c64 0 116 -13 157 -39l-16 -104c-38 27 -84 40 -137 40
c-96 0 -158 -52 -173 -148l-2 -11h222l-12 -76h-222l-13 -82h222l-12 -76h-222z" />
    <glyph glyph-name="peseta.mono" 
d="M151 543l25 157h290c124 0 202 -62 213 -157h76l-14 -91h-70c-15 -49 -45 -89 -90 -118s-97 -43 -158 -43h-202l-46 -291h-110l71 452h-84l14 91h85zM237 388h193c76 0 140 43 140 119c0 60 -39 94 -114 94h-186z" />
    <glyph glyph-name="yen.mono" 
d="M71 134l12 79h203l13 83h-202l12 78h166l-166 326h123l138 -283l230 283h128l-270 -326h167l-13 -78h-203l-13 -83h203l-13 -79h-203l-20 -134h-110l20 134h-202z" />
    <glyph glyph-name="uni0418_uni041D" horiz-adv-x="1240" 
d="M181 0h-94l111 700h110l-81 -514l466 514h96l-44 -276h365l44 276h110l-111 -700h-110l51 323h-365l-51 -323h-110l82 516z" />
    </font>
</defs>
</svg>
