<?xml version="1.0" standalone="no"?>
<!DOCTYPE svg PUBLIC "-//W3C//DTD SVG 1.1//EN" "http://www.w3.org/Graphics/SVG/1.1/DTD/svg11.dtd" >
<svg xmlns="http://www.w3.org/2000/svg" xmlns:xlink="http://www.w3.org/1999/xlink" version="1.1">
<metadata>
Created by FontForge 20170910 at Wed Dec 11 00:49:36 2013
 By Jimmy Wärting
Copyright (c) 2012 by Vyacheslav Kirilenko, Gayane Bagdasaryan. All rights reserved.
</metadata>
<defs>
<font id="Geometria" horiz-adv-x="637" >
  <font-face 
    font-family="Geometria"
    font-weight="400"
    font-stretch="normal"
    units-per-em="1000"
    panose-1="2 11 5 3 2 2 4 2 2 4"
    ascent="776"
    descent="-224"
    x-height="483"
    cap-height="700"
    bbox="-426 -231 1436 926"
    underline-thickness="50"
    underline-position="-100"
    unicode-range="U+0020-FB04"
  />
<missing-glyph horiz-adv-x="711" 
d="M525 0h-439v700h439v-700zM144 649v-598h323v598h-323z" />
    <glyph glyph-name="ij" unicode="ij" horiz-adv-x="527" 
d="M168 0h-72v483h72v-483zM96 613c-19 20 -19 52 0 72c20 20 52 20 72 0s20 -52 0 -72c-20 -19 -52 -19 -72 0zM287 -204c-35 0 -64 6 -85 18v66c22 -13 45 -19 70 -19c57 0 85 32 85 97v525h72v-536c0 -104 -58 -151 -142 -151zM357 613c-19 20 -19 52 0 72
c20 20 52 20 72 0s20 -52 0 -72c-20 -19 -52 -19 -72 0z" />
    <glyph glyph-name="f_f" unicode="ff" horiz-adv-x="699" 
d="M195 420v-420h-72v420h-96v63h96v81c0 88 49 144 138 144c40 0 74 -6 102 -19v-66c-31 13 -59 20 -84 20c-56 0 -84 -31 -84 -93v-67h236v81c0 88 49 144 138 144c40 0 74 -6 102 -19v-66c-31 13 -59 20 -84 20c-56 0 -84 -31 -84 -93v-67h168v-63h-168v-420h-72v420
h-236z" />
    <glyph glyph-name="fi" unicode="fi" horiz-adv-x="601" 
d="M195 550v-67h308v-483h-72v420h-236v-420h-72v420h-96v63h96v81c0 88 49 144 138 144c40 0 74 -6 102 -19v-66c-31 13 -59 20 -84 20c-56 0 -84 -31 -84 -93zM431 613c-19 20 -19 52 0 72c20 20 52 20 72 0s20 -52 0 -72c-20 -19 -52 -19 -72 0z" />
    <glyph glyph-name="fl" unicode="fl" horiz-adv-x="638" 
d="M542 -12c-63 0 -111 34 -111 119v313h-236v-420h-72v420h-96v63h96v81c0 88 49 144 138 144c40 0 74 -6 102 -19v-66c-31 13 -59 20 -84 20c-56 0 -84 -31 -84 -93v-67h236v217h72v-576c0 -47 21 -71 63 -71c16 0 32 4 47 13v-64c-17 -9 -40 -14 -71 -14z" />
    <glyph glyph-name="f_f_i" unicode="ffi" horiz-adv-x="903" 
d="M195 420v-420h-72v420h-96v63h96v81c0 88 49 144 138 144c40 0 74 -6 102 -19v-66c-31 13 -59 20 -84 20c-56 0 -84 -31 -84 -93v-67h236v81c0 88 49 144 138 144c40 0 74 -6 102 -19v-66c-31 13 -59 20 -84 20c-56 0 -84 -31 -84 -93v-67h308v-483h-72v420h-236v-420
h-72v420h-236zM811 612c-19 -19 -53 -19 -72 0c-19 20 -19 54 0 73c19 20 53 20 72 0c20 -19 20 -53 0 -73z" />
    <glyph glyph-name="f_f_l" unicode="ffl" horiz-adv-x="946" 
d="M195 420v-420h-72v420h-96v63h96v81c0 88 49 144 138 144c40 0 74 -6 102 -19v-66c-31 13 -59 20 -84 20c-56 0 -84 -31 -84 -93v-67h236v81c0 88 49 144 138 144c40 0 74 -6 102 -19v-66c-31 13 -59 20 -84 20c-56 0 -84 -31 -84 -93v-67h236v217h72v-576
c0 -47 21 -71 63 -71c16 0 32 4 47 13v-64c-17 -9 -40 -14 -71 -14c-63 0 -111 34 -111 119v313h-236v-420h-72v420h-236z" />
    <glyph glyph-name=".notdef" horiz-adv-x="711" 
d="M525 0h-439v700h439v-700zM144 649v-598h323v598h-323z" />
    <glyph glyph-name="NULL" horiz-adv-x="0" 
 />
    <glyph glyph-name="CR" horiz-adv-x="333" 
 />
    <glyph glyph-name="space" unicode=" " horiz-adv-x="264" 
 />
    <glyph glyph-name="exclam" unicode="!" horiz-adv-x="285" 
d="M177 215h-67l-13 485h93zM106 9c-20 20 -20 54 0 74s54 20 74 0s20 -54 0 -74s-54 -20 -74 0z" />
    <glyph glyph-name="quotedbl" unicode="&#x22;" horiz-adv-x="359" 
d="M119 447h-64v253h64v-253zM304 447h-64v253h64v-253z" />
    <glyph glyph-name="numbersign" unicode="#" horiz-adv-x="728" 
d="M211 0h-61l30 189h-145l10 61h144l32 199h-145l10 61h144l31 190h61l-30 -190h195l30 190h61l-30 -190h145l-10 -61h-144l-32 -199h145l-10 -61h-145l-30 -189h-61l30 189h-195zM282 449l-31 -199h195l31 199h-195z" />
    <glyph glyph-name="dollar" unicode="$" horiz-adv-x="627" 
d="M343 -10v-103l-74 1v102c-93 6 -166 30 -221 72v83c27 -23 63 -44 109 -62c47 -17 95 -26 145 -26c109 0 189 51 189 132c5 44 -28 77 -58 95c-8 6 -22 13 -42 20l-44 15c-10 3 -28 9 -53 16c-31 9 -56 16 -74 22s-39 14 -62 25s-40 23 -52 35c-24 25 -44 65 -44 114
c0 97 76 168 207 179v103h74v-103c67 -6 127 -25 179 -56v-76c-69 43 -141 65 -216 65c-112 0 -169 -50 -169 -114c-5 -35 23 -62 45 -79c6 -5 17 -10 33 -16l34 -13l43 -12l42 -12c29 -9 52 -16 69 -22s38 -15 61 -27s41 -25 54 -38c27 -25 49 -69 49 -120
c0 -57 -21 -104 -64 -139c-42 -35 -95 -55 -160 -61z" />
    <glyph glyph-name="percent" unicode="%" horiz-adv-x="826" 
d="M240 0h-63l410 700h63zM215 712c49 0 89 -16 121 -49c32 -32 48 -72 48 -119s-16 -87 -48 -120s-72 -49 -121 -49c-48 0 -88 16 -120 49c-31 33 -47 73 -47 120s16 87 47 119c32 33 72 49 120 49zM324 544c0 64 -46 113 -109 113s-108 -49 -108 -113
c0 -65 44 -114 108 -114s109 49 109 114zM610 325c49 0 89 -16 120 -49c32 -33 48 -73 48 -120s-16 -87 -48 -120c-31 -32 -71 -48 -120 -48c-48 0 -88 16 -120 48c-31 33 -47 73 -47 120s16 87 47 120c32 33 72 49 120 49zM532 75c20 -21 46 -32 78 -32s58 11 78 32
s30 48 30 81s-10 60 -31 81c-20 22 -46 33 -77 33s-57 -11 -78 -33c-20 -21 -30 -48 -30 -81s10 -60 30 -81z" />
    <glyph glyph-name="ampersand" unicode="&#x26;" horiz-adv-x="713" 
d="M499 659v-75c-55 42 -110 63 -165 63c-79 0 -129 -43 -129 -111c0 -18 4 -36 12 -53c9 -17 17 -30 24 -39s19 -21 35 -37l239 -233c36 55 56 122 60 201h72c-5 -98 -33 -181 -82 -250l128 -125h-96l-76 74c-61 -57 -135 -86 -222 -86c-71 0 -131 19 -180 58
c-48 39 -72 93 -72 163c0 50 14 92 41 126c27 35 58 59 91 74c-32 37 -48 79 -48 127c0 51 18 93 55 126s83 50 138 50c67 0 126 -18 175 -53zM303 53c66 0 122 23 169 68l-246 240c-56 -17 -105 -75 -105 -152c0 -96 75 -156 182 -156z" />
    <glyph glyph-name="quotesingle" unicode="'" horiz-adv-x="174" 
d="M119 447h-64v253h64v-253z" />
    <glyph glyph-name="parenleft" unicode="(" horiz-adv-x="362" 
d="M320 -212h-77c-99 126 -149 278 -149 456s50 330 149 456h77c-104 -135 -156 -287 -156 -456s52 -321 156 -456z" />
    <glyph glyph-name="parenright" unicode=")" horiz-adv-x="362" 
d="M119 -212h-77c104 135 156 287 156 456s-52 321 -156 456h77c99 -126 149 -278 149 -456s-50 -330 -149 -456z" />
    <glyph glyph-name="asterisk" unicode="*" horiz-adv-x="426" 
d="M241 341h-55l3 137l-117 -71l-28 47l120 67l-120 66l28 48l117 -72l-3 137h55l-3 -137l117 72l28 -48l-121 -66l121 -67l-28 -47l-117 71z" />
    <glyph glyph-name="plus" unicode="+" horiz-adv-x="619" 
d="M342 87h-65v205h-207v67h207v206h65v-206h207v-67h-207v-205z" />
    <glyph glyph-name="comma" unicode="," horiz-adv-x="236" 
d="M73 -152h-58l80 255h84z" />
    <glyph glyph-name="hyphen" unicode="-" horiz-adv-x="481" 
d="M381 238h-281v67h281v-67z" />
    <glyph glyph-name="period" unicode="." horiz-adv-x="236" 
d="M81 9c-20 20 -20 54 0 74s54 20 74 0s20 -54 0 -74s-54 -20 -74 0z" />
    <glyph glyph-name="slash" unicode="/" horiz-adv-x="511" 
d="M80 -140h-75l421 932h75z" />
    <glyph glyph-name="zero" unicode="0" horiz-adv-x="708" 
d="M67 350c0 102 26 188 79 257c53 70 123 105 208 105s154 -35 207 -104s79 -155 79 -258s-26 -189 -79 -258s-122 -104 -207 -104s-155 35 -208 104s-79 155 -79 258zM567 350c0 83 -20 153 -60 209s-91 84 -153 84s-113 -28 -153 -84s-60 -126 -60 -209
c0 -84 20 -154 59 -210c40 -55 91 -83 154 -83s114 28 153 83c40 56 60 126 60 210z" />
    <glyph glyph-name="one" unicode="1" horiz-adv-x="373" 
d="M264 0h-73v620l-157 -90v71l165 99h65v-700z" />
    <glyph glyph-name="two" unicode="2" horiz-adv-x="575" 
d="M521 0h-477v55l236 225c52 49 88 88 109 119s32 66 32 105c0 83 -64 139 -159 139c-73 0 -141 -31 -202 -94v83c59 53 128 80 209 80c65 0 118 -18 161 -55s65 -85 65 -144c0 -47 -12 -90 -35 -128c-23 -37 -63 -83 -120 -137l-188 -181h369v-67z" />
    <glyph glyph-name="three" unicode="3" horiz-adv-x="571" 
d="M245 -12c-82 0 -150 17 -204 51v77c56 -39 123 -59 200 -59c53 0 99 15 138 44c39 30 59 70 59 121c0 96 -74 159 -190 159c-27 0 -53 -3 -78 -10v51l216 211h-316v67h416v-55l-209 -205c61 -1 116 -22 163 -62c48 -40 72 -92 72 -156c0 -69 -26 -126 -77 -169
s-114 -65 -190 -65z" />
    <glyph glyph-name="four" unicode="4" horiz-adv-x="633" 
d="M484 0h-72v193h-376v59l377 448h71v-440h116v-67h-116v-193zM412 602l-290 -342h290v342z" />
    <glyph glyph-name="five" unicode="5" horiz-adv-x="597" 
d="M255 -12c-75 0 -140 15 -193 46v74c55 -34 119 -51 191 -51c59 0 108 15 147 46s58 70 58 118c0 93 -78 160 -199 160c-58 0 -114 -10 -168 -29l46 348h346v-67h-290l-28 -202c33 9 70 13 111 13c73 0 134 -21 183 -63c49 -41 73 -95 73 -160c0 -69 -26 -125 -79 -168
s-119 -65 -198 -65z" />
    <glyph glyph-name="six" unicode="6" horiz-adv-x="641" 
d="M336 -12c-82 0 -147 29 -194 86c-47 58 -71 139 -71 242c-4 218 114 397 304 396c57 0 107 -14 148 -43v-71c-44 30 -91 45 -142 45c-166 0 -235 -151 -238 -299c37 63 110 104 205 104c63 0 117 -21 160 -63c44 -41 66 -95 66 -160c0 -69 -23 -125 -69 -170
c-45 -45 -102 -67 -169 -67zM332 57c48 0 88 16 120 47c33 32 49 72 49 121c0 48 -16 86 -49 115s-73 43 -122 43c-41 0 -79 -13 -114 -39s-58 -58 -71 -97c12 -120 78 -190 187 -190z" />
    <glyph glyph-name="seven" unicode="7" horiz-adv-x="553" 
d="M180 0h-78l320 633h-377v67h462v-55z" />
    <glyph glyph-name="eight" unicode="8" horiz-adv-x="645" 
d="M438 369c92 -24 150 -89 150 -178c0 -61 -25 -111 -76 -148s-114 -55 -190 -55c-75 0 -139 18 -190 55s-76 87 -76 148c0 89 59 154 151 178c-71 29 -116 85 -116 160c0 54 22 98 66 132s99 51 165 51c67 0 122 -17 166 -51s66 -78 66 -132c0 -75 -45 -131 -116 -160z
M161 523c0 -37 15 -67 46 -90s69 -34 115 -34c93 0 162 51 162 124c0 37 -16 68 -47 91s-69 35 -115 35s-84 -12 -115 -35s-46 -54 -46 -91zM322 51c55 0 100 14 137 41c37 28 56 62 56 103c0 42 -18 76 -55 102s-83 39 -138 39s-100 -13 -137 -39s-55 -60 -55 -102
c0 -41 18 -75 55 -103c37 -27 83 -41 137 -41z" />
    <glyph glyph-name="nine" unicode="9" horiz-adv-x="641" 
d="M309 712c82 0 147 -29 194 -87c47 -57 71 -138 71 -241c4 -218 -114 -398 -304 -396c-57 0 -107 14 -148 43v71c44 -30 91 -45 142 -45c166 0 235 151 238 299c-37 -63 -110 -104 -205 -104c-63 0 -117 21 -161 62c-43 42 -65 96 -65 161c0 69 23 125 68 170
c46 45 103 67 170 67zM313 643c-48 0 -88 -16 -121 -48c-32 -31 -48 -71 -48 -120c0 -48 16 -86 49 -115s73 -43 122 -43c41 0 79 13 114 39s58 58 71 97c-12 120 -78 190 -187 190z" />
    <glyph glyph-name="colon" unicode=":" horiz-adv-x="236" 
d="M81 381c-20 20 -20 54 0 74s54 20 74 0s20 -54 0 -74s-54 -20 -74 0zM81 9c-20 20 -20 54 0 74s54 20 74 0s20 -54 0 -74s-54 -20 -74 0z" />
    <glyph glyph-name="semicolon" unicode=";" horiz-adv-x="242" 
d="M73 -152h-58l80 255h84zM96 381c-20 20 -20 54 0 74s54 20 74 0s20 -54 0 -74s-54 -20 -74 0z" />
    <glyph glyph-name="less" unicode="&#x3c;" horiz-adv-x="619" 
d="M549 157v-72l-479 204v68l479 205v-72l-401 -167z" />
    <glyph glyph-name="equal" unicode="=" horiz-adv-x="619" 
d="M549 406h-479v66h479v-66zM549 178h-479v66h479v-66z" />
    <glyph glyph-name="greater" unicode="&#x3e;" horiz-adv-x="619" 
d="M549 289l-479 -204v72l401 166l-401 167v72l479 -205v-68z" />
    <glyph glyph-name="question" unicode="?" horiz-adv-x="476" 
d="M245 215h-70v145c47 9 89 28 125 56c37 28 55 61 55 100c0 77 -64 127 -152 127c-59 0 -116 -20 -172 -59v68c50 37 111 56 183 56c60 0 111 -17 152 -52c42 -35 63 -80 63 -137c0 -48 -18 -89 -53 -122s-79 -58 -131 -75v-107zM175 9c-20 20 -20 54 0 74s54 20 74 0
s20 -54 0 -74s-54 -20 -74 0z" />
    <glyph glyph-name="at" unicode="@" horiz-adv-x="962" 
d="M482 -162c-120 0 -222 42 -306 126c-84 83 -126 187 -126 311c0 123 42 227 126 311s186 126 306 126c122 0 224 -40 307 -119s124 -177 124 -292c0 -69 -16 -126 -47 -171c-31 -44 -72 -66 -124 -66c-62 0 -103 26 -124 78c-29 -41 -88 -80 -160 -80
c-58 0 -106 21 -143 62s-56 91 -56 150s19 109 56 150s85 62 142 62c62 0 112 -24 151 -72v57h70v-271c0 -69 30 -104 79 -104c37 0 67 19 91 57s36 88 36 149c0 105 -37 195 -112 270c-74 75 -171 113 -290 113c-115 0 -211 -40 -288 -120c-77 -79 -115 -176 -115 -290
c0 -115 38 -212 114 -291c77 -79 173 -119 289 -119c75 0 144 17 208 52v-30c-62 -33 -131 -49 -208 -49zM476 125c55 0 107 34 132 79v140c-25 45 -77 79 -132 79c-41 0 -76 -14 -104 -43c-27 -29 -41 -64 -41 -106s14 -77 41 -106c28 -29 63 -43 104 -43z" />
    <glyph glyph-name="A" unicode="A" horiz-adv-x="753" 
d="M107 0h-77l312 704h69l313 -704h-78l-87 193h-367zM376 611l-159 -353h318z" />
    <glyph glyph-name="B" unicode="B" horiz-adv-x="726" 
d="M433 0h-334v700h303c124 0 201 -65 201 -170c0 -73 -35 -127 -92 -148c92 -15 152 -84 152 -187c0 -117 -87 -195 -230 -195zM173 339v-272h247c104 0 164 50 164 137c0 85 -60 135 -164 135h-247zM173 633v-229h217c89 0 140 40 140 113c0 75 -51 116 -140 116h-217z
" />
    <glyph glyph-name="C" unicode="C" horiz-adv-x="690" 
d="M429 -12c-103 0 -188 34 -257 102c-68 68 -102 155 -102 260s34 191 102 259c69 69 154 103 257 103c76 0 141 -17 196 -52v-76c-61 39 -126 59 -195 59c-81 0 -148 -28 -203 -84c-55 -55 -82 -125 -82 -209c0 -85 27 -155 82 -210s124 -83 205 -83s150 23 208 70v-77
c-57 -41 -127 -62 -211 -62z" />
    <glyph glyph-name="D" unicode="D" horiz-adv-x="778" 
d="M328 0h-229v700h229c113 0 204 -32 274 -97s105 -149 105 -253s-35 -188 -105 -253s-161 -97 -274 -97zM173 633v-566h146c97 0 173 26 229 77s84 120 84 206s-28 155 -84 206s-132 77 -229 77h-146z" />
    <glyph glyph-name="E" unicode="E" horiz-adv-x="640" 
d="M594 0h-495v700h480v-67h-406v-224h333v-67h-333v-275h421v-67z" />
    <glyph glyph-name="F" unicode="F" horiz-adv-x="622" 
d="M173 0h-74v700h477v-67h-403v-233h327v-67h-327v-333z" />
    <glyph glyph-name="G" unicode="G" horiz-adv-x="780" 
d="M427 -12c-101 0 -186 34 -255 102c-68 68 -102 155 -102 260s34 191 102 259c69 69 154 103 257 103c88 0 162 -22 222 -67v-75c-65 49 -137 73 -218 73c-82 0 -151 -28 -206 -83s-82 -126 -82 -211s27 -155 81 -210c55 -55 122 -82 201 -82c84 0 150 24 199 73v272h73
v-301c-60 -67 -159 -113 -272 -113z" />
    <glyph glyph-name="H" unicode="H" horiz-adv-x="761" 
d="M173 0h-74v700h74v-291h416v291h74v-700h-74v342h-416v-342z" />
    <glyph glyph-name="I" unicode="I" horiz-adv-x="281" 
d="M178 0h-74v700h74v-700z" />
    <glyph glyph-name="J" unicode="J" horiz-adv-x="507" 
d="M196 -12c-65 0 -119 15 -160 45v77c39 -35 88 -53 147 -53c107 0 161 56 161 169v474h74v-487c0 -152 -83 -225 -222 -225z" />
    <glyph glyph-name="K" unicode="K" horiz-adv-x="661" 
d="M99 700h74v-304l324 304h98l-344 -320l397 -380h-104l-371 356v-356h-74v700z" />
    <glyph glyph-name="L" unicode="L" horiz-adv-x="597" 
d="M564 0h-465v700h74v-633h391v-67z" />
    <glyph glyph-name="M" unicode="M" horiz-adv-x="848" 
d="M172 0h-73v700h73l253 -339l253 339h72v-700h-73v588l-229 -306h-45l-231 306v-588z" />
    <glyph glyph-name="N" unicode="N" horiz-adv-x="775" 
d="M171 0h-72v700h64l442 -572v572h72v-700h-63l-443 574v-574z" />
    <glyph glyph-name="O" unicode="O" horiz-adv-x="845" 
d="M170 608c67 69 151 104 252 104s184 -35 251 -104s101 -155 101 -258s-34 -190 -101 -259s-150 -103 -251 -103s-185 34 -252 103s-100 156 -100 259s33 189 100 258zM225 141c53 -56 119 -84 197 -84s144 28 197 84s80 126 80 209s-27 153 -80 209s-119 84 -197 84
s-144 -28 -197 -84s-80 -126 -80 -209s27 -153 80 -209z" />
    <glyph glyph-name="P" unicode="P" horiz-adv-x="665" 
d="M173 0h-74v700h294c140 0 224 -78 224 -194c0 -119 -84 -197 -224 -197h-220v-309zM173 633v-257h215c99 0 156 47 156 128c0 83 -57 129 -156 129h-215z" />
    <glyph glyph-name="Q" unicode="Q" horiz-adv-x="845" 
d="M774 350c0 -81 -22 -153 -65 -215s-101 -105 -172 -129c44 -43 87 -64 130 -64c32 0 60 8 83 23v-72c-27 -13 -57 -20 -92 -20c-25 0 -51 6 -77 19c-25 12 -46 25 -63 39c-17 13 -38 33 -64 58c-7 -1 -18 -1 -32 -1c-101 0 -185 34 -252 103s-100 156 -100 259
s33 189 100 258s151 104 252 104s184 -35 251 -104s101 -155 101 -258zM225 141c53 -56 119 -84 197 -84s144 28 197 84s80 126 80 209s-27 153 -80 209s-119 84 -197 84s-144 -28 -197 -84s-80 -126 -80 -209s27 -153 80 -209z" />
    <glyph glyph-name="R" unicode="R" horiz-adv-x="736" 
d="M173 0h-74v700h313c137 0 221 -75 221 -190c0 -99 -61 -171 -165 -188l226 -322h-87l-220 315h-214v-315zM173 633v-251h235c96 0 151 45 151 125s-56 126 -151 126h-235z" />
    <glyph glyph-name="S" unicode="S" horiz-adv-x="628" 
d="M307 -12c-104 0 -202 31 -259 74v83c27 -23 63 -44 109 -62c47 -17 95 -26 145 -26c109 0 189 51 189 132c5 44 -28 77 -58 95c-8 6 -22 13 -42 20l-44 15c-10 3 -28 9 -53 16c-31 9 -56 16 -74 22s-39 14 -62 25s-40 23 -52 35c-24 25 -44 65 -44 114c0 53 21 96 64 130
s102 51 178 51c83 0 156 -19 218 -58v-76c-69 43 -141 65 -216 65c-112 0 -169 -50 -169 -114c-5 -35 23 -62 45 -79c6 -5 17 -10 33 -16l34 -13l43 -12l42 -12c29 -9 52 -16 69 -22s38 -15 61 -27s41 -25 54 -38c27 -25 49 -69 49 -120c0 -63 -25 -112 -76 -148
c-50 -36 -111 -54 -184 -54z" />
    <glyph glyph-name="T" unicode="T" horiz-adv-x="630" 
d="M351 0h-74v633h-241v67h559v-67h-244v-633z" />
    <glyph glyph-name="U" unicode="U" horiz-adv-x="748" 
d="M374 -12c-85 0 -154 27 -207 81s-79 130 -79 229v402h74v-403c0 -152 81 -240 212 -240s212 88 212 240v403h74v-402c0 -99 -27 -175 -80 -229s-121 -81 -206 -81z" />
    <glyph glyph-name="V" unicode="V" horiz-adv-x="754" 
d="M411 -4h-69l-308 704h81l262 -602l262 602h81z" />
    <glyph glyph-name="W" unicode="W" horiz-adv-x="1053" 
d="M346 -4h-65l-242 704h82l195 -583l181 586h60l182 -586l194 583h80l-241 -704h-65l-180 578z" />
    <glyph glyph-name="X" unicode="X" horiz-adv-x="708" 
d="M116 0h-87l281 380l-235 320h87l193 -260l194 260h85l-235 -319l281 -381h-88l-238 321z" />
    <glyph glyph-name="Y" unicode="Y" horiz-adv-x="664" 
d="M369 0h-74v321l-272 379h86l224 -310l224 310h84l-272 -378v-322z" />
    <glyph glyph-name="Z" unicode="Z" horiz-adv-x="642" 
d="M593 0h-544v53l429 580h-405v67h504v-52l-425 -581h441v-67z" />
    <glyph glyph-name="bracketleft" unicode="[" horiz-adv-x="388" 
d="M348 -206h-253v912h253v-61h-183v-790h183v-61z" />
    <glyph glyph-name="backslash" unicode="\" horiz-adv-x="510" 
d="M506 -140h-75l-421 932h75z" />
    <glyph glyph-name="bracketright" unicode="]" horiz-adv-x="389" 
d="M40 706h253v-912h-253v61h183v790h-183v61z" />
    <glyph glyph-name="asciicircum" unicode="^" horiz-adv-x="517" 
d="M124 346h-70l170 371h69l170 -371h-69l-135 303z" />
    <glyph glyph-name="underscore" unicode="_" horiz-adv-x="620" 
d="M612 -129h-604v56h604v-56z" />
    <glyph glyph-name="grave" unicode="`" horiz-adv-x="524" 
d="M352 576h-69l-118 134h91z" />
    <glyph glyph-name="a" unicode="a" horiz-adv-x="594" 
d="M248 53c69 0 133 37 168 81v67c-49 32 -102 48 -157 48c-88 0 -143 -37 -143 -97c0 -65 57 -99 132 -99zM228 -12c-51 0 -95 14 -131 42c-35 29 -53 68 -53 118c0 49 19 88 56 117c38 29 85 43 142 43c63 0 121 -16 174 -47v48c0 81 -53 121 -159 121
c-57 0 -109 -16 -158 -49v70c47 29 104 44 173 44c129 0 216 -62 216 -179v-199c0 -37 18 -60 46 -60c11 0 20 2 28 6v-56c-10 -7 -26 -11 -48 -11c-47 0 -83 25 -91 77c-49 -57 -114 -85 -195 -85z" />
    <glyph glyph-name="b" unicode="b" horiz-adv-x="636" 
d="M85 0v700h72v-294c45 59 107 89 187 89c71 0 130 -25 175 -74s68 -109 68 -180c0 -70 -23 -130 -68 -179s-104 -74 -175 -74c-80 0 -142 30 -187 89v-77h-72zM157 321v-159c29 -63 97 -109 170 -109c53 0 98 18 133 54s53 81 53 134s-18 98 -53 134
c-35 37 -80 55 -133 55c-73 0 -142 -45 -170 -109z" />
    <glyph glyph-name="c" unicode="c" horiz-adv-x="524" 
d="M307 -12c-73 0 -135 24 -184 72c-49 49 -73 109 -73 182c0 72 25 132 74 180c49 49 111 73 184 73c56 0 105 -12 146 -35v-67c-44 25 -89 37 -136 37c-55 0 -102 -18 -139 -54c-37 -35 -55 -80 -55 -135c0 -54 18 -99 55 -135c37 -35 84 -53 139 -53c54 0 102 14 145 42
v-66c-45 -27 -97 -41 -156 -41z" />
    <glyph glyph-name="d" unicode="d" 
d="M480 406v294h72v-700h-72v77c-45 -59 -107 -89 -187 -89c-71 0 -130 25 -175 74s-68 109 -68 179c0 71 23 131 68 180s104 74 175 74c80 0 142 -30 187 -89zM480 162v159c-28 64 -97 109 -170 109c-53 0 -98 -18 -133 -55c-35 -36 -53 -81 -53 -134s18 -98 53 -134
s80 -54 133 -54c73 0 141 46 170 109z" />
    <glyph glyph-name="e" unicode="e" horiz-adv-x="571" 
d="M316 -12c-75 0 -139 24 -190 71s-76 108 -76 182c0 73 23 133 68 181c46 49 105 73 177 73c162 0 226 -142 226 -251v-20h-397c8 -104 90 -171 206 -171c56 0 108 15 155 45v-64c-40 -31 -96 -46 -169 -46zM125 283h323c-2 37 -16 71 -42 101c-25 31 -63 46 -114 46
c-49 0 -88 -15 -118 -44c-29 -29 -46 -63 -49 -103z" />
    <glyph glyph-name="f" unicode="f" horiz-adv-x="391" 
d="M195 420v-420h-72v420h-96v63h96v81c0 88 49 144 138 144c40 0 74 -6 102 -19v-66c-31 13 -59 20 -84 20c-56 0 -84 -31 -84 -93v-67h168v-63h-168z" />
    <glyph glyph-name="g" unicode="g" horiz-adv-x="636" 
d="M480 31v51c-43 -57 -105 -86 -187 -86c-71 0 -130 24 -175 72c-45 49 -68 108 -68 177s23 128 68 177s104 73 175 73c83 0 145 -29 187 -86v74h72v-452c0 -76 -25 -134 -75 -174c-49 -41 -112 -61 -187 -61c-73 0 -136 15 -187 44v70c55 -33 115 -49 180 -49
c116 0 197 55 197 170zM480 167v157c-27 63 -95 106 -170 106c-53 0 -98 -18 -133 -53s-53 -79 -53 -132s18 -97 53 -132s80 -52 133 -52c75 0 143 43 170 106z" />
    <glyph glyph-name="h" unicode="h" horiz-adv-x="610" 
d="M157 326v-326h-72v700h72v-291c51 57 115 86 193 86c120 0 184 -74 184 -201v-294h-72v278c0 127 -78 149 -137 149c-33 0 -65 -10 -97 -31c-31 -20 -55 -43 -71 -70z" />
    <glyph glyph-name="i" unicode="i" horiz-adv-x="266" 
d="M168 0h-72v483h72v-483zM96 613c-19 20 -19 52 0 72c20 20 52 20 72 0s20 -52 0 -72c-20 -19 -52 -19 -72 0z" />
    <glyph glyph-name="j" unicode="j" horiz-adv-x="266" 
d="M26 -204c-36 0 -64 6 -85 18v66c22 -13 45 -19 70 -19c57 0 85 32 85 97v525h72v-536c0 -104 -58 -151 -142 -151zM96 613c-19 20 -19 52 0 72c20 20 52 20 72 0s20 -52 0 -72c-20 -19 -52 -19 -72 0z" />
    <glyph glyph-name="k" unicode="k" horiz-adv-x="541" 
d="M85 700h72v-416l230 199h98l-255 -218l291 -265h-103l-261 238v-238h-72v700z" />
    <glyph glyph-name="l" unicode="l" horiz-adv-x="292" 
d="M196 -12c-63 0 -111 34 -111 119v593h72v-576c0 -47 21 -71 63 -71c16 0 32 4 47 13v-64c-17 -9 -40 -14 -71 -14z" />
    <glyph glyph-name="m" unicode="m" horiz-adv-x="919" 
d="M157 0h-72v483h72v-72c40 56 98 84 174 84c79 0 135 -36 155 -95c36 56 102 95 186 95c108 0 171 -69 171 -194v-301h-72v285c0 95 -40 142 -120 142c-61 0 -124 -48 -153 -104c1 -27 2 -45 2 -54v-269h-72v285c0 95 -40 142 -120 142c-29 0 -57 -10 -86 -30
c-28 -19 -50 -43 -65 -70v-327z" />
    <glyph glyph-name="n" unicode="n" horiz-adv-x="610" 
d="M157 326v-326h-72v483h72v-74c51 57 115 86 193 86c120 0 184 -74 184 -201v-294h-72v278c0 127 -78 149 -137 149c-33 0 -65 -10 -97 -31c-31 -20 -55 -43 -71 -70z" />
    <glyph glyph-name="o" unicode="o" horiz-adv-x="621" 
d="M123 420c49 50 111 75 188 75s139 -25 188 -75c49 -49 73 -109 73 -179s-24 -130 -73 -179s-111 -74 -188 -74s-139 25 -188 74s-73 109 -73 179s24 130 73 179zM498 241c0 54 -18 99 -53 135s-80 54 -134 54s-99 -18 -134 -54s-53 -81 -53 -135c0 -53 18 -98 53 -134
s80 -54 134 -54s99 18 134 54s53 81 53 134z" />
    <glyph glyph-name="p" unicode="p" horiz-adv-x="636" 
d="M157 77v-277h-72v683h72v-77c45 59 107 89 187 89c71 0 130 -25 175 -74s68 -109 68 -179c0 -71 -23 -131 -68 -180s-104 -74 -175 -74c-80 0 -142 30 -187 89zM157 321v-159c28 -64 97 -109 170 -109c53 0 98 18 133 54c35 37 53 82 53 135s-18 98 -53 134
s-80 54 -133 54c-73 0 -141 -46 -170 -109z" />
    <glyph glyph-name="q" unicode="q" 
d="M552 483v-683h-72v277c-45 -59 -107 -89 -187 -89c-71 0 -130 25 -175 74s-68 109 -68 180c0 70 23 130 68 179s104 74 175 74c80 0 142 -30 187 -89v77h72zM480 162v159c-29 63 -97 109 -170 109c-53 0 -98 -18 -133 -54s-53 -81 -53 -134s18 -98 53 -135
c35 -36 80 -54 133 -54c73 0 142 45 170 109z" />
    <glyph glyph-name="r" unicode="r" horiz-adv-x="369" 
d="M157 0h-72v483h72v-92c36 63 113 104 192 104v-73c-22 0 -42 -3 -60 -9c-64 -16 -112 -61 -132 -108v-305z" />
    <glyph glyph-name="s" unicode="s" horiz-adv-x="509" 
d="M249 -12c-80 0 -160 23 -200 50v74c58 -39 124 -59 198 -59c83 0 133 29 133 77c0 26 -14 39 -34 51c-9 7 -39 15 -51 18c-6 2 -17 5 -33 8c-15 4 -26 7 -33 8c-115 29 -169 63 -169 146s71 134 194 134c73 0 131 -14 176 -43v-71c-55 33 -113 49 -173 49
c-83 0 -124 -28 -124 -71c0 -23 14 -43 37 -54c16 -5 20 -9 39 -14l22 -6c9 -3 40 -10 48 -11c111 -27 175 -62 175 -145c0 -43 -19 -78 -58 -103c-38 -25 -87 -38 -147 -38z" />
    <glyph glyph-name="t" unicode="t" horiz-adv-x="430" 
d="M277 -12c-92 0 -136 58 -136 149v283h-114v63h114v149h72v-149h169v-63h-169v-261c0 -38 6 -65 19 -80s35 -23 65 -23s56 7 79 20v-66c-21 -15 -54 -22 -99 -22z" />
    <glyph glyph-name="u" unicode="u" horiz-adv-x="611" 
d="M454 157v326h72v-483h-72v74c-51 -57 -115 -86 -193 -86c-120 0 -184 74 -184 201v294h72v-278c0 -127 78 -149 137 -149c33 0 65 10 96 30c32 21 56 44 72 71z" />
    <glyph glyph-name="v" unicode="v" horiz-adv-x="567" 
d="M316 -3h-66l-222 486h81l176 -389l175 389h78z" />
    <glyph glyph-name="w" unicode="w" horiz-adv-x="819" 
d="M274 -3h-63l-173 486h74l135 -376l132 378h61l133 -378l134 376h73l-173 -486h-63l-136 379z" />
    <glyph glyph-name="x" unicode="x" horiz-adv-x="554" 
d="M116 0h-83l203 255l-179 228h85l138 -172l138 172h84l-180 -226l203 -257h-85l-161 202z" />
    <glyph glyph-name="y" unicode="y" horiz-adv-x="555" 
d="M112 -204c-35 0 -61 5 -77 14v67c21 -11 43 -16 66 -16c60 0 98 48 143 157l-215 465h80l171 -380l166 380h78l-239 -537c-43 -100 -101 -150 -173 -150z" />
    <glyph glyph-name="z" unicode="z" horiz-adv-x="504" 
d="M465 0h-427v48l308 372h-287v63h390v-50l-307 -370h323v-63z" />
    <glyph glyph-name="braceleft" unicode="{" horiz-adv-x="363" 
d="M327 -206h-57c-87 0 -138 51 -138 139v152c0 40 -2 60 -11 88c-9 29 -31 44 -66 48v58c35 4 57 18 66 46s11 47 11 87v155c0 88 51 139 138 139h57v-61h-41c-56 0 -84 -29 -84 -86v-165c0 -77 -16 -124 -69 -144c53 -20 69 -67 69 -144v-165c0 -57 28 -86 84 -86h41v-61z
" />
    <glyph glyph-name="bar" unicode="|" horiz-adv-x="306" 
d="M184 -111h-62v871h62v-871z" />
    <glyph glyph-name="braceright" unicode="}" horiz-adv-x="363" 
d="M93 -206h-57v61h41c56 0 84 29 84 86v165c0 77 16 124 69 144c-53 20 -69 67 -69 144v165c0 57 -28 86 -84 86h-41v61h57c87 0 138 -51 138 -139v-155c0 -40 2 -59 11 -87s31 -42 66 -46v-58c-35 -4 -57 -19 -66 -48c-9 -28 -11 -48 -11 -88v-152
c0 -88 -51 -139 -138 -139z" />
    <glyph glyph-name="asciitilde" unicode="~" horiz-adv-x="585" 
d="M409 200c-28 0 -67 8 -117 25c-49 17 -88 25 -116 25c-45 0 -80 -15 -106 -44v70c19 25 54 38 106 38c29 0 68 -8 117 -25s88 -25 116 -25c45 0 81 14 106 43v-69c-18 -25 -53 -38 -106 -38z" />
    <glyph glyph-name="nbspace" unicode="&#xa0;" horiz-adv-x="264" 
 />
    <glyph glyph-name="exclamdown" unicode="&#xa1;" horiz-adv-x="284" 
d="M108 269h67l13 -469h-93zM105 400c-20 20 -20 54 0 74s54 20 74 0s20 -54 0 -74s-54 -20 -74 0z" />
    <glyph glyph-name="cent" unicode="&#xa2;" horiz-adv-x="524" 
d="M275 493v107h63v-106c44 -4 83 -15 116 -34v-67c-44 25 -89 37 -136 37c-55 0 -102 -18 -139 -54c-37 -35 -55 -80 -55 -135c0 -54 18 -99 55 -135c37 -35 84 -53 139 -53c54 0 102 14 145 42v-66c-39 -23 -80 -36 -125 -40v-106h-63v107c-65 7 -119 34 -162 81
c-42 47 -63 104 -63 171c0 66 21 122 63 169s96 75 162 82z" />
    <glyph glyph-name="sterling" unicode="&#xa3;" horiz-adv-x="580" 
d="M530 0h-470v67h20c41 0 52 33 52 86v142h-72v67h72v124c0 143 85 226 229 226c64 0 118 -14 163 -43v-73c-44 31 -95 47 -153 47c-107 0 -165 -59 -165 -167v-114h274v-67h-274v-173c0 -25 -8 -44 -24 -55h348v-67z" />
    <glyph glyph-name="currency" unicode="&#xa4;" horiz-adv-x="563" 
d="M485 351c0 -47 -13 -88 -40 -124l65 -65l-41 -39l-66 64c-35 -28 -76 -42 -123 -42c-45 0 -86 14 -123 42l-65 -64l-40 39l64 65c-27 36 -40 77 -40 124s13 88 40 123l-64 65l40 40l65 -64c37 28 78 42 123 42c47 0 88 -14 123 -42l66 64l41 -40l-66 -65
c27 -35 41 -76 41 -123zM178 248c28 -28 62 -42 102 -42s74 14 102 42c28 29 42 63 42 103s-14 74 -42 102c-28 29 -62 43 -102 43s-74 -14 -102 -43c-27 -28 -41 -62 -41 -102s14 -74 41 -103z" />
    <glyph glyph-name="yen" unicode="&#xa5;" horiz-adv-x="629" 
d="M351 0h-74v141h-209v63h209v93h-209v63h184l-229 340h86l207 -312l207 312h83l-229 -340h184v-63h-210v-93h210v-63h-210v-141z" />
    <glyph glyph-name="brokenbar" unicode="&#xa6;" horiz-adv-x="306" 
d="M184 -111h-62v353h62v-353zM184 407h-62v353h62v-353z" />
    <glyph glyph-name="section" unicode="&#xa7;" horiz-adv-x="645" 
d="M469 114c53 -30 80 -69 80 -118c0 -91 -85 -153 -228 -153c-78 0 -150 18 -217 54v77c75 -41 148 -62 221 -62c92 0 149 35 149 88c0 28 -18 46 -42 61c-13 9 -49 22 -66 27c-8 3 -22 8 -41 13l-43 14c-144 45 -219 94 -219 185c0 67 45 116 114 141
c-53 30 -80 69 -80 118c0 91 85 153 228 153c78 0 150 -18 217 -54v-77c-75 41 -148 62 -221 62c-93 0 -150 -35 -150 -88c-4 -26 21 -47 42 -61c13 -8 50 -22 66 -27l42 -14l43 -13c143 -47 219 -94 219 -185c0 -67 -45 -116 -114 -141zM274 187l48 -15l83 -27
c64 13 109 52 109 103c0 38 -27 62 -59 83c-9 7 -23 13 -41 20c-17 7 -32 13 -43 16l-47 16l-83 27c-64 -13 -109 -52 -109 -103c0 -39 27 -61 59 -84c9 -6 23 -13 40 -20z" />
    <glyph glyph-name="dieresis" unicode="&#xa8;" horiz-adv-x="524" 
d="M132 612c-19 19 -19 50 0 67c19 19 47 19 66 0c19 -17 19 -48 0 -67c-19 -17 -47 -17 -66 0zM332 612c-19 19 -19 50 0 67c19 19 47 19 66 0c19 -17 19 -48 0 -67c-19 -17 -47 -17 -66 0z" />
    <glyph glyph-name="copyright" unicode="&#xa9;" horiz-adv-x="865" 
d="M431 15c93 0 172 33 237 98s97 144 97 237s-32 172 -97 237c-64 65 -143 98 -236 98s-171 -33 -236 -99c-65 -65 -97 -144 -97 -237s32 -172 96 -237c65 -65 143 -97 236 -97zM70 351c0 99 35 184 106 255s156 106 256 106c101 0 186 -35 256 -106
c71 -71 106 -156 106 -257c0 -99 -35 -184 -106 -255s-156 -106 -257 -106s-186 35 -256 106s-105 156 -105 257zM455 155c-55 0 -102 19 -140 56c-38 38 -57 84 -57 139s19 101 56 138c38 37 85 56 141 56c39 0 72 -8 101 -25v-57c-30 19 -64 29 -101 29
c-39 0 -71 -13 -98 -40c-26 -27 -39 -60 -39 -101s13 -74 39 -101c27 -27 60 -40 100 -40c42 0 78 12 109 36v-58c-31 -21 -68 -32 -111 -32z" />
    <glyph glyph-name="ordfeminine" unicode="&#xaa;" horiz-adv-x="516" 
d="M347 429v51c-37 24 -77 36 -120 36c-67 0 -108 -28 -108 -73c0 -49 43 -75 100 -75c52 0 101 28 128 61zM438 371c9 0 16 1 21 4v-44c-8 -5 -20 -8 -37 -8c-35 0 -63 20 -70 59c-38 -43 -87 -65 -148 -65c-79 0 -141 46 -141 123c0 76 65 122 152 122
c47 0 91 -12 132 -35v36c0 61 -41 91 -122 91c-43 0 -83 -12 -121 -37v54c38 23 82 34 133 34c99 0 166 -47 166 -136v-153c0 -30 12 -45 35 -45z" />
    <glyph glyph-name="guillemotleft" unicode="&#xab;" horiz-adv-x="550" 
d="M273 40h-75l-151 183v37l151 183h75l-164 -202zM504 40h-77l-151 183v37l151 183h77l-164 -202z" />
    <glyph glyph-name="logicalnot" unicode="&#xac;" horiz-adv-x="568" 
d="M498 152h-66v171h-362v66h428v-237z" />
    <glyph glyph-name="uni00AD" unicode="&#xad;" horiz-adv-x="481" 
d="M381 238h-281v67h281v-67z" />
    <glyph glyph-name="registered" unicode="&#xae;" horiz-adv-x="865" 
d="M351 168h-57v375h171c77 0 124 -42 124 -106c0 -52 -31 -90 -83 -102l119 -167h-65l-115 162h-94v-162zM351 494v-117h112c43 0 68 21 68 58c0 39 -23 59 -68 59h-112zM431 15c93 0 172 33 237 98s97 144 97 237s-32 172 -97 237c-64 65 -143 98 -236 98
s-171 -33 -236 -99c-65 -65 -97 -144 -97 -237s32 -172 96 -237c65 -65 143 -97 236 -97zM70 351c0 99 35 184 106 255s156 106 256 106c101 0 186 -35 256 -106c71 -71 106 -156 106 -257c0 -99 -35 -184 -106 -255s-156 -106 -257 -106s-186 35 -256 106
s-105 156 -105 257z" />
    <glyph glyph-name="overscore" unicode="&#xaf;" horiz-adv-x="518" 
d="M384 618h-252v55h252v-55z" />
    <glyph glyph-name="degree" unicode="&#xb0;" horiz-adv-x="428" 
d="M115 560c0 -55 44 -100 99 -100s99 45 99 100c0 56 -44 101 -99 101s-99 -45 -99 -101zM106 667c31 30 67 45 108 45s77 -15 107 -45c31 -30 46 -66 46 -107s-15 -77 -46 -107c-30 -29 -66 -44 -107 -44s-77 15 -108 44c-30 30 -45 66 -45 107s15 77 45 107z" />
    <glyph glyph-name="plusminus" unicode="&#xb1;" horiz-adv-x="619" 
d="M342 194h-65v169h-207v66h207v172h65v-172h207v-66h-207v-169zM549 54h-479v65h479v-65z" />
    <glyph glyph-name="twosuperior" unicode="&#xb2;" horiz-adv-x="359" 
d="M312 322h-268v46l121 110c51 47 71 74 71 109c0 36 -29 60 -73 60c-38 0 -74 -14 -109 -43v63c33 25 71 38 114 38c36 0 67 -10 93 -31s39 -47 39 -80c0 -52 -25 -91 -84 -144l-78 -75h174v-53z" />
    <glyph glyph-name="threesuperior" unicode="&#xb3;" horiz-adv-x="327" 
d="M142 317c-47 0 -86 10 -116 29v58c37 -21 74 -32 111 -32c51 0 92 29 92 74c0 41 -32 69 -87 69c-19 0 -36 -3 -50 -8v41l105 99h-157v53h238v-47l-101 -96c61 -5 116 -42 116 -113c0 -38 -15 -69 -44 -92s-64 -35 -107 -35z" />
    <glyph glyph-name="acute" unicode="&#xb4;" horiz-adv-x="496" 
d="M249 576h-70l96 134h92z" />
    <glyph glyph-name="mu" unicode="&#xb5;" horiz-adv-x="619" 
d="M462 157v326h72v-483h-72v74c-51 -57 -115 -86 -193 -86c-44 0 -81 10 -112 30v-218h-72v683h72v-278c0 -127 78 -149 137 -149c33 0 65 10 96 30c32 21 56 44 72 71z" />
    <glyph glyph-name="paragraph" unicode="&#xb6;" horiz-adv-x="525" 
d="M427 0h-74v316h-84c-139 0 -221 77 -221 192c0 116 82 192 221 192h158v-700z" />
    <glyph glyph-name="middot" unicode="&#xb7;" horiz-adv-x="236" 
d="M81 344c-20 20 -20 54 0 74s54 20 74 0s20 -54 0 -74s-54 -20 -74 0z" />
    <glyph glyph-name="cedilla" unicode="&#xb8;" horiz-adv-x="482" 
d="M225 -132h-87l97 138h61z" />
    <glyph glyph-name="onesuperior" unicode="&#xb9;" horiz-adv-x="244" 
d="M190 322h-63v312l-104 -58v63l106 61h61v-378z" />
    <glyph glyph-name="ordmasculine" unicode="&#xba;" horiz-adv-x="466" 
d="M135 411c26 -27 59 -40 98 -40s72 13 98 40c27 27 40 61 40 100s-13 72 -40 99c-26 27 -59 41 -98 41s-72 -13 -98 -40s-39 -60 -39 -100s13 -73 39 -100zM33 511c0 54 19 100 56 137c37 38 85 57 144 57s107 -19 144 -57c37 -37 56 -83 56 -137c0 -55 -19 -101 -56 -138
s-85 -56 -144 -56s-107 19 -144 56s-56 83 -56 138z" />
    <glyph glyph-name="guillemotright" unicode="&#xbb;" horiz-adv-x="549" 
d="M276 443h75l151 -183v-37l-151 -183h-75l164 202zM45 443h77l151 -183v-37l-151 -183h-77l164 202z" />
    <glyph glyph-name="onequarter" unicode="&#xbc;" horiz-adv-x="745" 
d="M181 0h-69l413 700h68zM190 322h-63v312l-104 -58v63l106 61h61v-378zM664 0h-61v98h-197v45l196 235h62v-229h59v-51h-59v-98zM603 303l-130 -154h130v154z" />
    <glyph glyph-name="onehalf" unicode="&#xbd;" horiz-adv-x="802" 
d="M181 0h-69l413 700h68zM190 322h-63v312l-104 -58v63l106 61h61v-378zM755 0h-268v46l121 110c51 47 71 74 71 109c0 36 -29 60 -73 60c-38 0 -74 -14 -109 -43v63c33 25 71 38 114 38c36 0 67 -10 93 -31s39 -47 39 -80c0 -52 -25 -91 -84 -144l-78 -75h174v-53z" />
    <glyph glyph-name="threequarters" unicode="&#xbe;" horiz-adv-x="794" 
d="M142 317c-47 0 -86 10 -116 29v58c37 -21 74 -32 111 -32c51 0 92 29 92 74c0 41 -32 69 -87 69c-19 0 -36 -3 -50 -8v41l105 99h-157v53h238v-47l-101 -96c61 -5 116 -42 116 -113c0 -38 -15 -69 -44 -92s-64 -35 -107 -35zM713 0h-61v98h-197v45l196 235h62v-229h59
v-51h-59v-98zM652 303l-130 -154h130v154zM231 0h-69l413 700h68z" />
    <glyph glyph-name="questiondown" unicode="&#xbf;" horiz-adv-x="476" 
d="M231 269h70v-132c-48 -10 -90 -28 -126 -55c-36 -26 -54 -58 -54 -97c0 -76 63 -123 152 -123c60 0 117 19 172 58v-68c-50 -37 -111 -56 -183 -56c-60 0 -111 17 -153 52c-41 34 -62 79 -62 135c0 96 79 160 184 193v93zM264 489c29 0 52 -23 52 -52s-23 -52 -52 -52
c-28 0 -51 23 -51 52s23 52 51 52z" />
    <glyph glyph-name="Agrave" unicode="&#xc0;" horiz-adv-x="753" 
d="M107 0h-77l312 704h69l313 -704h-78l-87 193h-367zM376 611l-159 -353h318zM412 763h-70l-118 133h92z" />
    <glyph glyph-name="Aacute" unicode="&#xc1;" horiz-adv-x="753" 
d="M107 0h-77l312 704h69l313 -704h-78l-87 193h-367zM376 611l-159 -353h318zM414 763h-69l95 133h92z" />
    <glyph glyph-name="Acircumflex" unicode="&#xc2;" horiz-adv-x="753" 
d="M107 0h-77l312 704h69l313 -704h-78l-87 193h-367zM376 611l-159 -353h318zM300 763h-71l111 133h72l111 -133h-71l-76 92z" />
    <glyph glyph-name="Atilde" unicode="&#xc3;" horiz-adv-x="753" 
d="M107 0h-77l312 704h69l313 -704h-78l-87 193h-367zM376 611l-159 -353h318zM447 772c-19 0 -43 9 -74 28s-52 29 -64 29c-25 0 -38 -18 -41 -53h-49c3 63 36 110 87 110c19 0 43 -9 74 -28s53 -28 64 -28c27 0 34 19 41 52h49c-1 -64 -35 -110 -87 -110z" />
    <glyph glyph-name="Adieresis" unicode="&#xc4;" horiz-adv-x="753" 
d="M107 0h-77l312 704h69l313 -704h-78l-87 193h-367zM376 611l-159 -353h318zM244 794c-19 19 -19 50 0 67c19 19 47 19 66 0c19 -17 19 -48 0 -67c-19 -17 -47 -17 -66 0zM444 794c-19 19 -19 50 0 67c19 19 47 19 66 0c19 -17 19 -48 0 -67c-19 -17 -47 -17 -66 0z" />
    <glyph glyph-name="Aring" unicode="&#xc5;" horiz-adv-x="753" 
d="M107 0h-77l312 704h69l313 -704h-78l-87 193h-367zM376 611l-159 -353h318zM377 926c52 0 95 -43 95 -96s-43 -96 -95 -96c-53 0 -97 43 -97 96s44 96 97 96zM377 774c31 0 55 25 55 56c0 32 -24 56 -55 56c-32 0 -57 -24 -57 -56c0 -31 25 -56 57 -56z" />
    <glyph glyph-name="AE" unicode="&#xc6;" horiz-adv-x="1029" 
d="M983 0h-490v193h-285l-118 -193h-82l429 700h532v-67h-402v-224h329v-67h-329v-275h416v-67zM493 633h-15l-231 -375h246v375z" />
    <glyph glyph-name="Ccedilla" unicode="&#xc7;" horiz-adv-x="690" 
d="M401 -132h-87l85 121c-95 7 -174 44 -236 111s-93 150 -93 250c0 105 34 191 102 259c69 69 154 103 257 103c76 0 141 -17 196 -52v-76c-61 39 -126 59 -195 59c-81 0 -148 -28 -203 -84c-54 -55 -81 -125 -81 -209c0 -85 27 -155 82 -210s123 -83 204 -83
s150 23 208 70v-77c-48 -35 -107 -55 -177 -60z" />
    <glyph glyph-name="Egrave" unicode="&#xc8;" horiz-adv-x="640" 
d="M594 0h-495v700h480v-67h-406v-224h333v-67h-333v-275h421v-67zM386 763h-70l-118 133h92z" />
    <glyph glyph-name="Eacute" unicode="&#xc9;" horiz-adv-x="640" 
d="M594 0h-495v700h480v-67h-406v-224h333v-67h-333v-275h421v-67zM348 763h-69l95 133h92z" />
    <glyph glyph-name="Ecircumflex" unicode="&#xca;" horiz-adv-x="640" 
d="M269 763h-71l111 133h72l111 -133h-71l-76 92zM594 0h-495v700h480v-67h-406v-224h333v-67h-333v-275h421v-67z" />
    <glyph glyph-name="Edieresis" unicode="&#xcb;" horiz-adv-x="640" 
d="M594 0h-495v700h480v-67h-406v-224h333v-67h-333v-275h421v-67zM208 794c-19 19 -19 50 0 67c19 19 47 19 66 0c19 -17 19 -48 0 -67c-19 -17 -47 -17 -66 0zM408 794c-19 19 -19 50 0 67c19 19 47 19 66 0c19 -17 19 -48 0 -67c-19 -17 -47 -17 -66 0z" />
    <glyph glyph-name="Igrave" unicode="&#xcc;" horiz-adv-x="281" 
d="M175 763h-70l-118 133h92zM178 0h-74v700h74v-700z" />
    <glyph glyph-name="Iacute" unicode="&#xcd;" horiz-adv-x="281" 
d="M178 0h-74v700h74v-700zM175 763h-69l95 133h92z" />
    <glyph glyph-name="Icircumflex" unicode="&#xce;" horiz-adv-x="281" 
d="M65 763h-71l111 133h72l111 -133h-71l-76 92zM178 0h-74v700h74v-700z" />
    <glyph glyph-name="Idieresis" unicode="&#xcf;" horiz-adv-x="280" 
d="M176 0h-74v700h74v-700zM6 794c-17 19 -17 50 0 67c19 19 50 19 67 0c19 -17 19 -48 0 -67c-17 -17 -48 -17 -67 0zM206 794c-17 19 -17 50 0 67c19 19 50 19 67 0c19 -17 19 -48 0 -67c-17 -17 -48 -17 -67 0z" />
    <glyph glyph-name="Eth" unicode="&#xd0;" horiz-adv-x="828" 
d="M378 0h-229v324h-111v67h111v309h229c113 0 204 -32 274 -97s105 -149 105 -253s-35 -188 -105 -253s-161 -97 -274 -97zM223 324v-257h146c97 0 173 26 229 77s84 120 84 206s-28 155 -84 206s-132 77 -229 77h-146v-242h162v-67h-162z" />
    <glyph glyph-name="Ntilde" unicode="&#xd1;" horiz-adv-x="775" 
d="M458 772c-19 0 -43 9 -74 28s-52 29 -64 29c-25 0 -38 -18 -41 -53h-49c3 63 36 110 87 110c19 0 43 -9 74 -28s53 -28 64 -28c27 0 34 19 41 52h49c-1 -64 -35 -110 -87 -110zM171 0h-72v700h64l442 -572v572h72v-700h-63l-443 574v-574z" />
    <glyph glyph-name="Ograve" unicode="&#xd2;" horiz-adv-x="845" 
d="M170 608c67 69 151 104 252 104s184 -35 251 -104s101 -155 101 -258s-34 -190 -101 -259s-150 -103 -251 -103s-185 34 -252 103s-100 156 -100 259s33 189 100 258zM225 141c53 -56 119 -84 197 -84s144 28 197 84s80 126 80 209s-27 153 -80 209s-119 84 -197 84
s-144 -28 -197 -84s-80 -126 -80 -209s27 -153 80 -209zM457 763h-70l-118 133h92z" />
    <glyph glyph-name="Oacute" unicode="&#xd3;" horiz-adv-x="845" 
d="M170 608c67 69 151 104 252 104s184 -35 251 -104s101 -155 101 -258s-34 -190 -101 -259s-150 -103 -251 -103s-185 34 -252 103s-100 156 -100 259s33 189 100 258zM225 141c53 -56 119 -84 197 -84s144 28 197 84s80 126 80 209s-27 153 -80 209s-119 84 -197 84
s-144 -28 -197 -84s-80 -126 -80 -209s27 -153 80 -209zM440 763h-69l95 133h92z" />
    <glyph glyph-name="Ocircumflex" unicode="&#xd4;" horiz-adv-x="845" 
d="M346 763h-71l111 133h72l111 -133h-71l-76 92zM170 608c67 69 151 104 252 104s184 -35 251 -104s101 -155 101 -258s-34 -190 -101 -259s-150 -103 -251 -103s-185 34 -252 103s-100 156 -100 259s33 189 100 258zM225 141c53 -56 119 -84 197 -84s144 28 197 84
s80 126 80 209s-27 153 -80 209s-119 84 -197 84s-144 -28 -197 -84s-80 -126 -80 -209s27 -153 80 -209z" />
    <glyph glyph-name="Otilde" unicode="&#xd5;" horiz-adv-x="845" 
d="M170 608c67 69 151 104 252 104s184 -35 251 -104s101 -155 101 -258s-34 -190 -101 -259s-150 -103 -251 -103s-185 34 -252 103s-100 156 -100 259s33 189 100 258zM225 141c53 -56 119 -84 197 -84s144 28 197 84s80 126 80 209s-27 153 -80 209s-119 84 -197 84
s-144 -28 -197 -84s-80 -126 -80 -209s27 -153 80 -209zM493 772c-19 0 -43 9 -74 28s-52 29 -64 29c-25 0 -38 -18 -41 -53h-49c3 63 36 110 87 110c19 0 43 -9 74 -28s53 -28 64 -28c27 0 34 19 41 52h49c-1 -64 -35 -110 -87 -110z" />
    <glyph glyph-name="Odieresis" unicode="&#xd6;" horiz-adv-x="845" 
d="M170 608c67 69 151 104 252 104s184 -35 251 -104s101 -155 101 -258s-34 -190 -101 -259s-150 -103 -251 -103s-185 34 -252 103s-100 156 -100 259s33 189 100 258zM225 141c53 -56 119 -84 197 -84s144 28 197 84s80 126 80 209s-27 153 -80 209s-119 84 -197 84
s-144 -28 -197 -84s-80 -126 -80 -209s27 -153 80 -209zM290 794c-19 19 -19 50 0 67c19 19 47 19 66 0c19 -17 19 -48 0 -67c-19 -17 -47 -17 -66 0zM490 794c-19 19 -19 50 0 67c19 19 47 19 66 0c19 -17 19 -48 0 -67c-19 -17 -47 -17 -66 0z" />
    <glyph glyph-name="multiply" unicode="&#xd7;" horiz-adv-x="544" 
d="M273 278l-157 -156l-46 46l157 157l-157 156l46 46l156 -156l157 156l45 -46l-156 -156l156 -156l-45 -47z" />
    <glyph glyph-name="Oslash" unicode="&#xd8;" horiz-adv-x="845" 
d="M422 712c78 0 147 -22 208 -67l46 55h73l-76 -92c67 -69 101 -155 101 -258s-34 -190 -101 -259s-150 -103 -251 -103c-79 0 -148 22 -209 66l-45 -54h-73l76 91c-67 69 -101 156 -101 259s33 189 100 258s151 104 252 104zM145 350c0 -79 24 -147 73 -202l366 441
c-47 36 -101 54 -162 54c-78 0 -144 -28 -197 -84s-80 -126 -80 -209zM422 57c78 0 144 28 197 84s80 126 80 209c0 79 -24 146 -73 201l-366 -441c48 -35 102 -53 162 -53z" />
    <glyph glyph-name="Ugrave" unicode="&#xd9;" horiz-adv-x="748" 
d="M374 -12c-85 0 -154 27 -207 81s-79 130 -79 229v402h74v-403c0 -152 81 -240 212 -240s212 88 212 240v403h74v-402c0 -99 -27 -175 -80 -229s-121 -81 -206 -81zM419 763h-70l-118 133h92z" />
    <glyph glyph-name="Uacute" unicode="&#xda;" horiz-adv-x="748" 
d="M374 -12c-85 0 -154 27 -207 81s-79 130 -79 229v402h74v-403c0 -152 81 -240 212 -240s212 88 212 240v403h74v-402c0 -99 -27 -175 -80 -229s-121 -81 -206 -81zM403 763h-69l95 133h92z" />
    <glyph glyph-name="Ucircumflex" unicode="&#xdb;" horiz-adv-x="748" 
d="M297 763h-71l111 133h72l111 -133h-71l-76 92zM374 -12c-85 0 -154 27 -207 81s-79 130 -79 229v402h74v-403c0 -152 81 -240 212 -240s212 88 212 240v403h74v-402c0 -99 -27 -175 -80 -229s-121 -81 -206 -81z" />
    <glyph glyph-name="Udieresis" unicode="&#xdc;" horiz-adv-x="748" 
d="M374 -12c-85 0 -154 27 -207 81s-79 130 -79 229v402h74v-403c0 -152 81 -240 212 -240s212 88 212 240v403h74v-402c0 -99 -27 -175 -80 -229s-121 -81 -206 -81zM242 794c-19 19 -19 50 0 67c19 19 47 19 66 0c19 -17 19 -48 0 -67c-19 -17 -47 -17 -66 0zM442 794
c-19 19 -19 50 0 67c19 19 47 19 66 0c19 -17 19 -48 0 -67c-19 -17 -47 -17 -66 0z" />
    <glyph glyph-name="Yacute" unicode="&#xdd;" horiz-adv-x="664" 
d="M369 0h-74v321l-272 379h86l224 -310l224 310h84l-272 -378v-322zM358 763h-69l95 133h92z" />
    <glyph glyph-name="Thorn" unicode="&#xde;" horiz-adv-x="665" 
d="M173 0h-74v700h73v-156h221c140 0 224 -78 224 -194c0 -119 -84 -197 -224 -197h-220v-153zM173 477v-257h215c99 0 156 47 156 128c0 83 -57 129 -156 129h-215z" />
    <glyph glyph-name="germandbls" unicode="&#xdf;" horiz-adv-x="617" 
d="M350 -12c-39 0 -70 5 -93 14v68c24 -11 51 -17 81 -17c93 0 158 55 158 143c0 96 -75 163 -191 163h-21v54h21c83 0 132 41 132 113c0 69 -54 117 -134 117c-87 0 -146 -59 -146 -152v-491h-72v491c0 66 20 119 60 158s92 59 157 59c62 0 112 -17 150 -50s57 -75 57 -125
c0 -73 -33 -121 -98 -143c88 -21 157 -92 157 -201c0 -62 -20 -111 -61 -147s-93 -54 -157 -54z" />
    <glyph glyph-name="agrave" unicode="&#xe0;" horiz-adv-x="594" 
d="M248 53c69 0 133 37 168 81v67c-49 32 -102 48 -157 48c-88 0 -143 -37 -143 -97c0 -65 57 -99 132 -99zM228 -12c-51 0 -95 14 -131 42c-35 29 -53 68 -53 118c0 49 19 88 56 117c38 29 85 43 142 43c63 0 121 -16 174 -47v48c0 81 -53 121 -159 121
c-57 0 -109 -16 -158 -49v70c47 29 104 44 173 44c129 0 216 -62 216 -179v-199c0 -37 18 -60 46 -60c11 0 20 2 28 6v-56c-10 -7 -26 -11 -48 -11c-47 0 -83 25 -91 77c-49 -57 -114 -85 -195 -85zM346 576h-69l-118 134h91z" />
    <glyph glyph-name="aacute" unicode="&#xe1;" horiz-adv-x="594" 
d="M248 53c69 0 133 37 168 81v67c-49 32 -102 48 -157 48c-88 0 -143 -37 -143 -97c0 -65 57 -99 132 -99zM228 -12c-51 0 -95 14 -131 42c-35 29 -53 68 -53 118c0 49 19 88 56 117c38 29 85 43 142 43c63 0 121 -16 174 -47v48c0 81 -53 121 -159 121
c-57 0 -109 -16 -158 -49v70c47 29 104 44 173 44c129 0 216 -62 216 -179v-199c0 -37 18 -60 46 -60c11 0 20 2 28 6v-56c-10 -7 -26 -11 -48 -11c-47 0 -83 25 -91 77c-49 -57 -114 -85 -195 -85zM293 576h-70l96 134h92z" />
    <glyph glyph-name="acircumflex" unicode="&#xe2;" horiz-adv-x="594" 
d="M248 53c69 0 133 37 168 81v67c-49 32 -102 48 -157 48c-88 0 -143 -37 -143 -97c0 -65 57 -99 132 -99zM228 -12c-51 0 -95 14 -131 42c-35 29 -53 68 -53 118c0 49 19 88 56 117c38 29 85 43 142 43c63 0 121 -16 174 -47v48c0 81 -53 121 -159 121
c-57 0 -109 -16 -158 -49v70c47 29 104 44 173 44c129 0 216 -62 216 -179v-199c0 -37 18 -60 46 -60c11 0 20 2 28 6v-56c-10 -7 -26 -11 -48 -11c-47 0 -83 25 -91 77c-49 -57 -114 -85 -195 -85zM198 576h-71l112 134h73l110 -134h-71l-77 92z" />
    <glyph glyph-name="atilde" unicode="&#xe3;" horiz-adv-x="594" 
d="M248 53c69 0 133 37 168 81v67c-49 32 -102 48 -157 48c-88 0 -143 -37 -143 -97c0 -65 57 -99 132 -99zM228 -12c-51 0 -95 14 -131 42c-35 29 -53 68 -53 118c0 49 19 88 56 117c38 29 85 43 142 43c63 0 121 -16 174 -47v48c0 81 -53 121 -159 121
c-57 0 -109 -16 -158 -49v70c47 29 104 44 173 44c129 0 216 -62 216 -179v-199c0 -37 18 -60 46 -60c11 0 20 2 28 6v-56c-10 -7 -26 -11 -48 -11c-47 0 -83 25 -91 77c-49 -57 -114 -85 -195 -85zM350 589c-19 0 -43 9 -74 28s-52 28 -64 28c-25 0 -38 -17 -41 -52h-49
c3 64 36 110 87 110c19 0 43 -9 74 -28s53 -28 64 -28c27 0 34 19 41 52h49c-1 -64 -35 -110 -87 -110z" />
    <glyph glyph-name="adieresis" unicode="&#xe4;" horiz-adv-x="594" 
d="M248 53c69 0 133 37 168 81v67c-49 32 -102 48 -157 48c-88 0 -143 -37 -143 -97c0 -65 57 -99 132 -99zM228 -12c-51 0 -95 14 -131 42c-35 29 -53 68 -53 118c0 49 19 88 56 117c38 29 85 43 142 43c63 0 121 -16 174 -47v48c0 81 -53 121 -159 121
c-57 0 -109 -16 -158 -49v70c47 29 104 44 173 44c129 0 216 -62 216 -179v-199c0 -37 18 -60 46 -60c11 0 20 2 28 6v-56c-10 -7 -26 -11 -48 -11c-47 0 -83 25 -91 77c-49 -57 -114 -85 -195 -85zM144 612c-17 19 -17 50 0 67c19 19 50 19 67 0c19 -17 19 -48 0 -67
c-17 -17 -48 -17 -67 0zM344 612c-17 19 -17 50 0 67c19 19 50 19 67 0c19 -17 19 -48 0 -67c-17 -17 -48 -17 -67 0z" />
    <glyph glyph-name="aring" unicode="&#xe5;" horiz-adv-x="594" 
d="M248 53c69 0 133 37 168 81v67c-49 32 -102 48 -157 48c-88 0 -143 -37 -143 -97c0 -65 57 -99 132 -99zM228 -12c-51 0 -95 14 -131 42c-35 29 -53 68 -53 118c0 49 19 88 56 117c38 29 85 43 142 43c63 0 121 -16 174 -47v48c0 81 -53 121 -159 121
c-57 0 -109 -16 -158 -49v70c47 29 104 44 173 44c129 0 216 -62 216 -179v-199c0 -37 18 -60 46 -60c11 0 20 2 28 6v-56c-10 -7 -26 -11 -48 -11c-47 0 -83 25 -91 77c-49 -57 -114 -85 -195 -85zM213 714c37 37 99 37 136 0s37 -99 0 -136s-99 -37 -136 0s-37 99 0 136z
M281 590c32 0 56 25 56 56c0 32 -24 56 -56 56c-31 0 -56 -24 -56 -56c0 -31 25 -56 56 -56z" />
    <glyph glyph-name="ae" unicode="&#xe6;" horiz-adv-x="935" 
d="M885 244v-20h-397c4 -51 25 -93 63 -124s86 -47 143 -47s109 15 155 45v-64c-40 -31 -96 -46 -169 -46c-95 0 -177 42 -222 113c-49 -61 -127 -113 -226 -113c-54 0 -99 14 -135 42c-35 29 -53 68 -53 118c0 49 19 88 56 117c38 29 85 43 142 43c65 0 124 -16 175 -47v46
c0 82 -53 123 -160 123c-57 0 -110 -16 -158 -48v69c49 29 108 44 175 44c88 0 161 -38 189 -107c41 67 112 107 196 107c162 0 226 -142 226 -251zM248 53c77 0 146 41 185 97c-8 22 -13 38 -14 49c-53 34 -106 51 -160 51c-88 0 -143 -38 -143 -98c0 -64 53 -99 132 -99z
M489 283h323c-2 37 -16 71 -42 101c-25 31 -63 46 -114 46c-49 0 -88 -15 -118 -44c-29 -29 -46 -63 -49 -103z" />
    <glyph glyph-name="ccedilla" unicode="&#xe7;" horiz-adv-x="524" 
d="M50 242c0 72 25 132 74 180c49 49 111 73 184 73c56 0 105 -12 146 -35v-67c-44 25 -89 37 -136 37c-55 0 -102 -18 -139 -54c-37 -35 -55 -80 -55 -135c0 -54 18 -99 55 -135c37 -35 84 -53 139 -53c54 0 102 14 145 42v-66c-35 -21 -72 -33 -112 -38l-63 -123h-87
l85 121c-68 5 -124 32 -169 79s-67 105 -67 174z" />
    <glyph glyph-name="egrave" unicode="&#xe8;" horiz-adv-x="571" 
d="M316 -12c-75 0 -139 24 -190 71s-76 108 -76 182c0 73 23 133 68 181c46 49 105 73 177 73c162 0 226 -142 226 -251v-20h-397c8 -104 90 -171 206 -171c56 0 108 15 155 45v-64c-40 -31 -96 -46 -169 -46zM125 283h323c-2 37 -16 71 -42 101c-25 31 -63 46 -114 46
c-49 0 -88 -15 -118 -44c-29 -29 -46 -63 -49 -103zM367 576h-69l-118 134h91z" />
    <glyph glyph-name="eacute" unicode="&#xe9;" horiz-adv-x="571" 
d="M316 -12c-75 0 -139 24 -190 71s-76 108 -76 182c0 73 23 133 68 181c46 49 105 73 177 73c162 0 226 -142 226 -251v-20h-397c8 -104 90 -171 206 -171c56 0 108 15 155 45v-64c-40 -31 -96 -46 -169 -46zM125 283h323c-2 37 -16 71 -42 101c-25 31 -63 46 -114 46
c-49 0 -88 -15 -118 -44c-29 -29 -46 -63 -49 -103zM301 576h-70l96 134h92z" />
    <glyph glyph-name="ecircumflex" unicode="&#xea;" horiz-adv-x="571" 
d="M316 -12c-75 0 -139 24 -190 71s-76 108 -76 182c0 73 23 133 68 181c46 49 105 73 177 73c162 0 226 -142 226 -251v-20h-397c8 -104 90 -171 206 -171c56 0 108 15 155 45v-64c-40 -31 -96 -46 -169 -46zM125 283h323c-2 37 -16 71 -42 101c-25 31 -63 46 -114 46
c-49 0 -88 -15 -118 -44c-29 -29 -46 -63 -49 -103zM214 576h-71l112 134h73l110 -134h-71l-77 92z" />
    <glyph glyph-name="edieresis" unicode="&#xeb;" horiz-adv-x="571" 
d="M316 -12c-75 0 -139 24 -190 71s-76 108 -76 182c0 73 23 133 68 181c46 49 105 73 177 73c162 0 226 -142 226 -251v-20h-397c8 -104 90 -171 206 -171c56 0 108 15 155 45v-64c-40 -31 -96 -46 -169 -46zM125 283h323c-2 37 -16 71 -42 101c-25 31 -63 46 -114 46
c-49 0 -88 -15 -118 -44c-29 -29 -46 -63 -49 -103zM158 612c-19 19 -19 50 0 67c19 19 47 19 66 0c19 -17 19 -48 0 -67c-19 -17 -47 -17 -66 0zM358 612c-19 19 -19 50 0 67c19 19 47 19 66 0c19 -17 19 -48 0 -67c-19 -17 -47 -17 -66 0z" />
    <glyph glyph-name="igrave" unicode="&#xec;" horiz-adv-x="253" 
d="M163 0h-73v483h73v-483zM155 576h-69l-118 134h91z" />
    <glyph glyph-name="iacute" unicode="&#xed;" horiz-adv-x="253" 
d="M163 0h-73v483h73v-483zM166 577h-69l95 133h92z" />
    <glyph glyph-name="icircumflex" unicode="&#xee;" horiz-adv-x="253" 
d="M50 576h-71l112 134h73l110 -134h-71l-77 92zM163 0h-73v483h73v-483z" />
    <glyph glyph-name="idieresis" unicode="&#xef;" horiz-adv-x="258" 
d="M-4 612c-19 19 -19 50 0 67c19 19 47 19 66 0c19 -17 19 -48 0 -67c-19 -17 -47 -17 -66 0zM196 612c-19 19 -19 50 0 67c19 19 47 19 66 0c19 -17 19 -48 0 -67c-19 -17 -47 -17 -66 0zM165 0h-73v483h73v-483z" />
    <glyph glyph-name="eth" unicode="&#xf0;" horiz-adv-x="598" 
d="M320 645l108 45l31 -43l-109 -45l113 -162c57 -80 86 -135 86 -208c0 -67 -23 -124 -70 -172s-106 -72 -179 -72s-133 23 -180 70s-70 104 -70 169s22 120 65 165s99 68 166 68c44 0 82 -8 113 -24l-104 143l-132 -53l-31 43l132 52l-58 79h79zM300 53c50 0 92 17 125 51
c34 34 51 76 51 125s-17 91 -51 124c-33 34 -75 51 -125 51c-51 0 -93 -17 -127 -51c-33 -33 -50 -75 -50 -124c0 -50 17 -92 50 -126c34 -33 76 -50 127 -50z" />
    <glyph glyph-name="ntilde" unicode="&#xf1;" horiz-adv-x="610" 
d="M85 0v483h72v-74c51 57 115 86 193 86c120 0 184 -74 184 -201v-294h-72v278c0 127 -78 149 -137 149c-33 0 -65 -10 -97 -31c-31 -20 -55 -43 -71 -70v-326h-72zM380 589c-19 0 -43 9 -74 28s-52 28 -64 28c-25 0 -38 -17 -41 -52h-49c3 64 36 110 87 110
c19 0 43 -9 74 -28s53 -28 64 -28c27 0 34 19 41 52h49c-1 -64 -35 -110 -87 -110z" />
    <glyph glyph-name="ograve" unicode="&#xf2;" horiz-adv-x="621" 
d="M123 420c49 50 111 75 188 75s139 -25 188 -75c49 -49 73 -109 73 -179s-24 -130 -73 -179s-111 -74 -188 -74s-139 25 -188 74s-73 109 -73 179s24 130 73 179zM498 241c0 54 -18 99 -53 135s-80 54 -134 54s-99 -18 -134 -54s-53 -81 -53 -135c0 -53 18 -98 53 -134
s80 -54 134 -54s99 18 134 54s53 81 53 134zM361 576h-69l-118 134h91z" />
    <glyph glyph-name="oacute" unicode="&#xf3;" horiz-adv-x="621" 
d="M123 420c49 50 111 75 188 75s139 -25 188 -75c49 -49 73 -109 73 -179s-24 -130 -73 -179s-111 -74 -188 -74s-139 25 -188 74s-73 109 -73 179s24 130 73 179zM498 241c0 54 -18 99 -53 135s-80 54 -134 54s-99 -18 -134 -54s-53 -81 -53 -135c0 -53 18 -98 53 -134
s80 -54 134 -54s99 18 134 54s53 81 53 134zM337 576h-70l96 134h92z" />
    <glyph glyph-name="ocircumflex" unicode="&#xf4;" horiz-adv-x="621" 
d="M235 576h-71l112 134h73l110 -134h-71l-77 92zM123 420c49 50 111 75 188 75s139 -25 188 -75c49 -49 73 -109 73 -179s-24 -130 -73 -179s-111 -74 -188 -74s-139 25 -188 74s-73 109 -73 179s24 130 73 179zM498 241c0 54 -18 99 -53 135s-80 54 -134 54
s-99 -18 -134 -54s-53 -81 -53 -135c0 -53 18 -98 53 -134s80 -54 134 -54s99 18 134 54s53 81 53 134z" />
    <glyph glyph-name="otilde" unicode="&#xf5;" horiz-adv-x="621" 
d="M123 420c49 50 111 75 188 75s139 -25 188 -75c49 -49 73 -109 73 -179s-24 -130 -73 -179s-111 -74 -188 -74s-139 25 -188 74s-73 109 -73 179s24 130 73 179zM498 241c0 54 -18 99 -53 135s-80 54 -134 54s-99 -18 -134 -54s-53 -81 -53 -135c0 -53 18 -98 53 -134
s80 -54 134 -54s99 18 134 54s53 81 53 134zM382 589c-19 0 -43 9 -74 28s-52 28 -64 28c-25 0 -38 -17 -41 -52h-49c3 64 36 110 87 110c19 0 43 -9 74 -28s53 -28 64 -28c27 0 34 19 41 52h49c-1 -64 -35 -110 -87 -110z" />
    <glyph glyph-name="odieresis" unicode="&#xf6;" horiz-adv-x="621" 
d="M123 420c49 50 111 75 188 75s139 -25 188 -75c49 -49 73 -109 73 -179s-24 -130 -73 -179s-111 -74 -188 -74s-139 25 -188 74s-73 109 -73 179s24 130 73 179zM498 241c0 54 -18 99 -53 135s-80 54 -134 54s-99 -18 -134 -54s-53 -81 -53 -135c0 -53 18 -98 53 -134
s80 -54 134 -54s99 18 134 54s53 81 53 134zM178 612c-17 19 -17 50 0 67c19 19 50 19 67 0c19 -17 19 -48 0 -67c-17 -17 -48 -17 -67 0zM378 612c-17 19 -17 50 0 67c19 19 50 19 67 0c19 -17 19 -48 0 -67c-17 -17 -48 -17 -67 0z" />
    <glyph glyph-name="divide" unicode="&#xf7;" horiz-adv-x="596" 
d="M526 292h-456v67h456v-67zM259 491c-21 23 -21 56 0 77c23 23 56 23 77 0c23 -21 23 -54 0 -77c-21 -21 -54 -21 -77 0zM259 85c-21 23 -21 56 0 77c23 23 56 23 77 0c23 -21 23 -54 0 -77c-21 -21 -54 -21 -77 0z" />
    <glyph glyph-name="oslash" unicode="&#xf8;" horiz-adv-x="621" 
d="M142 0h-69l51 61c-49 48 -74 108 -74 180c0 70 24 130 73 179c49 50 111 75 188 75c53 0 101 -13 144 -40l24 28h69l-51 -61c50 -49 75 -109 75 -181c0 -70 -24 -130 -73 -179s-111 -74 -188 -74c-56 0 -105 13 -146 40zM311 53c54 0 99 18 134 54s53 81 53 134
c0 50 -16 92 -47 127l-241 -287c29 -19 63 -28 101 -28zM124 241c0 -49 15 -91 45 -126l242 287c-29 19 -63 28 -100 28c-54 0 -99 -18 -134 -54s-53 -81 -53 -135z" />
    <glyph glyph-name="ugrave" unicode="&#xf9;" horiz-adv-x="611" 
d="M526 483v-483h-72v74c-51 -57 -115 -86 -193 -86c-120 0 -184 74 -184 201v294h72v-278c0 -127 78 -149 137 -149c33 0 65 10 96 30c32 21 56 44 72 71v326h72zM365 576h-69l-118 134h91z" />
    <glyph glyph-name="uacute" unicode="&#xfa;" horiz-adv-x="611" 
d="M526 483v-483h-72v74c-51 -57 -115 -86 -193 -86c-120 0 -184 74 -184 201v294h72v-278c0 -127 78 -149 137 -149c33 0 65 10 96 30c32 21 56 44 72 71v326h72zM311 576h-70l96 134h92z" />
    <glyph glyph-name="ucircumflex" unicode="&#xfb;" horiz-adv-x="611" 
d="M526 483v-483h-72v74c-51 -57 -115 -86 -193 -86c-120 0 -184 74 -184 201v294h72v-278c0 -127 78 -149 137 -149c33 0 65 10 96 30c32 21 56 44 72 71v326h72zM225 576h-71l112 134h73l110 -134h-71l-77 92z" />
    <glyph glyph-name="udieresis" unicode="&#xfc;" horiz-adv-x="611" 
d="M526 483v-483h-72v74c-51 -57 -115 -86 -193 -86c-120 0 -184 74 -184 201v294h72v-278c0 -127 78 -149 137 -149c33 0 65 10 96 30c32 21 56 44 72 71v326h72zM168 612c-17 19 -17 50 0 67c19 19 50 19 67 0c19 -17 19 -48 0 -67c-17 -17 -48 -17 -67 0zM368 612
c-17 19 -17 50 0 67c19 19 50 19 67 0c19 -17 19 -48 0 -67c-17 -17 -48 -17 -67 0z" />
    <glyph glyph-name="yacute" unicode="&#xfd;" horiz-adv-x="555" 
d="M112 -204c-35 0 -61 5 -77 14v67c21 -11 43 -16 66 -16c60 0 98 48 143 157l-215 465h80l171 -380l166 380h78l-239 -537c-43 -100 -101 -150 -173 -150zM297 576h-70l96 134h92z" />
    <glyph glyph-name="thorn" unicode="&#xfe;" horiz-adv-x="636" 
d="M157 77v-277h-72v900h72v-294c45 59 107 89 187 89c71 0 130 -25 175 -74s68 -109 68 -179c0 -71 -23 -131 -68 -180s-104 -74 -175 -74c-80 0 -142 30 -187 89zM157 321v-159c28 -64 97 -109 170 -109c53 0 98 18 133 54c35 37 53 82 53 135s-18 98 -53 134
s-80 54 -133 54c-73 0 -141 -46 -170 -109z" />
    <glyph glyph-name="ydieresis" unicode="&#xff;" horiz-adv-x="555" 
d="M112 -204c-35 0 -61 5 -77 14v67c21 -11 43 -16 66 -16c60 0 98 48 143 157l-215 465h80l171 -380l166 380h78l-239 -537c-43 -100 -101 -150 -173 -150zM140 612c-17 19 -17 50 0 67c19 19 50 19 67 0c19 -17 19 -48 0 -67c-17 -17 -48 -17 -67 0zM340 612
c-17 19 -17 50 0 67c19 19 50 19 67 0c19 -17 19 -48 0 -67c-17 -17 -48 -17 -67 0z" />
    <glyph glyph-name="Amacron" unicode="&#x100;" horiz-adv-x="753" 
d="M107 0h-77l312 704h69l313 -704h-78l-87 193h-367zM376 611l-159 -353h318zM504 802h-252v55h252v-55z" />
    <glyph glyph-name="amacron" unicode="&#x101;" horiz-adv-x="594" 
d="M248 53c69 0 133 37 168 81v67c-49 32 -102 48 -157 48c-88 0 -143 -37 -143 -97c0 -65 57 -99 132 -99zM228 -12c-51 0 -95 14 -131 42c-35 29 -53 68 -53 118c0 49 19 88 56 117c38 29 85 43 142 43c63 0 121 -16 174 -47v48c0 81 -53 121 -159 121
c-57 0 -109 -16 -158 -49v70c47 29 104 44 173 44c129 0 216 -62 216 -179v-199c0 -37 18 -60 46 -60c11 0 20 2 28 6v-56c-10 -7 -26 -11 -48 -11c-47 0 -83 25 -91 77c-49 -57 -114 -85 -195 -85zM410 618h-252v55h252v-55z" />
    <glyph glyph-name="Abreve" unicode="&#x102;" horiz-adv-x="753" 
d="M107 0h-77l312 704h69l313 -704h-78l-87 193h-367zM376 611l-159 -353h318zM239 896h57c1 -49 35 -87 82 -87c45 0 80 38 81 87h57c-1 -41 -14 -74 -41 -101c-27 -26 -59 -39 -97 -39s-71 13 -98 39c-27 27 -40 60 -41 101z" />
    <glyph glyph-name="abreve" unicode="&#x103;" horiz-adv-x="594" 
d="M248 53c69 0 133 37 168 81v67c-49 32 -102 48 -157 48c-88 0 -143 -37 -143 -97c0 -65 57 -99 132 -99zM228 -12c-51 0 -95 14 -131 42c-35 29 -53 68 -53 118c0 49 19 88 56 117c38 29 85 43 142 43c63 0 121 -16 174 -47v48c0 81 -53 121 -159 121
c-57 0 -109 -16 -158 -49v70c47 29 104 44 173 44c129 0 216 -62 216 -179v-199c0 -37 18 -60 46 -60c11 0 20 2 28 6v-56c-10 -7 -26 -11 -48 -11c-47 0 -83 25 -91 77c-49 -57 -114 -85 -195 -85zM279 570c-39 0 -71 13 -98 39c-27 27 -40 60 -41 101h57
c1 -49 35 -86 82 -86c45 0 80 37 81 86h57c-1 -40 -15 -73 -42 -100s-59 -40 -96 -40z" />
    <glyph glyph-name="Aogonek" unicode="&#x104;" horiz-adv-x="753" 
d="M745 -195c-69 0 -112 42 -112 99c0 35 13 67 40 96h-27l-87 193h-367l-85 -193h-77l312 704h69l313 -704c-25 -26 -37 -54 -37 -83c0 -39 28 -65 69 -65c11 0 25 2 40 7v-48c-13 -4 -30 -6 -51 -6zM376 611l-159 -353h318z" />
    <glyph glyph-name="aogonek" unicode="&#x105;" horiz-adv-x="586" 
d="M583 -188c-69 0 -112 42 -112 99c0 31 10 60 31 86c-46 3 -72 29 -79 76c-49 -57 -114 -85 -195 -85c-51 0 -95 14 -131 42c-35 29 -53 68 -53 118c0 49 19 88 56 117c38 29 85 43 142 43c63 0 121 -16 174 -47v48c0 81 -53 121 -159 121c-57 0 -109 -16 -158 -49v70
c47 29 104 44 173 44c129 0 216 -62 216 -179v-199c0 -37 18 -60 46 -60c11 0 20 2 28 6v-56c-25 -26 -37 -54 -37 -83c0 -39 28 -65 69 -65c11 0 25 2 40 7v-48c-13 -4 -30 -6 -51 -6zM248 53c69 0 133 37 168 81v67c-49 32 -102 48 -157 48c-88 0 -143 -37 -143 -97
c0 -65 57 -99 132 -99z" />
    <glyph glyph-name="Cacute" unicode="&#x106;" horiz-adv-x="690" 
d="M429 -12c-103 0 -188 34 -257 102c-68 68 -102 155 -102 260s34 191 102 259c69 69 154 103 257 103c76 0 141 -17 196 -52v-76c-61 39 -126 59 -195 59c-81 0 -148 -28 -203 -84c-55 -55 -82 -125 -82 -209c0 -85 27 -155 82 -210s124 -83 205 -83s150 23 208 70v-77
c-57 -41 -127 -62 -211 -62zM426 763h-69l95 133h92z" />
    <glyph glyph-name="cacute" unicode="&#x107;" horiz-adv-x="523" 
d="M307 -12c-73 0 -135 24 -184 72c-49 49 -73 109 -73 182c0 72 25 132 74 180c49 49 111 73 184 73c56 0 105 -12 146 -35v-67c-44 25 -89 37 -136 37c-55 0 -102 -18 -139 -54c-37 -35 -55 -80 -55 -135c0 -54 18 -99 55 -135c37 -35 84 -53 139 -53c54 0 102 14 145 42
v-66c-45 -27 -97 -41 -156 -41zM305 576h-70l96 134h92z" />
    <glyph glyph-name="Ccircumflex" unicode="&#x108;" horiz-adv-x="690" 
d="M327 763h-71l111 133h72l111 -133h-71l-76 92zM429 -12c-103 0 -188 34 -257 102c-68 68 -102 155 -102 260s34 191 102 259c69 69 154 103 257 103c76 0 141 -17 196 -52v-76c-61 39 -126 59 -195 59c-81 0 -148 -28 -203 -84c-55 -55 -82 -125 -82 -209
c0 -85 27 -155 82 -210s124 -83 205 -83s150 23 208 70v-77c-57 -41 -127 -62 -211 -62z" />
    <glyph glyph-name="ccircumflex" unicode="&#x109;" horiz-adv-x="523" 
d="M209 576h-71l112 134h73l110 -134h-71l-77 92zM307 -12c-73 0 -135 24 -184 72c-49 49 -73 109 -73 182c0 72 25 132 74 180c49 49 111 73 184 73c56 0 105 -12 146 -35v-67c-44 25 -89 37 -136 37c-55 0 -102 -18 -139 -54c-37 -35 -55 -80 -55 -135
c0 -54 18 -99 55 -135c37 -35 84 -53 139 -53c54 0 102 14 145 42v-66c-45 -27 -97 -41 -156 -41z" />
    <glyph glyph-name="Cdotaccent" unicode="&#x10a;" horiz-adv-x="690" 
d="M429 -12c-103 0 -188 34 -257 102c-68 68 -102 155 -102 260s34 191 102 259c69 69 154 103 257 103c76 0 141 -17 196 -52v-76c-61 39 -126 59 -195 59c-81 0 -148 -28 -203 -84c-55 -55 -82 -125 -82 -209c0 -85 27 -155 82 -210s124 -83 205 -83s150 23 208 70v-77
c-57 -41 -127 -62 -211 -62zM386 794c-17 19 -17 47 0 66c19 19 50 19 67 0c19 -19 19 -47 0 -66c-17 -19 -48 -19 -67 0z" />
    <glyph glyph-name="cdotaccent" unicode="&#x10b;" horiz-adv-x="524" 
d="M307 -12c-73 0 -135 24 -184 72c-49 49 -73 109 -73 182c0 72 25 132 74 180c49 49 111 73 184 73c56 0 105 -12 146 -35v-67c-44 25 -89 37 -136 37c-55 0 -102 -18 -139 -54c-37 -35 -55 -80 -55 -135c0 -54 18 -99 55 -135c37 -35 84 -53 139 -53c54 0 102 14 145 42
v-66c-45 -27 -97 -41 -156 -41zM270 612c-19 19 -19 50 0 67c19 19 47 19 66 0c19 -17 19 -48 0 -67c-19 -17 -47 -17 -66 0z" />
    <glyph glyph-name="Ccaron" unicode="&#x10c;" horiz-adv-x="690" 
d="M450 763h-73l-110 133h71l76 -91l77 91h70zM429 -12c-103 0 -188 34 -257 102c-68 68 -102 155 -102 260s34 191 102 259c69 69 154 103 257 103c76 0 141 -17 196 -52v-76c-61 39 -126 59 -195 59c-81 0 -148 -28 -203 -84c-55 -55 -82 -125 -82 -209
c0 -85 27 -155 82 -210s124 -83 205 -83s150 23 208 70v-77c-57 -41 -127 -62 -211 -62z" />
    <glyph glyph-name="ccaron" unicode="&#x10d;" horiz-adv-x="523" 
d="M332 576h-73l-110 134h72l75 -92l77 92h70zM307 -12c-73 0 -135 24 -184 72c-49 49 -73 109 -73 182c0 72 25 132 74 180c49 49 111 73 184 73c56 0 105 -12 146 -35v-67c-44 25 -89 37 -136 37c-55 0 -102 -18 -139 -54c-37 -35 -55 -80 -55 -135c0 -54 18 -99 55 -135
c37 -35 84 -53 139 -53c54 0 102 14 145 42v-66c-45 -27 -97 -41 -156 -41z" />
    <glyph glyph-name="Dcaron" unicode="&#x10e;" horiz-adv-x="778" 
d="M379 763h-73l-110 133h71l76 -91l77 91h70zM328 0h-229v700h229c113 0 204 -32 274 -97s105 -149 105 -253s-35 -188 -105 -253s-161 -97 -274 -97zM173 633v-566h146c97 0 173 26 229 77s84 120 84 206s-28 155 -84 206s-132 77 -229 77h-146z" />
    <glyph glyph-name="dcaron" unicode="&#x10f;" horiz-adv-x="759" 
d="M480 406v294h72v-700h-72v77c-45 -59 -107 -89 -187 -89c-71 0 -130 25 -175 74s-68 109 -68 179c0 71 23 131 68 180s104 74 175 74c80 0 142 -30 187 -89zM480 162v159c-28 64 -97 109 -170 109c-53 0 -98 -18 -133 -55c-35 -36 -53 -81 -53 -134s18 -98 53 -134
s80 -54 133 -54c73 0 141 46 170 109zM696 523h-57l56 177h75z" />
    <glyph glyph-name="Dcroat" unicode="&#x110;" horiz-adv-x="828" 
d="M378 0h-229v324h-111v67h111v309h229c113 0 204 -32 274 -97s105 -149 105 -253s-35 -188 -105 -253s-161 -97 -274 -97zM223 324v-257h146c97 0 173 26 229 77s84 120 84 206s-28 155 -84 206s-132 77 -229 77h-146v-242h162v-67h-162z" />
    <glyph glyph-name="dslash" unicode="&#x111;" horiz-adv-x="634" 
d="M480 620v80h72v-80h107v-63h-107v-557h-72v77c-45 -59 -107 -89 -187 -89c-71 0 -130 25 -175 74s-68 109 -68 179c0 71 23 131 68 180s104 74 175 74c80 0 142 -30 187 -89v151h-144v63h144zM480 162v159c-28 64 -97 109 -170 109c-53 0 -98 -18 -133 -55
c-35 -36 -53 -81 -53 -134s18 -98 53 -134s80 -54 133 -54c73 0 141 46 170 109z" />
    <glyph glyph-name="Emacron" unicode="&#x112;" horiz-adv-x="640" 
d="M594 0h-495v700h480v-67h-406v-224h333v-67h-333v-275h421v-67zM472 802h-252v55h252v-55z" />
    <glyph glyph-name="emacron" unicode="&#x113;" horiz-adv-x="571" 
d="M316 -12c-75 0 -139 24 -190 71s-76 108 -76 182c0 73 23 133 68 181c46 49 105 73 177 73c162 0 226 -142 226 -251v-20h-397c8 -104 90 -171 206 -171c56 0 108 15 155 45v-64c-40 -31 -96 -46 -169 -46zM125 283h323c-2 37 -16 71 -42 101c-25 31 -63 46 -114 46
c-49 0 -88 -15 -118 -44c-29 -29 -46 -63 -49 -103zM418 618h-252v55h252v-55z" />
    <glyph glyph-name="Ebreve" unicode="&#x114;" horiz-adv-x="640" 
d="M594 0h-495v700h480v-67h-406v-224h333v-67h-333v-275h421v-67zM208 896h57c1 -49 35 -87 82 -87c45 0 80 38 81 87h57c-1 -41 -14 -74 -41 -101c-27 -26 -59 -39 -97 -39s-71 13 -98 39c-27 27 -40 60 -41 101z" />
    <glyph glyph-name="ebreve" unicode="&#x115;" horiz-adv-x="571" 
d="M316 -12c-75 0 -139 24 -190 71s-76 108 -76 182c0 73 23 133 68 181c46 49 105 73 177 73c162 0 226 -142 226 -251v-20h-397c8 -104 90 -171 206 -171c56 0 108 15 155 45v-64c-40 -31 -96 -46 -169 -46zM125 283h323c-2 37 -16 71 -42 101c-25 31 -63 46 -114 46
c-49 0 -88 -15 -118 -44c-29 -29 -46 -63 -49 -103zM291 570c-39 0 -71 13 -98 39c-27 27 -40 60 -41 101h57c1 -49 35 -86 82 -86c45 0 80 37 81 86h57c-1 -40 -15 -73 -42 -100s-59 -40 -96 -40z" />
    <glyph glyph-name="Edotaccent" unicode="&#x116;" horiz-adv-x="640" 
d="M594 0h-495v700h480v-67h-406v-224h333v-67h-333v-275h421v-67zM312 794c-19 19 -19 47 0 66s47 19 66 0s19 -47 0 -66s-47 -19 -66 0z" />
    <glyph glyph-name="edotaccent" unicode="&#x117;" horiz-adv-x="571" 
d="M316 -12c-75 0 -139 24 -190 71s-76 108 -76 182c0 73 23 133 68 181c46 49 105 73 177 73c162 0 226 -142 226 -251v-20h-397c8 -104 90 -171 206 -171c56 0 108 15 155 45v-64c-40 -31 -96 -46 -169 -46zM125 283h323c-2 37 -16 71 -42 101c-25 31 -63 46 -114 46
c-49 0 -88 -15 -118 -44c-29 -29 -46 -63 -49 -103zM258 612c-17 19 -17 50 0 67c19 19 50 19 67 0c19 -17 19 -48 0 -67c-17 -17 -48 -17 -67 0z" />
    <glyph glyph-name="Eogonek" unicode="&#x118;" horiz-adv-x="643" 
d="M543 0h-444v700h480v-67h-406v-224h333v-67h-333v-275h421v-67c-25 -26 -37 -54 -37 -83c0 -39 28 -65 69 -65c11 0 25 2 40 7v-48c-13 -4 -30 -6 -51 -6c-69 0 -112 42 -112 99c0 35 13 67 40 96z" />
    <glyph glyph-name="eogonek" unicode="&#x119;" horiz-adv-x="571" 
d="M506 -161c-69 0 -112 42 -112 99c0 20 5 41 15 62c-28 -8 -59 -12 -93 -12c-75 0 -139 24 -190 71s-76 108 -76 182c0 73 23 133 68 181c46 49 105 73 177 73c162 0 226 -142 226 -251v-20h-397c8 -104 90 -171 206 -171c56 0 108 15 155 45v-64c-25 -26 -37 -54 -37 -83
c0 -39 28 -65 69 -65c11 0 25 2 40 7v-48c-13 -4 -30 -6 -51 -6zM125 283h323c-2 37 -16 71 -42 101c-25 31 -63 46 -114 46c-49 0 -88 -15 -118 -44c-29 -29 -46 -63 -49 -103z" />
    <glyph glyph-name="Ecaron" unicode="&#x11a;" horiz-adv-x="640" 
d="M381 763h-73l-110 133h71l76 -91l77 91h70zM594 0h-495v700h480v-67h-406v-224h333v-67h-333v-275h421v-67z" />
    <glyph glyph-name="ecaron" unicode="&#x11b;" horiz-adv-x="571" 
d="M316 -12c-75 0 -139 24 -190 71s-76 108 -76 182c0 73 23 133 68 181c46 49 105 73 177 73c162 0 226 -142 226 -251v-20h-397c8 -104 90 -171 206 -171c56 0 108 15 155 45v-64c-40 -31 -96 -46 -169 -46zM125 283h323c-2 37 -16 71 -42 101c-25 31 -63 46 -114 46
c-49 0 -88 -15 -118 -44c-29 -29 -46 -63 -49 -103zM326 576h-73l-110 134h72l75 -92l77 92h70z" />
    <glyph glyph-name="Gcircumflex" unicode="&#x11c;" horiz-adv-x="780" 
d="M427 -12c-101 0 -186 34 -255 102c-68 68 -102 155 -102 260s34 191 102 259c69 69 154 103 257 103c88 0 162 -22 222 -67v-75c-65 49 -137 73 -218 73c-82 0 -151 -28 -206 -83s-82 -126 -82 -211s27 -155 81 -210c55 -55 122 -82 201 -82c84 0 150 24 199 73v272h73
v-301c-60 -67 -159 -113 -272 -113zM329 763h-71l111 133h72l111 -133h-71l-76 92z" />
    <glyph glyph-name="gcircumflex" unicode="&#x11d;" horiz-adv-x="636" 
d="M480 31v51c-43 -57 -105 -86 -187 -86c-71 0 -130 24 -175 72c-45 49 -68 108 -68 177s23 128 68 177s104 73 175 73c83 0 145 -29 187 -86v74h72v-452c0 -76 -25 -134 -75 -174c-49 -41 -112 -61 -187 -61c-73 0 -136 15 -187 44v70c55 -33 115 -49 180 -49
c116 0 197 55 197 170zM480 167v157c-27 63 -95 106 -170 106c-53 0 -98 -18 -133 -53s-53 -79 -53 -132s18 -97 53 -132s80 -52 133 -52c75 0 143 43 170 106zM236 576h-71l112 134h73l110 -134h-71l-77 92z" />
    <glyph glyph-name="Gbreve" unicode="&#x11e;" horiz-adv-x="780" 
d="M427 -12c-101 0 -186 34 -255 102c-68 68 -102 155 -102 260s34 191 102 259c69 69 154 103 257 103c88 0 162 -22 222 -67v-75c-65 49 -137 73 -218 73c-82 0 -151 -28 -206 -83s-82 -126 -82 -211s27 -155 81 -210c55 -55 122 -82 201 -82c84 0 150 24 199 73v272h73
v-301c-60 -67 -159 -113 -272 -113zM281 901h57c1 -49 35 -87 82 -87c45 0 80 38 81 87h57c-1 -41 -14 -74 -41 -101c-27 -26 -59 -39 -97 -39s-71 13 -98 39c-27 27 -40 60 -41 101z" />
    <glyph glyph-name="gbreve" unicode="&#x11f;" horiz-adv-x="636" 
d="M480 31v51c-43 -57 -105 -86 -187 -86c-71 0 -130 24 -175 72c-45 49 -68 108 -68 177s23 128 68 177s104 73 175 73c83 0 145 -29 187 -86v74h72v-452c0 -76 -25 -134 -75 -174c-49 -41 -112 -61 -187 -61c-73 0 -136 15 -187 44v70c55 -33 115 -49 180 -49
c116 0 197 55 197 170zM480 167v157c-27 63 -95 106 -170 106c-53 0 -98 -18 -133 -53s-53 -79 -53 -132s18 -97 53 -132s80 -52 133 -52c75 0 143 43 170 106zM309 570c-39 0 -71 13 -98 39c-27 27 -40 60 -41 101h57c1 -49 35 -86 82 -86c45 0 80 37 81 86h57
c-1 -40 -15 -73 -42 -100s-59 -40 -96 -40z" />
    <glyph glyph-name="Gdotaccent" unicode="&#x120;" horiz-adv-x="780" 
d="M427 -12c-101 0 -186 34 -255 102c-68 68 -102 155 -102 260s34 191 102 259c69 69 154 103 257 103c88 0 162 -22 222 -67v-75c-65 49 -137 73 -218 73c-82 0 -151 -28 -206 -83s-82 -126 -82 -211s27 -155 81 -210c55 -55 122 -82 201 -82c84 0 150 24 199 73v272h73
v-301c-60 -67 -159 -113 -272 -113zM390 794c-19 19 -19 47 0 66s47 19 66 0s19 -47 0 -66s-47 -19 -66 0z" />
    <glyph glyph-name="gdotaccent" unicode="&#x121;" horiz-adv-x="636" 
d="M480 31v51c-43 -57 -105 -86 -187 -86c-71 0 -130 24 -175 72c-45 49 -68 108 -68 177s23 128 68 177s104 73 175 73c83 0 145 -29 187 -86v74h72v-452c0 -76 -25 -134 -75 -174c-49 -41 -112 -61 -187 -61c-73 0 -136 15 -187 44v70c55 -33 115 -49 180 -49
c116 0 197 55 197 170zM480 167v157c-27 63 -95 106 -170 106c-53 0 -98 -18 -133 -53s-53 -79 -53 -132s18 -97 53 -132s80 -52 133 -52c75 0 143 43 170 106zM276 612c-19 19 -19 50 0 67c19 19 47 19 66 0c19 -17 19 -48 0 -67c-19 -17 -47 -17 -66 0z" />
    <glyph glyph-name="uni0122" unicode="&#x122;" horiz-adv-x="780" 
d="M427 -12c-101 0 -186 34 -255 102c-68 68 -102 155 -102 260s34 191 102 259c69 69 154 103 257 103c88 0 162 -22 222 -67v-75c-65 49 -137 73 -218 73c-82 0 -151 -28 -206 -83s-82 -126 -82 -211s27 -155 81 -210c55 -55 122 -82 201 -82c84 0 150 24 199 73v272h73
v-301c-60 -67 -159 -113 -272 -113zM402 -231h-57l56 177h75z" />
    <glyph glyph-name="uni0123" unicode="&#x123;" horiz-adv-x="636" 
d="M480 31v51c-43 -57 -105 -86 -187 -86c-71 0 -130 24 -175 72c-45 49 -68 108 -68 177s23 128 68 177s104 73 175 73c83 0 145 -29 187 -86v74h72v-452c0 -76 -25 -134 -75 -174c-49 -41 -112 -61 -187 -61c-73 0 -136 15 -187 44v70c55 -33 115 -49 180 -49
c116 0 197 55 197 170zM480 167v157c-27 63 -95 106 -170 106c-53 0 -98 -18 -133 -53s-53 -79 -53 -132s18 -97 53 -132s80 -52 133 -52c75 0 143 43 170 106zM330 734h57l-56 -177h-75z" />
    <glyph glyph-name="Hcircumflex" unicode="&#x124;" horiz-adv-x="761" 
d="M304 763h-71l111 133h72l111 -133h-71l-76 92zM173 0h-74v700h74v-291h416v291h74v-700h-74v342h-416v-342z" />
    <glyph glyph-name="hcircumflex" unicode="&#x125;" horiz-adv-x="607" 
d="M82 0v700h72v-291c51 57 115 86 193 86c120 0 184 -74 184 -201v-294h-72v278c0 127 -78 149 -137 149c-33 0 -65 -10 -97 -31c-31 -20 -55 -43 -71 -70v-326h-72zM43 763h-71l111 133h72l111 -133h-71l-76 92z" />
    <glyph glyph-name="Hbar" unicode="&#x126;" horiz-adv-x="861" 
d="M222 0h-74v537h-88v53h88v110h74v-110h417v110h74v-110h88v-53h-88v-537h-74v342h-417v-342zM222 537v-128h417v128h-417z" />
    <glyph glyph-name="hbar" unicode="&#x127;" horiz-adv-x="641" 
d="M188 265v-265h-72v557h-102v63h102v80h72v-80h143v-63h-143v-209c51 57 115 86 193 86c120 0 184 -74 184 -201v-233h-72v217c0 127 -78 149 -137 149c-33 0 -65 -10 -97 -31c-31 -20 -55 -43 -71 -70z" />
    <glyph glyph-name="Itilde" unicode="&#x128;" horiz-adv-x="281" 
d="M212 772c-19 0 -43 9 -74 28s-52 29 -64 29c-25 0 -38 -18 -41 -53h-49c3 63 36 110 87 110c19 0 43 -9 74 -28s53 -28 64 -28c27 0 34 19 41 52h49c-1 -64 -35 -110 -87 -110zM178 0h-74v700h74v-700z" />
    <glyph glyph-name="itilde" unicode="&#x129;" horiz-adv-x="253" 
d="M197 589c-19 0 -43 9 -74 28s-52 28 -64 28c-25 0 -38 -17 -41 -52h-49c3 64 36 110 87 110c19 0 43 -9 74 -28s53 -28 64 -28c27 0 34 19 41 52h49c-1 -64 -35 -110 -87 -110zM163 0h-73v483h73v-483z" />
    <glyph glyph-name="Imacron" unicode="&#x12a;" horiz-adv-x="281" 
d="M178 0h-74v700h74v-700zM267 802h-252v55h252v-55z" />
    <glyph glyph-name="imacron" unicode="&#x12b;" horiz-adv-x="253" 
d="M163 0h-73v483h73v-483zM252 618h-252v55h252v-55z" />
    <glyph glyph-name="Ibreve" unicode="&#x12c;" horiz-adv-x="281" 
d="M3 896h57c1 -49 35 -87 82 -87c45 0 80 38 81 87h57c-1 -41 -14 -74 -41 -101c-27 -26 -59 -39 -97 -39s-71 13 -98 39c-27 27 -40 60 -41 101zM178 0h-74v700h74v-700z" />
    <glyph glyph-name="ibreve" unicode="&#x12d;" horiz-adv-x="253" 
d="M127 570c-39 0 -71 13 -98 39c-27 27 -40 60 -41 101h57c1 -49 35 -86 82 -86c45 0 80 37 81 86h57c-1 -40 -15 -73 -42 -100s-59 -40 -96 -40zM163 0h-73v483h73v-483z" />
    <glyph glyph-name="Iogonek" unicode="&#x12e;" horiz-adv-x="281" 
d="M127 0h-23v700h74v-700c-25 -26 -37 -54 -37 -83c0 -39 28 -65 69 -65c11 0 25 2 40 7v-48c-13 -4 -30 -6 -51 -6c-69 0 -112 42 -112 99c0 35 13 67 40 96z" />
    <glyph glyph-name="iogonek" unicode="&#x12f;" horiz-adv-x="264" 
d="M117 0h-21v483h72v-483c-25 -26 -37 -54 -37 -83c0 -39 28 -65 69 -65c11 0 25 2 40 7v-48c-13 -4 -30 -6 -51 -6c-69 0 -112 42 -112 99c0 35 13 67 40 96zM96 613c-19 20 -19 52 0 72c20 20 52 20 72 0s20 -52 0 -72c-20 -19 -52 -19 -72 0z" />
    <glyph glyph-name="Idot" unicode="&#x130;" horiz-adv-x="281" 
d="M178 0h-74v700h74v-700zM108 794c-19 19 -19 47 0 66s47 19 66 0s19 -47 0 -66s-47 -19 -66 0z" />
    <glyph glyph-name="dotlessi" unicode="&#x131;" horiz-adv-x="253" 
d="M163 0h-73v483h73v-483z" />
    <glyph glyph-name="IJ" unicode="&#x132;" horiz-adv-x="604" 
d="M178 254h-74v446h74v-446zM275 -12c-70 0 -127 15 -171 46v76c44 -35 97 -53 160 -53c117 0 175 54 175 169v474h74v-480c0 -157 -90 -232 -238 -232z" />
    <glyph glyph-name="Jcircumflex" unicode="&#x134;" horiz-adv-x="502" 
d="M298 763h-71l111 133h72l111 -133h-71l-76 92zM191 -12c-65 0 -119 15 -160 45v77c39 -35 88 -53 147 -53c107 0 161 56 161 169v474h74v-487c0 -152 -83 -225 -222 -225z" />
    <glyph glyph-name="jcircumflex" unicode="&#x135;" horiz-adv-x="266" 
d="M26 -204c-36 0 -64 6 -85 18v66c22 -13 45 -19 70 -19c57 0 85 32 85 97v525h72v-536c0 -104 -58 -151 -142 -151zM56 576h-71l112 134h73l110 -134h-71l-77 92z" />
    <glyph glyph-name="uni0136" unicode="&#x136;" horiz-adv-x="661" 
d="M99 700h74v-304l324 304h98l-344 -320l397 -380h-104l-371 356v-356h-74v700zM334 -231h-57l56 177h75z" />
    <glyph glyph-name="uni0137" unicode="&#x137;" horiz-adv-x="539" 
d="M83 700h72v-416l230 199h98l-255 -218l291 -265h-103l-261 238v-238h-72v700zM261 -231h-57l56 177h75z" />
    <glyph glyph-name="kgreenlandic" unicode="&#x138;" horiz-adv-x="541" 
d="M85 483h72v-199l230 199h98l-255 -218l291 -265h-103l-261 238v-238h-72v483z" />
    <glyph glyph-name="Lacute" unicode="&#x139;" horiz-adv-x="597" 
d="M564 0h-465v700h74v-633h391v-67zM172 763h-69l95 133h92z" />
    <glyph glyph-name="lacute" unicode="&#x13a;" horiz-adv-x="292" 
d="M196 -12c-63 0 -111 34 -111 119v593h72v-576c0 -47 21 -71 63 -71c16 0 32 4 47 13v-64c-17 -9 -40 -14 -71 -14zM160 763h-69l95 133h92z" />
    <glyph glyph-name="uni013B" unicode="&#x13b;" horiz-adv-x="597" 
d="M564 0h-465v700h74v-633h391v-67zM316 -231h-57l56 177h75z" />
    <glyph glyph-name="lcommaaccent" unicode="&#x13c;" horiz-adv-x="292" 
d="M196 -12c-63 0 -111 34 -111 119v593h72v-576c0 -47 21 -71 63 -71c16 0 32 4 47 13v-64c-17 -9 -40 -14 -71 -14zM158 -231h-57l56 177h75z" />
    <glyph glyph-name="Lcaron" unicode="&#x13d;" horiz-adv-x="613" 
d="M564 0h-465v700h74v-633h391v-67zM499 523h-57l56 177h75z" />
    <glyph glyph-name="lcaron" unicode="&#x13e;" horiz-adv-x="368" 
d="M193 -12c-63 0 -111 34 -111 119v593h72v-576c0 -47 21 -71 63 -71c16 0 32 4 47 13v-64c-17 -9 -40 -14 -71 -14zM304 523h-57l56 177h75z" />
    <glyph glyph-name="Ldot" unicode="&#x13f;" horiz-adv-x="597" 
d="M475 343c-20 20 -20 54 0 74s54 20 74 0s20 -54 0 -74s-54 -20 -74 0zM564 0h-465v700h74v-633h391v-67z" />
    <glyph glyph-name="ldot" unicode="&#x140;" horiz-adv-x="399" 
d="M197 -12c-63 0 -111 34 -111 119v593h72v-576c0 -47 21 -71 63 -71c16 0 32 4 47 13v-64c-17 -9 -40 -14 -71 -14zM265 343c-20 20 -20 54 0 74s54 20 74 0s20 -54 0 -74s-54 -20 -74 0z" />
    <glyph glyph-name="Lslash" unicode="&#x141;" horiz-adv-x="610" 
d="M17 266v71l95 58v305h74v-259l157 96v-71l-157 -96v-303h391v-67h-465v325z" />
    <glyph glyph-name="lslash" unicode="&#x142;" horiz-adv-x="384" 
d="M41 263v71l101 62v304h72v-260l102 64v-71l-102 -63v-246c0 -47 21 -71 64 -71c17 0 32 4 46 13v-65c-17 -9 -40 -14 -70 -14c-64 0 -112 34 -112 119v219z" />
    <glyph glyph-name="Nacute" unicode="&#x143;" horiz-adv-x="775" 
d="M171 0h-72v700h64l442 -572v572h72v-700h-63l-443 574v-574zM416 763h-69l95 133h92z" />
    <glyph glyph-name="nacute" unicode="&#x144;" horiz-adv-x="610" 
d="M85 0v483h72v-74c51 57 115 86 193 86c120 0 184 -74 184 -201v-294h-72v278c0 127 -78 149 -137 149c-33 0 -65 -10 -97 -31c-31 -20 -55 -43 -71 -70v-326h-72zM318 576h-70l96 134h92z" />
    <glyph glyph-name="uni0145" unicode="&#x145;" horiz-adv-x="775" 
d="M171 0h-72v700h64l442 -572v572h72v-700h-63l-443 574v-574zM377 -231h-57l56 177h75z" />
    <glyph glyph-name="uni0146" unicode="&#x146;" horiz-adv-x="610" 
d="M157 326v-326h-72v483h72v-74c51 57 115 86 193 86c120 0 184 -74 184 -201v-294h-72v278c0 127 -78 149 -137 149c-33 0 -65 -10 -97 -31c-31 -20 -55 -43 -71 -70zM286 -231h-57l56 177h75z" />
    <glyph glyph-name="Ncaron" unicode="&#x147;" horiz-adv-x="775" 
d="M423 763h-73l-110 133h71l76 -91l77 91h70zM171 0h-72v700h64l442 -572v572h72v-700h-63l-443 574v-574z" />
    <glyph glyph-name="ncaron" unicode="&#x148;" horiz-adv-x="610" 
d="M85 0v483h72v-74c51 57 115 86 193 86c120 0 184 -74 184 -201v-294h-72v278c0 127 -78 149 -137 149c-33 0 -65 -10 -97 -31c-31 -20 -55 -43 -71 -70v-326h-72zM345 576h-73l-110 134h72l75 -92l77 92h70z" />
    <glyph glyph-name="napostrophe" unicode="&#x149;" horiz-adv-x="697" 
d="M172 0v483h72v-74c51 57 115 86 193 86c120 0 184 -74 184 -201v-294h-72v278c0 127 -78 149 -137 149c-33 0 -65 -10 -97 -31c-31 -20 -55 -43 -71 -70v-326h-72zM82 523h-57l56 177h75z" />
    <glyph glyph-name="Eng" unicode="&#x14a;" horiz-adv-x="775" 
d="M499 -204c-47 0 -84 8 -113 23v74c29 -19 61 -28 96 -28c81 0 122 45 122 135v13l-432 562v-575h-73v700h63l442 -574v574h73v-709c0 -131 -66 -195 -178 -195z" />
    <glyph glyph-name="eng" unicode="&#x14b;" horiz-adv-x="610" 
d="M157 326v-326h-72v483h72v-74c51 57 115 86 193 86c120 0 184 -74 184 -201v-328c0 -103 -41 -170 -141 -170c-37 0 -65 6 -86 18v67c23 -13 47 -20 70 -20c61 0 85 35 85 114v303c0 127 -78 149 -137 149c-33 0 -65 -10 -97 -31c-31 -20 -55 -43 -71 -70z" />
    <glyph glyph-name="Omacron" unicode="&#x14c;" horiz-adv-x="845" 
d="M170 608c67 69 151 104 252 104s184 -35 251 -104s101 -155 101 -258s-34 -190 -101 -259s-150 -103 -251 -103s-185 34 -252 103s-100 156 -100 259s33 189 100 258zM225 141c53 -56 119 -84 197 -84s144 28 197 84s80 126 80 209s-27 153 -80 209s-119 84 -197 84
s-144 -28 -197 -84s-80 -126 -80 -209s27 -153 80 -209zM548 802h-252v55h252v-55z" />
    <glyph glyph-name="omacron" unicode="&#x14d;" horiz-adv-x="621" 
d="M123 420c49 50 111 75 188 75s139 -25 188 -75c49 -49 73 -109 73 -179s-24 -130 -73 -179s-111 -74 -188 -74s-139 25 -188 74s-73 109 -73 179s24 130 73 179zM498 241c0 54 -18 99 -53 135s-80 54 -134 54s-99 -18 -134 -54s-53 -81 -53 -135c0 -53 18 -98 53 -134
s80 -54 134 -54s99 18 134 54s53 81 53 134zM437 618h-252v55h252v-55z" />
    <glyph glyph-name="Obreve" unicode="&#x14e;" horiz-adv-x="845" 
d="M170 608c67 69 151 104 252 104s184 -35 251 -104s101 -155 101 -258s-34 -190 -101 -259s-150 -103 -251 -103s-185 34 -252 103s-100 156 -100 259s33 189 100 258zM225 141c53 -56 119 -84 197 -84s144 28 197 84s80 126 80 209s-27 153 -80 209s-119 84 -197 84
s-144 -28 -197 -84s-80 -126 -80 -209s27 -153 80 -209zM284 901h57c1 -49 35 -87 82 -87c45 0 80 38 81 87h57c-1 -41 -14 -74 -41 -101c-27 -26 -59 -39 -97 -39s-71 13 -98 39c-27 27 -40 60 -41 101z" />
    <glyph glyph-name="obreve" unicode="&#x14f;" horiz-adv-x="621" 
d="M123 420c49 50 111 75 188 75s139 -25 188 -75c49 -49 73 -109 73 -179s-24 -130 -73 -179s-111 -74 -188 -74s-139 25 -188 74s-73 109 -73 179s24 130 73 179zM498 241c0 54 -18 99 -53 135s-80 54 -134 54s-99 -18 -134 -54s-53 -81 -53 -135c0 -53 18 -98 53 -134
s80 -54 134 -54s99 18 134 54s53 81 53 134zM312 573c-39 0 -71 13 -98 39c-27 27 -40 60 -41 101h57c1 -49 35 -86 82 -86c45 0 80 37 81 86h57c-1 -40 -15 -73 -42 -100s-59 -40 -96 -40z" />
    <glyph glyph-name="Ohungarumlaut" unicode="&#x150;" horiz-adv-x="845" 
d="M170 608c67 69 151 104 252 104s184 -35 251 -104s101 -155 101 -258s-34 -190 -101 -259s-150 -103 -251 -103s-185 34 -252 103s-100 156 -100 259s33 189 100 258zM225 141c53 -56 119 -84 197 -84s144 28 197 84s80 126 80 209s-27 153 -80 209s-119 84 -197 84
s-144 -28 -197 -84s-80 -126 -80 -209s27 -153 80 -209zM535 763h-70l96 133h91zM363 763h-70l96 133h92z" />
    <glyph glyph-name="ohungarumlaut" unicode="&#x151;" horiz-adv-x="621" 
d="M123 420c49 50 111 75 188 75s139 -25 188 -75c49 -49 73 -109 73 -179s-24 -130 -73 -179s-111 -74 -188 -74s-139 25 -188 74s-73 109 -73 179s24 130 73 179zM498 241c0 54 -18 99 -53 135s-80 54 -134 54s-99 -18 -134 -54s-53 -81 -53 -135c0 -53 18 -98 53 -134
s80 -54 134 -54s99 18 134 54s53 81 53 134zM422 576h-70l96 134h91zM250 576h-70l95 134h92z" />
    <glyph glyph-name="OE" unicode="&#x152;" horiz-adv-x="1127" 
d="M1081 0h-631c-113 0 -204 32 -275 97c-70 65 -105 149 -105 253s35 188 105 253c71 65 162 97 275 97h617v-67h-403v-224h330v-67h-330v-275h417v-67zM459 67h132v566h-132c-98 0 -175 -26 -230 -77s-83 -119 -83 -206s27 -156 82 -207s132 -76 231 -76z" />
    <glyph glyph-name="oe" unicode="&#x153;" horiz-adv-x="1017" 
d="M967 244v-20h-397c8 -104 90 -171 206 -171c57 0 109 15 155 45v-64c-40 -31 -96 -46 -169 -46c-100 0 -185 47 -229 122c-39 -73 -122 -122 -222 -122c-76 0 -139 25 -188 74s-73 109 -73 179s24 130 73 179c49 50 112 75 188 75c99 0 180 -49 221 -124
c37 76 113 124 209 124c162 0 226 -142 226 -251zM311 53c54 0 99 18 134 54c36 36 54 81 54 134c0 54 -18 99 -54 135c-35 36 -80 54 -134 54c-53 0 -98 -18 -134 -55c-35 -36 -53 -81 -53 -134s18 -98 53 -134c36 -36 81 -54 134 -54zM571 283h323c-2 37 -16 71 -42 101
c-25 31 -63 46 -114 46c-49 0 -88 -15 -118 -44c-29 -29 -46 -64 -49 -103z" />
    <glyph glyph-name="Racute" unicode="&#x154;" horiz-adv-x="736" 
d="M173 0h-74v700h313c137 0 221 -75 221 -190c0 -99 -61 -171 -165 -188l226 -322h-87l-220 315h-214v-315zM173 633v-251h235c96 0 151 45 151 125s-56 126 -151 126h-235zM343 763h-69l95 133h92z" />
    <glyph glyph-name="racute" unicode="&#x155;" horiz-adv-x="369" 
d="M157 0h-72v483h72v-92c36 63 113 104 192 104v-73c-22 0 -42 -3 -60 -9c-64 -16 -112 -61 -132 -108v-305zM206 576h-70l96 134h92z" />
    <glyph glyph-name="uni0156" unicode="&#x156;" horiz-adv-x="736" 
d="M173 0h-74v700h313c137 0 221 -75 221 -190c0 -99 -61 -171 -165 -188l226 -322h-87l-220 315h-214v-315zM173 633v-251h235c96 0 151 45 151 125s-56 126 -151 126h-235zM343 -231h-57l56 177h75z" />
    <glyph glyph-name="uni0157" unicode="&#x157;" horiz-adv-x="369" 
d="M157 0h-72v483h72v-92c36 63 113 104 192 104v-73c-22 0 -42 -3 -60 -9c-64 -16 -112 -61 -132 -108v-305zM83 -231h-57l56 177h75z" />
    <glyph glyph-name="Rcaron" unicode="&#x158;" horiz-adv-x="736" 
d="M173 0h-74v700h313c137 0 221 -75 221 -190c0 -99 -61 -171 -165 -188l226 -322h-87l-220 315h-214v-315zM173 633v-251h235c96 0 151 45 151 125s-56 126 -151 126h-235zM374 763h-73l-110 133h71l76 -91l77 91h70z" />
    <glyph glyph-name="rcaron" unicode="&#x159;" horiz-adv-x="366" 
d="M244 576h-73l-110 134h72l75 -92l77 92h70zM154 0h-72v483h72v-92c36 63 113 104 192 104v-73c-22 0 -42 -3 -60 -9c-64 -16 -112 -61 -132 -108v-305z" />
    <glyph glyph-name="Sacute" unicode="&#x15a;" horiz-adv-x="627" 
d="M307 -12c-104 0 -202 31 -259 74v83c27 -23 63 -44 109 -62c47 -17 95 -26 145 -26c109 0 189 51 189 132c5 44 -28 77 -58 95c-8 6 -22 13 -42 20l-44 15c-10 3 -28 9 -53 16c-31 9 -56 16 -74 22s-39 14 -62 25s-40 23 -52 35c-24 25 -44 65 -44 114c0 53 21 96 64 130
s102 51 178 51c83 0 156 -19 218 -58v-76c-69 43 -141 65 -216 65c-112 0 -169 -50 -169 -114c-5 -35 23 -62 45 -79c6 -5 17 -10 33 -16l34 -13l43 -12l42 -12c29 -9 52 -16 69 -22s38 -15 61 -27s41 -25 54 -38c27 -25 49 -69 49 -120c0 -63 -25 -112 -76 -148
c-50 -36 -111 -54 -184 -54zM314 763h-69l95 133h92z" />
    <glyph glyph-name="sacute" unicode="&#x15b;" horiz-adv-x="509" 
d="M249 -12c-80 0 -160 23 -200 50v74c58 -39 124 -59 198 -59c83 0 133 29 133 77c0 26 -14 39 -34 51c-9 7 -39 15 -51 18c-6 2 -17 5 -33 8c-15 4 -26 7 -33 8c-115 29 -169 63 -169 146s71 134 194 134c73 0 131 -14 176 -43v-71c-55 33 -113 49 -173 49
c-83 0 -124 -28 -124 -71c0 -23 14 -43 37 -54c16 -5 20 -9 39 -14l22 -6c9 -3 40 -10 48 -11c111 -27 175 -62 175 -145c0 -43 -19 -78 -58 -103c-38 -25 -87 -38 -147 -38zM254 576h-70l96 134h92z" />
    <glyph glyph-name="Scircumflex" unicode="&#x15c;" horiz-adv-x="627" 
d="M307 -12c-104 0 -202 31 -259 74v83c27 -23 63 -44 109 -62c47 -17 95 -26 145 -26c109 0 189 51 189 132c5 44 -28 77 -58 95c-8 6 -22 13 -42 20l-44 15c-10 3 -28 9 -53 16c-31 9 -56 16 -74 22s-39 14 -62 25s-40 23 -52 35c-24 25 -44 65 -44 114c0 53 21 96 64 130
s102 51 178 51c83 0 156 -19 218 -58v-76c-69 43 -141 65 -216 65c-112 0 -169 -50 -169 -114c-5 -35 23 -62 45 -79c6 -5 17 -10 33 -16l34 -13l43 -12l42 -12c29 -9 52 -16 69 -22s38 -15 61 -27s41 -25 54 -38c27 -25 49 -69 49 -120c0 -63 -25 -112 -76 -148
c-50 -36 -111 -54 -184 -54zM236 763h-71l111 133h72l111 -133h-71l-76 92z" />
    <glyph glyph-name="scircumflex" unicode="&#x15d;" horiz-adv-x="509" 
d="M249 -12c-80 0 -160 23 -200 50v74c58 -39 124 -59 198 -59c83 0 133 29 133 77c0 26 -14 39 -34 51c-9 7 -39 15 -51 18c-6 2 -17 5 -33 8c-15 4 -26 7 -33 8c-115 29 -169 63 -169 146s71 134 194 134c73 0 131 -14 176 -43v-71c-55 33 -113 49 -173 49
c-83 0 -124 -28 -124 -71c0 -23 14 -43 37 -54c16 -5 20 -9 39 -14l22 -6c9 -3 40 -10 48 -11c111 -27 175 -62 175 -145c0 -43 -19 -78 -58 -103c-38 -25 -87 -38 -147 -38zM177 576h-71l112 134h73l110 -134h-71l-77 92z" />
    <glyph glyph-name="Scedilla" unicode="&#x15e;" horiz-adv-x="627" 
d="M294 -132h-87l84 120c-97 3 -188 34 -243 74v83c27 -23 63 -44 109 -62c47 -17 95 -26 145 -26c109 0 189 51 189 132c5 44 -28 77 -58 95c-8 6 -22 13 -42 20l-44 15c-10 3 -28 9 -53 16c-31 9 -56 16 -74 22s-39 14 -62 25s-40 23 -52 35c-24 25 -44 65 -44 114
c0 53 21 96 64 130s102 51 178 51c83 0 156 -19 218 -58v-76c-69 43 -141 65 -216 65c-112 0 -169 -50 -169 -114c-5 -35 23 -62 45 -79c6 -5 17 -10 33 -16l34 -13l43 -12l42 -12c29 -9 52 -16 69 -22s38 -15 61 -27s41 -25 54 -38c27 -25 49 -69 49 -120
c0 -55 -20 -100 -59 -135c-39 -34 -90 -55 -151 -63z" />
    <glyph glyph-name="scedilla" unicode="&#x15f;" horiz-adv-x="509" 
d="M230 -132h-87l84 121c-72 3 -141 24 -178 49v74c58 -39 124 -59 198 -59c83 0 133 29 133 77c0 26 -14 39 -34 51c-9 7 -39 15 -51 18c-6 2 -17 5 -33 8c-15 4 -26 7 -33 8c-115 29 -169 63 -169 146s71 134 194 134c73 0 131 -14 176 -43v-71c-55 33 -113 49 -173 49
c-83 0 -124 -28 -124 -71c0 -23 14 -43 37 -54c16 -5 20 -9 39 -14l22 -6c9 -3 40 -10 48 -11c111 -27 175 -62 175 -145c0 -76 -64 -127 -161 -138z" />
    <glyph glyph-name="Scaron" unicode="&#x160;" horiz-adv-x="627" 
d="M307 -12c-104 0 -202 31 -259 74v83c27 -23 63 -44 109 -62c47 -17 95 -26 145 -26c109 0 189 51 189 132c5 44 -28 77 -58 95c-8 6 -22 13 -42 20l-44 15c-10 3 -28 9 -53 16c-31 9 -56 16 -74 22s-39 14 -62 25s-40 23 -52 35c-24 25 -44 65 -44 114c0 53 21 96 64 130
s102 51 178 51c83 0 156 -19 218 -58v-76c-69 43 -141 65 -216 65c-112 0 -169 -50 -169 -114c-5 -35 23 -62 45 -79c6 -5 17 -10 33 -16l34 -13l43 -12l42 -12c29 -9 52 -16 69 -22s38 -15 61 -27s41 -25 54 -38c27 -25 49 -69 49 -120c0 -63 -25 -112 -76 -148
c-50 -36 -111 -54 -184 -54zM337 763h-73l-110 133h71l76 -91l77 91h70z" />
    <glyph glyph-name="scaron" unicode="&#x161;" horiz-adv-x="509" 
d="M249 -12c-80 0 -160 23 -200 50v74c58 -39 124 -59 198 -59c83 0 133 29 133 77c0 26 -14 39 -34 51c-9 7 -39 15 -51 18c-6 2 -17 5 -33 8c-15 4 -26 7 -33 8c-115 29 -169 63 -169 146s71 134 194 134c73 0 131 -14 176 -43v-71c-55 33 -113 49 -173 49
c-83 0 -124 -28 -124 -71c0 -23 14 -43 37 -54c16 -5 20 -9 39 -14l22 -6c9 -3 40 -10 48 -11c111 -27 175 -62 175 -145c0 -43 -19 -78 -58 -103c-38 -25 -87 -38 -147 -38zM289 576h-73l-110 134h72l75 -92l77 92h70z" />
    <glyph glyph-name="uni0162" unicode="&#x162;" horiz-adv-x="630" 
d="M190 -132l87 132v633h-241v67h559v-67h-244v-633l-74 -132h-87z" />
    <glyph glyph-name="uni0163" unicode="&#x163;" horiz-adv-x="430" 
d="M141 137v283h-114v63h114v149h72v-149h169v-63h-169v-261c0 -38 6 -65 19 -80s35 -23 65 -23s56 7 79 20v-66c-17 -11 -43 -18 -79 -21l-62 -121h-87l87 125c-63 14 -94 62 -94 144z" />
    <glyph glyph-name="Tcaron" unicode="&#x164;" horiz-adv-x="630" 
d="M351 763h-73l-110 133h71l76 -91l77 91h70zM351 0h-74v633h-241v67h559v-67h-244v-633z" />
    <glyph glyph-name="tcaron" unicode="&#x165;" horiz-adv-x="557" 
d="M288 -12c-92 0 -136 58 -136 149v283h-114v63h114v149h72v-149h169v-63h-169v-261c0 -76 24 -103 84 -103c30 0 56 7 79 20v-66c-21 -15 -54 -22 -99 -22zM493 523h-57l56 177h75z" />
    <glyph glyph-name="Tbar" unicode="&#x166;" horiz-adv-x="630" 
d="M351 0h-74v338h-134v67h134v228h-241v67h559v-67h-244v-228h135v-67h-135v-338z" />
    <glyph glyph-name="tbar" unicode="&#x167;" horiz-adv-x="430" 
d="M277 -12c-92 0 -136 58 -136 149v94h-114v63h114v126h-114v63h114v149h72v-149h169v-63h-169v-126h169v-63h-169v-72c0 -38 6 -65 19 -80s35 -23 65 -23s56 7 79 20v-66c-21 -15 -54 -22 -99 -22z" />
    <glyph glyph-name="Utilde" unicode="&#x168;" horiz-adv-x="748" 
d="M445 772c-19 0 -43 9 -74 28s-52 29 -64 29c-25 0 -38 -18 -41 -53h-49c3 63 36 110 87 110c19 0 43 -9 74 -28s53 -28 64 -28c27 0 34 19 41 52h49c-1 -64 -35 -110 -87 -110zM374 -12c-85 0 -154 27 -207 81s-79 130 -79 229v402h74v-403c0 -152 81 -240 212 -240
s212 88 212 240v403h74v-402c0 -99 -27 -175 -80 -229s-121 -81 -206 -81z" />
    <glyph glyph-name="utilde" unicode="&#x169;" horiz-adv-x="611" 
d="M526 483v-483h-72v74c-51 -57 -115 -86 -193 -86c-120 0 -184 74 -184 201v294h72v-278c0 -127 78 -149 137 -149c33 0 65 10 96 30c32 21 56 44 72 71v326h72zM372 589c-19 0 -43 9 -74 28s-52 28 -64 28c-25 0 -38 -17 -41 -52h-49c3 64 36 110 87 110
c19 0 43 -9 74 -28s53 -28 64 -28c27 0 34 19 41 52h49c-1 -64 -35 -110 -87 -110z" />
    <glyph glyph-name="Umacron" unicode="&#x16a;" horiz-adv-x="748" 
d="M374 -12c-85 0 -154 27 -207 81s-79 130 -79 229v402h74v-403c0 -152 81 -240 212 -240s212 88 212 240v403h74v-402c0 -99 -27 -175 -80 -229s-121 -81 -206 -81zM501 802h-252v55h252v-55z" />
    <glyph glyph-name="umacron" unicode="&#x16b;" horiz-adv-x="611" 
d="M526 483v-483h-72v74c-51 -57 -115 -86 -193 -86c-120 0 -184 74 -184 201v294h72v-278c0 -127 78 -149 137 -149c33 0 65 10 96 30c32 21 56 44 72 71v326h72zM427 618h-252v55h252v-55z" />
    <glyph glyph-name="Ubreve" unicode="&#x16c;" horiz-adv-x="748" 
d="M374 -12c-85 0 -154 27 -207 81s-79 130 -79 229v402h74v-403c0 -152 81 -240 212 -240s212 88 212 240v403h74v-402c0 -99 -27 -175 -80 -229s-121 -81 -206 -81zM236 896h57c1 -49 35 -87 82 -87c45 0 80 38 81 87h57c-1 -41 -14 -74 -41 -101c-27 -26 -59 -39 -97 -39
s-71 13 -98 39c-27 27 -40 60 -41 101z" />
    <glyph glyph-name="ubreve" unicode="&#x16d;" horiz-adv-x="611" 
d="M526 483v-483h-72v74c-51 -57 -115 -86 -193 -86c-120 0 -184 74 -184 201v294h72v-278c0 -127 78 -149 137 -149c33 0 65 10 96 30c32 21 56 44 72 71v326h72zM302 570c-39 0 -71 13 -98 39c-27 27 -40 60 -41 101h57c1 -49 35 -86 82 -86c45 0 80 37 81 86h57
c-1 -40 -15 -73 -42 -100s-59 -40 -96 -40z" />
    <glyph glyph-name="Uring" unicode="&#x16e;" horiz-adv-x="748" 
d="M376 926c52 0 95 -43 95 -96s-43 -96 -95 -96c-53 0 -97 43 -97 96s44 96 97 96zM376 774c31 0 55 25 55 56c0 32 -24 56 -55 56c-32 0 -57 -24 -57 -56c0 -31 25 -56 57 -56zM374 -12c-85 0 -154 27 -207 81s-79 130 -79 229v402h74v-403c0 -152 81 -240 212 -240
s212 88 212 240v403h74v-402c0 -99 -27 -175 -80 -229s-121 -81 -206 -81z" />
    <glyph glyph-name="uring" unicode="&#x16f;" horiz-adv-x="611" 
d="M526 483v-483h-72v74c-51 -57 -115 -86 -193 -86c-120 0 -184 74 -184 201v294h72v-278c0 -127 78 -149 137 -149c33 0 65 10 96 30c32 21 56 44 72 71v326h72zM233 714c37 37 99 37 136 0s37 -99 0 -136s-99 -37 -136 0s-37 99 0 136zM301 590c32 0 56 25 56 56
c0 32 -24 56 -56 56c-31 0 -56 -24 -56 -56c0 -31 25 -56 56 -56z" />
    <glyph glyph-name="Uhungarumlaut" unicode="&#x170;" horiz-adv-x="748" 
d="M374 -12c-85 0 -154 27 -207 81s-79 130 -79 229v402h74v-403c0 -152 81 -240 212 -240s212 88 212 240v403h74v-402c0 -99 -27 -175 -80 -229s-121 -81 -206 -81zM477 763h-70l96 133h91zM305 763h-70l96 133h92z" />
    <glyph glyph-name="uhungarumlaut" unicode="&#x171;" horiz-adv-x="612" 
d="M526 483v-483h-72v74c-51 -57 -115 -86 -193 -86c-120 0 -184 74 -184 201v294h72v-278c0 -127 78 -149 137 -149c33 0 65 10 96 30c32 21 56 44 72 71v326h72zM410 576h-70l96 134h91zM238 576h-70l95 134h92z" />
    <glyph glyph-name="Uogonek" unicode="&#x172;" horiz-adv-x="748" 
d="M490 -189c-105 -4 -145 105 -82 180c-10 -2 -21 -3 -34 -3c-85 0 -154 27 -207 81s-79 130 -79 229v402h74v-403c0 -152 81 -240 212 -240s212 88 212 240v403h74v-402c0 -135 -47 -218 -147 -278c-49 -29 -81 -57 -81 -97c0 -39 28 -65 69 -65c11 0 25 2 40 7v-48
c-13 -4 -30 -6 -51 -6z" />
    <glyph glyph-name="uogonek" unicode="&#x173;" horiz-adv-x="612" 
d="M547 -195c-69 0 -112 42 -112 99c0 35 13 67 40 96h-21v74c-51 -57 -115 -86 -193 -86c-120 0 -184 74 -184 201v294h72v-278c0 -127 78 -149 137 -149c33 0 65 10 96 30c32 21 56 44 72 71v326h72v-483c-25 -26 -37 -54 -37 -83c0 -39 28 -65 69 -65c11 0 25 2 40 7v-48
c-13 -4 -30 -6 -51 -6z" />
    <glyph glyph-name="Wcircumflex" unicode="&#x174;" horiz-adv-x="1053" 
d="M346 -4h-65l-242 704h82l195 -583l181 586h60l182 -586l194 583h80l-241 -704h-65l-180 578zM450 763h-71l111 133h72l111 -133h-71l-76 92z" />
    <glyph glyph-name="wcircumflex" unicode="&#x175;" horiz-adv-x="827" 
d="M274 -3h-63l-173 486h74l135 -376l132 378h61l133 -378l134 376h73l-173 -486h-63l-136 379zM333 576h-71l112 134h73l110 -134h-71l-77 92z" />
    <glyph glyph-name="Ycircumflex" unicode="&#x176;" horiz-adv-x="664" 
d="M369 0h-74v321l-272 379h86l224 -310l224 310h84l-272 -378v-322zM256 763h-71l111 133h72l111 -133h-71l-76 92z" />
    <glyph glyph-name="ycircumflex" unicode="&#x177;" horiz-adv-x="555" 
d="M112 -204c-35 0 -61 5 -77 14v67c21 -11 43 -16 66 -16c60 0 98 48 143 157l-215 465h80l171 -380l166 380h78l-239 -537c-43 -100 -101 -150 -173 -150zM204 576h-71l112 134h73l110 -134h-71l-77 92z" />
    <glyph glyph-name="Ydieresis" unicode="&#x178;" horiz-adv-x="664" 
d="M369 0h-74v321l-272 379h86l224 -310l224 310h84l-272 -378v-322zM202 794c-19 19 -19 50 0 67c19 19 47 19 66 0c19 -17 19 -48 0 -67c-19 -17 -47 -17 -66 0zM402 794c-19 19 -19 50 0 67c19 19 47 19 66 0c19 -17 19 -48 0 -67c-19 -17 -47 -17 -66 0z" />
    <glyph glyph-name="Zacute" unicode="&#x179;" horiz-adv-x="642" 
d="M593 0h-544v53l429 580h-405v67h504v-52l-425 -581h441v-67zM340 763h-69l95 133h92z" />
    <glyph glyph-name="zacute" unicode="&#x17a;" horiz-adv-x="504" 
d="M465 0h-427v48l308 372h-287v63h390v-50l-307 -370h323v-63zM261 576h-70l96 134h92z" />
    <glyph glyph-name="Zdotaccent" unicode="&#x17b;" horiz-adv-x="642" 
d="M593 0h-544v53l429 580h-405v67h504v-52l-425 -581h441v-67zM288 794c-19 19 -19 47 0 66s47 19 66 0s19 -47 0 -66s-47 -19 -66 0z" />
    <glyph glyph-name="zdotaccent" unicode="&#x17c;" horiz-adv-x="504" 
d="M465 0h-427v48l308 372h-287v63h390v-50l-307 -370h323v-63zM218 612c-19 19 -19 50 0 67c19 19 47 19 66 0c19 -17 19 -48 0 -67c-19 -17 -47 -17 -66 0z" />
    <glyph glyph-name="Zcaron" unicode="&#x17d;" horiz-adv-x="642" 
d="M357 763h-73l-110 133h71l76 -91l77 91h70zM593 0h-544v53l429 580h-405v67h504v-52l-425 -581h441v-67z" />
    <glyph glyph-name="zcaron" unicode="&#x17e;" horiz-adv-x="504" 
d="M286 576h-73l-110 134h72l75 -92l77 92h70zM465 0h-427v48l308 372h-287v63h390v-50l-307 -370h323v-63z" />
    <glyph glyph-name="longs" unicode="&#x17f;" horiz-adv-x="343" 
d="M195 550v-550h-72v420h-96v63h96v81c0 88 49 144 138 144c40 0 74 -6 102 -19v-66c-31 13 -59 20 -84 20c-56 0 -84 -31 -84 -93z" />
    <glyph glyph-name="florin" unicode="&#x192;" horiz-adv-x="523" 
d="M26 -204c-34 0 -62 6 -85 17v65c26 -11 50 -17 72 -17c73 0 122 52 135 145l50 333h-128v63h139l18 115c21 127 84 191 191 191c34 0 63 -5 87 -16v-66c-26 11 -51 17 -74 17c-75 0 -117 -40 -133 -141l-16 -100h160v-63h-170l-54 -350c-19 -115 -81 -193 -192 -193z" />
    <glyph glyph-name="uni0218" unicode="&#x218;" horiz-adv-x="627" 
d="M307 -12c-104 0 -202 31 -259 74v83c27 -23 63 -44 109 -62c47 -17 95 -26 145 -26c109 0 189 51 189 132c5 44 -28 77 -58 95c-8 6 -22 13 -42 20l-44 15c-10 3 -28 9 -53 16c-31 9 -56 16 -74 22s-39 14 -62 25s-40 23 -52 35c-24 25 -44 65 -44 114c0 53 21 96 64 130
s102 51 178 51c83 0 156 -19 218 -58v-76c-69 43 -141 65 -216 65c-112 0 -169 -50 -169 -114c-5 -35 23 -62 45 -79c6 -5 17 -10 33 -16l34 -13l43 -12l42 -12c29 -9 52 -16 69 -22s38 -15 61 -27s41 -25 54 -38c27 -25 49 -69 49 -120c0 -63 -25 -112 -76 -148
c-50 -36 -111 -54 -184 -54zM286 -231h-57l56 177h75z" />
    <glyph glyph-name="uni0219" unicode="&#x219;" horiz-adv-x="509" 
d="M249 -12c-80 0 -160 23 -200 50v74c58 -39 124 -59 198 -59c83 0 133 29 133 77c0 26 -14 39 -34 51c-9 7 -39 15 -51 18c-6 2 -17 5 -33 8c-15 4 -26 7 -33 8c-115 29 -169 63 -169 146s71 134 194 134c73 0 131 -14 176 -43v-71c-55 33 -113 49 -173 49
c-83 0 -124 -28 -124 -71c0 -23 14 -43 37 -54c16 -5 20 -9 39 -14l22 -6c9 -3 40 -10 48 -11c111 -27 175 -62 175 -145c0 -43 -19 -78 -58 -103c-38 -25 -87 -38 -147 -38zM229 -231h-57l56 177h75z" />
    <glyph glyph-name="uni021A" unicode="&#x21a;" horiz-adv-x="630" 
d="M351 0h-74v633h-241v67h559v-67h-244v-633zM278 -231h-57l56 177h75z" />
    <glyph glyph-name="uni021B" unicode="&#x21b;" horiz-adv-x="430" 
d="M277 -12c-92 0 -136 58 -136 149v283h-114v63h114v149h72v-149h169v-63h-169v-261c0 -38 6 -65 19 -80s35 -23 65 -23s56 7 79 20v-66c-21 -15 -54 -22 -99 -22zM241 -231h-57l56 177h75z" />
    <glyph glyph-name="circumflex" unicode="&#x2c6;" horiz-adv-x="532" 
d="M190 576h-71l112 134h73l110 -134h-71l-77 92z" />
    <glyph glyph-name="caron" unicode="&#x2c7;" horiz-adv-x="498" 
d="M285 576h-73l-110 134h72l75 -92l77 92h70z" />
    <glyph glyph-name="uni02C9" unicode="&#x2c9;" horiz-adv-x="516" 
d="M424 618h-331v53h331v-53z" />
    <glyph glyph-name="breve" unicode="&#x2d8;" horiz-adv-x="506" 
d="M252 570c-39 0 -71 13 -98 39c-27 27 -40 60 -41 101h57c1 -49 35 -86 82 -86c45 0 80 37 81 86h57c-1 -40 -15 -73 -42 -100s-59 -40 -96 -40z" />
    <glyph glyph-name="dotaccent" unicode="&#x2d9;" horiz-adv-x="545" 
d="M238 612c-17 19 -17 50 0 67c19 19 50 19 67 0c19 -17 19 -48 0 -67c-17 -17 -48 -17 -67 0z" />
    <glyph glyph-name="ring" unicode="&#x2da;" horiz-adv-x="538" 
d="M195 714c37 37 99 37 136 0s37 -99 0 -136s-99 -37 -136 0s-37 99 0 136zM263 590c32 0 56 25 56 56c0 32 -24 56 -56 56c-31 0 -56 -24 -56 -56c0 -31 25 -56 56 -56z" />
    <glyph glyph-name="ogonek" unicode="&#x2db;" horiz-adv-x="513" 
d="M308 -189c-69 0 -112 42 -112 99c0 35 13 67 40 96h51c-25 -26 -37 -54 -37 -83c0 -39 28 -65 69 -65c11 0 25 2 40 7v-48c-13 -4 -30 -6 -51 -6z" />
    <glyph glyph-name="tilde" unicode="&#x2dc;" horiz-adv-x="519" 
d="M329 589c-19 0 -43 9 -74 28s-52 28 -64 28c-25 0 -38 -17 -41 -52h-49c3 64 36 110 87 110c19 0 43 -9 74 -28s53 -28 64 -28c27 0 34 19 41 52h49c-1 -64 -35 -110 -87 -110z" />
    <glyph glyph-name="hungarumlaut" unicode="&#x2dd;" horiz-adv-x="574" 
d="M354 576h-70l96 134h91zM182 576h-70l95 134h92z" />
    <glyph glyph-name="acutecomb" unicode="&#x301;" horiz-adv-x="20" 
d="M-250 576h-70l96 134h92z" />
    <glyph glyph-name="uni037E" unicode="&#x37e;" horiz-adv-x="242" 
d="M73 -152h-58l80 255h84zM96 381c-20 20 -20 54 0 74s54 20 74 0s20 -54 0 -74s-54 -20 -74 0z" />
    <glyph glyph-name="uni0394" unicode="&#x394;" horiz-adv-x="753" 
d="M724 0h-694l312 700h69zM376 607l-242 -540h484z" />
    <glyph glyph-name="uni03A9" unicode="&#x3a9;" horiz-adv-x="804" 
d="M310 0h-208v67h117c-69 69 -120 181 -120 301c0 99 28 181 84 246s129 98 219 98s163 -33 219 -98s84 -147 84 -246c0 -120 -50 -232 -121 -301h117v-67h-208v57c39 32 71 75 97 128c27 53 40 111 40 172c0 84 -22 153 -65 206s-97 80 -163 80c-67 0 -122 -27 -165 -80
s-64 -122 -64 -206c0 -61 13 -119 39 -172c27 -53 59 -96 98 -128v-57z" />
    <glyph glyph-name="uni03BC" unicode="&#x3bc;" horiz-adv-x="619" 
d="M462 157v326h72v-483h-72v74c-51 -57 -115 -86 -193 -86c-44 0 -81 10 -112 30v-218h-72v683h72v-278c0 -127 78 -149 137 -149c33 0 65 10 96 30c32 21 56 44 72 71z" />
    <glyph glyph-name="pi" unicode="&#x3c0;" horiz-adv-x="685" 
d="M564 -6c-73 0 -110 44 -110 131v295h-248v-420h-72v420h-93v63h583v-63h-98v-274c0 -61 17 -87 58 -87c15 0 29 3 40 10v-61c-15 -9 -35 -14 -60 -14z" />
    <glyph glyph-name="uni0401" unicode="&#x401;" horiz-adv-x="640" 
d="M594 0h-495v700h480v-67h-406v-224h333v-67h-333v-275h421v-67zM214 794c-19 19 -19 50 0 67c19 19 47 19 66 0c19 -17 19 -48 0 -67c-19 -17 -47 -17 -66 0zM414 794c-19 19 -19 50 0 67c19 19 47 19 66 0c19 -17 19 -48 0 -67c-19 -17 -47 -17 -66 0z" />
    <glyph glyph-name="uni0402" unicode="&#x402;" horiz-adv-x="757" 
d="M490 -10c-42 0 -77 5 -106 16v68c31 -11 64 -17 97 -17c95 0 155 57 155 142c0 41 -16 76 -49 105s-78 44 -135 44c-71 0 -135 -15 -192 -44v-304h-74v633h-150v67h486v-67h-262v-258c62 28 129 42 202 42s133 -20 178 -61c46 -41 69 -93 69 -158
c0 -61 -20 -111 -60 -150c-39 -39 -92 -58 -159 -58z" />
    <glyph glyph-name="uni0403" unicode="&#x403;" horiz-adv-x="605" 
d="M173 0h-74v700h469v-67h-395v-633zM344 763h-69l95 133h92z" />
    <glyph glyph-name="uni0404" unicode="&#x404;" horiz-adv-x="688" 
d="M428 -12c-101 0 -186 35 -255 104s-103 155 -103 258s34 189 102 258c69 69 154 104 256 104c74 0 139 -17 194 -52v-76c-61 39 -127 59 -196 59c-72 0 -134 -24 -186 -71c-51 -47 -80 -108 -87 -181h325v-67h-328c5 -77 33 -141 86 -192c53 -50 117 -75 192 -75
c83 0 153 23 210 70v-78c-55 -41 -125 -61 -210 -61z" />
    <glyph glyph-name="uni0405" unicode="&#x405;" horiz-adv-x="626" 
d="M306 -12c-104 0 -202 31 -259 74v83c27 -23 63 -44 109 -62c47 -17 95 -26 145 -26c109 0 189 51 189 132c5 44 -28 77 -58 95c-8 6 -22 13 -42 20l-44 15c-10 3 -28 9 -53 16c-31 9 -56 16 -74 22s-39 14 -62 25s-40 23 -52 35c-24 25 -44 65 -44 114c0 53 21 96 64 130
s102 51 178 51c83 0 156 -19 218 -58v-76c-69 43 -141 65 -216 65c-112 0 -169 -50 -169 -114c-5 -35 23 -62 45 -79c6 -5 17 -10 33 -16l34 -13l43 -12l42 -12c29 -9 52 -16 69 -22s38 -15 61 -27s41 -25 54 -38c27 -25 49 -69 49 -120c0 -63 -25 -112 -76 -148
c-50 -36 -111 -54 -184 -54z" />
    <glyph glyph-name="uni0406" unicode="&#x406;" horiz-adv-x="281" 
d="M178 0h-74v700h74v-700z" />
    <glyph glyph-name="uni0407" unicode="&#x407;" horiz-adv-x="280" 
d="M176 0h-74v700h74v-700zM6 794c-17 19 -17 50 0 67c19 19 50 19 67 0c19 -17 19 -48 0 -67c-17 -17 -48 -17 -67 0zM206 794c-17 19 -17 50 0 67c19 19 50 19 67 0c19 -17 19 -48 0 -67c-17 -17 -48 -17 -67 0z" />
    <glyph glyph-name="uni0408" unicode="&#x408;" horiz-adv-x="507" 
d="M196 -12c-65 0 -119 15 -160 45v77c39 -35 88 -53 147 -53c107 0 161 56 161 169v474h74v-487c0 -152 -83 -225 -222 -225z" />
    <glyph glyph-name="uni0409" unicode="&#x409;" horiz-adv-x="1113" 
d="M620 372v-305h189c115 0 182 55 182 152s-66 153 -182 153h-189zM189 528l3 172h428v-261h194c79 0 140 -20 184 -61c45 -41 67 -94 67 -159c0 -132 -94 -219 -251 -219h-268v633h-282l-5 -160c-4 -129 -10 -213 -30 -296c-28 -119 -83 -174 -188 -178c-13 0 -23 0 -28 1
v68c5 -1 15 -2 28 -2c65 0 99 51 120 130c7 25 12 56 16 94c4 39 7 75 8 110c2 35 3 77 4 128z" />
    <glyph glyph-name="uni040A" unicode="&#x40a;" horiz-adv-x="1136" 
d="M173 0h-74v700h74v-261h396v261h74v-261h194c79 0 140 -20 184 -61c45 -41 67 -94 67 -159c0 -132 -94 -219 -251 -219h-268v372h-396v-372zM643 372v-305h189c116 0 182 55 182 152s-66 153 -182 153h-189z" />
    <glyph glyph-name="uni040B" unicode="&#x40b;" horiz-adv-x="779" 
d="M260 0h-74v633h-150v67h486v-67h-262v-253c69 25 137 37 204 37c159 0 245 -63 245 -215v-202h-74v185c0 121 -54 163 -187 163c-65 0 -128 -13 -188 -40v-308z" />
    <glyph glyph-name="uni040C" unicode="&#x40c;" horiz-adv-x="661" 
d="M99 700h74v-304l324 304h98l-344 -320l397 -380h-104l-371 356v-356h-74v700zM344 763h-69l95 133h92z" />
    <glyph glyph-name="uni040E" unicode="&#x40e;" horiz-adv-x="646" 
d="M177 -12c-37 0 -66 5 -88 14v69c23 -9 49 -14 76 -14c35 0 62 12 86 44c12 16 21 30 28 42s16 30 28 54l-282 503h82l236 -427l197 427h79l-258 -552c-55 -117 -113 -160 -184 -160zM323 749c-100 0 -166 60 -167 152h64c0 -55 40 -94 103 -94c60 0 100 39 101 94h64
c-1 -46 -17 -83 -48 -111c-31 -27 -70 -41 -117 -41z" />
    <glyph glyph-name="uni040F" unicode="&#x40f;" horiz-adv-x="741" 
d="M405 -156h-70v156h-236v700h74v-633h396v633h74v-700h-238v-156z" />
    <glyph glyph-name="uni0410" unicode="&#x410;" horiz-adv-x="753" 
d="M107 0h-77l312 704h69l313 -704h-78l-87 193h-367zM376 611l-159 -353h318z" />
    <glyph glyph-name="uni0411" unicode="&#x411;" horiz-adv-x="697" 
d="M385 0h-286v700h478v-67h-404v-198h212c78 0 139 -20 182 -60c44 -40 66 -93 66 -158c0 -131 -92 -217 -248 -217zM173 368v-301h205c115 0 181 55 181 151c0 95 -66 150 -181 150h-205z" />
    <glyph glyph-name="uni0412" unicode="&#x412;" horiz-adv-x="726" 
d="M433 0h-334v700h303c124 0 201 -65 201 -170c0 -73 -35 -127 -92 -148c92 -15 152 -84 152 -187c0 -117 -87 -195 -230 -195zM173 339v-272h247c104 0 164 50 164 137c0 85 -60 135 -164 135h-247zM173 633v-229h217c89 0 140 40 140 113c0 75 -51 116 -140 116h-217z
" />
    <glyph glyph-name="uni0413" unicode="&#x413;" horiz-adv-x="605" 
d="M173 0h-74v700h469v-67h-395v-633z" />
    <glyph glyph-name="uni0414" unicode="&#x414;" horiz-adv-x="776" 
d="M86 -156h-69v223h66c43 61 74 132 93 213s29 193 29 336v84h432v-633h106v-223h-69v156h-588v-156zM166 67h397v566h-285v-47c0 -238 -37 -411 -112 -519z" />
    <glyph glyph-name="uni0415" unicode="&#x415;" horiz-adv-x="640" 
d="M594 0h-495v700h480v-67h-406v-224h333v-67h-333v-275h421v-67z" />
    <glyph glyph-name="uni0416" unicode="&#x416;" horiz-adv-x="987" 
d="M68 700h94l293 -311v311h74v-313l295 313h94l-314 -332l354 -368h-99l-330 344v-344h-74v342l-328 -342h-98l353 368z" />
    <glyph glyph-name="uni0417" unicode="&#x417;" horiz-adv-x="626" 
d="M281 -12c-93 0 -172 18 -236 54v76c69 -41 144 -61 225 -61c133 0 217 58 217 149c0 81 -78 139 -195 139h-86v67h94c99 0 157 43 157 116s-70 115 -171 115c-68 0 -137 -16 -208 -49v70c69 32 140 48 211 48s128 -16 173 -49s68 -76 68 -131c0 -42 -12 -75 -36 -100
c-23 -24 -49 -41 -78 -50c39 -12 73 -33 102 -63c30 -29 45 -69 45 -118c0 -62 -25 -113 -76 -153s-119 -60 -206 -60z" />
    <glyph glyph-name="uni0418" unicode="&#x418;" horiz-adv-x="770" 
d="M161 0h-62v700h73v-576l435 576h65v-700h-73v578z" />
    <glyph glyph-name="uni0419" unicode="&#x419;" horiz-adv-x="770" 
d="M161 0h-62v700h73v-576l435 576h65v-700h-73v578zM385 749c-100 0 -166 60 -167 152h64c0 -55 40 -94 103 -94c60 0 100 39 101 94h64c-1 -46 -17 -83 -48 -111c-31 -27 -70 -41 -117 -41z" />
    <glyph glyph-name="uni041A" unicode="&#x41a;" horiz-adv-x="661" 
d="M99 700h74v-304l324 304h98l-344 -320l397 -380h-104l-371 356v-356h-74v700z" />
    <glyph glyph-name="uni041B" unicode="&#x41b;" horiz-adv-x="728" 
d="M13 0v68c5 -1 15 -2 28 -2c64 0 97 49 118 125c7 24 13 54 16 90c4 37 7 72 9 106s3 75 4 122l4 191h438v-700h-74v633h-292l-5 -160c-4 -129 -10 -213 -30 -296c-28 -119 -83 -174 -188 -178c-13 0 -23 0 -28 1z" />
    <glyph glyph-name="uni041C" unicode="&#x41c;" horiz-adv-x="848" 
d="M172 0h-73v700h73l253 -339l253 339h72v-700h-73v588l-229 -306h-45l-231 306v-588z" />
    <glyph glyph-name="uni041D" unicode="&#x41d;" horiz-adv-x="761" 
d="M173 0h-74v700h74v-291h416v291h74v-700h-74v342h-416v-342z" />
    <glyph glyph-name="uni041E" unicode="&#x41e;" horiz-adv-x="845" 
d="M170 608c67 69 151 104 252 104s184 -35 251 -104s101 -155 101 -258s-34 -190 -101 -259s-150 -103 -251 -103s-185 34 -252 103s-100 156 -100 259s33 189 100 258zM225 141c53 -56 119 -84 197 -84s144 28 197 84s80 126 80 209s-27 153 -80 209s-119 84 -197 84
s-144 -28 -197 -84s-80 -126 -80 -209s27 -153 80 -209z" />
    <glyph glyph-name="uni041F" unicode="&#x41f;" horiz-adv-x="746" 
d="M173 0h-74v700h549v-700h-74v633h-401v-633z" />
    <glyph glyph-name="uni0420" unicode="&#x420;" horiz-adv-x="665" 
d="M173 0h-74v700h294c140 0 224 -78 224 -194c0 -119 -84 -197 -224 -197h-220v-309zM173 633v-257h215c99 0 156 47 156 128c0 83 -57 129 -156 129h-215z" />
    <glyph glyph-name="uni0421" unicode="&#x421;" horiz-adv-x="690" 
d="M429 -12c-103 0 -188 34 -257 102c-68 68 -102 155 -102 260s34 191 102 259c69 69 154 103 257 103c76 0 141 -17 196 -52v-76c-61 39 -126 59 -195 59c-81 0 -148 -28 -203 -84c-55 -55 -82 -125 -82 -209c0 -85 27 -155 82 -210s124 -83 205 -83s150 23 208 70v-77
c-57 -41 -127 -62 -211 -62z" />
    <glyph glyph-name="uni0422" unicode="&#x422;" horiz-adv-x="630" 
d="M351 0h-74v633h-241v67h559v-67h-244v-633z" />
    <glyph glyph-name="uni0423" unicode="&#x423;" horiz-adv-x="646" 
d="M177 -12c-37 0 -66 5 -88 14v69c23 -9 49 -14 76 -14c35 0 62 12 86 44c12 16 21 30 28 42s16 30 28 54l-282 503h82l236 -427l197 427h79l-258 -552c-55 -117 -113 -160 -184 -160z" />
    <glyph glyph-name="uni0424" unicode="&#x424;" horiz-adv-x="912" 
d="M492 -21h-74v72c-114 2 -201 32 -260 89s-88 128 -88 211s29 153 88 212s146 89 260 91v64h74v-64c114 -2 201 -32 260 -90s89 -129 89 -212s-30 -153 -89 -211s-146 -88 -260 -90v-72zM418 118v469c-92 -1 -160 -24 -205 -69s-67 -101 -67 -166s22 -120 67 -165
s113 -68 205 -69zM492 587v-469c200 3 273 117 273 234c0 65 -22 121 -67 166s-113 68 -206 69z" />
    <glyph glyph-name="uni0425" unicode="&#x425;" horiz-adv-x="708" 
d="M116 0h-87l281 380l-235 320h87l193 -260l194 260h85l-235 -319l281 -381h-88l-238 321z" />
    <glyph glyph-name="uni0426" unicode="&#x426;" horiz-adv-x="781" 
d="M748 -156h-68v156h-581v700h74v-633h396v633h74v-633h105v-223z" />
    <glyph glyph-name="uni0427" unicode="&#x427;" horiz-adv-x="691" 
d="M593 0h-74v315c-66 -25 -134 -37 -204 -37c-159 0 -245 63 -245 215v207h74v-188c0 -123 54 -165 187 -165c63 0 126 14 188 41v312h74v-700z" />
    <glyph glyph-name="uni0428" unicode="&#x428;" horiz-adv-x="1021" 
d="M849 700h74v-700h-824v700h74v-633h301v633h74v-633h301v633z" />
    <glyph glyph-name="uni0429" unicode="&#x429;" horiz-adv-x="1062" 
d="M1029 -156h-70v156h-860v700h74v-633h301v633h74v-633h301v633h74v-633h106v-223z" />
    <glyph glyph-name="uni042A" unicode="&#x42a;" horiz-adv-x="791" 
d="M492 0h-283v633h-192v67h266v-261h209c79 0 140 -20 184 -61c45 -41 67 -94 67 -159c0 -132 -94 -219 -251 -219zM283 372v-305h204c115 0 182 55 182 152s-66 153 -182 153h-204z" />
    <glyph glyph-name="uni042B" unicode="&#x42b;" horiz-adv-x="887" 
d="M789 0h-74v700h74v-700zM357 0h-258v700h74v-261h184c79 0 140 -20 184 -61c45 -41 67 -94 67 -159c0 -132 -94 -219 -251 -219zM173 372v-305h179c115 0 182 55 182 152s-66 153 -182 153h-179z" />
    <glyph glyph-name="uni042C" unicode="&#x42c;" horiz-adv-x="681" 
d="M382 0h-283v700h74v-261h209c79 0 140 -20 184 -61c45 -41 67 -94 67 -159c0 -132 -94 -219 -251 -219zM173 372v-305h204c115 0 182 55 182 152s-66 153 -182 153h-204z" />
    <glyph glyph-name="uni042D" unicode="&#x42d;" horiz-adv-x="689" 
d="M260 -12c-85 0 -155 20 -210 61v78c57 -47 127 -70 210 -70c75 0 138 25 191 75c53 51 82 115 87 192h-328v67h325c-7 73 -36 134 -88 181c-51 47 -113 71 -185 71c-69 0 -135 -20 -196 -59v76c55 35 120 52 194 52c102 0 187 -35 255 -104c69 -69 103 -155 103 -258
s-34 -189 -103 -258s-154 -104 -255 -104z" />
    <glyph glyph-name="uni042E" unicode="&#x42e;" horiz-adv-x="1043" 
d="M644 -12c-90 0 -166 32 -227 95c-61 64 -95 144 -101 241h-143v-324h-74v700h74v-309h144c9 93 44 169 105 230s135 91 222 91c94 0 172 -35 234 -104c63 -69 94 -155 94 -258s-31 -189 -94 -258c-62 -69 -140 -104 -234 -104zM463 138c49 -54 109 -81 181 -81
s132 27 180 81c49 54 73 125 73 212s-24 158 -73 212c-48 54 -108 81 -180 81s-132 -27 -181 -81s-73 -125 -73 -212s24 -158 73 -212z" />
    <glyph glyph-name="uni042F" unicode="&#x42f;" horiz-adv-x="736" 
d="M129 0h-86l226 322c-105 17 -165 89 -165 188c0 115 83 190 220 190h314v-700h-74v315h-214zM329 382h235v251h-235c-96 0 -152 -46 -152 -126s56 -125 152 -125z" />
    <glyph glyph-name="uni0430" unicode="&#x430;" horiz-adv-x="594" 
d="M248 53c69 0 133 37 168 81v67c-49 32 -102 48 -157 48c-88 0 -143 -37 -143 -97c0 -65 57 -99 132 -99zM228 -12c-51 0 -95 14 -131 42c-35 29 -53 68 -53 118c0 49 19 88 56 117c38 29 85 43 142 43c63 0 121 -16 174 -47v48c0 81 -53 121 -159 121
c-57 0 -109 -16 -158 -49v70c47 29 104 44 173 44c129 0 216 -62 216 -179v-199c0 -37 18 -60 46 -60c11 0 20 2 28 6v-56c-10 -7 -26 -11 -48 -11c-47 0 -83 25 -91 77c-49 -57 -114 -85 -195 -85z" />
    <glyph glyph-name="uni0431" unicode="&#x431;" horiz-adv-x="613" 
d="M321 -12c-83 0 -147 29 -193 86s-69 135 -69 234c0 137 36 223 97 279c27 27 78 51 115 66c19 7 43 15 72 22c30 8 56 14 79 19s53 10 89 17v-67c-69 -13 -122 -24 -159 -33c-73 -17 -128 -44 -165 -83s-57 -98 -60 -179c40 69 118 112 214 112c63 0 116 -21 159 -64
c43 -42 64 -96 64 -162c0 -73 -23 -132 -70 -178s-104 -69 -173 -69zM321 53c47 0 87 16 120 49s50 76 50 128c0 50 -16 90 -48 120c-32 31 -71 46 -118 46c-43 0 -82 -13 -117 -39c-35 -25 -60 -55 -75 -90c7 -135 73 -214 188 -214z" />
    <glyph glyph-name="uni0432" unicode="&#x432;" horiz-adv-x="577" 
d="M356 0h-271v483h254c93 0 146 -50 146 -123c0 -52 -20 -87 -60 -106c61 -18 92 -59 92 -124c0 -80 -58 -130 -161 -130zM157 218v-155h184c65 0 103 28 103 77s-38 78 -103 78h-184zM157 420v-142h162c60 0 95 26 95 71c0 47 -35 71 -95 71h-162z" />
    <glyph glyph-name="uni0433" unicode="&#x433;" horiz-adv-x="484" 
d="M157 0h-72v483h363v-63h-291v-420z" />
    <glyph glyph-name="uni0434" unicode="&#x434;" horiz-adv-x="648" 
d="M91 -143h-69v206h61c54 71 81 189 82 352l1 68h359v-420h90v-206h-70v143h-454v-143zM163 63h290v357h-220v-29c0 -144 -23 -253 -70 -328z" />
    <glyph glyph-name="uni0435" unicode="&#x435;" horiz-adv-x="571" 
d="M316 -12c-75 0 -139 24 -190 71s-76 108 -76 182c0 73 23 133 68 181c46 49 105 73 177 73c162 0 226 -142 226 -251v-20h-397c8 -104 90 -171 206 -171c56 0 108 15 155 45v-64c-40 -31 -96 -46 -169 -46zM125 283h323c-2 37 -16 71 -42 101c-25 31 -63 46 -114 46
c-49 0 -88 -15 -118 -44c-29 -29 -46 -63 -49 -103z" />
    <glyph glyph-name="uni0436" unicode="&#x436;" horiz-adv-x="768" 
d="M52 483h91l204 -206v206h72v-206l204 206h91l-226 -224l250 -259h-95l-224 234v-234h-72v234l-224 -234h-94l250 259z" />
    <glyph glyph-name="uni0437" unicode="&#x437;" horiz-adv-x="524" 
d="M239 -12c-70 0 -129 11 -178 33v70c53 -25 110 -38 169 -38c97 0 159 32 159 89c0 52 -51 80 -131 80h-84v63h84c77 0 113 29 113 70c0 50 -45 75 -136 75c-54 0 -107 -11 -159 -33v67c47 21 105 31 173 31c56 0 102 -12 139 -35s56 -54 56 -92c-4 -69 -39 -92 -78 -109
c65 -21 98 -61 98 -122c0 -89 -88 -149 -225 -149z" />
    <glyph glyph-name="uni0438" unicode="&#x438;" horiz-adv-x="618" 
d="M152 0h-67v483h72v-377l309 377h67v-483h-72v376z" />
    <glyph glyph-name="uni0439" unicode="&#x439;" horiz-adv-x="618" 
d="M152 0h-67v483h72v-377l309 377h67v-483h-72v376zM310 565c-97 0 -163 60 -164 152h64c0 -55 39 -94 99 -94c59 0 98 39 99 94h63c-1 -92 -69 -152 -161 -152z" />
    <glyph glyph-name="uni043A" unicode="&#x43a;" horiz-adv-x="541" 
d="M85 483h72v-199l230 199h98l-255 -218l291 -265h-103l-261 238v-238h-72v483z" />
    <glyph glyph-name="uni043B" unicode="&#x43b;" horiz-adv-x="600" 
d="M21 0v66c5 -1 11 -1 19 -1c43 0 71 28 86 80c16 53 21 105 24 184l4 154h361v-483h-72v420h-220l-3 -93c-1 -30 -2 -56 -4 -78c-4 -44 -12 -105 -29 -144c-22 -58 -69 -110 -145 -106c-9 0 -16 0 -21 1z" />
    <glyph glyph-name="uni043C" unicode="&#x43c;" horiz-adv-x="697" 
d="M155 0h-70v483h70l193 -224l194 224h70v-483h-70v384l-180 -209h-28l-179 209v-384z" />
    <glyph glyph-name="uni043D" unicode="&#x43d;" horiz-adv-x="611" 
d="M157 0h-72v483h72v-203h297v203h72v-483h-72v215h-297v-215z" />
    <glyph glyph-name="uni043E" unicode="&#x43e;" horiz-adv-x="621" 
d="M123 420c49 50 111 75 188 75s139 -25 188 -75c49 -49 73 -109 73 -179s-24 -130 -73 -179s-111 -74 -188 -74s-139 25 -188 74s-73 109 -73 179s24 130 73 179zM498 241c0 54 -18 99 -53 135s-80 54 -134 54s-99 -18 -134 -54s-53 -81 -53 -135c0 -53 18 -98 53 -134
s80 -54 134 -54s99 18 134 54s53 81 53 134z" />
    <glyph glyph-name="uni043F" unicode="&#x43f;" horiz-adv-x="604" 
d="M157 0h-72v483h434v-483h-72v420h-290v-420z" />
    <glyph glyph-name="uni0440" unicode="&#x440;" horiz-adv-x="636" 
d="M157 77v-277h-72v683h72v-77c45 59 107 89 187 89c71 0 130 -25 175 -74s68 -109 68 -179c0 -71 -23 -131 -68 -180s-104 -74 -175 -74c-80 0 -142 30 -187 89zM157 321v-159c28 -64 97 -109 170 -109c53 0 98 18 133 54c35 37 53 82 53 135s-18 98 -53 134
s-80 54 -133 54c-73 0 -141 -46 -170 -109z" />
    <glyph glyph-name="uni0441" unicode="&#x441;" horiz-adv-x="524" 
d="M307 -12c-73 0 -135 24 -184 72c-49 49 -73 109 -73 182c0 72 25 132 74 180c49 49 111 73 184 73c56 0 105 -12 146 -35v-67c-44 25 -89 37 -136 37c-55 0 -102 -18 -139 -54c-37 -35 -55 -80 -55 -135c0 -54 18 -99 55 -135c37 -35 84 -53 139 -53c54 0 102 14 145 42
v-66c-45 -27 -97 -41 -156 -41z" />
    <glyph glyph-name="uni0442" unicode="&#x442;" horiz-adv-x="474" 
d="M273 0h-72v420h-175v63h422v-63h-175v-420z" />
    <glyph glyph-name="uni0443" unicode="&#x443;" horiz-adv-x="555" 
d="M112 -204c-35 0 -61 5 -77 14v67c21 -11 43 -16 66 -16c60 0 98 48 143 157l-215 465h80l171 -380l166 380h78l-239 -537c-43 -100 -101 -150 -173 -150z" />
    <glyph glyph-name="uni0444" unicode="&#x444;" horiz-adv-x="727" 
d="M328 491v209h72v-209c86 -2 154 -26 203 -71c50 -45 75 -105 75 -179s-25 -133 -74 -178s-117 -68 -204 -71v-192h-72v192c-86 1 -154 25 -204 70c-49 45 -74 105 -74 179s25 133 74 178s117 69 204 72zM400 428v-373c60 0 109 16 148 49s59 78 59 137s-20 104 -59 137
s-88 50 -148 50zM328 55v373c-60 0 -110 -17 -149 -50s-58 -78 -58 -137s19 -104 58 -137s89 -49 149 -49z" />
    <glyph glyph-name="uni0445" unicode="&#x445;" horiz-adv-x="560" 
d="M116 0h-83l203 255l-179 228h85l138 -172l138 172h84l-180 -226l203 -257h-85l-161 202z" />
    <glyph glyph-name="uni0446" unicode="&#x446;" horiz-adv-x="638" 
d="M605 -143h-69v143h-451v483h72v-420h287v420h72v-420h89v-206z" />
    <glyph glyph-name="uni0447" unicode="&#x447;" horiz-adv-x="563" 
d="M478 0h-72v193c-47 -20 -96 -30 -149 -30c-133 0 -196 55 -196 199v121h72v-115c0 -104 38 -140 138 -140c49 0 94 11 135 32v223h72v-483z" />
    <glyph glyph-name="uni0448" unicode="&#x448;" horiz-adv-x="827" 
d="M742 0h-657v483h72v-420h220v420h72v-420h221v420h72v-483z" />
    <glyph glyph-name="uni0449" unicode="&#x449;" horiz-adv-x="864" 
d="M831 -143h-65v143h-681v483h72v-420h220v420h72v-420h221v420h72v-420h89v-206z" />
    <glyph glyph-name="uni044A" unicode="&#x44a;" horiz-adv-x="639" 
d="M408 0h-244v420h-148v63h220v-162h169c113 0 184 -63 184 -160c0 -95 -66 -161 -181 -161zM236 258v-195h159c76 0 121 36 121 97c0 63 -45 98 -121 98h-159z" />
    <glyph glyph-name="uni044B" unicode="&#x44b;" horiz-adv-x="722" 
d="M637 0h-72v483h72v-483zM304 0h-219v483h72v-162h144c113 0 184 -63 184 -160c0 -95 -66 -161 -181 -161zM157 258v-195h134c76 0 121 36 121 97c0 63 -45 98 -121 98h-134z" />
    <glyph glyph-name="uni044C" unicode="&#x44c;" horiz-adv-x="560" 
d="M329 0h-244v483h72v-162h169c113 0 184 -63 184 -160c0 -95 -66 -161 -181 -161zM157 258v-195h159c76 0 121 36 121 97c0 63 -45 98 -121 98h-159z" />
    <glyph glyph-name="uni044D" unicode="&#x44d;" horiz-adv-x="519" 
d="M214 -12c-58 0 -109 14 -154 41v67c42 -29 90 -43 145 -43c51 0 95 15 131 44s56 68 61 115h-233v63h233c-15 93 -91 155 -192 155c-46 0 -91 -12 -135 -36v67c41 23 89 34 144 34c73 0 134 -24 183 -73c49 -48 73 -108 73 -180c0 -73 -24 -133 -73 -182
c-49 -48 -110 -72 -183 -72z" />
    <glyph glyph-name="uni044E" unicode="&#x44e;" horiz-adv-x="804" 
d="M513 -12c-64 0 -118 21 -162 63s-69 95 -75 160h-119v-211h-72v483h72v-207h120c6 63 31 116 75 157s98 62 161 62c70 0 128 -24 173 -73c46 -49 69 -109 69 -181c0 -71 -23 -131 -69 -180c-45 -49 -103 -73 -173 -73zM513 53c50 0 91 18 123 54s48 81 48 134
c0 54 -16 99 -48 135s-73 54 -123 54c-49 0 -90 -18 -122 -54s-48 -81 -48 -135c0 -53 16 -98 48 -134s73 -54 122 -54z" />
    <glyph glyph-name="uni044F" unicode="&#x44f;" horiz-adv-x="576" 
d="M129 0h-82l144 193c-79 13 -122 66 -122 143c0 87 61 147 173 147h249v-483h-72v180h-155zM253 243h166v177h-166c-71 0 -110 -32 -110 -89s39 -88 110 -88z" />
    <glyph glyph-name="uni0451" unicode="&#x451;" horiz-adv-x="571" 
d="M316 -12c-75 0 -139 24 -190 71s-76 108 -76 182c0 73 23 133 68 181c46 49 105 73 177 73c162 0 226 -142 226 -251v-20h-397c8 -104 90 -171 206 -171c56 0 108 15 155 45v-64c-40 -31 -96 -46 -169 -46zM125 283h323c-2 37 -16 71 -42 101c-25 31 -63 46 -114 46
c-49 0 -88 -15 -118 -44c-29 -29 -46 -63 -49 -103zM158 594c-17 19 -17 47 0 66c19 19 50 19 67 0c19 -19 19 -47 0 -66c-17 -19 -48 -19 -67 0zM358 594c-17 19 -17 47 0 66c19 19 50 19 67 0c19 -19 19 -47 0 -66c-17 -19 -48 -19 -67 0z" />
    <glyph glyph-name="uni0452" unicode="&#x452;" horiz-adv-x="643" 
d="M190 265v-265h-72v557h-102v63h102v80h72v-80h143v-63h-143v-209c51 57 115 86 193 86c120 0 184 -74 184 -201v-267c0 -113 -47 -170 -141 -170c-37 0 -65 6 -85 18v67c23 -13 47 -20 70 -20c60 0 84 36 84 113v243c0 127 -78 149 -137 149c-33 0 -65 -10 -97 -31
c-31 -20 -55 -43 -71 -70z" />
    <glyph glyph-name="uni0453" unicode="&#x453;" horiz-adv-x="484" 
d="M157 0h-72v483h363v-63h-291v-420zM271 576h-70l96 134h92z" />
    <glyph glyph-name="uni0454" unicode="&#x454;" horiz-adv-x="521" 
d="M306 -12c-73 0 -134 24 -183 72c-49 49 -73 109 -73 182c0 72 24 132 73 180c49 49 110 73 183 73c55 0 103 -11 144 -34v-67c-44 24 -89 36 -135 36c-101 0 -177 -62 -192 -155h233v-63h-233c5 -47 25 -86 61 -115s80 -44 131 -44c55 0 103 14 145 43v-67
c-45 -27 -96 -41 -154 -41z" />
    <glyph glyph-name="uni0455" unicode="&#x455;" horiz-adv-x="490" 
d="M241 -12c-80 0 -160 23 -200 50v74c58 -39 124 -59 198 -59c83 0 133 29 133 77c0 26 -14 39 -34 51c-9 7 -39 15 -51 18c-6 2 -17 5 -33 8c-15 4 -26 7 -33 8c-115 29 -169 63 -169 146s71 134 194 134c73 0 131 -14 176 -43v-71c-55 33 -113 49 -173 49
c-83 0 -124 -28 -124 -71c0 -23 14 -43 37 -54c16 -5 20 -9 39 -14l22 -6c9 -3 40 -10 48 -11c111 -27 175 -62 175 -145c0 -43 -19 -78 -58 -103c-38 -25 -87 -38 -147 -38z" />
    <glyph glyph-name="uni0456" unicode="&#x456;" horiz-adv-x="264" 
d="M168 0h-72v483h72v-483zM96 613c-19 20 -19 52 0 72c20 20 52 20 72 0s20 -52 0 -72c-20 -19 -52 -19 -72 0z" />
    <glyph glyph-name="uni0457" unicode="&#x457;" horiz-adv-x="258" 
d="M-4 612c-19 19 -19 50 0 67c19 19 47 19 66 0c19 -17 19 -48 0 -67c-19 -17 -47 -17 -66 0zM196 612c-19 19 -19 50 0 67c19 19 47 19 66 0c19 -17 19 -48 0 -67c-19 -17 -47 -17 -66 0zM165 0h-73v483h73v-483z" />
    <glyph glyph-name="uni0458" unicode="&#x458;" horiz-adv-x="266" 
d="M26 -204c-36 0 -64 6 -85 18v66c22 -13 45 -19 70 -19c57 0 85 32 85 97v525h72v-536c0 -104 -58 -151 -142 -151zM96 613c-19 20 -19 52 0 72c20 20 52 20 72 0s20 -52 0 -72c-20 -19 -52 -19 -72 0z" />
    <glyph glyph-name="uni0459" unicode="&#x459;" horiz-adv-x="901" 
d="M670 0h-234v420h-213l-3 -93c-1 -30 -2 -56 -4 -78c-4 -44 -12 -105 -29 -144c-22 -58 -69 -110 -145 -106c-9 0 -16 0 -21 1v66c5 -1 11 -1 19 -1c43 0 71 28 86 80c16 53 21 105 24 184l4 154h354v-162h159c113 0 184 -63 184 -160c0 -95 -66 -161 -181 -161zM508 258
v-195h149c76 0 121 36 121 97c0 63 -45 98 -121 98h-149z" />
    <glyph glyph-name="uni045A" unicode="&#x45a;" horiz-adv-x="895" 
d="M157 0h-72v483h72v-181h284v181h72v-181h154c111 0 178 -59 178 -152c0 -88 -64 -150 -175 -150h-229v239h-284v-239zM513 239v-176h145c72 0 115 32 115 88s-43 88 -115 88h-145z" />
    <glyph glyph-name="uni045B" unicode="&#x45b;" horiz-adv-x="643" 
d="M190 265v-265h-72v557h-102v63h102v80h72v-80h143v-63h-143v-209c51 57 115 86 193 86c120 0 184 -74 184 -201v-233h-72v217c0 127 -78 149 -137 149c-33 0 -65 -10 -97 -31c-31 -20 -55 -43 -71 -70z" />
    <glyph glyph-name="uni045C" unicode="&#x45c;" horiz-adv-x="541" 
d="M85 483h72v-199l230 199h98l-255 -218l291 -265h-103l-261 238v-238h-72v483zM295 576h-70l96 134h92z" />
    <glyph glyph-name="uni045E" unicode="&#x45e;" horiz-adv-x="555" 
d="M112 -204c-35 0 -61 5 -77 14v67c21 -11 43 -16 66 -16c60 0 98 48 143 157l-215 465h80l171 -380l166 380h78l-239 -537c-43 -100 -101 -150 -173 -150zM281 565c-97 0 -163 60 -164 152h64c0 -55 39 -94 99 -94c59 0 98 39 99 94h63c-1 -92 -69 -152 -161 -152z" />
    <glyph glyph-name="uni045F" unicode="&#x45f;" horiz-adv-x="601" 
d="M335 -143h-70v143h-180v483h72v-420h287v420h72v-483h-181v-143z" />
    <glyph glyph-name="uni0490" unicode="&#x490;" horiz-adv-x="599" 
d="M173 0h-74v700h396v145h67v-212h-389v-633z" />
    <glyph glyph-name="uni0491" unicode="&#x491;" horiz-adv-x="484" 
d="M157 0h-72v483h296v131h67v-194h-291v-420z" />
    <glyph glyph-name="uni1E02" unicode="&#x1e02;" horiz-adv-x="726" 
d="M433 0h-334v700h303c124 0 201 -65 201 -170c0 -73 -35 -127 -92 -148c92 -15 152 -84 152 -187c0 -117 -87 -195 -230 -195zM173 339v-272h247c104 0 164 50 164 137c0 85 -60 135 -164 135h-247zM173 633v-229h217c89 0 140 40 140 113c0 75 -51 116 -140 116h-217z
M308 794c-17 19 -17 47 0 66c19 19 50 19 67 0c19 -19 19 -47 0 -66c-17 -19 -48 -19 -67 0z" />
    <glyph glyph-name="uni1E03" unicode="&#x1e03;" horiz-adv-x="636" 
d="M85 0v700h72v-294c45 59 107 89 187 89c71 0 130 -25 175 -74s68 -109 68 -180c0 -70 -23 -130 -68 -179s-104 -74 -175 -74c-80 0 -142 30 -187 89v-77h-72zM157 321v-159c29 -63 97 -109 170 -109c53 0 98 18 133 54s53 81 53 134s-18 98 -53 134
c-35 37 -80 55 -133 55c-73 0 -142 -45 -170 -109zM292 794c-17 19 -17 47 0 66c19 19 50 19 67 0c19 -19 19 -47 0 -66c-17 -19 -48 -19 -67 0z" />
    <glyph glyph-name="uni1E0A" unicode="&#x1e0a;" horiz-adv-x="778" 
d="M328 0h-229v700h229c113 0 204 -32 274 -97s105 -149 105 -253s-35 -188 -105 -253s-161 -97 -274 -97zM173 633v-566h146c97 0 173 26 229 77s84 120 84 206s-28 155 -84 206s-132 77 -229 77h-146zM308 794c-17 19 -17 47 0 66c19 19 50 19 67 0c19 -19 19 -47 0 -66
c-17 -19 -48 -19 -67 0z" />
    <glyph glyph-name="uni1E0B" unicode="&#x1e0b;" 
d="M480 406v294h72v-700h-72v77c-45 -59 -107 -89 -187 -89c-71 0 -130 25 -175 74s-68 109 -68 179c0 71 23 131 68 180s104 74 175 74c80 0 142 -30 187 -89zM480 162v159c-28 64 -97 109 -170 109c-53 0 -98 -18 -133 -55c-35 -36 -53 -81 -53 -134s18 -98 53 -134
s80 -54 133 -54c73 0 141 46 170 109zM288 794c-19 19 -19 47 0 66s47 19 66 0s19 -47 0 -66s-47 -19 -66 0z" />
    <glyph glyph-name="uni1E1E" unicode="&#x1e1e;" horiz-adv-x="622" 
d="M173 0h-74v700h477v-67h-403v-233h327v-67h-327v-333zM302 794c-17 19 -17 47 0 66c19 19 50 19 67 0c19 -19 19 -47 0 -66c-17 -19 -48 -19 -67 0z" />
    <glyph glyph-name="uni1E1F" unicode="&#x1e1f;" horiz-adv-x="391" 
d="M123 0v420h-96v63h96v81c0 88 49 144 138 144c40 0 74 -6 102 -19v-66c-31 13 -59 20 -84 20c-56 0 -84 -31 -84 -93v-67h168v-63h-168v-420h-72zM212 794c-19 19 -19 47 0 66s47 19 66 0s19 -47 0 -66s-47 -19 -66 0z" />
    <glyph glyph-name="uni1E40" unicode="&#x1e40;" horiz-adv-x="848" 
d="M172 0h-73v700h73l253 -339l253 339h72v-700h-73v588l-229 -306h-45l-231 306v-588zM390 794c-17 19 -17 47 0 66c19 19 50 19 67 0c19 -19 19 -47 0 -66c-17 -19 -48 -19 -67 0z" />
    <glyph glyph-name="uni1E41" unicode="&#x1e41;" horiz-adv-x="919" 
d="M157 0h-72v483h72v-72c40 56 98 84 174 84c79 0 135 -36 155 -95c36 56 102 95 186 95c108 0 171 -69 171 -194v-301h-72v285c0 95 -40 142 -120 142c-61 0 -124 -48 -153 -104c1 -27 2 -45 2 -54v-269h-72v285c0 95 -40 142 -120 142c-29 0 -57 -10 -86 -30
c-28 -19 -50 -43 -65 -70v-327zM430 612c-17 19 -17 50 0 67c19 19 50 19 67 0c19 -17 19 -48 0 -67c-17 -17 -48 -17 -67 0z" />
    <glyph glyph-name="uni1E56" unicode="&#x1e56;" horiz-adv-x="665" 
d="M173 0h-74v700h294c140 0 224 -78 224 -194c0 -119 -84 -197 -224 -197h-220v-309zM173 633v-257h215c99 0 156 47 156 128c0 83 -57 129 -156 129h-215zM300 794c-17 19 -17 47 0 66c19 19 50 19 67 0c19 -19 19 -47 0 -66c-17 -19 -48 -19 -67 0z" />
    <glyph glyph-name="uni1E57" unicode="&#x1e57;" horiz-adv-x="636" 
d="M157 77v-277h-72v683h72v-77c45 59 107 89 187 89c71 0 130 -25 175 -74s68 -109 68 -179c0 -71 -23 -131 -68 -180s-104 -74 -175 -74c-80 0 -142 30 -187 89zM157 321v-159c28 -64 97 -109 170 -109c53 0 98 18 133 54c35 37 53 82 53 135s-18 98 -53 134
s-80 54 -133 54c-73 0 -141 -46 -170 -109zM302 612c-17 19 -17 50 0 67c19 19 50 19 67 0c19 -17 19 -48 0 -67c-17 -17 -48 -17 -67 0z" />
    <glyph glyph-name="uni1E60" unicode="&#x1e60;" horiz-adv-x="627" 
d="M307 -12c-104 0 -202 31 -259 74v83c27 -23 63 -44 109 -62c47 -17 95 -26 145 -26c109 0 189 51 189 132c5 44 -28 77 -58 95c-8 6 -22 13 -42 20l-44 15c-10 3 -28 9 -53 16c-31 9 -56 16 -74 22s-39 14 -62 25s-40 23 -52 35c-24 25 -44 65 -44 114c0 53 21 96 64 130
s102 51 178 51c83 0 156 -19 218 -58v-76c-69 43 -141 65 -216 65c-112 0 -169 -50 -169 -114c-5 -35 23 -62 45 -79c6 -5 17 -10 33 -16l34 -13l43 -12l42 -12c29 -9 52 -16 69 -22s38 -15 61 -27s41 -25 54 -38c27 -25 49 -69 49 -120c0 -63 -25 -112 -76 -148
c-50 -36 -111 -54 -184 -54zM266 794c-19 19 -19 47 0 66s47 19 66 0s19 -47 0 -66s-47 -19 -66 0z" />
    <glyph glyph-name="uni1E61" unicode="&#x1e61;" horiz-adv-x="509" 
d="M249 -12c-80 0 -160 23 -200 50v74c58 -39 124 -59 198 -59c83 0 133 29 133 77c0 26 -14 39 -34 51c-9 7 -39 15 -51 18c-6 2 -17 5 -33 8c-15 4 -26 7 -33 8c-115 29 -169 63 -169 146s71 134 194 134c73 0 131 -14 176 -43v-71c-55 33 -113 49 -173 49
c-83 0 -124 -28 -124 -71c0 -23 14 -43 37 -54c16 -5 20 -9 39 -14l22 -6c9 -3 40 -10 48 -11c111 -27 175 -62 175 -145c0 -43 -19 -78 -58 -103c-38 -25 -87 -38 -147 -38zM212 612c-17 19 -17 50 0 67c19 19 50 19 67 0c19 -17 19 -48 0 -67c-17 -17 -48 -17 -67 0z" />
    <glyph glyph-name="uni1E6A" unicode="&#x1e6a;" horiz-adv-x="630" 
d="M351 0h-74v633h-241v67h559v-67h-244v-633zM282 794c-19 19 -19 47 0 66s47 19 66 0s19 -47 0 -66s-47 -19 -66 0z" />
    <glyph glyph-name="uni1E6B" unicode="&#x1e6b;" horiz-adv-x="430" 
d="M277 -12c-92 0 -136 58 -136 149v283h-114v63h114v149h72v-149h169v-63h-169v-261c0 -76 24 -103 84 -103c30 0 56 7 79 20v-66c-21 -15 -54 -22 -99 -22zM144 704c-17 19 -17 47 0 66c19 19 50 19 67 0c19 -19 19 -47 0 -66c-17 -19 -48 -19 -67 0z" />
    <glyph glyph-name="Wgrave" unicode="&#x1e80;" horiz-adv-x="1053" 
d="M346 -4h-65l-242 704h82l195 -583l181 586h60l182 -586l194 583h80l-241 -704h-65l-180 578zM562 763h-70l-118 133h92z" />
    <glyph glyph-name="wgrave" unicode="&#x1e81;" horiz-adv-x="827" 
d="M274 -3h-63l-173 486h74l135 -376l132 378h61l133 -378l134 376h73l-173 -486h-63l-136 379zM450 576h-69l-118 134h91z" />
    <glyph glyph-name="Wacute" unicode="&#x1e82;" horiz-adv-x="1053" 
d="M346 -4h-65l-242 704h82l195 -583l181 586h60l182 -586l194 583h80l-241 -704h-65l-180 578zM563 763h-69l95 133h92z" />
    <glyph glyph-name="wacute" unicode="&#x1e83;" horiz-adv-x="827" 
d="M274 -3h-63l-173 486h74l135 -376l132 378h61l133 -378l134 376h73l-173 -486h-63l-136 379zM447 576h-70l96 134h92z" />
    <glyph glyph-name="Wdieresis" unicode="&#x1e84;" horiz-adv-x="1053" 
d="M346 -4h-65l-242 704h82l195 -583l181 586h60l182 -586l194 583h80l-241 -704h-65l-180 578zM394 794c-17 19 -17 50 0 67c19 19 50 19 67 0c19 -17 19 -48 0 -67c-17 -17 -48 -17 -67 0zM594 794c-17 19 -17 50 0 67c19 19 50 19 67 0c19 -17 19 -48 0 -67
c-17 -17 -48 -17 -67 0z" />
    <glyph glyph-name="wdieresis" unicode="&#x1e85;" horiz-adv-x="827" 
d="M274 -3h-63l-173 486h74l135 -376l132 378h61l133 -378l134 376h73l-173 -486h-63l-136 379zM276 612c-19 19 -19 50 0 67c19 19 47 19 66 0c19 -17 19 -48 0 -67c-19 -17 -47 -17 -66 0zM476 612c-19 19 -19 50 0 67c19 19 47 19 66 0c19 -17 19 -48 0 -67
c-19 -17 -47 -17 -66 0z" />
    <glyph glyph-name="Ygrave" unicode="&#x1ef2;" horiz-adv-x="664" 
d="M369 0h-74v321l-272 379h86l224 -310l224 310h84l-272 -378v-322zM381 763h-70l-118 133h92z" />
    <glyph glyph-name="ygrave" unicode="&#x1ef3;" horiz-adv-x="555" 
d="M112 -204c-35 0 -61 5 -77 14v67c21 -11 43 -16 66 -16c60 0 98 48 143 157l-215 465h80l171 -380l166 380h78l-239 -537c-43 -100 -101 -150 -173 -150zM333 576h-69l-118 134h91z" />
    <glyph glyph-name="endash" unicode="&#x2013;" horiz-adv-x="730" 
d="M630 238h-530v67h530v-67z" />
    <glyph glyph-name="emdash" unicode="&#x2014;" horiz-adv-x="906" 
d="M806 238h-706v67h706v-67z" />
    <glyph glyph-name="uni2015" unicode="&#x2015;" horiz-adv-x="730" 
d="M630 238h-530v67h530v-67z" />
    <glyph glyph-name="quoteleft" unicode="&#x2018;" horiz-adv-x="216" 
d="M128 700h58l-80 -255h-84z" />
    <glyph glyph-name="quoteright" unicode="&#x2019;" horiz-adv-x="216" 
d="M88 445h-58l80 255h84z" />
    <glyph glyph-name="quotesinglbase" unicode="&#x201a;" horiz-adv-x="236" 
d="M73 -152h-58l80 255h84z" />
    <glyph glyph-name="quotedblleft" unicode="&#x201c;" horiz-adv-x="367" 
d="M279 700h58l-80 -255h-84zM128 700h58l-80 -255h-84z" />
    <glyph glyph-name="quotedblright" unicode="&#x201d;" horiz-adv-x="368" 
d="M240 445h-58l80 255h84zM88 445h-58l80 255h84z" />
    <glyph glyph-name="quotedblbase" unicode="&#x201e;" horiz-adv-x="388" 
d="M225 -152h-58l80 255h84zM73 -152h-58l80 255h84z" />
    <glyph glyph-name="dagger" unicode="&#x2020;" horiz-adv-x="521" 
d="M295 0h-69v420h-177v63h177v217h69v-217h178v-63h-178v-420z" />
    <glyph glyph-name="daggerdbl" unicode="&#x2021;" horiz-adv-x="521" 
d="M473 483v-63h-178v-156h178v-64h-178v-200h-69v200h-177v64h177v156h-177v63h177v217h69v-217h178z" />
    <glyph glyph-name="bullet" unicode="&#x2022;" horiz-adv-x="410" 
d="M205 271c-61 0 -112 50 -112 111c0 31 11 57 33 79s48 33 79 33c63 0 113 -49 113 -112c0 -31 -11 -57 -33 -79c-22 -21 -49 -32 -80 -32z" />
    <glyph glyph-name="ellipsis" unicode="&#x2026;" horiz-adv-x="664" 
d="M81 9c-20 20 -20 54 0 74s54 20 74 0s20 -54 0 -74s-54 -20 -74 0zM509 9c-20 20 -20 54 0 74s54 20 74 0s20 -54 0 -74s-54 -20 -74 0zM296 9c-20 20 -20 54 0 74s54 20 74 0s20 -54 0 -74s-54 -20 -74 0z" />
    <glyph glyph-name="perthousand" unicode="&#x2030;" horiz-adv-x="1212" 
d="M240 0h-63l410 700h63zM215 712c49 0 89 -16 121 -49c32 -32 48 -72 48 -119s-16 -87 -48 -120s-72 -49 -121 -49c-48 0 -88 16 -120 49c-31 33 -47 73 -47 120s16 87 47 119c32 33 72 49 120 49zM324 544c0 64 -46 113 -109 113s-108 -49 -108 -113
c0 -65 44 -114 108 -114s109 49 109 114zM610 325c49 0 89 -16 120 -49c32 -33 48 -73 48 -120s-16 -87 -48 -120c-31 -32 -71 -48 -120 -48c-48 0 -88 16 -120 48c-31 33 -47 73 -47 120s16 87 47 120c32 33 72 49 120 49zM532 75c20 -21 46 -32 78 -32s58 11 78 32
s30 48 30 81s-10 60 -31 81c-20 22 -46 33 -77 33s-57 -11 -78 -33c-20 -21 -30 -48 -30 -81s10 -60 30 -81zM875 276c32 33 72 49 121 49s89 -16 120 -49c32 -33 48 -73 48 -120s-16 -87 -48 -120c-31 -32 -71 -48 -120 -48s-89 16 -121 48c-31 33 -47 73 -47 120
s16 87 47 120zM918 75c20 -21 46 -32 78 -32s58 11 78 32s30 48 30 81s-10 60 -31 81c-20 22 -46 33 -77 33s-57 -11 -78 -33c-20 -21 -30 -48 -30 -81s10 -60 30 -81z" />
    <glyph glyph-name="guilsinglleft" unicode="&#x2039;" horiz-adv-x="319" 
d="M273 40h-75l-151 183v37l151 183h75l-164 -202z" />
    <glyph glyph-name="guilsinglright" unicode="&#x203a;" horiz-adv-x="319" 
d="M121 40h-76l163 201l-163 202h76l151 -183v-37z" />
    <glyph glyph-name="fraction" unicode="&#x2044;" horiz-adv-x="186" 
d="M-73 0h-69l413 700h68z" />
    <glyph glyph-name="zerosuperior" unicode="&#x2070;" horiz-adv-x="390" 
d="M312 373c-29 -37 -68 -56 -117 -56s-88 19 -118 56c-29 38 -44 84 -44 138s15 100 44 137c30 38 69 57 118 57s88 -19 117 -57c30 -37 45 -83 45 -137s-15 -100 -45 -138zM195 371c60 0 99 61 99 140s-39 140 -99 140c-59 0 -99 -61 -99 -140s40 -140 99 -140z" />
    <glyph glyph-name="foursuperior" unicode="&#x2074;" horiz-adv-x="360" 
d="M279 322h-61v98h-197v45l196 235h62v-229h59v-51h-59v-98zM218 625l-130 -154h130v154z" />
    <glyph glyph-name="fivesuperior" unicode="&#x2075;" horiz-adv-x="337" 
d="M143 317c-41 0 -78 9 -109 26v59c35 -20 70 -30 107 -30c53 0 95 30 95 75c0 40 -37 70 -93 70c-34 0 -65 -5 -94 -15l25 198h200v-53h-153l-10 -86c10 3 25 5 46 5c83 0 142 -47 142 -119c0 -80 -68 -130 -156 -130z" />
    <glyph glyph-name="sixsuperior" unicode="&#x2076;" horiz-adv-x="357" 
d="M186 317c-95 0 -149 71 -149 176c0 60 15 110 45 151c31 41 73 61 127 61c36 0 64 -7 85 -22v-56c-23 16 -50 24 -79 24c-65 0 -112 -50 -115 -127c23 30 56 45 99 45c71 0 124 -50 124 -123c0 -37 -13 -68 -40 -93c-26 -24 -58 -36 -97 -36zM184 368c44 0 76 33 76 78
c0 44 -33 74 -77 74c-35 0 -69 -24 -84 -56c3 -57 36 -96 85 -96z" />
    <glyph glyph-name="sevensuperior" unicode="&#x2077;" horiz-adv-x="319" 
d="M123 322h-69l166 325h-192v53h263v-49z" />
    <glyph glyph-name="eightsuperior" unicode="&#x2078;" horiz-adv-x="363" 
d="M182 317c-87 0 -152 43 -152 111c0 44 30 79 75 96c-33 13 -55 44 -55 79c0 61 56 102 132 102s131 -41 131 -102c0 -35 -22 -66 -55 -79c45 -17 75 -52 75 -96c0 -68 -66 -111 -151 -111zM182 368c51 0 88 28 88 65c0 40 -36 66 -88 66s-89 -26 -89 -66
c0 -37 37 -65 89 -65zM182 542c43 0 72 23 72 56s-31 57 -72 57c-43 0 -74 -24 -74 -57s30 -56 74 -56z" />
    <glyph glyph-name="ninesuperior" unicode="&#x2079;" horiz-adv-x="357" 
d="M174 705c95 0 149 -71 149 -176c0 -60 -15 -110 -46 -151c-30 -41 -72 -61 -126 -61c-36 0 -64 7 -85 22v56c23 -16 50 -24 79 -24c65 0 112 50 115 127c-22 -30 -55 -45 -99 -45c-69 0 -124 50 -124 123c0 37 13 68 39 92c27 25 59 37 98 37zM177 654
c-45 0 -77 -33 -77 -78c0 -44 33 -74 77 -74c36 0 69 24 84 56c-3 57 -36 96 -84 96z" />
    <glyph glyph-name="zeroinferior" unicode="&#x2080;" horiz-adv-x="390" 
d="M312 51c-29 -37 -68 -56 -117 -56s-88 19 -118 56c-29 38 -44 84 -44 138s15 100 44 137c30 38 69 57 118 57s88 -19 117 -57c30 -37 45 -83 45 -137s-15 -100 -45 -138zM195 49c60 0 99 61 99 140s-39 140 -99 140c-59 0 -99 -61 -99 -140s40 -140 99 -140z" />
    <glyph glyph-name="oneinferior" unicode="&#x2081;" horiz-adv-x="244" 
d="M190 0h-63v312l-104 -58v63l106 61h61v-378z" />
    <glyph glyph-name="twoinferior" unicode="&#x2082;" horiz-adv-x="359" 
d="M312 0h-268v46l121 110c51 47 71 74 71 109c0 36 -29 60 -73 60c-38 0 -74 -14 -109 -43v63c33 25 71 38 114 38c36 0 67 -10 93 -31s39 -47 39 -80c0 -52 -25 -91 -84 -144l-78 -75h174v-53z" />
    <glyph glyph-name="threeinferior" unicode="&#x2083;" horiz-adv-x="327" 
d="M142 -5c-47 0 -86 10 -116 29v58c37 -21 74 -32 111 -32c51 0 92 29 92 74c0 41 -32 69 -87 69c-19 0 -36 -3 -50 -8v41l105 99h-157v53h238v-47l-101 -96c61 -5 116 -42 116 -113c0 -38 -15 -69 -44 -92s-64 -35 -107 -35z" />
    <glyph glyph-name="fourinferior" unicode="&#x2084;" horiz-adv-x="360" 
d="M279 0h-61v98h-197v45l196 235h62v-229h59v-51h-59v-98zM218 303l-130 -154h130v154z" />
    <glyph glyph-name="fiveinferior" unicode="&#x2085;" horiz-adv-x="337" 
d="M143 -5c-41 0 -78 9 -109 26v59c35 -20 70 -30 107 -30c53 0 95 30 95 75c0 40 -37 70 -93 70c-34 0 -65 -5 -94 -15l25 198h200v-53h-153l-10 -86c10 3 25 5 46 5c83 0 142 -47 142 -119c0 -80 -68 -130 -156 -130z" />
    <glyph glyph-name="sixinferior" unicode="&#x2086;" horiz-adv-x="357" 
d="M186 -5c-95 0 -149 71 -149 176c0 60 15 110 45 151c31 41 73 61 127 61c36 0 64 -7 85 -22v-56c-23 16 -50 24 -79 24c-65 0 -112 -50 -115 -127c23 30 56 45 99 45c71 0 124 -50 124 -123c0 -37 -13 -68 -40 -93c-26 -24 -58 -36 -97 -36zM184 46c44 0 76 33 76 78
c0 44 -33 74 -77 74c-35 0 -69 -24 -84 -56c3 -57 36 -96 85 -96z" />
    <glyph glyph-name="seveninferior" unicode="&#x2087;" horiz-adv-x="319" 
d="M123 0h-69l166 325h-192v53h263v-49z" />
    <glyph glyph-name="eightinferior" unicode="&#x2088;" horiz-adv-x="363" 
d="M182 -5c-87 0 -152 43 -152 111c0 44 30 79 75 96c-33 13 -55 44 -55 79c0 61 56 102 132 102s131 -41 131 -102c0 -35 -22 -66 -55 -79c45 -17 75 -52 75 -96c0 -68 -66 -111 -151 -111zM182 46c51 0 88 28 88 65c0 40 -36 66 -88 66s-89 -26 -89 -66
c0 -37 37 -65 89 -65zM182 220c43 0 72 23 72 56s-31 57 -72 57c-43 0 -74 -24 -74 -57s30 -56 74 -56z" />
    <glyph glyph-name="nineinferior" unicode="&#x2089;" horiz-adv-x="357" 
d="M174 383c95 0 149 -71 149 -176c0 -60 -15 -110 -46 -151c-30 -41 -72 -61 -126 -61c-36 0 -64 7 -85 22v56c23 -16 50 -24 79 -24c65 0 112 50 115 127c-22 -30 -55 -45 -99 -45c-69 0 -124 50 -124 123c0 37 13 68 39 92c27 25 59 37 98 37zM177 332
c-45 0 -77 -33 -77 -78c0 -44 33 -74 77 -74c36 0 69 24 84 56c-3 57 -36 96 -84 96z" />
    <glyph glyph-name="franc" unicode="&#x20a3;" horiz-adv-x="638" 
d="M189 0h-74v148h-114v63h114v489h477v-67h-403v-233h328v-67h-328v-122h174v-63h-174v-148z" />
    <glyph glyph-name="lira" unicode="&#x20a4;" horiz-adv-x="589" 
d="M533 0h-470v67h19c41 0 53 33 53 86v67h-72v63h72v93h-72v63h72v48c0 143 85 226 229 226c64 0 118 -14 163 -43v-73c-44 31 -95 47 -153 47c-107 0 -165 -58 -165 -167v-38h254v-63h-254v-93h254v-63h-254v-98c0 -25 -8 -44 -24 -55h348v-67z" />
    <glyph glyph-name="peseta" unicode="&#x20a7;" horiz-adv-x="694" 
d="M103 472h-74v63h74v165h295c127 0 208 -65 221 -165h67v-63h-68c-15 -99 -95 -163 -220 -163h-221v-309h-74v472zM177 633v-257h216c97 0 155 47 155 128c0 83 -58 129 -155 129h-216z" />
    <glyph glyph-name="Euro" unicode="&#x20ac;" horiz-adv-x="686" 
d="M126 409h-83v63h95c19 72 56 130 110 174s120 66 199 66c66 0 124 -16 173 -49v-73c-50 35 -105 53 -166 53c-116 0 -204 -66 -237 -171h251v-63h-266c-3 -16 -4 -33 -4 -52c0 -18 1 -32 2 -41h268v-63h-258c27 -120 113 -196 244 -196c72 0 133 22 182 66v-76
c-51 -39 -114 -59 -189 -59c-83 0 -153 24 -208 72c-55 49 -90 113 -106 193h-90v63h82c-1 9 -2 23 -2 41c0 17 1 34 3 52z" />
    <glyph glyph-name="uni20B4" unicode="&#x20b4;" horiz-adv-x="608" 
d="M98 143c0 49 18 89 55 120h-90v63h483v-63h-293c-53 -28 -79 -64 -79 -107c0 -66 53 -99 159 -99c66 0 124 13 175 39v-73c-52 -23 -113 -35 -184 -35c-141 0 -226 59 -226 155zM546 395h-483v63h317c39 23 58 53 58 90c0 63 -51 95 -153 95c-59 0 -115 -12 -166 -35v71
c45 22 103 33 173 33c141 0 223 -62 223 -155c0 -41 -14 -74 -43 -99h74v-63z" />
    <glyph glyph-name="uni20B6" unicode="&#x20b6;" horiz-adv-x="681" 
d="M197 0h-74v157h-99v63h99v93h-99v63h99v324h279c139 0 222 -76 222 -192c0 -117 -82 -195 -222 -195h-205v-93h291v-63h-291v-157zM197 633v-257h199c99 0 155 45 155 128c0 81 -56 129 -155 129h-199z" />
    <glyph glyph-name="uni20B6" unicode="&#x20cf;" horiz-adv-x="681" 
d="M197 0h-74v157h-99v63h99v93h-99v63h99v324h279c139 0 222 -76 222 -192c0 -117 -82 -195 -222 -195h-205v-93h291v-63h-291v-157zM197 633v-257h199c99 0 155 45 155 128c0 81 -56 129 -155 129h-199z" />
    <glyph glyph-name="uni20B6" unicode="&#x20ce;" horiz-adv-x="681" 
d="M197 0h-74v157h-99v63h99v93h-99v63h99v324h279c139 0 222 -76 222 -192c0 -117 -82 -195 -222 -195h-205v-93h291v-63h-291v-157zM197 633v-257h199c99 0 155 45 155 128c0 81 -56 129 -155 129h-199z" />
    <glyph glyph-name="uni20B6" unicode="&#x20cd;" horiz-adv-x="681" 
d="M197 0h-74v157h-99v63h99v93h-99v63h99v324h279c139 0 222 -76 222 -192c0 -117 -82 -195 -222 -195h-205v-93h291v-63h-291v-157zM197 633v-257h199c99 0 155 45 155 128c0 81 -56 129 -155 129h-199z" />
    <glyph glyph-name="uni20B6" unicode="&#x20cc;" horiz-adv-x="681" 
d="M197 0h-74v157h-99v63h99v93h-99v63h99v324h279c139 0 222 -76 222 -192c0 -117 -82 -195 -222 -195h-205v-93h291v-63h-291v-157zM197 633v-257h199c99 0 155 45 155 128c0 81 -56 129 -155 129h-199z" />
    <glyph glyph-name="uni20B6" unicode="&#x20cb;" horiz-adv-x="681" 
d="M197 0h-74v157h-99v63h99v93h-99v63h99v324h279c139 0 222 -76 222 -192c0 -117 -82 -195 -222 -195h-205v-93h291v-63h-291v-157zM197 633v-257h199c99 0 155 45 155 128c0 81 -56 129 -155 129h-199z" />
    <glyph glyph-name="uni20B6" unicode="&#x20ca;" horiz-adv-x="681" 
d="M197 0h-74v157h-99v63h99v93h-99v63h99v324h279c139 0 222 -76 222 -192c0 -117 -82 -195 -222 -195h-205v-93h291v-63h-291v-157zM197 633v-257h199c99 0 155 45 155 128c0 81 -56 129 -155 129h-199z" />
    <glyph glyph-name="uni20B6" unicode="&#x20c9;" horiz-adv-x="681" 
d="M197 0h-74v157h-99v63h99v93h-99v63h99v324h279c139 0 222 -76 222 -192c0 -117 -82 -195 -222 -195h-205v-93h291v-63h-291v-157zM197 633v-257h199c99 0 155 45 155 128c0 81 -56 129 -155 129h-199z" />
    <glyph glyph-name="uni20B6" unicode="&#x20c8;" horiz-adv-x="681" 
d="M197 0h-74v157h-99v63h99v93h-99v63h99v324h279c139 0 222 -76 222 -192c0 -117 -82 -195 -222 -195h-205v-93h291v-63h-291v-157zM197 633v-257h199c99 0 155 45 155 128c0 81 -56 129 -155 129h-199z" />
    <glyph glyph-name="uni20B6" unicode="&#x20c7;" horiz-adv-x="681" 
d="M197 0h-74v157h-99v63h99v93h-99v63h99v324h279c139 0 222 -76 222 -192c0 -117 -82 -195 -222 -195h-205v-93h291v-63h-291v-157zM197 633v-257h199c99 0 155 45 155 128c0 81 -56 129 -155 129h-199z" />
    <glyph glyph-name="uni20B6" unicode="&#x20c6;" horiz-adv-x="681" 
d="M197 0h-74v157h-99v63h99v93h-99v63h99v324h279c139 0 222 -76 222 -192c0 -117 -82 -195 -222 -195h-205v-93h291v-63h-291v-157zM197 633v-257h199c99 0 155 45 155 128c0 81 -56 129 -155 129h-199z" />
    <glyph glyph-name="uni20B6" unicode="&#x20c5;" horiz-adv-x="681" 
d="M197 0h-74v157h-99v63h99v93h-99v63h99v324h279c139 0 222 -76 222 -192c0 -117 -82 -195 -222 -195h-205v-93h291v-63h-291v-157zM197 633v-257h199c99 0 155 45 155 128c0 81 -56 129 -155 129h-199z" />
    <glyph glyph-name="uni20B6" unicode="&#x20c4;" horiz-adv-x="681" 
d="M197 0h-74v157h-99v63h99v93h-99v63h99v324h279c139 0 222 -76 222 -192c0 -117 -82 -195 -222 -195h-205v-93h291v-63h-291v-157zM197 633v-257h199c99 0 155 45 155 128c0 81 -56 129 -155 129h-199z" />
    <glyph glyph-name="uni20B6" unicode="&#x20c3;" horiz-adv-x="681" 
d="M197 0h-74v157h-99v63h99v93h-99v63h99v324h279c139 0 222 -76 222 -192c0 -117 -82 -195 -222 -195h-205v-93h291v-63h-291v-157zM197 633v-257h199c99 0 155 45 155 128c0 81 -56 129 -155 129h-199z" />
    <glyph glyph-name="uni20B6" unicode="&#x20c2;" horiz-adv-x="681" 
d="M197 0h-74v157h-99v63h99v93h-99v63h99v324h279c139 0 222 -76 222 -192c0 -117 -82 -195 -222 -195h-205v-93h291v-63h-291v-157zM197 633v-257h199c99 0 155 45 155 128c0 81 -56 129 -155 129h-199z" />
    <glyph glyph-name="uni20B6" unicode="&#x20c1;" horiz-adv-x="681" 
d="M197 0h-74v157h-99v63h99v93h-99v63h99v324h279c139 0 222 -76 222 -192c0 -117 -82 -195 -222 -195h-205v-93h291v-63h-291v-157zM197 633v-257h199c99 0 155 45 155 128c0 81 -56 129 -155 129h-199z" />
    <glyph glyph-name="uni20B6" unicode="&#x20c0;" horiz-adv-x="681" 
d="M197 0h-74v157h-99v63h99v93h-99v63h99v324h279c139 0 222 -76 222 -192c0 -117 -82 -195 -222 -195h-205v-93h291v-63h-291v-157zM197 633v-257h199c99 0 155 45 155 128c0 81 -56 129 -155 129h-199z" />
    <glyph glyph-name="uni20B6" unicode="&#x20bf;" horiz-adv-x="681" 
d="M197 0h-74v157h-99v63h99v93h-99v63h99v324h279c139 0 222 -76 222 -192c0 -117 -82 -195 -222 -195h-205v-93h291v-63h-291v-157zM197 633v-257h199c99 0 155 45 155 128c0 81 -56 129 -155 129h-199z" />
    <glyph glyph-name="uni20B6" unicode="&#x20be;" horiz-adv-x="681" 
d="M197 0h-74v157h-99v63h99v93h-99v63h99v324h279c139 0 222 -76 222 -192c0 -117 -82 -195 -222 -195h-205v-93h291v-63h-291v-157zM197 633v-257h199c99 0 155 45 155 128c0 81 -56 129 -155 129h-199z" />
    <glyph glyph-name="uni20B6" unicode="&#x20bd;" horiz-adv-x="681" 
d="M197 0h-74v157h-99v63h99v93h-99v63h99v324h279c139 0 222 -76 222 -192c0 -117 -82 -195 -222 -195h-205v-93h291v-63h-291v-157zM197 633v-257h199c99 0 155 45 155 128c0 81 -56 129 -155 129h-199z" />
    <glyph glyph-name="uni20B6" unicode="&#x20bc;" horiz-adv-x="681" 
d="M197 0h-74v157h-99v63h99v93h-99v63h99v324h279c139 0 222 -76 222 -192c0 -117 -82 -195 -222 -195h-205v-93h291v-63h-291v-157zM197 633v-257h199c99 0 155 45 155 128c0 81 -56 129 -155 129h-199z" />
    <glyph glyph-name="uni20B6" unicode="&#x20bb;" horiz-adv-x="681" 
d="M197 0h-74v157h-99v63h99v93h-99v63h99v324h279c139 0 222 -76 222 -192c0 -117 -82 -195 -222 -195h-205v-93h291v-63h-291v-157zM197 633v-257h199c99 0 155 45 155 128c0 81 -56 129 -155 129h-199z" />
    <glyph glyph-name="uni20B6" unicode="&#x20ba;" horiz-adv-x="681" 
d="M197 0h-74v157h-99v63h99v93h-99v63h99v324h279c139 0 222 -76 222 -192c0 -117 -82 -195 -222 -195h-205v-93h291v-63h-291v-157zM197 633v-257h199c99 0 155 45 155 128c0 81 -56 129 -155 129h-199z" />
    <glyph glyph-name="uni20B6" unicode="&#x20b9;" horiz-adv-x="681" 
d="M197 0h-74v157h-99v63h99v93h-99v63h99v324h279c139 0 222 -76 222 -192c0 -117 -82 -195 -222 -195h-205v-93h291v-63h-291v-157zM197 633v-257h199c99 0 155 45 155 128c0 81 -56 129 -155 129h-199z" />
    <glyph glyph-name="uni20B6" unicode="&#x20b7;" horiz-adv-x="681" 
d="M197 0h-74v157h-99v63h99v93h-99v63h99v324h279c139 0 222 -76 222 -192c0 -117 -82 -195 -222 -195h-205v-93h291v-63h-291v-157zM197 633v-257h199c99 0 155 45 155 128c0 81 -56 129 -155 129h-199z" />
    <glyph glyph-name="uni2113" unicode="&#x2113;" horiz-adv-x="429" 
d="M143 182v-32c0 -63 32 -94 97 -94c35 0 67 10 95 30v-68c-25 -20 -60 -30 -107 -30c-103 0 -151 58 -151 157v350c0 131 60 213 159 213c83 0 129 -58 129 -153c0 -118 -74 -242 -222 -373zM143 493v-225c107 105 160 200 160 284c0 61 -22 91 -66 91
c-49 0 -94 -50 -94 -150z" />
    <glyph glyph-name="uni2116" unicode="&#x2116;" horiz-adv-x="1128" 
d="M1063 243h-299v63h299v-63zM171 0h-72v700h64l442 -572v572h72v-700h-63l-443 574v-574zM914 712c49 0 89 -16 121 -49c32 -32 48 -72 48 -119s-16 -87 -48 -120s-72 -49 -121 -49c-48 0 -88 16 -120 49c-31 33 -47 73 -47 120s16 87 47 119c32 33 72 49 120 49z
M1023 544c0 64 -46 113 -109 113s-108 -49 -108 -113c0 -65 44 -114 108 -114s109 49 109 114z" />
    <glyph glyph-name="trademark" unicode="&#x2122;" horiz-adv-x="690" 
d="M381 391h-49v309h46l104 -135l103 135h46v-309h-49v233l-87 -111h-26l-88 111v-233zM173 391h-49v266h-100v43h252v-43h-103v-266z" />
    <glyph glyph-name="Omega" unicode="&#x2126;" horiz-adv-x="804" 
d="M310 0h-208v67h117c-69 69 -120 181 -120 301c0 99 28 181 84 246s129 98 219 98s163 -33 219 -98s84 -147 84 -246c0 -120 -50 -232 -121 -301h117v-67h-208v57c39 32 71 75 97 128c27 53 40 111 40 172c0 84 -22 153 -65 206s-97 80 -163 80c-67 0 -122 -27 -165 -80
s-64 -122 -64 -206c0 -61 13 -119 39 -172c27 -53 59 -96 98 -128v-57z" />
    <glyph glyph-name="estimated" unicode="&#x212e;" horiz-adv-x="805" 
d="M403 -12c-95 0 -174 31 -238 94c-63 63 -95 142 -95 236c0 92 31 170 94 235s142 97 239 97c89 0 164 -28 224 -84c61 -55 95 -122 104 -200c2 -24 3 -39 3 -45h-570v-198c56 -69 142 -111 239 -111c128 0 234 70 282 182h27c-23 -61 -62 -110 -117 -149
c-54 -38 -118 -57 -192 -57zM164 515v-170h478v170c-56 68 -143 111 -239 111c-99 0 -179 -37 -239 -111z" />
    <glyph glyph-name="onethird" unicode="&#x2153;" horiz-adv-x="782" 
d="M181 0h-69l413 700h68zM190 322h-63v312l-104 -58v63l106 61h61v-378zM597 -5c-47 0 -86 10 -116 29v58c37 -21 74 -32 111 -32c51 0 92 29 92 74c0 41 -32 69 -87 69c-19 0 -36 -3 -50 -8v41l105 99h-157v53h238v-47l-101 -96c61 -5 116 -42 116 -113
c0 -38 -15 -69 -44 -92s-64 -35 -107 -35z" />
    <glyph glyph-name="twothirds" unicode="&#x2154;" horiz-adv-x="890" 
d="M312 322h-268v46l121 110c51 47 71 74 71 109c0 36 -29 60 -73 60c-38 0 -74 -14 -109 -43v63c33 25 71 38 114 38c36 0 67 -10 93 -31s39 -47 39 -80c0 -52 -25 -91 -84 -144l-78 -75h174v-53zM705 -5c-47 0 -86 10 -116 29v58c37 -21 74 -32 111 -32c51 0 92 29 92 74
c0 41 -32 69 -87 69c-19 0 -36 -3 -50 -8v41l105 99h-157v53h238v-47l-101 -96c61 -5 116 -42 116 -113c0 -38 -15 -69 -44 -92s-64 -35 -107 -35zM288 0h-69l413 700h68z" />
    <glyph glyph-name="uni2155" unicode="&#x2155;" horiz-adv-x="764" 
d="M181 0h-69l413 700h68zM190 322h-63v312l-104 -58v63l106 61h61v-378zM570 -5c-41 0 -78 9 -109 26v59c35 -20 70 -30 107 -30c53 0 95 30 95 75c0 40 -37 70 -93 70c-33 0 -65 -5 -94 -15l25 198h200v-53h-153l-10 -86c10 3 25 5 46 5c83 0 142 -47 142 -119
c0 -80 -68 -130 -156 -130z" />
    <glyph glyph-name="uni2156" unicode="&#x2156;" horiz-adv-x="871" 
d="M677 -5c-41 0 -78 9 -109 26v59c35 -20 70 -30 107 -30c53 0 95 30 95 75c0 40 -37 70 -93 70c-34 0 -65 -5 -94 -15l25 198h200v-53h-153l-10 -86c10 3 25 5 46 5c83 0 142 -47 142 -119c0 -80 -68 -130 -156 -130zM312 322h-268v46l121 110c51 47 71 74 71 109
c0 36 -29 60 -73 60c-38 0 -74 -14 -109 -43v63c33 25 71 38 114 38c36 0 67 -10 93 -31s39 -47 39 -80c0 -52 -25 -91 -84 -144l-78 -75h174v-53zM288 0h-69l413 700h68z" />
    <glyph glyph-name="uni2157" unicode="&#x2157;" horiz-adv-x="813" 
d="M619 -5c-41 0 -78 9 -109 26v59c35 -20 70 -30 107 -30c53 0 95 30 95 75c0 40 -37 70 -93 70c-34 0 -65 -5 -94 -15l25 198h200v-53h-153l-10 -86c10 3 25 5 46 5c83 0 142 -47 142 -119c0 -80 -68 -130 -156 -130zM142 317c-47 0 -86 10 -116 29v58
c37 -21 74 -32 111 -32c51 0 92 29 92 74c0 41 -32 69 -87 69c-19 0 -36 -3 -50 -8v41l105 99h-157v53h238v-47l-101 -96c61 -5 116 -42 116 -113c0 -38 -15 -69 -44 -92s-64 -35 -107 -35zM231 0h-69l413 700h68z" />
    <glyph glyph-name="uni2158" unicode="&#x2158;" horiz-adv-x="856" 
d="M273 0h-69l413 700h68zM662 -5c-41 0 -78 9 -109 26v59c35 -20 70 -30 107 -30c53 0 95 30 95 75c0 40 -37 70 -93 70c-33 0 -65 -5 -94 -15l25 198h200v-53h-153l-10 -86c10 3 25 5 46 5c83 0 142 -47 142 -119c0 -80 -68 -130 -156 -130zM279 322h-61v98h-197v45
l196 235h62v-229h59v-51h-59v-98zM218 625l-130 -154h130v154z" />
    <glyph glyph-name="uni2159" unicode="&#x2159;" horiz-adv-x="768" 
d="M181 0h-69l413 700h68zM190 322h-63v312l-104 -58v63l106 61h61v-378zM597 -5c-95 0 -149 71 -149 176c0 60 15 110 45 151c31 41 73 61 127 61c36 0 64 -7 85 -22v-56c-23 16 -50 24 -79 24c-65 0 -112 -50 -115 -127c23 30 56 45 99 45c71 0 124 -50 124 -123
c0 -37 -13 -68 -40 -93c-26 -24 -58 -36 -97 -36zM595 46c44 0 76 33 76 78c0 44 -33 74 -77 74c-35 0 -69 -24 -84 -56c3 -57 36 -96 85 -96z" />
    <glyph glyph-name="uni215A" unicode="&#x215a;" horiz-adv-x="826" 
d="M238 0h-69l413 700h68zM655 -5c-95 0 -149 71 -149 176c0 60 15 110 45 151c31 41 73 61 127 61c36 0 64 -7 85 -22v-56c-23 16 -50 24 -79 24c-65 0 -112 -50 -115 -127c23 30 56 45 99 45c71 0 124 -50 124 -123c0 -37 -13 -68 -40 -93c-26 -24 -58 -36 -97 -36z
M653 46c44 0 76 33 76 78c0 44 -33 74 -77 74c-35 0 -69 -24 -84 -56c3 -57 36 -96 85 -96zM143 317c-41 0 -78 9 -109 26v59c35 -20 70 -30 107 -30c53 0 95 30 95 75c0 40 -37 70 -93 70c-34 0 -65 -5 -94 -15l25 198h200v-53h-153l-10 -86c10 3 25 5 46 5
c83 0 142 -47 142 -119c0 -80 -68 -130 -156 -130z" />
    <glyph glyph-name="oneeighth" unicode="&#x215b;" horiz-adv-x="786" 
d="M181 0h-69l413 700h68zM190 322h-63v312l-104 -58v63l106 61h61v-378zM605 -5c-87 0 -152 43 -152 111c0 44 30 79 75 96c-33 13 -55 44 -55 79c0 61 56 102 132 102s131 -41 131 -102c0 -35 -22 -66 -55 -79c45 -17 75 -52 75 -96c0 -68 -66 -111 -151 -111zM605 46
c51 0 88 28 88 65c0 40 -36 66 -88 66s-89 -26 -89 -66c0 -37 37 -65 89 -65zM605 220c43 0 72 23 72 56s-31 57 -72 57c-43 0 -74 -24 -74 -57s30 -56 74 -56z" />
    <glyph glyph-name="threeeighths" unicode="&#x215c;" horiz-adv-x="836" 
d="M231 0h-69l413 700h68zM655 -5c-87 0 -152 43 -152 111c0 44 30 79 75 96c-33 13 -55 44 -55 79c0 61 56 102 132 102s131 -41 131 -102c0 -35 -22 -66 -55 -79c45 -17 75 -52 75 -96c0 -68 -66 -111 -151 -111zM655 46c51 0 88 28 88 65c0 40 -36 66 -88 66
s-89 -26 -89 -66c0 -37 37 -65 89 -65zM655 220c43 0 72 23 72 56s-31 57 -72 57c-43 0 -74 -24 -74 -57s30 -56 74 -56zM142 317c-47 0 -86 10 -116 29v58c37 -21 74 -32 111 -32c51 0 92 29 92 74c0 41 -32 69 -87 69c-19 0 -36 -3 -50 -8v41l105 99h-157v53h238v-47
l-101 -96c61 -5 116 -42 116 -113c0 -38 -15 -69 -44 -92s-64 -35 -107 -35z" />
    <glyph glyph-name="fiveeighths" unicode="&#x215d;" horiz-adv-x="844" 
d="M663 -5c-87 0 -152 43 -152 111c0 44 30 79 75 96c-33 13 -55 44 -55 79c0 61 56 102 132 102s131 -41 131 -102c0 -35 -22 -66 -55 -79c45 -17 75 -52 75 -96c0 -68 -66 -111 -151 -111zM663 46c51 0 88 28 88 65c0 40 -36 66 -88 66s-89 -26 -89 -66
c0 -37 37 -65 89 -65zM663 220c43 0 72 23 72 56s-31 57 -72 57c-43 0 -74 -24 -74 -57s30 -56 74 -56zM143 317c-41 0 -78 9 -109 26v59c35 -20 70 -30 107 -30c53 0 95 30 95 75c0 40 -37 70 -93 70c-34 0 -65 -5 -94 -15l25 198h200v-53h-153l-10 -86c10 3 25 5 46 5
c83 0 142 -47 142 -119c0 -80 -68 -130 -156 -130zM238 0h-69l413 700h68z" />
    <glyph glyph-name="seveneighths" unicode="&#x215e;" horiz-adv-x="776" 
d="M595 -5c-87 0 -152 43 -152 111c0 44 30 79 75 96c-33 13 -55 44 -55 79c0 61 56 102 132 102s131 -41 131 -102c0 -35 -22 -66 -55 -79c45 -17 75 -52 75 -96c0 -68 -66 -111 -151 -111zM595 46c51 0 88 28 88 65c0 40 -36 66 -88 66s-89 -26 -89 -66
c0 -37 37 -65 89 -65zM595 220c43 0 72 23 72 56s-31 57 -72 57c-43 0 -74 -24 -74 -57s30 -56 74 -56zM123 322h-69l166 325h-192v53h263v-49zM170 0h-69l413 700h68z" />
    <glyph glyph-name="uni215F" unicode="&#x215f;" horiz-adv-x="425" 
d="M190 322h-63v312l-104 -58v63l106 61h61v-378zM181 0h-69l413 700h68z" />
    <glyph glyph-name="arrowleft" unicode="&#x2190;" horiz-adv-x="724" 
d="M248 474h78l-160 -178h479v-58h-479l160 -178h-78l-186 207z" />
    <glyph glyph-name="arrowup" unicode="&#x2191;" horiz-adv-x="571" 
d="M493 397v-78l-178 160v-479h-58v479l-178 -160v78l207 186z" />
    <glyph glyph-name="arrowright" unicode="&#x2192;" horiz-adv-x="724" 
d="M79 296h478l-159 178h78l186 -207l-186 -207h-78l159 178h-478v58z" />
    <glyph glyph-name="arrowdown" unicode="&#x2193;" horiz-adv-x="571" 
d="M79 175v78l177 -159v478h58v-478l179 159v-78l-208 -185z" />
    <glyph glyph-name="partialdiff" unicode="&#x2202;" horiz-adv-x="628" 
d="M273 -13c-65 0 -118 20 -160 60s-63 93 -63 158c0 69 23 128 68 176s102 72 169 72c95 0 167 -47 199 -106c1 5 1 14 1 26c0 121 -69 270 -212 270c-51 0 -98 -14 -143 -41v64c43 28 92 42 149 42c83 0 150 -32 200 -97c51 -64 76 -149 76 -254c0 -92 -20 -176 -63 -249
s-121 -121 -221 -121zM277 52c107 0 180 78 200 201c-24 80 -95 137 -178 137c-49 0 -90 -17 -125 -50s-52 -76 -52 -127c0 -47 15 -86 44 -116s66 -45 111 -45z" />
    <glyph glyph-name="increment" unicode="&#x2206;" horiz-adv-x="753" 
d="M724 0h-694l312 700h69zM376 607l-242 -540h484z" />
    <glyph glyph-name="product" unicode="&#x220f;" horiz-adv-x="760" 
d="M250 -129h-74v762h-113v67h634v-67h-114v-762h-74v762h-259v-762z" />
    <glyph glyph-name="summation" unicode="&#x2211;" horiz-adv-x="603" 
d="M557 0h-498v53l257 297l-253 297v53h492v-67h-388l224 -266v-33l-228 -267h394v-67z" />
    <glyph glyph-name="minus" unicode="&#x2212;" horiz-adv-x="619" 
d="M549 292h-479v67h479v-67z" />
    <glyph glyph-name="uni2215" unicode="&#x2215;" horiz-adv-x="518" 
d="M91 0h-67l412 700h67z" />
    <glyph glyph-name="uni2219" unicode="&#x2219;" horiz-adv-x="230" 
d="M78 198c-20 20 -20 54 0 74s54 20 74 0s20 -54 0 -74s-54 -20 -74 0z" />
    <glyph glyph-name="radical" unicode="&#x221a;" horiz-adv-x="678" 
d="M383 0h-64l-186 420h-140v63h186l171 -393l233 610h70z" />
    <glyph glyph-name="infinity" unicode="&#x221e;" horiz-adv-x="800" 
d="M220 147c-47 0 -86 15 -117 46s-46 71 -46 121c0 49 16 88 47 119s70 46 116 46c62 0 122 -40 181 -119c51 71 104 119 181 119c48 0 87 -16 117 -48s45 -71 45 -117c0 -48 -15 -88 -45 -120c-30 -31 -69 -47 -117 -47c-64 0 -125 40 -182 119
c-55 -73 -107 -119 -180 -119zM225 201c20 0 39 6 58 19c39 25 54 46 86 93c-17 24 -30 42 -41 55c-21 25 -64 57 -104 57c-69 0 -108 -52 -108 -111c0 -60 37 -113 109 -113zM576 201c71 0 109 53 109 113c0 59 -38 110 -109 110c-57 0 -96 -39 -145 -111
c15 -23 29 -41 40 -55c24 -27 65 -57 105 -57z" />
    <glyph glyph-name="integral" unicode="&#x222b;" horiz-adv-x="523" 
d="M26 -204c-34 0 -62 6 -85 17v65c26 -11 50 -17 72 -17c73 0 120 51 135 146l79 510c19 127 83 191 191 191c34 0 63 -5 87 -16v-66c-26 11 -51 17 -74 17c-75 0 -117 -40 -133 -141l-80 -513c-19 -115 -81 -193 -192 -193z" />
    <glyph glyph-name="approxequal" unicode="&#x2248;" horiz-adv-x="664" 
d="M469 372c-34 0 -80 9 -139 28c-58 19 -103 29 -136 29c-53 0 -94 -16 -124 -47v67c20 25 72 44 124 44c33 0 79 -10 137 -29c59 -19 105 -28 138 -28c53 0 94 16 125 48v-68c-21 -25 -72 -44 -125 -44zM469 143c-34 0 -80 9 -139 28c-58 19 -103 29 -136 29
c-52 0 -93 -16 -124 -48v68c20 25 72 44 124 44c33 0 79 -10 137 -29c59 -19 105 -29 138 -29c53 0 94 16 125 48v-67c-21 -25 -72 -44 -125 -44z" />
    <glyph glyph-name="notequal" unicode="&#x2260;" horiz-adv-x="619" 
d="M318 406h-248v66h283l62 116h66l-62 -116h130v-66h-165l-85 -162h250v-66h-285l-62 -119h-66l62 119h-128v66h163z" />
    <glyph glyph-name="lessequal" unicode="&#x2264;" horiz-adv-x="619" 
d="M549 243v-73l-479 188v63l479 188v-73l-401 -147zM548 54h-478v65h478v-65z" />
    <glyph glyph-name="greaterequal" unicode="&#x2265;" horiz-adv-x="619" 
d="M549 358l-479 -188v73l401 146l-401 147v73l479 -188v-63zM549 54h-479v65h479v-65z" />
    <glyph glyph-name="dotmath" unicode="&#x22c5;" horiz-adv-x="236" 
d="M81 344c-20 20 -20 54 0 74s54 20 74 0s20 -54 0 -74s-54 -20 -74 0z" />
    <glyph glyph-name="lozenge" unicode="&#x25ca;" horiz-adv-x="562" 
d="M314 700l201 -350l-201 -350h-66l-200 350l200 350h66zM119 350l163 -288l162 288l-163 288z" />
    <glyph glyph-name="uniF401" unicode="&#xf401;" horiz-adv-x="20" 
d="M-357 763h-69l95 133h92z" />
    <glyph glyph-name="uniF639" unicode="&#xf639;" 
d="M318 -12c-80 0 -145 35 -194 104s-74 155 -74 258s25 189 74 258s114 104 194 104c81 0 146 -35 195 -104s74 -155 74 -258s-25 -190 -74 -259s-114 -103 -195 -103zM318 55c58 0 105 28 141 84s54 126 54 211s-18 155 -54 211s-83 84 -141 84c-57 0 -104 -28 -140 -84
s-54 -126 -54 -211s18 -155 54 -211s83 -84 140 -84z" />
    <glyph glyph-name="uniF63A" unicode="&#xf63a;" 
d="M556 0h-477v55l236 225c52 49 88 88 109 119s32 66 32 105c0 83 -64 139 -159 139c-73 0 -141 -31 -202 -94v83c59 53 128 80 209 80c65 0 118 -18 161 -55s65 -85 65 -144c0 -47 -12 -90 -35 -128c-23 -37 -63 -83 -120 -137l-188 -181h369v-67z" />
    <glyph glyph-name="uniF63B" unicode="&#xf63b;" 
d="M280 -12c-82 0 -150 17 -204 51v77c56 -39 123 -59 200 -59c53 0 99 15 138 44c39 30 59 70 59 121c0 96 -74 159 -190 159c-27 0 -53 -3 -78 -10v51l216 211h-316v67h416v-55l-209 -205c61 -1 116 -22 163 -62c48 -40 72 -92 72 -156c0 -69 -26 -126 -77 -169
s-114 -65 -190 -65z" />
    <glyph glyph-name="uniF63C" unicode="&#xf63c;" 
d="M484 0h-72v193h-376v59l377 448h71v-440h116v-67h-116v-193zM412 602l-290 -342h290v342z" />
    <glyph glyph-name="uniF63D" unicode="&#xf63d;" 
d="M277 -12c-75 0 -140 15 -193 46v74c55 -34 119 -51 191 -51c59 0 108 15 147 46s58 70 58 118c0 93 -78 160 -199 160c-58 0 -114 -10 -168 -29l46 348h346v-67h-290l-28 -202c33 9 70 13 111 13c73 0 134 -21 183 -63c49 -41 73 -95 73 -160c0 -69 -26 -125 -79 -168
s-119 -65 -198 -65z" />
    <glyph glyph-name="uniF63E" unicode="&#xf63e;" 
d="M337 -12c-82 0 -147 29 -194 86c-47 58 -71 139 -71 242c-4 218 114 397 304 396c57 0 107 -14 148 -43v-71c-44 30 -91 45 -142 45c-166 0 -235 -151 -238 -299c37 63 110 104 205 104c63 0 117 -21 160 -63c44 -41 66 -95 66 -160c0 -69 -23 -125 -69 -170
c-45 -45 -102 -67 -169 -67zM333 57c48 0 88 16 120 47c33 32 49 72 49 121c0 48 -16 86 -49 115s-73 43 -122 43c-41 0 -79 -13 -114 -39s-58 -58 -71 -97c12 -120 78 -190 187 -190z" />
    <glyph glyph-name="uniF63F" unicode="&#xf63f;" 
d="M227 0h-78l320 633h-377v67h462v-55z" />
    <glyph glyph-name="uniF640" unicode="&#xf640;" 
d="M434 369c92 -24 150 -89 150 -178c0 -61 -25 -111 -76 -148s-114 -55 -190 -55c-75 0 -139 18 -190 55s-76 87 -76 148c0 89 59 154 151 178c-71 29 -116 85 -116 160c0 54 22 98 66 132s99 51 165 51c67 0 122 -17 166 -51s66 -78 66 -132c0 -75 -45 -131 -116 -160z
M157 523c0 -37 15 -67 46 -90s69 -34 115 -34c93 0 162 51 162 124c0 37 -16 68 -47 91s-69 35 -115 35s-84 -12 -115 -35s-46 -54 -46 -91zM318 51c55 0 100 14 137 41c37 28 56 62 56 103c0 42 -18 76 -55 102s-83 39 -138 39s-100 -13 -137 -39s-55 -60 -55 -102
c0 -41 18 -75 55 -103c37 -27 83 -41 137 -41z" />
    <glyph glyph-name="uniF641" unicode="&#xf641;" 
d="M299 712c82 0 147 -29 194 -87c47 -57 71 -138 71 -241c4 -218 -114 -398 -304 -396c-57 0 -107 14 -148 43v71c44 -30 91 -45 142 -45c166 0 235 151 238 299c-37 -63 -110 -104 -205 -104c-63 0 -117 21 -161 62c-43 42 -65 96 -65 161c0 69 23 125 68 170
c46 45 103 67 170 67zM303 643c-48 0 -88 -16 -121 -48c-32 -31 -48 -71 -48 -120c0 -48 16 -86 49 -115s73 -43 122 -43c41 0 79 13 114 39s58 58 71 97c-12 120 -78 190 -187 190z" />
    <glyph glyph-name="uniF643" unicode="&#xf643;" 
d="M131 420c49 50 111 75 188 75s139 -25 188 -75c49 -49 73 -109 73 -179s-24 -130 -73 -179s-111 -74 -188 -74s-139 25 -188 74s-73 109 -73 179s24 130 73 179zM506 241c0 54 -18 99 -53 135s-80 54 -134 54s-99 -18 -134 -54s-53 -81 -53 -135c0 -53 18 -98 53 -134
s80 -54 134 -54s99 18 134 54s53 81 53 134z" />
    <glyph glyph-name="uniF644" unicode="&#xf644;" 
d="M558 0h-453v67h194v336l-157 -90v71l165 99h65v-416h186v-67z" />
    <glyph glyph-name="uniF645" unicode="&#xf645;" 
d="M541 0h-449v55c109 59 183 101 220 124l45 30c11 7 24 18 39 31c31 28 45 54 45 85c0 63 -53 102 -136 102c-68 0 -135 -28 -200 -83v75c60 51 129 76 206 76c61 0 110 -15 147 -45c38 -30 57 -69 57 -116c0 -84 -62 -139 -157 -192l-135 -75h318v-67z" />
    <glyph glyph-name="uniF646" unicode="&#xf646;" 
d="M280 -204c-82 0 -150 17 -204 51v77c58 -39 125 -59 200 -59c54 0 100 14 138 42c39 28 58 67 58 117c0 95 -73 152 -189 152c-29 0 -55 -3 -78 -10v52l214 198h-314v67h415v-55l-208 -193c62 -1 116 -21 163 -59s71 -89 71 -152c0 -69 -25 -125 -76 -166
s-114 -62 -190 -62z" />
    <glyph glyph-name="uniF647" unicode="&#xf647;" 
d="M484 -200h-72v200h-376v58l377 425h71v-416h116v-67h-116v-200zM412 389l-289 -322h289v322z" />
    <glyph glyph-name="uniF648" unicode="&#xf648;" 
d="M274 -204c-75 0 -139 15 -193 46v75c57 -35 120 -52 191 -52c59 0 108 15 147 46c39 30 58 69 58 117c0 92 -78 155 -199 155c-58 0 -114 -10 -168 -29l45 329h346v-67h-290l-26 -182c33 8 70 12 110 12c74 0 135 -20 183 -60c49 -40 73 -93 73 -158
c0 -69 -26 -124 -79 -167s-119 -65 -198 -65z" />
    <glyph glyph-name="uniF649" unicode="&#xf649;" 
d="M337 -12c-82 0 -147 29 -194 86c-47 58 -71 139 -71 242c-4 218 114 397 304 396c57 0 107 -14 148 -43v-71c-44 30 -91 45 -142 45c-166 0 -235 -151 -238 -299c37 63 110 104 205 104c63 0 117 -21 160 -63c44 -41 66 -95 66 -160c0 -69 -23 -125 -69 -170
c-45 -45 -102 -67 -169 -67zM333 57c48 0 88 16 120 47c33 32 49 72 49 121c0 48 -16 86 -49 115s-73 43 -122 43c-41 0 -79 -13 -114 -39s-58 -58 -71 -97c12 -120 78 -190 187 -190z" />
    <glyph glyph-name="uniF64A" unicode="&#xf64a;" 
d="M234 -200h-78l312 616h-377v67h462v-55z" />
    <glyph glyph-name="uniF64B" unicode="&#xf64b;" 
d="M434 369c92 -24 150 -89 150 -178c0 -61 -25 -111 -76 -148s-114 -55 -190 -55c-75 0 -139 18 -190 55s-76 87 -76 148c0 89 59 154 151 178c-71 29 -116 85 -116 160c0 54 22 98 66 132s99 51 165 51c67 0 122 -17 166 -51s66 -78 66 -132c0 -75 -45 -131 -116 -160z
M157 523c0 -37 15 -67 46 -90s69 -34 115 -34c93 0 162 51 162 124c0 37 -16 68 -47 91s-69 35 -115 35s-84 -12 -115 -35s-46 -54 -46 -91zM318 51c55 0 100 14 137 41c37 28 56 62 56 103c0 42 -18 76 -55 102s-83 39 -138 39s-100 -13 -137 -39s-55 -60 -55 -102
c0 -41 18 -75 55 -103c37 -27 83 -41 137 -41z" />
    <glyph glyph-name="uniF64C" unicode="&#xf64c;" 
d="M301 495c82 0 147 -29 194 -87c47 -57 71 -138 71 -241c0 -112 -27 -202 -81 -269c-54 -68 -128 -102 -223 -102c-57 0 -107 14 -148 43v71c44 -30 91 -45 142 -45c79 0 138 26 177 77s60 117 61 197c-37 -63 -110 -104 -205 -104c-63 0 -117 21 -161 62
c-43 42 -65 96 -65 161c0 69 23 125 68 170c46 45 103 67 170 67zM305 426c-48 0 -88 -16 -121 -48c-32 -31 -48 -71 -48 -120c0 -48 16 -86 49 -115s73 -43 122 -43c41 0 79 13 114 39s58 58 71 97c-12 120 -78 190 -187 190z" />
    <glyph glyph-name="uniF64E" unicode="&#xf64e;" horiz-adv-x="575" 
d="M110 156h-79v51h67c-1 15 -2 26 -2 35c0 7 1 17 2 29h-67v51h77c15 51 45 93 90 125s96 48 155 48c56 0 105 -12 146 -35v-67c-44 25 -89 37 -136 37c-80 0 -149 -41 -180 -108h213v-51h-227c-1 -12 -2 -22 -2 -30c0 -13 1 -24 3 -34h226v-51h-210
c29 -64 98 -103 177 -103c54 0 102 14 145 42v-66c-45 -27 -97 -41 -156 -41c-57 0 -108 15 -152 46s-74 71 -90 122z" />
    <glyph glyph-name="uniF653" unicode="&#xf653;" horiz-adv-x="502" 
d="M283 -10v-107h-66v106c-72 5 -128 21 -168 49v74c58 -39 124 -59 198 -59c83 0 133 29 133 77c0 26 -14 39 -34 51c-9 7 -39 15 -51 18c-6 2 -17 5 -33 8c-15 4 -26 7 -33 8c-115 29 -169 63 -169 146c0 73 57 123 157 132v107h66v-106c61 -5 110 -19 147 -42v-71
c-55 33 -113 49 -173 49c-83 0 -124 -28 -124 -71c0 -23 14 -43 37 -54c16 -5 20 -9 39 -14l22 -6c9 -3 40 -10 48 -11c111 -27 175 -62 175 -145c0 -79 -70 -130 -171 -139z" />
    <glyph glyph-name="commaaccent" unicode="&#xf6c3;" horiz-adv-x="231" 
d="M115 -231h-57l56 177h75z" />
    <glyph glyph-name="cyrbreve" unicode="&#xf6d4;" horiz-adv-x="489" 
d="M254 565c-97 0 -163 60 -164 152h64c0 -55 39 -94 99 -94c59 0 98 39 99 94h63c-1 -92 -69 -152 -161 -152z" />
    <glyph glyph-name="uniF6DC" unicode="&#xf6dc;" 
d="M561 0h-461v67h199v553l-158 -90v71l165 99h65v-633h190v-67z" />
    <glyph glyph-name="uniF721" unicode="&#xf721;" horiz-adv-x="543" 
d="M292 -12c-112 0 -191 39 -191 110c0 30 12 54 36 72h-71v51h406v-51h-251c-31 -13 -46 -32 -46 -56c0 -36 44 -61 124 -61c55 0 105 9 150 27v-66c-44 -17 -96 -26 -157 -26zM265 495c111 0 185 -38 185 -109c0 -28 -16 -55 -33 -64h55v-51h-406v51h267
c29 11 43 27 43 49c0 39 -39 59 -118 59c-54 0 -103 -9 -146 -27v66c44 17 95 26 153 26z" />
    <glyph glyph-name="uniF722" unicode="&#xf722;" horiz-adv-x="591" 
d="M189 0h-72v67h-77v51h77v60h-77v51h77v254h237c113 0 179 -64 179 -155c0 -92 -70 -150 -182 -150h-162v-60h200v-51h-200v-67zM189 420v-191h152c76 0 120 32 120 95s-44 96 -120 96h-152z" />
    <glyph glyph-name="uniF725" unicode="&#xf725;" horiz-adv-x="535" 
d="M123 184h-69v59h69v66c0 119 75 186 207 186c57 0 106 -12 146 -36v-69c-44 27 -90 40 -139 40c-95 0 -142 -42 -142 -127v-60h230v-59h-230v-68c0 -24 -7 -42 -22 -53h310v-63h-429v63h27c28 0 42 24 42 71v50z" />
    <glyph glyph-name="uniF727" unicode="&#xf727;" horiz-adv-x="572" 
d="M322 0h-72v84h-156v51h156v62h-156v51h139l-184 235h84l154 -199l154 199h83l-186 -235h139v-51h-155v-62h155v-51h-155v-84z" />
    <glyph glyph-name="uniF730" unicode="&#xf730;" horiz-adv-x="621" 
d="M123 420c49 50 111 75 188 75s139 -25 188 -75c49 -49 73 -109 73 -179s-24 -130 -73 -179s-111 -74 -188 -74s-139 25 -188 74s-73 109 -73 179s24 130 73 179zM498 241c0 54 -18 99 -53 135s-80 54 -134 54s-99 -18 -134 -54s-53 -81 -53 -135c0 -53 18 -98 53 -134
s80 -54 134 -54s99 18 134 54s53 81 53 134z" />
    <glyph glyph-name="uniF731" unicode="&#xf731;" horiz-adv-x="365" 
d="M264 0h-73v403l-157 -90v71l165 99h65v-483z" />
    <glyph glyph-name="uniF732" unicode="&#xf732;" horiz-adv-x="566" 
d="M504 0h-449v55c109 59 183 101 220 124l45 30c11 7 24 18 39 31c31 28 45 54 45 85c0 63 -53 102 -136 102c-68 0 -135 -28 -200 -83v75c60 51 129 76 206 76c61 0 110 -15 147 -45c38 -30 57 -69 57 -116c0 -84 -62 -139 -157 -192l-135 -75h318v-67z" />
    <glyph glyph-name="uniF733" unicode="&#xf733;" horiz-adv-x="561" 
d="M234 -204c-82 0 -150 17 -204 51v77c58 -39 125 -59 200 -59c54 0 100 14 138 42c39 28 58 67 58 117c0 95 -73 152 -189 152c-29 0 -55 -3 -78 -10v52l214 198h-314v67h415v-55l-208 -193c62 -1 116 -21 163 -59s71 -89 71 -152c0 -69 -25 -125 -76 -166
s-114 -62 -190 -62z" />
    <glyph glyph-name="uniF734" unicode="&#xf734;" horiz-adv-x="633" 
d="M484 -200h-72v200h-376v58l377 425h71v-416h116v-67h-116v-200zM412 389l-289 -322h289v322z" />
    <glyph glyph-name="uniF735" unicode="&#xf735;" horiz-adv-x="594" 
d="M254 -204c-75 0 -139 15 -193 46v75c57 -35 120 -52 191 -52c59 0 108 15 147 46c39 30 58 69 58 117c0 92 -78 155 -199 155c-58 0 -114 -10 -168 -29l45 329h346v-67h-290l-26 -182c33 8 70 12 110 12c74 0 135 -20 183 -60c49 -40 73 -93 73 -158
c0 -69 -26 -124 -79 -167s-119 -65 -198 -65z" />
    <glyph glyph-name="uniF736" unicode="&#xf736;" horiz-adv-x="641" 
d="M336 -12c-82 0 -147 29 -194 86c-47 58 -71 139 -71 242c-4 218 114 397 304 396c57 0 107 -14 148 -43v-71c-44 30 -91 45 -142 45c-166 0 -235 -151 -238 -299c37 63 110 104 205 104c63 0 117 -21 160 -63c44 -41 66 -95 66 -160c0 -69 -23 -125 -69 -170
c-45 -45 -102 -67 -169 -67zM332 57c48 0 88 16 120 47c33 32 49 72 49 121c0 48 -16 86 -49 115s-73 43 -122 43c-41 0 -79 -13 -114 -39s-58 -58 -71 -97c12 -120 78 -190 187 -190z" />
    <glyph glyph-name="uniF737" unicode="&#xf737;" horiz-adv-x="541" 
d="M185 -200h-78l312 616h-377v67h462v-55z" />
    <glyph glyph-name="uniF738" unicode="&#xf738;" horiz-adv-x="646" 
d="M439 369c92 -24 150 -89 150 -178c0 -61 -25 -111 -76 -148s-114 -55 -190 -55c-75 0 -139 18 -190 55s-76 87 -76 148c0 89 59 154 151 178c-71 29 -116 85 -116 160c0 54 22 98 66 132s99 51 165 51c67 0 122 -17 166 -51s66 -78 66 -132c0 -75 -45 -131 -116 -160z
M162 523c0 -37 15 -67 46 -90s69 -34 115 -34c93 0 162 51 162 124c0 37 -16 68 -47 91s-69 35 -115 35s-84 -12 -115 -35s-46 -54 -46 -91zM323 51c55 0 100 14 137 41c37 28 56 62 56 103c0 42 -18 76 -55 102s-83 39 -138 39s-100 -13 -137 -39s-55 -60 -55 -102
c0 -41 18 -75 55 -103c37 -27 83 -41 137 -41z" />
    <glyph glyph-name="uniF739" unicode="&#xf739;" horiz-adv-x="640" 
d="M306 495c82 0 147 -29 194 -87c47 -57 71 -138 71 -241c0 -112 -27 -202 -81 -269c-54 -68 -128 -102 -223 -102c-57 0 -107 14 -148 43v71c44 -30 91 -45 142 -45c79 0 138 26 177 77s60 117 61 197c-37 -63 -110 -104 -205 -104c-63 0 -117 21 -161 62
c-43 42 -65 96 -65 161c0 69 23 125 68 170c46 45 103 67 170 67zM310 426c-48 0 -88 -16 -121 -48c-32 -31 -48 -71 -48 -120c0 -48 16 -86 49 -115s73 -43 122 -43c41 0 79 13 114 39s58 58 71 97c-12 120 -78 190 -187 190z" />
    <glyph glyph-name="atilde.alt" 
d="M480 406v77h72v-483h-72v77c-45 -59 -107 -89 -187 -89c-71 0 -130 25 -175 74s-68 109 -68 179c0 71 23 131 68 180s104 74 175 74c80 0 142 -30 187 -89zM480 162v159c-28 64 -97 109 -170 109c-53 0 -98 -18 -133 -55c-35 -36 -53 -81 -53 -134s18 -98 53 -134
s80 -54 133 -54c73 0 141 46 170 109zM385 589c-19 0 -43 9 -74 28s-52 28 -64 28c-25 0 -38 -17 -41 -52h-49c3 64 36 110 87 110c19 0 43 -9 74 -28s53 -28 64 -28c27 0 34 19 41 52h49c-1 -64 -35 -110 -87 -110z" />
    <glyph glyph-name="uni041F_uni0418" horiz-adv-x="1246" 
d="M173 0h-74v700h549v-576l435 576h65v-700h-73v578l-438 -578h-63v633h-401v-633z" />
    <glyph glyph-name="uni043F_uni0438" horiz-adv-x="980" 
d="M514 0h-67v420h-290v-420h-72v483h434v-377l309 377h67v-483h-72v376z" />
    <glyph glyph-name="T_h" horiz-adv-x="1089" 
d="M351 0h-74v633h-241v67h600v-291c51 57 115 86 193 86c120 0 184 -74 184 -201v-294h-72v278c0 127 -78 149 -137 149c-33 0 -65 -10 -97 -31c-31 -20 -55 -43 -71 -70v-326h-72v633h-213v-633z" />
    <glyph glyph-name="f_j" horiz-adv-x="601" 
d="M361 -204c-35 0 -64 6 -85 18v66c22 -13 45 -19 70 -19c57 0 85 32 85 97v462h-236v-420h-72v420h-96v63h96v81c0 88 49 144 138 144c40 0 74 -6 102 -19v-66c-31 13 -59 20 -84 20c-56 0 -84 -31 -84 -93v-67h308v-536c0 -104 -58 -151 -142 -151zM466 598
c-28 0 -50 22 -50 51s22 51 50 51c29 0 52 -22 52 -51s-23 -51 -52 -51z" />
    <glyph glyph-name="adieresis.alt" 
d="M480 406v77h72v-483h-72v77c-45 -59 -107 -89 -187 -89c-71 0 -130 25 -175 74s-68 109 -68 179c0 71 23 131 68 180s104 74 175 74c80 0 142 -30 187 -89zM480 162v159c-28 64 -97 109 -170 109c-53 0 -98 -18 -133 -55c-35 -36 -53 -81 -53 -134s18 -98 53 -134
s80 -54 133 -54c73 0 141 46 170 109zM178 612c-17 19 -17 50 0 67c19 19 50 19 67 0c19 -17 19 -48 0 -67c-17 -17 -48 -17 -67 0zM378 612c-17 19 -17 50 0 67c19 19 50 19 67 0c19 -17 19 -48 0 -67c-17 -17 -48 -17 -67 0z" />
    <glyph glyph-name="uniF64E.mono" 
d="M140 156h-79v51h67c-1 15 -2 26 -2 35c0 7 1 17 2 29h-67v51h77c15 51 45 93 90 125s96 48 155 48c56 0 105 -12 146 -35v-67c-44 25 -89 37 -136 37c-80 0 -149 -41 -180 -108h213v-51h-227c-1 -12 -2 -22 -2 -30c0 -13 1 -24 3 -34h226v-51h-210
c29 -64 98 -103 177 -103c54 0 102 14 145 42v-66c-45 -27 -97 -41 -156 -41c-57 0 -108 15 -152 46s-74 71 -90 122z" />
    <glyph glyph-name="agrave.alt" 
d="M480 406v77h72v-483h-72v77c-45 -59 -107 -89 -187 -89c-71 0 -130 25 -175 74s-68 109 -68 179c0 71 23 131 68 180s104 74 175 74c80 0 142 -30 187 -89zM480 162v159c-28 64 -97 109 -170 109c-53 0 -98 -18 -133 -55c-35 -36 -53 -81 -53 -134s18 -98 53 -134
s80 -54 133 -54c73 0 141 46 170 109zM377 576h-69l-118 134h91z" />
    <glyph glyph-name="aacute.alt" 
d="M480 406v77h72v-483h-72v77c-45 -59 -107 -89 -187 -89c-71 0 -130 25 -175 74s-68 109 -68 179c0 71 23 131 68 180s104 74 175 74c80 0 142 -30 187 -89zM480 162v159c-28 64 -97 109 -170 109c-53 0 -98 -18 -133 -55c-35 -36 -53 -81 -53 -134s18 -98 53 -134
s80 -54 133 -54c73 0 141 46 170 109zM317 576h-70l96 134h92z" />
    <glyph glyph-name="franclow.mono" 
d="M210 0h-72v67h-77v51h77v365h387v-63h-315v-154h250v-63h-250v-85h131v-51h-131v-67z" />
    <glyph glyph-name="cyrbreve.cap" horiz-adv-x="561" 
d="M259 749c-100 0 -166 60 -167 152h64c0 -55 40 -94 103 -94c60 0 100 39 101 94h64c-1 -46 -17 -83 -48 -111c-31 -27 -70 -41 -117 -41z" />
    <glyph glyph-name="f.alt01" horiz-adv-x="353" 
d="M157 420v-420h-72v564c0 88 49 144 138 144c40 0 74 -6 102 -19v-66c-31 13 -59 20 -84 20c-56 0 -84 -31 -84 -93v-67h168v-63h-168z" />
    <glyph glyph-name="idieresis_idieresis" horiz-adv-x="496" 
d="M403 0h-72v483h72v-483zM214 612c-17 19 -17 50 0 67c19 19 50 19 67 0c19 -17 19 -48 0 -67c-17 -17 -48 -17 -67 0zM165 0h-72v483h72v-483zM-4 612c-19 19 -19 50 0 67c19 19 47 19 66 0c19 -17 19 -48 0 -67c-19 -17 -47 -17 -66 0zM434 612c-19 19 -19 50 0 67
c19 19 47 19 66 0c19 -17 19 -48 0 -67c-19 -17 -47 -17 -66 0z" />
    <glyph glyph-name="uni0438_uni0439" horiz-adv-x="993" 
d="M152 0h-67v483h72v-377l309 377h67v-377l308 377h67v-483h-71v376l-311 -376h-65v376zM684 558c-97 0 -162 60 -163 153h64c0 -56 38 -95 99 -95c59 0 98 39 98 95h64c0 -46 -15 -83 -46 -111s-69 -42 -116 -42z" />
    <glyph glyph-name="uniF727.mono" 
d="M354 0h-72v84h-156v51h156v62h-156v51h139l-184 235h84l154 -199l154 199h83l-186 -235h139v-51h-155v-62h155v-51h-155v-84z" />
    <glyph glyph-name="pesolow.mono" 
d="M163 0h-72v293h-75v63h75v127h244c100 0 163 -50 178 -127h70v-63h-69c-13 -81 -81 -131 -182 -131h-169v-162zM322 420h-159v-195h159c76 0 121 35 121 98c0 61 -45 97 -121 97z" />
    <glyph glyph-name="acircumflex.alt" 
d="M480 406v77h72v-483h-72v77c-45 -59 -107 -89 -187 -89c-71 0 -130 25 -175 74s-68 109 -68 179c0 71 23 131 68 180s104 74 175 74c80 0 142 -30 187 -89zM480 162v159c-28 64 -97 109 -170 109c-53 0 -98 -18 -133 -55c-35 -36 -53 -81 -53 -134s18 -98 53 -134
s80 -54 133 -54c73 0 141 46 170 109zM232 576h-71l112 134h73l110 -134h-71l-77 92z" />
    <glyph glyph-name="uni20B4.mono" 
d="M107 143c0 49 18 89 55 120h-90v63h483v-63h-293c-53 -28 -79 -64 -79 -107c0 -66 53 -99 159 -99c66 0 124 13 175 39v-73c-52 -23 -113 -35 -184 -35c-141 0 -226 59 -226 155zM555 395h-483v63h317c39 23 58 53 58 90c0 63 -51 95 -153 95c-59 0 -115 -12 -166 -35v71
c45 22 103 33 173 33c141 0 223 -62 223 -155c0 -41 -14 -74 -43 -99h74v-63z" />
    <glyph glyph-name="aring.alt" 
d="M480 406v77h72v-483h-72v77c-45 -59 -107 -89 -187 -89c-71 0 -130 25 -175 74s-68 109 -68 179c0 71 23 131 68 180s104 74 175 74c80 0 142 -30 187 -89zM480 162v159c-28 64 -97 109 -170 109c-53 0 -98 -18 -133 -55c-35 -36 -53 -81 -53 -134s18 -98 53 -134
s80 -54 133 -54c73 0 141 46 170 109zM242 714c37 37 99 37 136 0s37 -99 0 -136s-99 -37 -136 0s-37 99 0 136zM310 590c32 0 56 25 56 56c0 32 -24 56 -56 56c-31 0 -56 -24 -56 -56c0 -31 25 -56 56 -56z" />
    <glyph glyph-name="amacron.alt" 
d="M480 406v77h72v-483h-72v77c-45 -59 -107 -89 -187 -89c-71 0 -130 25 -175 74s-68 109 -68 179c0 71 23 131 68 180s104 74 175 74c80 0 142 -30 187 -89zM480 162v159c-28 64 -97 109 -170 109c-53 0 -98 -18 -133 -55c-35 -36 -53 -81 -53 -134s18 -98 53 -134
s80 -54 133 -54c73 0 141 46 170 109zM442 618h-252v55h252v-55z" />
    <glyph glyph-name="uni0418_uni0419" horiz-adv-x="1270" 
d="M161 0h-62v700h73v-576l435 576h65v-576l435 576h65v-700h-73v578l-438 -578h-62v578zM886 745c-97 0 -166 61 -167 153h64c0 -56 41 -95 102 -95c60 0 102 39 102 95h64c0 -92 -69 -153 -165 -153z" />
    <glyph glyph-name="uniF721.mono" 
d="M330 -12c-112 0 -191 39 -191 110c0 30 12 54 36 72h-71v51h406v-51h-251c-31 -13 -46 -32 -46 -56c0 -36 44 -61 124 -61c55 0 105 9 150 27v-66c-44 -17 -96 -26 -157 -26zM303 495c111 0 185 -38 185 -109c0 -28 -16 -55 -33 -64h55v-51h-406v51h267
c29 11 43 27 43 49c0 39 -39 59 -118 59c-54 0 -103 -9 -146 -27v66c44 17 95 26 153 26z" />
    <glyph glyph-name="uniF725.mono" 
d="M157 184h-69v59h69v66c0 119 75 186 207 186c57 0 106 -12 146 -36v-69c-44 27 -90 40 -139 40c-95 0 -142 -42 -142 -127v-60h230v-59h-230v-68c0 -24 -7 -42 -22 -53h310v-63h-429v63h27c28 0 42 24 42 71v50z" />
    <glyph glyph-name="tilde.cap" horiz-adv-x="519" 
d="M334 772c-19 0 -43 9 -74 28s-52 29 -64 29c-25 0 -38 -18 -41 -53h-49c3 63 36 110 87 110c19 0 43 -9 74 -28s53 -28 64 -28c27 0 34 19 41 52h49c-1 -64 -35 -110 -87 -110z" />
    <glyph glyph-name="Euro.mono" horiz-adv-x="644" 
d="M111 409h-83v63h95c19 72 56 130 110 174s120 66 199 66c67 0 124 -16 173 -49v-73c-50 35 -105 53 -166 53c-116 0 -204 -66 -237 -171h251v-63h-266c-3 -16 -4 -33 -4 -52c0 -18 1 -32 2 -41h268v-63h-258c27 -120 113 -196 244 -196c72 0 133 22 182 66v-76
c-51 -39 -114 -59 -189 -59c-83 0 -153 24 -208 72c-55 49 -90 113 -106 193h-90v63h82c-1 9 -2 23 -2 41c0 17 1 34 3 52z" />
    <glyph glyph-name="sterling.mono" horiz-adv-x="623" 
d="M544 0h-470v67h20c41 0 52 33 52 86v142h-72v67h72v124c0 143 85 226 229 226c64 0 118 -14 163 -43v-73c-44 31 -95 47 -153 47c-107 0 -165 -59 -165 -167v-114h274v-67h-274v-173c0 -25 -8 -44 -24 -55h348v-67z" />
    <glyph glyph-name="yen.mono" horiz-adv-x="638" 
d="M356 0h-74v141h-209v63h209v93h-209v63h184l-229 340h86l207 -312l207 312h83l-229 -340h184v-63h-210v-93h210v-63h-210v-141z" />
    <glyph glyph-name="dollar.mono" 
d="M351 -10v-103l-74 1v102c-93 6 -166 30 -221 72v83c27 -23 63 -44 109 -62c47 -17 95 -26 145 -26c109 0 189 51 189 132c5 44 -28 77 -58 95c-8 6 -22 13 -42 20l-44 15c-10 3 -28 9 -53 16c-31 9 -56 16 -74 22s-39 14 -62 25s-40 23 -52 35c-24 25 -44 65 -44 114
c0 97 76 168 207 179v103h74v-103c67 -6 127 -25 179 -56v-76c-69 43 -141 65 -216 65c-112 0 -169 -50 -169 -114c-5 -35 23 -62 45 -79c6 -5 17 -10 33 -16l34 -13l43 -12l42 -12c29 -9 52 -16 69 -22s38 -15 61 -27s41 -25 54 -38c27 -25 49 -69 49 -120
c0 -57 -21 -104 -64 -139c-42 -35 -95 -55 -160 -61z" />
    <glyph glyph-name="uniF653.mono" 
d="M351 -10v-107h-66v106c-72 5 -128 21 -168 49v74c58 -39 124 -59 198 -59c83 0 133 29 133 77c0 26 -14 39 -34 51c-9 7 -39 15 -51 18c-6 2 -17 5 -33 8c-15 4 -26 7 -33 8c-115 29 -169 63 -169 146c0 73 57 123 157 132v107h66v-106c61 -5 110 -19 147 -42v-71
c-55 33 -113 49 -173 49c-83 0 -124 -28 -124 -71c0 -23 14 -43 37 -54c16 -5 20 -9 39 -14l22 -6c9 -3 40 -10 48 -11c111 -27 175 -62 175 -145c0 -79 -70 -130 -171 -139z" />
    <glyph glyph-name="uniF722.mono" 
d="M210 0h-72v67h-77v51h77v60h-77v51h77v254h237c113 0 179 -64 179 -155c0 -92 -70 -150 -182 -150h-162v-60h200v-51h-200v-67zM210 420v-191h152c76 0 120 32 120 95s-44 96 -120 96h-152z" />
    <glyph glyph-name="f_f_t" horiz-adv-x="1028" 
d="M195 420v-420h-72v420h-96v63h96v81c0 88 49 144 138 144c40 0 74 -6 102 -19v-66c-31 13 -59 20 -84 20c-56 0 -84 -31 -84 -93v-67h236v81c0 88 49 144 138 144c40 0 74 -6 102 -19v-66c-31 13 -59 20 -84 20c-56 0 -84 -31 -84 -93v-67h236v149h72v-149h169v-63h-169
v-261c0 -38 6 -65 19 -80s35 -23 65 -23s56 7 79 20v-66c-21 -15 -54 -22 -99 -22c-92 0 -136 58 -136 149v283h-236v-420h-72v420h-236z" />
    <glyph glyph-name="aogonek.alt" 
d="M573 -195c-69 0 -112 42 -112 99c0 35 13 67 40 96h-21v77c-45 -59 -107 -89 -187 -89c-71 0 -130 25 -175 74s-68 109 -68 179c0 71 23 131 68 180s104 74 175 74c80 0 142 -30 187 -89v77h72v-483c-25 -26 -37 -54 -37 -83c0 -39 28 -65 69 -65c11 0 25 2 40 7v-48
c-13 -4 -30 -6 -51 -6zM480 162v159c-28 64 -97 109 -170 109c-53 0 -98 -18 -133 -55c-35 -36 -53 -81 -53 -134s18 -98 53 -134s80 -54 133 -54c73 0 141 46 170 109z" />
    <glyph glyph-name="abreve.alt" 
d="M480 406v77h72v-483h-72v77c-45 -59 -107 -89 -187 -89c-71 0 -130 25 -175 74s-68 109 -68 179c0 71 23 131 68 180s104 74 175 74c80 0 142 -30 187 -89zM480 162v159c-28 64 -97 109 -170 109c-53 0 -98 -18 -133 -55c-35 -36 -53 -81 -53 -134s18 -98 53 -134
s80 -54 133 -54c73 0 141 46 170 109zM313 570c-39 0 -71 13 -98 39c-27 27 -40 60 -41 101h57c1 -49 35 -86 82 -86c45 0 80 37 81 86h57c-1 -40 -15 -73 -42 -100s-59 -40 -96 -40z" />
    <glyph glyph-name="gcircumflex.alt" horiz-adv-x="617" 
d="M295 495c61 0 113 -18 154 -55l132 56v-61l-94 -43c19 -30 28 -63 28 -98c0 -41 -11 -77 -34 -110c45 -43 67 -95 67 -158s-24 -117 -71 -162s-107 -68 -180 -68c-69 0 -128 21 -176 62s-73 95 -75 160h74c1 -45 19 -82 52 -112s75 -45 125 -45c51 0 93 16 127 48
s51 71 51 117c0 43 -14 80 -42 110c-39 -28 -85 -42 -138 -42c-65 0 -119 19 -160 58s-61 87 -61 142s20 103 61 142s95 59 160 59zM295 159c43 0 78 13 106 38c29 26 43 58 43 97s-14 71 -43 97c-28 26 -63 39 -106 39s-79 -13 -108 -39s-43 -58 -43 -97s14 -71 43 -97
c29 -25 65 -38 108 -38zM223 576h-71l112 134h73l110 -134h-71l-77 92z" />
    <glyph glyph-name="breve.cap" horiz-adv-x="520" 
d="M120 896h57c1 -49 35 -87 82 -87c45 0 80 38 81 87h57c-1 -41 -14 -74 -41 -101c-27 -26 -59 -39 -97 -39s-71 13 -98 39c-27 27 -40 60 -41 101z" />
    <glyph glyph-name="dotaccent.cap" horiz-adv-x="478" 
d="M202 794c-17 19 -17 47 0 66c19 19 50 19 67 0c19 -19 19 -47 0 -66c-17 -19 -48 -19 -67 0z" />
    <glyph glyph-name="caron.cap" horiz-adv-x="532" 
d="M302 763h-73l-110 133h71l76 -91l77 91h70z" />
    <glyph glyph-name="ring.cap" horiz-adv-x="522" 
d="M259 926c52 0 95 -43 95 -96s-43 -96 -95 -96c-53 0 -97 43 -97 96s44 96 97 96zM259 774c31 0 55 25 55 56c0 32 -24 56 -55 56c-32 0 -57 -24 -57 -56c0 -31 25 -56 57 -56z" />
    <glyph glyph-name="grave.cap" horiz-adv-x="517" 
d="M335 763h-70l-118 133h92z" />
    <glyph glyph-name="acute.cap" horiz-adv-x="492" 
d="M220 763h-69l95 133h92z" />
    <glyph glyph-name="macron.cap" horiz-adv-x="533" 
d="M390 802h-252v55h252v-55z" />
    <glyph glyph-name="gbreve.alt" horiz-adv-x="617" 
d="M295 495c61 0 113 -18 154 -55l132 56v-61l-94 -43c19 -30 28 -63 28 -98c0 -41 -11 -77 -34 -110c45 -43 67 -95 67 -158s-24 -117 -71 -162s-107 -68 -180 -68c-69 0 -128 21 -176 62s-73 95 -75 160h74c1 -45 19 -82 52 -112s75 -45 125 -45c51 0 93 16 127 48
s51 71 51 117c0 43 -14 80 -42 110c-39 -28 -85 -42 -138 -42c-65 0 -119 19 -160 58s-61 87 -61 142s20 103 61 142s95 59 160 59zM295 159c43 0 78 13 106 38c29 26 43 58 43 97s-14 71 -43 97c-28 26 -63 39 -106 39s-79 -13 -108 -39s-43 -58 -43 -97s14 -71 43 -97
c29 -25 65 -38 108 -38zM295 570c-39 0 -71 13 -98 39c-27 27 -40 60 -41 101h57c1 -49 35 -86 82 -86c45 0 80 37 81 86h57c-1 -40 -15 -73 -42 -100s-59 -40 -96 -40z" />
    <glyph glyph-name="gdotaccent.alt" horiz-adv-x="617" 
d="M295 495c61 0 113 -18 154 -55l132 56v-61l-94 -43c19 -30 28 -63 28 -98c0 -41 -11 -77 -34 -110c45 -43 67 -95 67 -158s-24 -117 -71 -162s-107 -68 -180 -68c-69 0 -128 21 -176 62s-73 95 -75 160h74c1 -45 19 -82 52 -112s75 -45 125 -45c51 0 93 16 127 48
s51 71 51 117c0 43 -14 80 -42 110c-39 -28 -85 -42 -138 -42c-65 0 -119 19 -160 58s-61 87 -61 142s20 103 61 142s95 59 160 59zM295 159c43 0 78 13 106 38c29 26 43 58 43 97s-14 71 -43 97c-28 26 -63 39 -106 39s-79 -13 -108 -39s-43 -58 -43 -97s14 -71 43 -97
c29 -25 65 -38 108 -38zM262 612c-19 19 -19 50 0 67c19 19 47 19 66 0c19 -17 19 -48 0 -67c-19 -17 -47 -17 -66 0z" />
    <glyph glyph-name="gcommaaccent.alt" horiz-adv-x="617" 
d="M295 495c61 0 113 -18 154 -55l132 56v-61l-94 -43c19 -30 28 -63 28 -98c0 -41 -11 -77 -34 -110c45 -43 67 -95 67 -158s-24 -117 -71 -162s-107 -68 -180 -68c-69 0 -128 21 -176 62s-73 95 -75 160h74c1 -45 19 -82 52 -112s75 -45 125 -45c51 0 93 16 127 48
s51 71 51 117c0 43 -14 80 -42 110c-39 -28 -85 -42 -138 -42c-65 0 -119 19 -160 58s-61 87 -61 142s20 103 61 142s95 59 160 59zM295 159c43 0 78 13 106 38c29 26 43 58 43 97s-14 71 -43 97c-28 26 -63 39 -106 39s-79 -13 -108 -39s-43 -58 -43 -97s14 -71 43 -97
c29 -25 65 -38 108 -38zM307 734h57l-56 -177h-75z" />
    <glyph glyph-name="uni0438_uni043D" horiz-adv-x="986" 
d="M152 0h-67v483h72v-377l309 377h67v-203h296v203h72v-483h-72v215h-296v-215h-72v376z" />
    <glyph glyph-name="uni0418_uni041D" horiz-adv-x="1261" 
d="M161 0h-62v700h73v-575l435 575h65v-291h418v291h73v-700h-73v342h-418v-342h-73v577z" />
    <glyph glyph-name="Q.alt01" horiz-adv-x="850" 
d="M774 350c0 -96 -30 -178 -89 -246l90 -104h-83l-53 61c-63 -49 -135 -73 -217 -73c-101 0 -185 34 -252 103s-100 156 -100 259s33 189 100 258s151 104 252 104s184 -35 251 -104s101 -155 101 -258zM422 57c65 0 121 20 170 59l-179 207h84l139 -162
c42 54 63 117 63 189c0 83 -27 153 -80 209s-119 84 -197 84s-144 -28 -197 -84s-80 -126 -80 -209s27 -153 80 -209s119 -84 197 -84z" />
    <glyph glyph-name="dieresis.cap" horiz-adv-x="514" 
d="M132 794c-19 19 -19 50 0 67c19 19 47 19 66 0c19 -17 19 -48 0 -67c-19 -17 -47 -17 -66 0zM332 794c-19 19 -19 50 0 67c19 19 47 19 66 0c19 -17 19 -48 0 -67c-19 -17 -47 -17 -66 0z" />
    <glyph glyph-name="uni043D_uni0438" horiz-adv-x="986" 
d="M157 0h-72v483h72v-203h297v203h71v-377l309 377h67v-483h-71v375l-309 -375h-67v215h-297v-215z" />
    <glyph glyph-name="circumflex.cap" horiz-adv-x="521" 
d="M182 763h-71l111 133h72l111 -133h-71l-76 92z" />
    <glyph glyph-name="Q.alt02" horiz-adv-x="850" 
d="M774 350c0 -95 -29 -177 -87 -244s-132 -105 -222 -115c15 -4 54 -20 117 -48s113 -42 150 -42c27 0 51 7 70 20v-68c-19 -11 -43 -17 -74 -17c-107 -4 -256 104 -333 100c-58 0 -108 -20 -150 -60v73c27 22 60 38 99 47c-81 17 -147 58 -198 123s-76 142 -76 231
c0 103 33 189 100 258s151 104 252 104s184 -35 251 -104s101 -155 101 -258zM225 141c53 -56 119 -84 197 -84s144 28 197 84s80 126 80 209s-27 153 -80 209s-119 84 -197 84s-144 -28 -197 -84s-80 -126 -80 -209s27 -153 80 -209z" />
    <glyph glyph-name="franc.mono" 
d="M182 0h-74v148h-114v63h114v489h477v-67h-403v-233h328v-67h-328v-122h174v-63h-174v-148z" />
    <glyph glyph-name="t_t" horiz-adv-x="738" 
d="M277 -12c-92 0 -136 58 -136 149v283h-114v63h114v149h72v-149h236v149h72v-149h169v-63h-169v-261c0 -38 6 -65 19 -80s35 -23 65 -23s56 7 79 20v-66c-21 -15 -54 -22 -99 -22c-92 0 -136 58 -136 149v283h-236v-261c0 -38 6 -65 19 -80s35 -23 65 -23s56 7 79 20v-66
c-21 -15 -54 -22 -99 -22z" />
    <glyph glyph-name="lira.mono" 
d="M551 0h-470v67h19c41 0 53 33 53 86v67h-72v63h72v93h-72v63h72v48c0 143 85 226 229 226c64 0 118 -14 163 -43v-73c-44 31 -95 47 -153 47c-107 0 -165 -58 -165 -167v-38h254v-63h-254v-93h254v-63h-254v-98c0 -25 -8 -44 -24 -55h348v-67z" />
    <glyph glyph-name="t.alt" horiz-adv-x="366" 
d="M213 -12c-92 0 -136 60 -136 149v495h72v-149h169v-63h-169v-261c0 -38 6 -65 19 -80s35 -23 65 -23s56 7 79 20v-66c-21 -15 -54 -22 -99 -22z" />
    <glyph glyph-name="hungarumlaut.cap" horiz-adv-x="574" 
d="M355 763h-70l96 133h91zM183 763h-70l96 133h92z" />
    <glyph glyph-name="peseta.mono" 
d="M63 472h-74v63h74v165h295c127 0 208 -65 221 -165h67v-63h-68c-15 -99 -95 -163 -220 -163h-221v-309h-74v472zM137 633v-257h216c97 0 155 47 155 128c0 83 -58 129 -155 129h-216z" />
    <glyph glyph-name="uni041D_uni0418" horiz-adv-x="1261" 
d="M172 0h-73v700h73v-291h418v291h73v-576l435 576h65v-700h-73v578l-438 -578h-62v342h-418v-342z" />
    <glyph glyph-name="twothirds.mono" horiz-adv-x="841" 
d="M309 322h-268v46l121 110c51 47 71 74 71 109c0 36 -29 60 -73 60c-38 0 -74 -14 -109 -43v63c33 25 71 38 114 38c36 0 67 -10 93 -31s39 -47 39 -80c0 -52 -25 -91 -84 -144l-78 -75h174v-53zM654 -5c-47 0 -86 10 -116 29v58c37 -21 74 -32 111 -32c51 0 92 29 92 74
c0 41 -32 69 -87 69c-19 0 -36 -3 -50 -8v41l105 99h-157v53h238v-47l-101 -96c61 -5 116 -42 116 -113c0 -38 -15 -69 -44 -92s-64 -35 -107 -35zM261 0h-69l413 700h68z" />
    <glyph glyph-name="onethird.mono" horiz-adv-x="841" 
d="M216 0h-69l413 700h68zM225 322h-63v312l-104 -58v63l106 61h61v-378zM633 -5c-47 0 -86 10 -116 29v58c37 -21 74 -32 111 -32c51 0 92 29 92 74c0 41 -32 69 -87 69c-19 0 -36 -3 -50 -8v41l105 99h-157v53h238v-47l-101 -96c61 -5 116 -42 116 -113
c0 -38 -15 -69 -44 -92s-64 -35 -107 -35z" />
    <glyph glyph-name="seveneighths.mono" horiz-adv-x="861" 
d="M642 -5c-87 0 -152 43 -152 111c0 44 30 79 75 96c-33 13 -55 44 -55 79c0 61 56 102 132 102s131 -41 131 -102c0 -35 -22 -66 -55 -79c45 -17 75 -52 75 -96c0 -68 -66 -111 -151 -111zM642 46c51 0 88 28 88 65c0 40 -36 66 -88 66s-89 -26 -89 -66
c0 -37 37 -65 89 -65zM642 220c43 0 72 23 72 56s-31 57 -72 57c-43 0 -74 -24 -74 -57s30 -56 74 -56zM170 322h-69l166 325h-192v53h263v-49zM218 0h-69l413 700h68z" />
    <glyph glyph-name="uni2155.mono" horiz-adv-x="841" 
d="M615 -5c-41 0 -78 9 -109 26v59c35 -20 70 -30 107 -30c53 0 95 30 95 75c0 40 -37 70 -93 70c-34 0 -65 -5 -94 -15l25 198h200v-53h-153l-10 -86c10 3 25 5 46 5c83 0 142 -47 142 -119c0 -80 -68 -130 -156 -130zM236 322h-63v312l-104 -58v63l106 61h61v-378zM226 0
h-69l413 700h68z" />
    <glyph glyph-name="uni2156.mono" horiz-adv-x="841" 
d="M269 0h-69l413 700h68zM318 322h-268v46l121 110c51 47 71 74 71 109c0 36 -29 60 -73 60c-38 0 -74 -14 -109 -43v63c33 25 71 38 114 38c36 0 67 -10 93 -31s39 -47 39 -80c0 -52 -25 -91 -84 -144l-78 -75h174v-53zM634 -5c-41 0 -78 9 -109 26v59
c35 -20 70 -30 107 -30c53 0 95 30 95 75c0 40 -37 70 -93 70c-33 0 -65 -5 -94 -15l25 198h200v-53h-153l-10 -86c10 3 25 5 46 5c83 0 142 -47 142 -119c0 -80 -68 -130 -156 -130z" />
    <glyph glyph-name="uni2157.mono" horiz-adv-x="841" 
d="M250 0h-69l413 700h68zM638 -5c-41 0 -78 9 -109 26v59c35 -20 70 -30 107 -30c53 0 95 30 95 75c0 40 -37 70 -93 70c-33 0 -65 -5 -94 -15l25 198h200v-53h-153l-10 -86c10 3 25 5 46 5c83 0 142 -47 142 -119c0 -80 -68 -130 -156 -130zM161 317c-47 0 -86 10 -116 29
v58c37 -21 74 -32 111 -32c51 0 92 29 92 74c0 41 -32 69 -87 69c-19 0 -36 -3 -50 -8v41l105 99h-157v53h238v-47l-101 -96c61 -5 116 -42 116 -113c0 -38 -15 -69 -44 -92s-64 -35 -107 -35z" />
    <glyph glyph-name="uni2158.mono" horiz-adv-x="841" 
d="M639 -5c-41 0 -78 9 -109 26v59c35 -20 70 -30 107 -30c53 0 95 30 95 75c0 40 -37 70 -93 70c-34 0 -65 -5 -94 -15l25 198h200v-53h-153l-10 -86c10 3 25 5 46 5c83 0 142 -47 142 -119c0 -80 -68 -130 -156 -130zM304 322h-61v98h-197v45l196 235h62v-229h59v-51h-59
v-98zM243 625l-130 -154h130v154zM274 0h-69l413 700h68z" />
    <glyph glyph-name="uni2159.mono" horiz-adv-x="841" 
d="M641 -5c-95 0 -149 71 -149 176c0 60 15 110 45 151c31 41 73 61 127 61c36 0 64 -7 85 -22v-56c-23 16 -50 24 -79 24c-65 0 -112 -50 -115 -127c23 30 56 45 99 45c71 0 124 -50 124 -123c0 -37 -13 -68 -40 -93c-26 -24 -58 -36 -97 -36zM639 46c44 0 76 33 76 78
c0 44 -33 74 -77 74c-35 0 -69 -24 -84 -56c3 -57 36 -96 85 -96zM234 322h-63v312l-104 -58v63l106 61h61v-378zM224 0h-69l413 700h68z" />
    <glyph glyph-name="uni215A.mono" horiz-adv-x="841" 
d="M246 0h-69l413 700h68zM663 -5c-95 0 -149 71 -149 176c0 60 15 110 45 151c31 41 73 61 127 61c36 0 64 -7 85 -22v-56c-23 16 -50 24 -79 24c-65 0 -112 -50 -115 -127c23 30 56 45 99 45c71 0 124 -50 124 -123c0 -37 -13 -68 -40 -93c-26 -24 -58 -36 -97 -36z
M661 46c44 0 76 33 76 78c0 44 -33 74 -77 74c-35 0 -69 -24 -84 -56c3 -57 36 -96 85 -96zM151 317c-41 0 -78 9 -109 26v59c35 -20 70 -30 107 -30c53 0 95 30 95 75c0 40 -37 70 -93 70c-34 0 -65 -5 -94 -15l25 198h200v-53h-153l-10 -86c10 3 25 5 46 5
c83 0 142 -47 142 -119c0 -80 -68 -130 -156 -130z" />
    <glyph glyph-name="fiveeighths.mono" horiz-adv-x="861" 
d="M244 0h-69l413 700h68zM154 317c-41 0 -78 9 -109 26v59c35 -20 70 -30 107 -30c53 0 95 30 95 75c0 40 -37 70 -93 70c-33 0 -65 -5 -94 -15l25 198h200v-53h-153l-10 -86c10 3 25 5 46 5c83 0 142 -47 142 -119c0 -80 -68 -130 -156 -130zM668 -5
c-87 0 -152 43 -152 111c0 44 30 79 75 96c-33 13 -55 44 -55 79c0 61 56 102 132 102s131 -41 131 -102c0 -35 -22 -66 -55 -79c45 -17 75 -52 75 -96c0 -68 -66 -111 -151 -111zM668 46c51 0 88 28 88 65c0 40 -36 66 -88 66s-89 -26 -89 -66c0 -37 37 -65 89 -65z
M668 220c43 0 72 23 72 56s-31 57 -72 57c-43 0 -74 -24 -74 -57s30 -56 74 -56z" />
    <glyph glyph-name="threeeighths.mono" horiz-adv-x="861" 
d="M244 0h-69l413 700h68zM668 -5c-87 0 -152 43 -152 111c0 44 30 79 75 96c-33 13 -55 44 -55 79c0 61 56 102 132 102s131 -41 131 -102c0 -35 -22 -66 -55 -79c45 -17 75 -52 75 -96c0 -68 -66 -111 -151 -111zM668 46c51 0 88 28 88 65c0 40 -36 66 -88 66
s-89 -26 -89 -66c0 -37 37 -65 89 -65zM668 220c43 0 72 23 72 56s-31 57 -72 57c-43 0 -74 -24 -74 -57s30 -56 74 -56zM155 317c-47 0 -86 10 -116 29v58c37 -21 74 -32 111 -32c51 0 92 29 92 74c0 41 -32 69 -87 69c-19 0 -36 -3 -50 -8v41l105 99h-157v53h238v-47
l-101 -96c61 -5 116 -42 116 -113c0 -38 -15 -69 -44 -92s-64 -35 -107 -35z" />
    <glyph glyph-name="oneeighth.mono" horiz-adv-x="861" 
d="M644 -5c-87 0 -152 43 -152 111c0 44 30 79 75 96c-33 13 -55 44 -55 79c0 61 56 102 132 102s131 -41 131 -102c0 -35 -22 -66 -55 -79c45 -17 75 -52 75 -96c0 -68 -66 -111 -151 -111zM644 46c51 0 88 28 88 65c0 40 -36 66 -88 66s-89 -26 -89 -66
c0 -37 37 -65 89 -65zM644 220c43 0 72 23 72 56s-31 57 -72 57c-43 0 -74 -24 -74 -57s30 -56 74 -56zM229 322h-63v312l-104 -58v63l106 61h61v-378zM219 0h-69l413 700h68z" />
    <glyph glyph-name="onequarter.mono" horiz-adv-x="841" 
d="M229 0h-69l413 700h68zM238 322h-63v312l-104 -58v63l106 61h61v-378zM712 0h-61v98h-197v45l196 235h62v-229h59v-51h-59v-98zM651 303l-130 -154h130v154z" />
    <glyph glyph-name="onehalf.mono" horiz-adv-x="841" 
d="M211 0h-69l413 700h68zM220 322h-63v312l-104 -58v63l106 61h61v-378zM786 0h-268v46l121 110c51 47 71 74 71 109c0 36 -29 60 -73 60c-38 0 -74 -14 -109 -43v63c33 25 71 38 114 38c36 0 67 -10 93 -31s39 -47 39 -80c0 -52 -25 -91 -84 -144l-78 -75h174v-53z" />
    <glyph glyph-name="threequarters.mono" horiz-adv-x="841" 
d="M161 317c-47 0 -86 10 -116 29v58c37 -21 74 -32 111 -32c51 0 92 29 92 74c0 41 -32 69 -87 69c-19 0 -36 -3 -50 -8v41l105 99h-157v53h238v-47l-101 -96c61 -5 116 -42 116 -113c0 -38 -15 -69 -44 -92s-64 -35 -107 -35zM733 0h-61v98h-197v45l196 235h62v-229h59
v-51h-59v-98zM672 303l-130 -154h130v154zM249 0h-69l413 700h68z" />
    <glyph glyph-name="Idieresis_Idieresis" horiz-adv-x="538" 
d="M435 0h-74v700h74v-700zM177 0h-74v700h74v-700zM6 794c-17 19 -17 50 0 67c19 19 50 19 67 0c19 -17 19 -48 0 -67c-17 -17 -48 -17 -67 0zM464 794c-17 19 -17 50 0 67c19 19 50 19 67 0c19 -17 19 -48 0 -67c-17 -17 -48 -17 -67 0zM236 794c-19 19 -19 50 0 67
c19 19 47 19 66 0c19 -17 19 -48 0 -67c-19 -17 -47 -17 -66 0z" />
    <glyph glyph-name="O_C" horiz-adv-x="1319" 
d="M1058 -12c-143 0 -263 74 -322 194c-29 -59 -71 -107 -127 -142c-55 -35 -118 -52 -187 -52c-101 0 -185 34 -252 103s-100 156 -100 259s33 189 100 258s151 104 252 104c69 0 132 -18 187 -53c56 -35 98 -82 127 -141c29 59 72 106 129 141s122 53 193 53
c76 0 141 -17 196 -52v-76c-61 39 -126 59 -195 59c-81 0 -148 -28 -203 -84c-55 -55 -82 -125 -82 -209c0 -85 27 -155 82 -210s124 -83 205 -83s150 23 208 70v-77c-57 -41 -127 -62 -211 -62zM225 141c53 -56 119 -84 197 -84s144 28 197 84s80 126 80 209
s-27 153 -80 209s-119 84 -197 84s-144 -28 -197 -84s-80 -126 -80 -209s27 -153 80 -209z" />
    <glyph glyph-name="O_O" horiz-adv-x="1474" 
d="M1051 712c101 0 184 -35 251 -104s101 -155 101 -258s-34 -190 -101 -259s-150 -103 -251 -103c-69 0 -132 17 -188 52s-98 83 -127 142c-29 -59 -71 -107 -127 -142c-55 -35 -118 -52 -187 -52c-101 0 -185 34 -252 103s-100 156 -100 259s33 189 100 258
s151 104 252 104c69 0 132 -18 187 -53c56 -35 98 -82 127 -141c29 59 71 106 127 141s119 53 188 53zM854 141c53 -56 119 -84 197 -84s144 28 197 84s80 126 80 209s-27 153 -80 209s-119 84 -197 84s-144 -28 -197 -84s-80 -126 -80 -209s27 -153 80 -209zM225 141
c53 -56 119 -84 197 -84s144 28 197 84s80 126 80 209s-27 153 -80 209s-119 84 -197 84s-144 -28 -197 -84s-80 -126 -80 -209s27 -153 80 -209z" />
    <glyph glyph-name="o_c" horiz-adv-x="972" 
d="M311 495c99 0 179 -47 223 -120c45 75 126 120 222 120c56 0 105 -12 146 -35v-67c-44 25 -89 37 -136 37c-55 0 -101 -18 -138 -53s-56 -81 -56 -136s19 -100 56 -135s83 -53 138 -53c54 0 102 14 145 42v-66c-45 -27 -97 -41 -156 -41c-95 0 -176 44 -221 119
c-44 -73 -124 -119 -223 -119c-77 0 -139 25 -188 74s-73 109 -73 179s24 130 73 179c49 50 111 75 188 75zM311 53c53 0 98 18 133 53c36 36 54 82 54 138c0 53 -18 97 -54 132c-36 36 -80 54 -133 54c-54 0 -99 -18 -134 -54s-53 -81 -53 -135c0 -53 18 -98 53 -134
s80 -54 134 -54z" />
    <glyph glyph-name="o_o" horiz-adv-x="1069" 
d="M759 495c77 0 139 -25 188 -75c49 -49 73 -109 73 -179s-24 -130 -73 -179s-111 -74 -188 -74c-99 0 -180 47 -224 120c-45 -73 -125 -120 -224 -120c-77 0 -139 25 -188 74s-73 109 -73 179s24 130 73 179c49 50 111 75 188 75c99 0 179 -46 224 -121
c44 75 125 121 224 121zM311 53c53 0 98 18 133 53c36 35 54 80 54 135s-18 100 -54 135c-35 36 -80 54 -133 54c-54 0 -99 -18 -134 -54s-53 -81 -53 -135c0 -53 18 -98 53 -134s80 -54 134 -54zM759 53c54 0 99 18 134 54s53 81 53 134c0 54 -18 99 -53 135
s-80 54 -134 54s-99 -18 -134 -54s-53 -81 -53 -135c0 -55 18 -100 53 -135c36 -35 81 -53 134 -53z" />
    <glyph glyph-name="liralow" horiz-adv-x="542" 
d="M483 0h-429v63h27c28 0 42 20 42 60v26h-69v51h69v62h-69v51h69c0 113 76 182 207 182c57 0 106 -12 146 -36v-68c-46 26 -93 39 -142 39c-95 0 -142 -39 -142 -117h228v-51h-228v-62h228v-51h-228v-33c0 -24 -7 -42 -22 -53h313v-63z" />
    <glyph glyph-name="franclow" horiz-adv-x="532" 
d="M173 0h-72v67h-77v51h77v365h387v-63h-315v-154h250v-63h-250v-85h131v-51h-131v-67z" />
    <glyph glyph-name="pesolow" horiz-adv-x="621" 
d="M163 0h-72v293h-75v63h75v127h244c100 0 163 -50 178 -127h70v-63h-69c-13 -81 -81 -131 -182 -131h-169v-162zM322 420h-159v-195h159c76 0 121 35 121 98c0 61 -45 97 -121 97z" />
    <glyph glyph-name="g.alt" horiz-adv-x="617" 
d="M295 495c61 0 113 -18 154 -55l132 56v-61l-94 -43c19 -30 28 -63 28 -98c0 -41 -11 -77 -34 -110c45 -43 67 -95 67 -158s-24 -117 -71 -162s-107 -68 -180 -68c-69 0 -128 21 -176 62s-73 95 -75 160h74c1 -45 19 -82 52 -112s75 -45 125 -45c51 0 93 16 127 48
s51 71 51 117c0 43 -14 80 -42 110c-39 -28 -85 -42 -138 -42c-65 0 -119 19 -160 58s-61 87 -61 142s20 103 61 142s95 59 160 59zM295 159c43 0 78 13 106 38c29 26 43 58 43 97s-14 71 -43 97c-28 26 -63 39 -106 39s-79 -13 -108 -39s-43 -58 -43 -97s14 -71 43 -97
c29 -25 65 -38 108 -38z" />
    </font>
</defs>
</svg>
